osu file format v14

[General]
AudioFilename: audio.mp3
AudioLeadIn: 0
PreviewTime: 88115
Countdown: 0
SampleSet: Soft
StackLeniency: 0.7
Mode: 2
LetterboxInBreaks: 0
WidescreenStoryboard: 1

[Editor]
DistanceSpacing: 0.8
BeatDivisor: 4
GridSize: 4
TimelineZoom: 2.099999

[Metadata]
Title:Algebra
TitleUnicode:Algebra
Artist:Function Phantom
ArtistUnicode:Function Phantom
Creator:Spectator
Version:AFB's Rain
Source:osu!
Tags:alienflybot AFB Sinnoh CLSW Minato Yukina featured artist dubstep drumstep wub
BeatmapID:1068820
BeatmapSetID:468281

[Difficulty]
HPDrainRate:6
CircleSize:4
OverallDifficulty:9.2
ApproachRate:9.2
SliderMultiplier:1.63
SliderTickRate:2

[Events]
//Background and Video events
0,0,"never_letting_go_by_nanomortis-d9i37dg_.png",0,0
//Break Periods
2,131790,141867
//Storyboard Layer 0 (Background)
//Storyboard Layer 1 (Fail)
//Storyboard Layer 2 (Pass)
//Storyboard Layer 3 (Foreground)
//Storyboard Sound Samples

[TimingPoints]
1421,338.983050847458,4,2,1,40,1,0
1590,-100,4,2,1,20,0,0
12268,-83.3333333333333,4,2,1,30,0,0
17692,-83.3333333333333,4,1,1,10,0,0
18370,-83.3333333333333,4,1,1,15,0,0
19048,-83.3333333333333,4,1,1,20,0,0
19556,-83.3333333333333,4,1,1,30,0,0
20404,-83.3333333333333,4,1,1,35,0,0
21336,-100,4,1,1,40,0,0
21759,-100,4,2,1,50,0,0
21929,-100,4,2,1,5,0,0
22098,-100,4,2,1,50,0,0
22268,-100,4,2,1,5,0,0
22437,-100,4,2,1,50,0,0
22607,-100,4,2,1,5,0,0
22776,-100,4,2,1,40,0,0
23115,-83.3333333333333,4,1,1,50,0,0
44810,-100,4,1,1,50,0,0
60912,-100,4,1,1,20,0,0
62437,-100,4,1,1,15,0,0
65149,-100,4,2,1,30,0,0
65488,-100,4,2,1,5,0,0
65658,-100,4,2,1,25,0,0
65827,-100,4,2,1,20,0,0
65997,-100,4,2,1,15,0,0
66166,-100,4,2,1,10,0,0
66505,-83.3333333333333,4,2,1,50,0,0
80065,-83.3333333333333,4,2,1,55,0,0
82776,-83.3333333333333,4,2,1,60,0,0
85488,-83.3333333333333,4,2,1,65,0,0
86844,-83.3333333333333,4,2,1,70,0,0
87522,-83.3333333333333,4,2,1,75,0,0
88200,-71.4285714285714,4,1,1,70,0,1
88285,-71.4285714285714,4,1,1,70,0,0
109895,-100,4,1,1,60,0,0
120743,-100,4,1,1,25,0,0
130573,-100,4,1,1,20,0,0
130912,-100,4,1,1,15,0,0
131251,-100,4,1,1,10,0,0
131590,-100,4,1,1,25,0,0
142437,-100,4,2,1,5,0,0
143793,-100,4,2,1,10,0,0
145149,-100,4,2,1,15,0,0
146505,-100,4,2,1,20,0,0
147861,-100,4,2,1,25,0,0
149217,-100,4,2,1,30,0,0
150573,-100,4,2,1,35,0,0
151929,-100,4,2,1,40,0,0
152607,-100,4,2,1,10,0,0
153285,-83.3333333333333,4,2,1,50,0,0
169556,-83.3333333333333,4,2,1,50,0,0
170912,-83.3333333333333,4,2,1,55,0,0
172268,-83.3333333333333,4,2,1,60,0,0
172607,-83.3333333333333,4,2,1,65,0,0
172946,-83.3333333333333,4,2,1,70,0,0
173285,-83.3333333333333,4,2,1,75,0,0
173624,-83.3333333333333,4,2,1,80,0,0
173963,-83.3333333333333,4,2,1,60,0,0
174598,-83.3333333333333,4,2,1,65,0,0
174980,-71.4285714285714,4,1,1,70,0,1
175065,-71.4285714285714,4,1,1,70,0,0
196675,-71.4285714285714,4,1,1,75,0,1
196759,-71.4285714285714,4,1,1,75,0,0
212946,-71.4285714285714,4,1,1,50,0,0
214302,-71.4285714285714,4,1,1,55,0,0
215658,-71.4285714285714,4,1,1,60,0,0
215997,-71.4285714285714,4,1,1,65,0,0
216336,-71.4285714285714,4,1,1,70,0,0
216675,-71.4285714285714,4,1,1,75,0,0
217014,-71.4285714285714,4,1,1,80,0,0
217098,-71.4285714285714,4,1,1,60,0,0
218370,-83.3333333333333,4,2,1,50,0,0
231929,-83.3333333333333,4,2,1,55,0,0
234641,-83.3333333333333,4,2,1,60,0,0
237353,-83.3333333333333,4,2,1,65,0,0
238709,-83.3333333333333,4,2,1,70,0,0
239387,-83.3333333333333,4,2,1,75,0,0
240065,-83.3333333333333,4,2,1,60,0,0

[Colours]
Combo1 : 121,111,213
Combo2 : 247,108,125
Combo3 : 243,141,103
Combo4 : 124,186,216

[HitObjects]
324,356,1421,5,4,0:3:0:0:
403,299,1675,1,0,0:0:0:0:
439,206,1929,1,2,0:0:0:0:
412,114,2183,1,0,0:0:0:0:
339,47,2437,1,2,0:0:0:0:
242,42,2692,6,0,L|228:163,1,122.25,0|2,0:0|0:0,0:0:0:0:
352,200,3200,1,0,0:0:0:0:
148,200,3454,2,0,L|134:321,1,122.25,2|0,0:0|0:0,0:0:0:0:
256,360,3962,1,2,0:0:0:0:
92,360,4132,6,0,L|11:350,2,81.5,2|0|0,0:0|0:0|0:0,0:0:0:0:
256,276,4641,2,0,L|175:266,2,81.5,2|0|0,0:0|0:0|0:0,0:0:0:0:
420,192,5149,6,0,L|501:182,2,81.5,2|0|0,0:0|0:0|0:0,0:0:0:0:
256,108,5658,2,0,L|337:98,2,81.5,2|0|0,0:0|0:0|0:0,0:0:0:0:
420,24,6166,5,2,0:0:0:0:
432,104,6336,1,0,0:0:0:0:
444,184,6505,1,0,0:0:0:0:
188,356,6844,5,2,0:0:0:0:
109,299,7098,1,0,0:0:0:0:
73,206,7352,1,2,0:0:0:0:
100,114,7606,1,0,0:0:0:0:
173,47,7860,1,2,0:0:0:0:
270,42,8115,6,0,L|391:56,2,122.25,0|2|0,0:0|0:0|0:0,0:0:0:0:
472,160,8878,2,0,L|351:174,2,122.25,2|0|2,0:0|0:0|0:0,0:0:0:0:
308,360,9556,6,0,L|298:279,1,81.5,2|0,0:0|0:0,0:0:0:0:
216,268,9895,1,0,0:0:0:0:
52,232,10065,2,0,L|62:151,1,81.5,2|0,0:0|0:0,0:0:0:0:
144,140,10404,1,0,0:0:0:0:
308,104,10573,6,0,L|318:23,1,81.5,2|0,0:0|0:0,0:0:0:0:
400,12,10912,1,0,0:0:0:0:
236,76,11082,2,0,L|246:157,1,81.5,2|0,0:0|0:0,0:0:0:0:
328,167,11421,1,0,0:0:0:0:
164,232,11590,6,0,L|83:242,1,81.5,2|0,0:0|0:0,0:0:0:0:
180,316,11929,2,0,L|99:326,1,81.5
384,356,12268,6,0,P|434:306|418:237,1,146.699995523071,2|0,0:0|0:0,0:0:0:0:
349,228,12607,2,0,L|251:216,1,97.799997015381,0|2,0:0|0:0,0:0:0:0:
412,152,12946,1,0,0:0:0:0:
468,143,13031,2,0,P|461:73|402:33,1,146.699995523071,0|2,0:0|0:0,0:0:0:0:
244,60,13454,2,0,L|233:107,1,48.8999985076905
436,152,13793,5,2,0:0:0:0:
316,212,14048,1,0,0:0:0:0:
440,272,14302,1,2,0:0:0:0:
256,336,14556,2,0,L|233:191,1,146.699995523071,0|2,0:0|0:0,0:0:0:0:
56,140,14980,6,0,L|125:70,1,97.799997015381,2|0,0:0|0:0,0:0:0:0:
220,60,15319,1,0,0:0:0:0:
384,216,15488,2,0,L|314:146,1,97.799997015381,2|0,0:0|0:0,0:0:0:0:
220,136,15827,1,0,0:0:0:0:
384,292,15997,6,0,L|482:280,2,97.799997015381,2|0|0,0:0|0:0|0:0,0:0:0:0:
220,212,16505,2,0,L|122:200,2,97.799997015381,2|0|0,0:0|0:0|0:0,0:0:0:0:
384,60,17014,5,2,0:0:0:0:
448,104,17183,1,0,0:0:0:0:
472,180,17353,1,0,0:0:0:0:
444,252,17522,1,0,0:0:0:0:
140,320,17692,5,0,0:0:0:0:
260,280,17946,2,0,L|249:233,1,48.8999985076905,0|8,0:0|0:0,0:0:0:0:
84,280,18200,2,0,P|34:230|50:161,1,146.699995523071,4|0,0:0|0:0,0:0:0:0:
252,136,18709,1,8,0:0:0:0:
132,96,18963,6,0,L|143:49,1,48.8999985076905
308,96,19217,1,0,0:0:0:0:
212,194,19387,2,0,L|177:159,2,48.8999985076905,8|0|4,0:0|0:0|0:0,0:0:0:0:
376,216,19726,2,0,L|307:286,1,97.799997015381,0|4,0:0|0:0,0:0:0:0:
140,288,20065,2,0,L|209:358,1,97.799997015381,8|0,0:0|0:0,0:0:0:0:
444,332,20404,5,4,0:0:0:0:
292,260,20743,1,8,0:0:0:0:
388,248,20912,2,0,P|420:117|295:68,1,293.399991046143,4|8,0:0|0:0,0:0:0:0:
56,116,21759,6,0,L|137:106,1,81.5
300,192,22098,2,0,L|219:182,1,81.5
44,268,22437,2,0,L|125:258,1,81.5
312,344,22776,2,0,L|301:304,1,40.75
228,256,22946,2,0,L|217:216,1,40.75
420,172,23115,6,0,P|482:107|431:33,1,195.599994030762,4|8,0:3|0:0,0:0:0:0:
332,45,23624,1,0,0:0:0:0:
168,68,23793,2,0,L|157:115,1,48.8999985076905
228,132,23963,2,0,L|217:179,1,48.8999985076905
144,196,24132,2,0,L|46:208,1,97.799997015381,8|0,0:0|0:0,0:0:0:0:
144,276,24471,1,4,0:0:0:0:
396,336,24641,6,0,L|431:301,2,48.8999985076905,0|0|8,0:0|0:0|0:0,0:0:0:0:
300,324,24980,1,0,0:0:0:0:
464,232,25149,2,0,L|453:185,1,48.8999985076905
380,168,25319,2,0,L|369:121,1,48.8999985076905
439,104,25488,2,0,P|479:77|489:31,1,97.799997015381,8|0,0:0|0:0,0:0:0:0:
256,36,25827,6,0,L|117:174,1,195.599994030762,4|8,0:0|0:0,0:0:0:0:
216,188,26336,1,0,0:0:0:0:
380,176,26505,1,0,0:0:0:0:
420,212,26590,1,0,0:0:0:0:
432,264,26675,1,0,0:0:0:0:
412,312,26759,1,0,0:0:0:0:
364,340,26844,2,0,L|266:328,1,97.799997015381,8|0,0:0|0:0,0:0:0:0:
32,348,27183,6,0,P|25:255|104:207,1,195.599994030762,4|0,0:2|0:0,0:0:0:0:
204,188,27692,2,0,L|193:141,1,48.8999985076905
36,188,27861,6,0,P|46:93|125:40,1,195.599994030762,4|8,0:2|0:0,0:0:0:0:
224,28,28370,2,0,L|271:39,1,48.8999985076905
432,32,28539,6,0,P|484:105|422:171,1,195.599994030762,4|8,0:2|0:0,0:0:0:0:
324,184,29048,1,0,0:0:0:0:
160,207,29217,2,0,L|171:254,1,48.8999985076905
244,272,29387,2,0,L|255:319,1,48.8999985076905
328,337,29556,2,0,L|426:349,1,97.799997015381,8|0,0:0|0:0,0:0:0:0:
182,335,29895,6,0,P|132:285|148:216,1,146.699995523071,4|0,0:0|0:0,0:0:0:0:
217,207,30234,2,0,L|315:195,1,97.799997015381,8|4,0:0|0:0,0:0:0:0:
148,172,30573,2,0,L|137:125,1,48.8999985076905
208,108,30743,2,0,L|219:61,1,48.8999985076905
148,44,30912,2,0,L|50:32,1,97.799997015381,8|0,0:0|0:0,0:0:0:0:
330,49,31251,6,0,P|380:99|364:168,1,146.699995523071,4|0,0:0|0:0,0:0:0:0:
295,177,31590,2,0,L|197:189,1,97.799997015381,8|4,0:0|0:0,0:0:0:0:
32,212,31929,2,0,P|16:280|66:330,1,146.699995523071
136,340,32268,1,8,0:0:0:0:
388,340,32607,5,4,0:2:0:0:
484,256,32776,1,0,0:0:0:0:
488,204,32861,1,0,0:0:0:0:
468,152,32946,1,8,0:0:0:0:
220,256,33115,5,4,0:2:0:0:
316,172,33284,1,0,0:0:0:0:
308,120,33369,1,0,0:0:0:0:
272,80,33454,1,0,0:0:0:0:
24,172,33624,5,4,0:2:0:0:
44,120,33709,1,0,0:0:0:0:
88,92,33793,1,0,0:0:0:0:
316,36,33963,6,0,L|455:174,1,195.599994030762,4|8,0:3|0:0,0:0:0:0:
356,188,34471,1,0,0:0:0:0:
192,211,34641,1,0,0:0:0:0:
204,264,34726,1,0,0:0:0:0:
236,308,34810,1,0,0:0:0:0:
284,332,34895,1,0,0:0:0:0:
336,332,34980,2,0,L|238:344,1,97.799997015381,8|0,0:0|0:0,0:0:0:0:
336,260,35319,1,4,0:0:0:0:
108,320,35488,6,0,L|73:285,2,48.8999985076905,0|0|8,0:0|0:0|0:0,0:0:0:0:
204,308,35827,1,0,0:0:0:0:
368,216,35997,2,0,L|357:169,1,48.8999985076905
284,152,36166,2,0,L|273:105,1,48.8999985076905
200,88,36336,2,0,L|102:76,1,97.799997015381,8|0,0:0|0:0,0:0:0:0:
400,32,36675,6,0,P|449:108|382:169,1,195.599994030762,4|8,0:0|0:0,0:0:0:0:
285,181,37183,1,0,0:0:0:0:
120,192,37352,2,0,L|109:239,1,48.8999985076905
36,256,37522,2,0,L|47:303,1,48.8999985076905
120,320,37692,2,0,L|218:332,1,97.799997015381,8|0,0:0|0:0,0:0:0:0:
480,348,38031,6,0,P|487:255|408:207,1,195.599994030762,4|0,0:2|0:0,0:0:0:0:
308,188,38539,2,0,L|319:141,1,48.8999985076905
476,188,38709,6,0,P|466:93|387:40,1,195.599994030762,4|8,0:2|0:0,0:0:0:0:
288,28,39218,2,0,L|241:39,1,48.8999985076905
80,31,39387,6,0,P|90:126|169:179,1,195.599994030762,4|8,0:2|0:0,0:0:0:0:
264,168,39895,1,0,0:0:0:0:
100,216,40065,2,0,L|89:263,1,48.8999985076905
16,280,40234,2,0,L|27:327,1,48.8999985076905
100,344,40404,2,0,L|198:332,1,97.799997015381,8|0,0:0|0:0,0:0:0:0:
428,336,40743,6,0,L|445:190,1,146.699995523071,4|0,0:0|0:0,0:0:0:0:
376,180,41082,2,0,L|364:82,1,97.799997015381,8|4,0:0|0:0,0:0:0:0:
200,60,41420,1,0,0:0:0:0:
160,96,41505,1,0,0:0:0:0:
148,148,41590,1,0,0:0:0:0:
168,196,41674,1,0,0:0:0:0:
216,224,41759,2,0,L|314:212,1,97.799997015381,8|0,0:0|0:0,0:0:0:0:
68,48,42098,6,0,P|18:98|34:167,1,146.699995523071,4|0,0:0|0:0,0:0:0:0:
103,176,42437,2,0,L|201:188,1,97.799997015381,8|4,0:0|0:0,0:0:0:0:
366,211,42776,2,0,P|382:279|332:329,1,146.699995523071
262,339,43115,1,8,0:0:0:0:
16,340,43455,5,4,0:2:0:0:
112,256,43625,1,0,0:0:0:0:
120,208,43709,1,0,0:0:0:0:
128,160,43793,1,8,0:0:0:0:
360,256,43963,5,4,0:2:0:0:
264,172,44133,1,0,0:0:0:0:
256,124,44217,1,0,0:0:0:0:
248,76,44301,1,0,0:0:0:0:
480,172,44472,5,4,0:2:0:0:
488,124,44556,1,0,0:0:0:0:
496,76,44640,1,0,0:0:0:0:
504,28,44726,1,0,0:0:0:0:
272,56,44810,6,0,P|197:83|168:156,1,163,4|8,0:3|0:0,0:0:0:0:
327,155,45319,2,0,P|424:215|395:326,1,244.5,4|8,0:0|0:0,0:0:0:0:
144,328,46166,5,4,0:0:0:0:
264,288,46421,2,0,L|254:248,1,40.75,0|8,0:0|0:0,0:0:0:0:
95,207,46675,2,0,P|53:145|103:88,1,163,4|0,0:0|0:0,0:0:0:0:
388,44,47183,1,8,0:0:0:0:
244,64,47522,6,0,P|270:139|343:168,1,163,4|8,0:0|0:0,0:0:0:0:
500,169,48031,2,0,L|489:249,1,81.5,4|0,0:0|0:0,0:0:0:0:
236,249,48539,2,0,L|247:169,1,81.5,8|0,0:0|0:0,0:0:0:0:
144,168,48878,6,0,L|23:151,1,122.25,4|0,0:0|0:0,0:0:0:0:
80,140,49217,1,8,0:0:0:0:
240,100,49387,2,0,P|290:156|248:219,1,163,4|0,0:0|0:0,0:0:0:0:
20,260,49895,1,8,0:0:0:0:
164,328,50234,6,0,P|239:301|268:228,1,163,4|8,0:0|0:0,0:0:0:0:
109,229,50743,2,0,P|12:169|41:58,1,244.5,4|8,0:0|0:0,0:0:0:0:
292,56,51590,5,4,0:0:0:0:
412,96,51844,2,0,L|402:136,1,40.75,0|8,0:0|0:0,0:0:0:0:
244,176,52098,2,0,P|169:203|140:276,1,163,4|0,0:0|0:0,0:0:0:0:
424,320,52607,1,8,0:0:0:0:
280,300,52946,6,0,P|230:244|272:181,1,163,4|8,0:0|0:0,0:0:0:0:
432,180,53454,2,0,L|374:122,1,81.5,4|0,0:0|0:0,0:0:0:0:
120,120,53963,2,0,L|62:62,1,81.5,8|0,0:0|0:0,0:0:0:0:
168,64,54302,6,0,L|289:47,1,122.25,4|0,0:0|0:0,0:0:0:0:
232,36,54641,1,8,0:0:0:0:
72,76,54810,2,0,P|101:149|176:175,1,163,4|0,0:0|0:0,0:0:0:0:
404,156,55319,2,0,L|393:236,1,81.5,8|0,0:0|0:0,0:0:0:0:
232,236,55658,6,0,L|116:352,1,163,4|8,0:0|0:0,0:0:0:0:
275,352,56166,2,0,P|360:278|300:182,1,244.5,4|8,0:0|0:0,0:0:0:0:
48,184,57014,5,4,0:0:0:0:
168,144,57268,2,0,L|208:134,1,40.75,0|8,0:0|0:0,0:0:0:0:
47,55,57522,2,0,P|36:133|96:184,1,163,4|0,0:0|0:0,0:0:0:0:
328,272,58031,1,8,0:0:0:0:
184,252,58370,6,0,L|300:136,1,163,4|8,0:0|0:0,0:0:0:0:
460,136,58878,2,0,P|418:246|306:283,1,244.5,4|8,0:0|0:0,0:0:0:0:
52,320,59726,6,0,L|69:199,1,122.25,4|0,0:0|0:0,0:0:0:0:
128,188,60065,1,8,0:0:0:0:
288,148,60234,2,0,L|172:32,1,163,4|0,0:0|0:0,0:0:0:0:
404,72,60743,1,8,0:0:0:0:
256,148,61082,6,0,L|278:309,1,163,4|8,0:0|0:0,0:0:0:0:
440,308,61590,2,0,L|474:65,1,244.5,4|8,0:0|0:0,0:0:0:0:
236,68,62437,5,4,0:0:0:0:
116,108,62692,2,0,L|76:118,1,40.75,0|8,0:0|0:0,0:0:0:0:
236,196,62946,1,4,0:0:0:0:
76,196,63285,1,0,0:0:0:0:
236,272,63455,1,8,0:0:0:0:
256,148,63793,6,0,L|234:309,1,163,4|8,0:0|0:0,0:0:0:0:
72,308,64301,2,0,L|38:65,1,244.5,4|8,0:0|0:0,0:0:0:0:
192,64,65149,6,0,L|313:81,1,122.25,2|0,0:0|0:0,0:0:0:0:
256,92,65488,1,0,0:0:0:0:
416,115,65658,2,0,P|504:232|388:323,1,326,2|0,0:0|0:0,0:0:0:0:
152,320,66505,6,0,L|141:273,7,48.8999985076905,6|0|0|0|0|0|0|0,0:3|0:0|0:0|0:0|0:0|0:0|0:0|0:0,0:0:0:0:
212,256,67183,6,0,L|247:221,2,48.8999985076905,8|0|2,0:0|0:0|0:0,0:0:0:0:
48,256,67522,2,0,L|13:221,2,48.8999985076905,2|0|2,0:0|0:0|0:0,0:0:0:0:
328,204,67861,6,0,L|397:134,1,97.799997015381,2|0,0:0|0:0,0:0:0:0:
468,116,68115,2,0,L|322:94,1,146.699995523071,2|2,0:0|0:0,0:0:0:0:
488,268,68539,2,0,L|391:254,1,97.799997015381,8|0,0:0|0:0,0:0:0:0:
356,212,68793,1,0,0:0:0:0:
344,160,68878,1,0,0:0:0:0:
356,108,68963,1,0,0:0:0:0:
392,68,69048,1,0,0:0:0:0:
440,48,69132,1,0,0:0:0:0:
260,48,69217,6,0,L|249:95,7,48.8999985076905,2|0|0|0|0|0|0|0,0:3|0:0|0:0|0:0|0:0|0:0|0:0|0:0,0:0:0:0:
176,112,69895,5,8,0:0:0:0:
340,156,70065,2,0,L|329:203,1,48.8999985076905,2|0,0:0|0:0,0:0:0:0:
256,220,70234,2,0,L|159:234,1,97.799997015381,2|2,0:0|0:0,0:0:0:0:
440,307,70573,6,0,P|478:280|489:233,1,97.799997015381,2|0,0:0|0:0,0:0:0:0:
416,216,70827,2,0,L|270:194,1,146.699995523071,2|2,0:0|0:0,0:0:0:0:
104,116,71251,2,0,L|201:102,1,97.799997015381,8|0,0:0|0:0,0:0:0:0:
188,148,71505,2,0,L|199:195,4,48.8999985076905
356,352,71929,5,2,0:3:0:0:
404,332,72014,1,0,0:0:0:0:
440,292,72098,1,0,0:0:0:0:
460,244,72183,1,0,0:0:0:0:
464,192,72268,1,0,0:0:0:0:
448,140,72353,1,0,0:0:0:0:
416,100,72437,1,0,0:0:0:0:
372,72,72522,1,0,0:0:0:0:
300,68,72607,6,0,L|265:33,2,48.8999985076905,8|0|2,0:0|0:0|0:0,0:0:0:0:
464,68,72946,2,0,L|499:33,2,48.8999985076905,2|0|2,0:0|0:0|0:0,0:0:0:0:
184,204,73285,6,0,L|115:134,1,97.799997015381,2|0,0:0|0:0,0:0:0:0:
44,116,73539,2,0,L|190:94,1,146.699995523071,2|2,0:0|0:0,0:0:0:0:
24,268,73963,2,0,L|121:254,1,97.799997015381,8|0,0:0|0:0,0:0:0:0:
156,212,74217,1,0,0:0:0:0:
168,160,74302,1,0,0:0:0:0:
156,108,74387,1,0,0:0:0:0:
120,68,74472,1,0,0:0:0:0:
72,48,74556,1,0,0:0:0:0:
252,48,74641,6,0,L|263:95,7,48.8999985076905,2|0|0|0|0|0|0|0,0:3|0:0|0:0|0:0|0:0|0:0|0:0|0:0,0:0:0:0:
336,112,75319,5,8,0:0:0:0:
492,156,75488,2,0,L|503:203,1,48.8999985076905,2|0,0:0|0:0,0:0:0:0:
432,220,75658,2,0,L|335:234,1,97.799997015381,2|2,0:0|0:0,0:0:0:0:
72,304,75997,6,0,P|65:257|76:210,1,97.799997015381,8|0,0:0|0:0,0:0:0:0:
244,212,76336,2,0,L|255:165,1,48.8999985076905
328,148,76505,2,0,L|317:101,1,48.8999985076905
160,60,76675,2,0,L|63:46,1,97.799997015381,8|0,0:1|0:0,0:0:0:0:
168,144,77014,2,0,L|215:155,1,48.8999985076905,8|0,1:0|1:0,0:0:0:0:
64,240,77183,2,0,L|17:251,1,48.8999985076905,8|0,1:0|1:0,0:0:0:0:
256,352,77353,5,6,0:3:0:0:
308,332,77437,1,0,0:0:0:0:
328,284,77522,1,0,0:0:0:0:
312,232,77607,1,0,0:0:0:0:
264,208,77692,1,0,0:0:0:0:
216,184,77776,1,0,0:0:0:0:
200,132,77861,1,0,0:0:0:0:
220,84,77946,1,0,0:0:0:0:
292,80,78031,5,8,0:0:0:0:
280,128,78115,1,0,0:0:0:0:
268,176,78200,1,2,0:0:0:0:
104,80,78370,1,2,0:0:0:0:
116,128,78454,1,0,0:0:0:0:
128,176,78539,1,2,0:0:0:0:
408,348,78709,6,0,P|415:301|404:254,1,97.799997015381,2|0,0:0|0:0,0:0:0:0:
324,236,78963,2,0,P|288:176|328:119,1,146.699995523071,2|2,0:0|0:0,0:0:0:0:
492,64,79387,2,0,L|395:50,1,97.799997015381,8|0,0:0|0:0,0:0:0:0:
384,96,79641,2,0,L|395:143,4,48.8999985076905
168,352,80065,5,2,0:3:0:0:
120,332,80150,1,0,0:0:0:0:
84,292,80234,1,0,0:0:0:0:
64,244,80319,1,0,0:0:0:0:
60,192,80404,1,0,0:0:0:0:
76,140,80489,1,0,0:0:0:0:
108,100,80573,1,0,0:0:0:0:
152,72,80658,1,0,0:0:0:0:
224,68,80743,5,8,0:0:0:0:
60,112,80912,2,0,L|25:147,1,48.8999985076905,2|0,0:0|0:0,0:0:0:0:
96,180,81082,2,0,L|193:194,1,97.799997015381,2|2,0:0|0:0,0:0:0:0:
452,307,81421,6,0,P|490:280|501:233,1,97.799997015381,2|0,0:0|0:0,0:0:0:0:
428,216,81675,2,0,L|282:194,1,146.699995523071,2|2,0:0|0:0,0:0:0:0:
448,116,82098,2,0,L|351:102,1,97.799997015381,8|0,0:0|0:0,0:0:0:0:
316,144,82352,1,0,0:0:0:0:
304,196,82437,1,0,0:0:0:0:
316,248,82522,1,0,0:0:0:0:
352,288,82607,1,0,0:0:0:0:
400,308,82691,1,0,0:0:0:0:
256,352,82776,5,2,0:3:0:0:
204,332,82860,1,0,0:0:0:0:
184,284,82945,1,0,0:0:0:0:
200,232,83030,1,0,0:0:0:0:
248,208,83115,1,0,0:0:0:0:
296,184,83199,1,0,0:0:0:0:
312,132,83284,1,0,0:0:0:0:
292,84,83369,1,0,0:0:0:0:
220,80,83454,5,8,0:0:0:0:
184,112,83538,1,0,0:0:0:0:
148,144,83624,1,2,0:0:0:0:
312,80,83793,1,2,0:0:0:0:
348,112,83877,1,0,0:0:0:0:
384,144,83963,1,2,0:0:0:0:
104,348,84132,6,0,P|97:301|108:254,1,97.799997015381,2|0,0:0|0:0,0:0:0:0:
188,236,84386,2,0,P|224:176|184:119,1,146.699995523071,2|2,0:0|0:0,0:0:0:0:
20,64,84810,2,0,L|117:50,1,97.799997015381,8|0,0:0|0:0,0:0:0:0:
128,96,85065,2,0,L|117:143,4,48.8999985076905
344,352,85488,5,2,0:3:0:0:
392,332,85573,1,0,0:0:0:0:
428,292,85657,1,0,0:0:0:0:
448,244,85742,1,0,0:0:0:0:
452,192,85827,1,0,0:0:0:0:
436,140,85912,1,0,0:0:0:0:
404,100,85996,1,0,0:0:0:0:
360,72,86081,1,0,0:0:0:0:
288,68,86166,5,8,0:0:0:0:
124,112,86336,1,2,0:0:0:0:
144,164,86421,1,0,0:0:0:0:
188,196,86505,1,2,0:0:0:0:
24,240,86675,1,2,0:0:0:0:
316,348,86844,6,0,P|323:301|312:254,1,97.799997015381,4|0,0:0|0:0,0:0:0:0:
212,236,87183,2,0,L|201:189,1,48.8999985076905,0|8,0:0|0:1,0:0:0:0:
100,124,87437,1,0,0:0:0:0:
280,288,87522,6,0,P|291:240|284:192,1,97.799997015381,4|0,0:0|0:0,0:0:0:0:
236,180,87776,1,0,0:0:0:0:
84,112,87861,2,0,L|131:101,1,48.8999985076905,8|8,0:1|0:1,0:0:0:0:
332,32,88031,2,0,L|285:21,1,48.8999985076905,8|8,0:1|0:1,0:0:0:0:
80,28,88200,6,0,P|16:84|48:160,1,171.149994776917,12|0,0:3|0:0,0:0:0:0:
83,165,88539,1,8,0:0:0:0:
196,180,88709,2,0,L|179:292,1,114.099996517944,0|2,0:0|2:0,0:0:0:0:
15,336,89048,2,0,L|95:255,1,114.099996517944,4|8,0:0|0:0,0:0:0:0:
348,236,89387,6,0,L|387:194,2,57.0499982589722,2|0|0,2:0|0:0|0:0,0:0:0:0:
184,192,89726,2,0,L|145:150,1,57.0499982589722
184,108,89895,2,0,L|296:91,1,114.099996517944,2|0,2:0|2:0,0:0:0:0:
460,48,90234,1,4,0:0:0:0:
304,100,90404,2,0,L|317:155,1,57.0499982589722,4|0,0:0|0:0,0:0:0:0:
392,168,90573,2,0,L|504:185,1,114.099996517944,8|0,0:0|0:0,0:0:0:0:
180,320,90912,6,0,P|189:236|252:182,1,171.149994776917,4|0,0:0|0:0,0:0:0:0:
328,168,91251,2,0,L|216:151,1,114.099996517944,8|4,0:0|0:0,0:0:0:0:
52,108,91589,1,0,0:0:0:0:
208,160,91760,2,0,L|247:202,1,57.0499982589722,4|0,0:0|0:0,0:0:0:0:
208,244,91929,2,0,L|96:261,1,114.099996517944,8|0,0:0|0:0,0:0:0:0:
256,319,92268,6,0,P|338:302|399:244,1,171.149994776917,4|0,0:0|0:0,0:0:0:0:
208,160,92607,2,0,L|191:48,1,114.099996517944,8|4,0:0|0:0,0:0:0:0:
304,32,92946,1,0,0:0:0:0:
56,80,93115,5,4,0:0:0:0:
23,119,93200,1,0,0:0:0:0:
13,169,93285,1,0,0:0:0:0:
27,220,93370,1,0,0:0:0:0:
62,254,93454,1,0,0:0:0:0:
110,269,93539,1,0,0:0:0:0:
308,335,93624,6,0,P|293:253|232:194,1,171.149994776917,4|0,0:2|0:0,0:0:0:0:
184,188,93963,1,8,0:0:0:0:
300,140,94132,2,0,L|380:59,1,114.099996517944,0|2,0:0|2:0,0:0:0:0:
212,140,94471,2,0,L|132:59,1,114.099996517944,4|8,0:0|0:0,0:0:0:0:
484,36,94810,5,2,2:0:0:0:
464,88,94895,1,0,0:0:0:0:
420,120,94979,1,0,0:0:0:0:
256,164,95149,1,0,0:0:0:0:
212,196,95233,1,0,0:0:0:0:
192,248,95319,2,0,L|304:265,1,114.099996517944,8|0,0:0|0:0,0:0:0:0:
140,328,95658,1,0,0:0:0:0:
296,276,95827,1,4,0:0:0:0:
276,224,95911,1,0,0:0:0:0:
232,192,95997,2,0,L|120:175,1,114.099996517944,8|0,0:0|0:0,0:0:0:0:
280,172,96336,6,0,P|356:138|393:63,1,171.149994776917,4|0,0:0|0:0,0:0:0:0:
316,48,96675,2,0,L|236:129,1,114.099996517944,8|4,0:0|0:0,0:0:0:0:
72,176,97014,2,0,L|152:257,1,114.099996517944,2|4,2:0|0:0,0:0:0:0:
404,276,97353,1,8,0:0:0:0:
292,260,97522,2,0,L|279:205,1,57.0499982589722,4|0,0:0|0:0,0:0:0:0:
424,184,97692,6,0,P|449:134|452:78,1,114.099996517944,4|0,2:0|0:0,0:0:0:0:
288,32,98031,1,8,0:0:0:0:
232,40,98115,1,0,0:0:0:0:
176,48,98200,1,4,0:0:0:0:
404,308,98370,6,0,P|401:252|376:201,1,114.099996517944,4|4,2:0|0:0,0:0:0:0:
212,156,98709,2,0,L|100:139,1,114.099996517944,8|8,0:0|0:1,0:0:0:0:
156,128,98963,1,8,0:1:0:0:
428,352,99048,6,0,P|492:296|460:220,1,171.149994776917,12|0,0:3|0:0,0:0:0:0:
425,215,99387,1,8,0:0:0:0:
316,204,99557,2,0,L|333:92,1,114.099996517944,0|2,0:0|2:0,0:0:0:0:
497,48,99896,2,0,L|417:129,1,114.099996517944,4|8,0:0|0:0,0:0:0:0:
164,236,100234,6,0,L|125:194,2,57.0499982589722,2|0|0,2:0|0:0|0:0,0:0:0:0:
328,192,100573,2,0,L|367:150,1,57.0499982589722
328,108,100742,2,0,L|216:91,1,114.099996517944,8|0,0:0|0:0,0:0:0:0:
52,48,101081,1,0,0:0:0:0:
208,100,101251,2,0,L|195:155,1,57.0499982589722,4|0,0:0|0:0,0:0:0:0:
120,168,101421,2,0,L|8:185,1,114.099996517944,8|0,0:0|0:0,0:0:0:0:
332,320,101759,6,0,P|323:236|260:182,1,171.149994776917,4|0,0:0|0:0,0:0:0:0:
184,168,102098,2,0,L|296:151,1,114.099996517944,8|4,0:0|0:0,0:0:0:0:
460,108,102436,1,0,0:0:0:0:
304,160,102607,2,0,L|265:202,1,57.0499982589722
304,244,102776,2,0,L|416:261,1,114.099996517944,8|0,0:0|0:0,0:0:0:0:
256,319,103115,6,0,P|174:302|113:244,1,171.149994776917
304,160,103454,2,0,L|321:48,1,114.099996517944,8|0,0:0|0:0,0:0:0:0:
208,32,103793,1,0,0:0:0:0:
456,80,103962,5,4,0:0:0:0:
489,119,104047,1,0,0:0:0:0:
499,169,104132,1,0,0:0:0:0:
485,220,104217,1,0,0:0:0:0:
450,254,104301,1,0,0:0:0:0:
402,269,104386,1,0,0:0:0:0:
180,336,104471,6,0,P|98:319|37:261,1,171.149994776917,4|0,0:2|0:0,0:0:0:0:
80,252,104810,1,8,0:0:0:0:
196,168,104980,2,0,L|276:87,1,114.099996517944,0|2,0:0|2:0,0:0:0:0:
108,84,105319,2,0,L|188:3,1,114.099996517944,4|8,0:0|0:0,0:0:0:0:
416,4,105658,5,2,2:0:0:0:
460,36,105742,1,0,0:0:0:0:
480,88,105827,1,0,0:0:0:0:
316,132,105997,1,0,0:0:0:0:
296,184,106082,1,0,0:0:0:0:
252,216,106166,2,0,L|140:233,1,114.099996517944,8|0,0:0|0:0,0:0:0:0:
304,296,106506,1,0,0:0:0:0:
148,244,106675,1,4,0:0:0:0:
104,212,106759,1,0,0:0:0:0:
84,160,106844,2,0,L|196:143,1,114.099996517944,8|0,0:0|0:0,0:0:0:0:
480,32,107183,6,0,P|443:107|366:141,1,171.149994776917,4|0,0:0|0:0,0:0:0:0:
288,156,107522,2,0,L|400:173,1,114.099996517944,8|4,0:0|0:0,0:0:0:0:
300,232,107861,1,2,2:0:0:0:
136,324,108030,1,4,0:0:0:0:
436,312,108200,2,0,P|450:257|438:202,1,114.099996517944,8|0,0:0|0:0,0:0:0:0:
336,140,108539,1,4,0:0:0:0:
108,12,108709,6,0,L|121:67,1,57.0499982589722,8|0,0:0|0:0,0:0:0:0:
284,104,108963,2,0,L|271:159,1,57.0499982589722,8|0,0:0|0:0,0:0:0:0:
132,344,109217,2,0,L|119:289,1,57.0499982589722,8|0,0:0|0:0,0:0:0:0:
36,272,109387,2,0,L|49:217,1,57.0499982589722,8|0,0:0|0:0,0:0:0:0:
192,184,109556,2,0,L|247:171,1,57.0499982589722,8|0,0:0|0:0,0:0:0:0:
392,136,109726,2,0,L|379:81,1,57.0499982589722,8|0,0:0|0:0,0:0:0:0:
120,60,109895,6,0,P|45:87|16:160,1,163,4|8,0:3|0:0,0:0:0:0:
176,160,110404,2,0,L|348:332,1,244.5,4|8,1:0|0:0,0:0:0:0:
96,336,111251,5,4,0:0:0:0:
216,296,111505,2,0,L|206:256,1,40.75,0|8,0:0|0:0,0:0:0:0:
48,216,111759,2,0,P|77:142|152:116,1,163,4|0,1:0|0:0,0:0:0:0:
436,76,112268,1,8,0:0:0:0:
292,96,112607,6,0,P|250:158|300:215,1,163,4|8,0:0|0:0,0:0:0:0:
460,216,113115,2,0,L|402:274,1,81.5,4|0,0:0|0:0,0:0:0:0:
148,272,113624,2,0,L|206:214,1,81.5,8|0,0:0|0:0,0:0:0:0:
308,216,113963,6,0,L|429:199,1,122.25,4|0,0:0|0:0,0:0:0:0:
372,188,114302,1,8,0:0:0:0:
212,148,114471,2,0,P|137:121|108:47,1,163,4|0,0:0|0:0,0:0:0:0:
404,48,114980,1,8,0:0:0:0:
256,48,115319,6,0,L|140:163,1,163,4|8,0:0|0:0,0:0:0:0:
299,163,115827,2,0,P|326:273|223:317,1,244.5,4|8,0:0|0:0,0:0:0:0:
476,320,116675,5,0,0:0:0:0:
368,256,116929,2,0,L|368:215,1,40.75
208,152,117183,2,0,P|236:78|311:51,1,163
52,52,117691,1,0,0:0:0:0:
200,52,118031,6,0,L|316:167,1,163,4|8,0:0|0:0,0:0:0:0:
156,168,118539,2,0,L|98:226,1,81.5,4|0,0:0|0:0,0:0:0:0:
352,224,119048,2,0,L|294:166,1,81.5,8|0,0:0|0:0,0:0:0:0:
191,168,119387,6,0,P|203:226|255:255,1,122.25,4|0,0:0|0:0,0:0:0:0:
312,268,119726,1,8,0:0:0:0:
472,256,119895,2,0,P|442:329|367:355,1,163,4|0,0:0|0:0,0:0:0:0:
84,352,120404,1,8,0:0:0:0:
232,352,120743,5,4,3:0:0:0:
392,288,121082,2,0,L|381:208,1,81.5,8|4,0:0|0:0,0:0:0:0:
152,88,121759,1,8,0:0:0:0:
404,88,122098,5,4,0:0:0:0:
284,128,122353,2,0,L|324:138,1,40.75,0|8,0:0|0:0,0:0:0:0:
484,192,122607,1,4,0:0:0:0:
460,352,122946,1,0,0:0:0:0:
188,352,123115,1,8,0:0:0:0:
280,352,123454,5,4,0:0:0:0:
120,288,123793,2,0,L|131:208,1,81.5,8|4,0:0|0:0,0:0:0:0:
360,88,124470,1,8,0:0:0:0:
108,88,124809,5,4,0:0:0:0:
228,128,125064,2,0,L|188:138,1,40.75,0|8,0:0|0:0,0:0:0:0:
28,192,125318,1,4,0:0:0:0:
52,352,125657,1,0,0:0:0:0:
324,352,125826,1,8,0:0:0:0:
416,352,126166,5,4,0:0:0:0:
256,288,126505,2,0,L|198:230,1,81.5,8|4,0:0|0:0,0:0:0:0:
428,112,127183,1,8,0:0:0:0:
208,112,127522,5,4,0:0:0:0:
88,152,127776,2,0,L|98:192,1,40.75,0|8,0:0|0:0,0:0:0:0:
256,244,128031,1,4,0:0:0:0:
176,216,128370,1,0,0:0:0:0:
448,216,128539,1,8,0:0:0:0:
356,216,128878,5,4,0:0:0:0:
196,152,129217,2,0,L|254:94,1,81.5,8|4,0:0|0:0,0:0:0:0:
484,92,129895,2,0,L|426:150,1,81.5,8|4,0:0|0:0,0:0:0:0:
256,192,130234,12,0,131421,0:0:0:0:
196,152,131590,5,4,3:0:0:0:
256,192,142437,12,0,152946,0:0:0:0:
172,344,153285,6,0,L|183:297,3,48.8999985076905,6|0|0|0,3:0|0:0|0:0|0:0,0:0:0:0:
256,280,153624,2,0,L|267:233,3,48.8999985076905
340,216,153963,6,0,L|375:181,2,48.8999985076905,8|0|2,0:0|0:0|0:0,0:0:0:0:
176,216,154302,2,0,L|141:181,2,48.8999985076905,2|0|2,0:0|0:0|0:0,0:0:0:0:
472,216,154641,6,0,P|485:169|474:121,1,97.799997015381,2|0,0:0|0:0,0:0:0:0:
400,108,154895,2,0,L|254:86,1,146.699995523071,2|2,0:0|0:0,0:0:0:0:
420,320,155319,2,0,P|433:273|422:225,1,97.799997015381,8|0,0:0|0:0,0:0:0:0:
348,212,155573,2,0,L|337:165,4,48.8999985076905
156,32,155997,5,2,3:0:0:0:
108,52,156082,1,0,0:0:0:0:
72,92,156166,1,0,0:0:0:0:
52,140,156251,1,0,0:0:0:0:
48,192,156336,1,0,0:0:0:0:
64,244,156421,1,0,0:0:0:0:
96,284,156505,1,0,0:0:0:0:
140,312,156590,1,0,0:0:0:0:
212,316,156675,5,8,0:0:0:0:
48,272,156844,2,0,L|59:225,1,48.8999985076905,2|0,0:0|0:0,0:0:0:0:
132,208,157014,2,0,L|229:194,1,97.799997015381,2|2,0:0|0:0,0:0:0:0:
464,148,157353,6,0,L|395:78,1,97.799997015381,2|0,0:0|0:0,0:0:0:0:
324,60,157607,2,0,L|470:38,1,146.699995523071,2|2,0:0|0:0,0:0:0:0:
304,272,158031,2,0,L|207:258,1,97.799997015381,8|0,0:0|0:0,0:0:0:0:
160,236,158284,1,0,0:0:0:0:
124,196,158369,1,0,0:0:0:0:
112,144,158454,1,0,0:0:0:0:
124,92,158539,1,0,0:0:0:0:
157,50,158624,1,0,0:0:0:0:
340,344,158709,5,2,3:0:0:0:
364,296,158794,1,0,0:0:0:0:
360,244,158879,1,0,0:0:0:0:
328,200,158964,1,0,0:0:0:0:
256,280,159048,2,0,L|245:233,3,48.8999985076905
172,216,159387,6,0,L|137:181,2,48.8999985076905,8|0|2,0:0|0:0|0:0,0:0:0:0:
336,216,159726,2,0,L|371:181,2,48.8999985076905,2|0|2,0:0|0:0|0:0,0:0:0:0:
40,216,160065,6,0,P|27:169|38:121,1,97.799997015381,2|0,0:0|0:0,0:0:0:0:
112,108,160319,2,0,L|258:86,1,146.699995523071,2|2,0:0|0:0,0:0:0:0:
92,320,160743,2,0,P|79:273|90:225,1,97.799997015381,8|0,0:0|0:0,0:0:0:0:
164,212,160997,2,0,L|175:165,4,48.8999985076905
356,32,161421,5,2,3:0:0:0:
408,52,161505,1,0,0:0:0:0:
428,100,161590,1,0,0:0:0:0:
412,152,161675,1,0,0:0:0:0:
364,176,161760,1,0,0:0:0:0:
316,200,161844,1,0,0:0:0:0:
300,252,161929,1,0,0:0:0:0:
320,300,162014,1,0,0:0:0:0:
392,304,162099,5,8,0:0:0:0:
228,260,162268,1,2,0:0:0:0:
216,212,162353,1,0,0:0:0:0:
204,164,162437,2,0,L|107:150,1,97.799997015381,2|2,0:0|0:0,0:0:0:0:
440,304,162776,6,0,P|447:257|436:210,1,97.799997015381,8|0,0:0|0:0,0:0:0:0:
268,212,163115,2,0,L|257:165,1,48.8999985076905
184,148,163285,2,0,L|195:101,1,48.8999985076905
352,60,163454,2,0,L|449:46,1,97.799997015381,8|0,0:0|0:0,0:0:0:0:
344,144,163793,2,0,L|297:155,1,48.8999985076905,8|0,1:0|0:0,0:0:0:0:
448,240,163963,2,0,L|495:251,1,48.8999985076905,8|0,1:0|0:0,0:0:0:0:
256,352,164132,6,0,L|245:305,1,48.8999985076905,6|0,3:0|0:0,0:0:0:0:
172,288,164302,2,0,L|161:241,1,48.8999985076905
232,224,164471,1,0,0:0:0:0:
256,176,164556,1,0,0:0:0:0:
252,124,164641,1,0,0:0:0:0:
220,80,164726,1,0,0:0:0:0:
148,64,164810,5,8,0:0:0:0:
160,112,164894,1,0,0:0:0:0:
172,160,164980,1,2,0:0:0:0:
336,64,165149,1,2,0:0:0:0:
324,112,165233,1,0,0:0:0:0:
312,160,165318,1,2,0:0:0:0:
36,300,165488,6,0,P|47:253|86:224,1,97.799997015381,2|0,0:0|0:0,0:0:0:0:
159,208,165743,2,0,P|209:156|198:86,1,146.699995523071,2|2,0:0|0:0,0:0:0:0:
32,160,166166,6,0,P|43:113|82:84,1,97.799997015381,8|0,0:0|0:0,0:0:0:0:
120,124,166420,1,0,0:0:0:0:
132,176,166505,1,0,0:0:0:0:
120,228,166590,1,0,0:0:0:0:
84,268,166675,1,0,0:0:0:0:
36,288,166759,1,0,0:0:0:0:
256,352,166844,6,0,L|267:305,1,48.8999985076905,2|0,3:0|0:0,0:0:0:0:
340,288,167014,2,0,L|351:241,1,48.8999985076905
280,224,167183,1,0,0:0:0:0:
256,176,167268,1,0,0:0:0:0:
260,124,167353,1,0,0:0:0:0:
292,80,167438,1,0,0:0:0:0:
364,64,167523,5,8,0:0:0:0:
376,112,167607,1,0,0:0:0:0:
388,160,167692,1,2,0:0:0:0:
224,64,167862,1,2,0:0:0:0:
212,112,167946,1,0,0:0:0:0:
200,160,168031,1,2,0:0:0:0:
476,300,168200,6,0,P|465:253|426:224,1,97.799997015381,2|0,0:0|0:0,0:0:0:0:
353,208,168454,2,0,P|303:156|314:86,1,146.699995523071,2|2,0:0|0:0,0:0:0:0:
480,160,168878,6,0,P|469:113|430:84,1,97.799997015381,8|0,0:0|0:0,0:0:0:0:
392,124,169132,1,0,0:0:0:0:
380,176,169217,1,0,0:0:0:0:
392,228,169302,1,0,0:0:0:0:
428,268,169387,1,0,0:0:0:0:
476,288,169471,1,0,0:0:0:0:
256,332,169556,6,0,L|159:318,1,97.799997015381,4|0,2:0|0:0,0:0:0:0:
28,224,169895,2,0,L|14:127,1,97.799997015381,2|2,0:0|0:0,0:0:0:0:
256,52,170234,6,0,L|353:66,1,97.799997015381,4|0,2:0|0:0,0:0:0:0:
484,160,170573,2,0,L|498:257,1,97.799997015381,2|2,0:0|0:0,0:0:0:0:
160,336,170912,6,0,L|257:322,1,97.799997015381,4|0,2:0|0:0,0:0:0:0:
124,228,171251,2,0,L|110:131,1,97.799997015381,2|2,0:0|0:0,0:0:0:0:
352,48,171590,6,0,L|255:62,1,97.799997015381,4|0,2:0|0:0,0:0:0:0:
388,156,171929,2,0,L|402:253,1,97.799997015381,2|2,0:0|0:0,0:0:0:0:
160,336,172268,5,4,2:0:0:0:
120,300,172353,1,0,0:0:0:0:
104,248,172437,1,0,0:0:0:0:
124,196,172522,1,0,0:0:0:0:
352,336,172607,5,4,2:0:0:0:
392,300,172692,1,0,0:0:0:0:
408,248,172776,1,0,0:0:0:0:
388,196,172861,1,0,0:0:0:0:
88,196,172946,5,4,2:0:0:0:
68,144,173031,1,0,0:0:0:0:
84,92,173115,1,0,0:0:0:0:
124,56,173200,1,0,0:0:0:0:
424,196,173285,5,4,2:0:0:0:
444,144,173370,1,0,0:0:0:0:
428,92,173454,1,0,0:0:0:0:
388,56,173539,1,0,0:0:0:0:
124,56,173624,5,4,2:0:0:0:
292,56,173963,2,0,L|303:103,1,48.8999985076905
232,120,174132,2,0,L|221:167,1,48.8999985076905
292,184,174302,2,0,L|389:198,1,97.799997015381,8|0,2:0|0:0,0:0:0:0:
236,248,174641,2,0,L|212:290,1,48.8999985076905,8|8,0:0|0:0,0:0:0:0:
424,308,174810,2,0,L|447:350,1,48.8999985076905,8|8,0:0|0:0,0:0:0:0:
236,352,174980,6,0,P|154:335|93:277,1,171.149994776917,12|0,0:3|0:0,0:0:0:0:
136,268,175319,1,8,0:0:0:0:
240,200,175488,2,0,L|320:119,1,114.099996517944,0|2,0:0|2:0,0:0:0:0:
156,76,175827,2,0,L|76:157,1,114.099996517944,4|8,0:0|0:0,0:0:0:0:
328,256,176167,5,2,2:0:0:0:
344,200,176251,1,0,0:0:0:0:
360,144,176336,1,0,0:0:0:0:
196,144,176506,1,0,0:0:0:0:
180,200,176590,1,0,0:0:0:0:
256,212,176675,2,0,L|368:229,1,114.099996517944,8|0,0:0|0:0,0:0:0:0:
208,272,177014,1,0,0:0:0:0:
48,316,177184,2,0,L|9:274,1,57.0499982589722,4|0,0:0|0:0,0:0:0:0:
48,232,177353,2,0,L|160:215,1,114.099996517944,8|0,0:0|0:0,0:0:0:0:
416,340,177692,6,0,L|392:170,1,171.149994776917,4|0,0:0|0:0,0:0:0:0:
316,156,178031,2,0,L|333:268,1,114.099996517944,8|4,0:0|0:0,0:0:0:0:
496,312,178370,1,0,0:0:0:0:
340,260,178540,2,0,L|301:218,1,57.0499982589722,4|0,0:0|0:0,0:0:0:0:
340,176,178709,2,0,L|452:159,1,114.099996517944,8|0,0:0|0:0,0:0:0:0:
316,100,179048,6,0,P|256:41|173:24,1,171.149994776917,4|0,0:0|0:0,0:0:0:0:
16,136,179387,2,0,L|33:248,1,114.099996517944,8|4,0:0|0:0,0:0:0:0:
148,264,179726,1,0,0:0:0:0:
396,356,179895,6,0,L|410:300,5,57.0499982589722,4|0|0|0|0|0,0:0|0:0|0:0|0:0|0:0|0:0,0:0:0:0:
144,356,180404,6,0,P|159:274|220:215,1,171.149994776917,4|0,0:2|0:0,0:0:0:0:
268,209,180743,1,8,0:0:0:0:
388,172,180912,2,0,L|308:91,1,114.099996517944,0|2,0:0|2:0,0:0:0:0:
144,156,181251,2,0,L|64:75,1,114.099996517944,4|8,0:0|0:0,0:0:0:0:
360,36,181590,5,2,2:0:0:0:
404,68,181674,1,0,0:0:0:0:
424,120,181759,1,0,0:0:0:0:
260,164,181929,1,0,0:0:0:0:
280,216,182014,1,0,0:0:0:0:
324,248,182098,2,0,L|436:265,1,114.099996517944,8|0,0:0|0:0,0:0:0:0:
276,308,182437,1,0,0:0:0:0:
116,352,182608,1,4,0:0:0:0:
72,320,182692,1,0,0:0:0:0:
52,268,182776,2,0,L|164:251,1,114.099996517944,8|0,0:0|0:0,0:0:0:0:
324,248,183115,6,0,P|401:213|437:138,1,171.149994776917,4|0,0:0|0:0,0:0:0:0:
360,124,183454,2,0,L|280:43,1,114.099996517944,8|4,0:0|0:0,0:0:0:0:
116,251,183793,2,0,L|133:139,1,114.099996517944,2|4,2:0|0:0,0:0:0:0:
404,276,184132,1,8,0:0:0:0:
292,260,184302,2,0,L|279:205,1,57.0499982589722
424,184,184471,6,0,P|449:134|452:78,1,114.099996517944,4|0,2:0|0:0,0:0:0:0:
288,32,184810,1,8,0:0:0:0:
232,40,184894,1,0,0:0:0:0:
176,48,184979,1,0,0:0:0:0:
404,308,185149,6,0,P|401:252|376:201,1,114.099996517944,4|0,2:0|0:0,0:0:0:0:
212,156,185488,2,0,L|100:139,1,114.099996517944,8|8,0:0|0:1,0:0:0:0:
88,80,185743,1,8,0:1:0:0:
276,352,185827,6,0,P|358:335|419:277,1,171.149994776917,12|0,0:3|0:0,0:0:0:0:
376,268,186166,1,8,0:0:0:0:
272,200,186336,2,0,L|192:119,1,114.099996517944,0|2,0:0|2:0,0:0:0:0:
356,76,186674,2,0,L|436:157,1,114.099996517944,4|8,0:0|0:0,0:0:0:0:
184,256,187014,5,2,2:0:0:0:
168,200,187098,1,0,0:0:0:0:
152,144,187183,1,0,0:0:0:0:
316,144,187353,1,0,0:0:0:0:
332,200,187437,1,0,0:0:0:0:
256,212,187522,2,0,L|144:229,1,114.099996517944,8|0,0:0|0:0,0:0:0:0:
304,272,187861,1,0,0:0:0:0:
464,316,188031,2,0,L|503:274,1,57.0499982589722,4|0,0:0|0:0,0:0:0:0:
464,232,188200,2,0,L|352:215,1,114.099996517944,8|0,0:0|0:0,0:0:0:0:
96,340,188539,6,0,L|120:170,1,171.149994776917,4|0,0:0|0:0,0:0:0:0:
196,156,188878,2,0,L|179:268,1,114.099996517944,8|4,0:0|0:0,0:0:0:0:
16,312,189217,1,0,0:0:0:0:
172,260,189387,2,0,L|211:218,1,57.0499982589722,4|0,0:0|0:0,0:0:0:0:
172,176,189556,2,0,L|60:159,1,114.099996517944,8|0,0:0|0:0,0:0:0:0:
196,100,189895,6,0,P|256:41|339:24,1,171.149994776917,4|0,0:0|0:0,0:0:0:0:
496,136,190234,2,0,L|479:248,1,114.099996517944,8|4,0:0|0:0,0:0:0:0:
364,264,190573,1,0,0:0:0:0:
116,356,190742,6,0,L|102:300,5,57.0499982589722,4|0|0|0|0|0,0:0|0:0|0:0|0:0|0:0|0:0,0:0:0:0:
368,356,191251,6,0,P|353:274|292:215,1,171.149994776917,4|0,0:2|0:0,0:0:0:0:
244,209,191590,1,8,0:0:0:0:
124,172,191759,2,0,L|204:91,1,114.099996517944,0|2,0:0|2:0,0:0:0:0:
36,116,192098,2,0,L|116:35,1,114.099996517944,4|8,0:0|0:0,0:0:0:0:
396,32,192437,5,2,2:0:0:0:
376,84,192522,1,0,0:0:0:0:
332,116,192606,1,0,0:0:0:0:
168,160,192777,1,0,0:0:0:0:
124,192,192861,1,0,0:0:0:0:
104,244,192946,2,0,L|216:261,1,114.099996517944,8|0,0:0|0:0,0:0:0:0:
380,304,193285,1,0,0:0:0:0:
224,252,193455,1,4,0:0:0:0:
180,220,193539,1,0,0:0:0:0:
160,168,193624,2,0,L|177:56,1,114.099996517944,8|0,0:0|0:0,0:0:0:0:
480,32,193963,6,0,P|443:107|366:141,1,171.149994776917,4|0,0:0|0:0,0:0:0:0:
288,156,194302,2,0,L|400:173,1,114.099996517944,8|4,0:0|0:0,0:0:0:0:
300,232,194641,1,2,2:0:0:0:
136,324,194810,1,4,0:0:0:0:
436,312,194980,2,0,P|450:257|438:202,1,114.099996517944,8|0,0:0|0:0,0:0:0:0:
336,140,195319,1,4,0:0:0:0:
108,12,195488,6,0,L|95:67,1,57.0499982589722,8|0,0:0|0:0,0:0:0:0:
256,104,195743,2,0,L|311:117,1,57.0499982589722,8|0,0:0|0:0,0:0:0:0:
472,156,195997,2,0,L|459:211,1,57.0499982589722,8|0,0:0|0:0,0:0:0:0:
384,228,196166,2,0,L|371:283,1,57.0499982589722,8|0,0:0|0:0,0:0:0:0:
192,300,196336,2,0,L|137:313,1,57.0499982589722,8|0,0:0|0:0,0:0:0:0:
324,300,196505,2,0,L|379:313,1,57.0499982589722,8|0,0:0|0:0,0:0:0:0:
128,228,196675,6,0,P|52:161|129:95,1,228.199993035889,12|8,3:0|0:0,0:0:0:0:
240,80,197183,1,0,0:0:0:0:
404,103,197353,2,0,L|391:158,1,57.0499982589722
316,172,197522,2,0,L|303:227,1,57.0499982589722
228,241,197692,2,0,L|116:258,1,114.099996517944,8|0,0:0|0:0,0:0:0:0:
228,324,198031,1,4,0:0:0:0:
456,356,198200,6,0,L|497:315,2,57.0499982589722,0|0|8,0:0|0:0|0:0,0:0:0:0:
344,340,198539,1,0,0:0:0:0:
180,248,198709,2,0,L|193:193,1,57.0499982589722
268,179,198878,2,0,L|255:124,1,57.0499982589722
180,112,199048,2,0,L|68:95,1,114.099996517944,8|0,0:0|0:0,0:0:0:0:
332,112,199387,6,0,P|437:145|476:249,1,228.199993035889,4|8,0:0|0:0,0:0:0:0:
364,264,199895,1,0,0:0:0:0:
200,240,200065,2,0,L|187:185,1,57.0499982589722
112,171,200234,2,0,L|99:116,1,57.0499982589722
176,100,200404,2,0,L|288:83,1,114.099996517944,8|0,0:0|0:0,0:0:0:0:
17,348,200743,6,0,P|35:240|137:199,1,228.199993035889,4|8,2:0|0:0,0:0:0:0:
248,216,201251,2,0,L|261:161,1,57.0499982589722
404,204,201421,6,0,P|386:96|284:55,1,228.199993035889,4|8,2:0|0:0,0:0:0:0:
173,71,201929,2,0,L|186:126,1,57.0499982589722
384,156,202098,6,0,P|460:223|383:289,1,228.199993035889,4|8,2:0|0:0,0:0:0:0:
272,304,202606,1,0,0:0:0:0:
108,281,202776,1,0,0:0:0:0:
116,224,202861,1,0,0:0:0:0:
148,176,202946,1,0,0:0:0:0:
200,152,203031,1,0,0:0:0:0:
256,148,203115,2,0,L|144:131,1,114.099996517944,8|0,0:0|0:0,0:0:0:0:
396,304,203454,6,0,L|422:134,1,171.149994776917,4|0,0:0|0:0,0:0:0:0:
348,120,203793,2,0,L|331:232,1,114.099996517944,8|4,0:0|0:0,0:0:0:0:
500,208,204133,1,0,0:0:0:0:
492,151,204218,1,0,0:0:0:0:
460,103,204303,1,0,0:0:0:0:
408,79,204388,1,0,0:0:0:0:
352,75,204471,2,0,L|240:58,1,114.099996517944,8|0,0:0|0:0,0:0:0:0:
12,56,204810,6,0,P|29:137|97:187,1,171.149994776917
172,200,205149,2,0,L|60:217,1,114.099996517944,8|0,0:0|0:0,0:0:0:0:
224,300,205488,2,0,L|237:245,1,57.0499982589722
312,231,205658,2,0,L|299:176,1,57.0499982589722
224,164,205827,2,0,L|112:147,1,114.099996517944,8|0,0:0|0:0,0:0:0:0:
388,44,206166,5,4,2:0:0:0:
484,128,206335,1,0,0:0:0:0:
488,180,206420,1,0,0:0:0:0:
468,232,206505,1,8,0:0:0:0:
220,128,206674,5,4,2:0:0:0:
316,212,206843,1,0,0:0:0:0:
308,264,206928,1,0,0:0:0:0:
272,304,207013,1,0,0:0:0:0:
24,212,207183,5,4,2:0:0:0:
44,264,207268,1,0,0:0:0:0:
88,292,207352,1,0,0:0:0:0:
316,348,207522,6,0,L|478:186,1,228.199993035889,12|8,3:0|0:0,0:0:0:0:
368,172,208031,1,0,0:0:0:0:
200,192,208201,2,0,L|187:137,1,57.0499982589722
264,124,208370,2,0,L|251:69,1,57.0499982589722
172,56,208539,2,0,L|60:39,1,114.099996517944,8|0,0:0|0:0,0:0:0:0:
172,216,208878,1,4,0:0:0:0:
456,356,209048,6,0,L|497:315,2,57.0499982589722,0|0|8,0:0|0:0|0:0,0:0:0:0:
344,340,209387,1,0,0:0:0:0:
180,248,209557,2,0,L|193:193,1,57.0499982589722
268,179,209726,2,0,L|281:124,1,57.0499982589722
356,110,209895,2,0,L|468:93,1,114.099996517944,8|0,0:0|0:0,0:0:0:0:
156,110,210234,6,0,P|51:143|12:247,1,228.199993035889,4|8,0:0|0:0,0:0:0:0:
124,262,210742,1,0,0:0:0:0:
288,238,210912,2,0,L|301:183,1,57.0499982589722
376,169,211081,2,0,L|389:114,1,57.0499982589722
312,98,211251,2,0,L|200:81,1,114.099996517944,8|0,0:0|0:0,0:0:0:0:
488,348,211590,6,0,P|470:240|368:199,1,228.199993035889,4|8,2:0|0:0,0:0:0:0:
256,240,212098,2,0,L|216:199,1,57.0499982589722
24,204,212268,6,0,P|42:96|144:55,1,228.199993035889,4|8,2:0|0:0,0:0:0:0:
256,96,212776,2,0,L|297:55,1,57.0499982589722
448,56,212946,6,0,L|431:168,1,114.099996517944,4|0,2:0|0:0,0:0:0:0:
328,184,213285,2,0,L|311:296,1,114.099996517944,8|0,0:0|0:0,0:0:0:0:
64,56,213624,2,0,L|81:168,1,114.099996517944,8|0,0:0|0:0,0:0:0:0:
184,184,213963,2,0,L|201:296,1,114.099996517944,8|0,0:0|0:0,0:0:0:0:
440,56,214302,5,8,0:0:0:0:
488,148,214471,1,0,0:0:0:0:
456,248,214641,1,8,0:0:0:0:
364,296,214810,1,0,0:0:0:0:
72,56,214980,1,8,0:0:0:0:
24,148,215149,1,0,0:0:0:0:
56,248,215319,1,8,0:0:0:0:
148,296,215488,1,0,0:0:0:0:
434,257,215658,5,4,2:0:0:0:
474,217,215743,1,0,0:0:0:0:
486,161,215827,1,0,0:0:0:0:
466,105,215912,1,0,0:0:0:0:
422,69,215997,2,0,L|367:56,3,57.0499982589722,8|0|0|0,0:0|0:0|0:0|0:0,0:0:0:0:
322,77,216335,5,8,0:0:0:0:
302,125,216420,1,0,0:0:0:0:
318,177,216505,1,0,0:0:0:0:
366,201,216589,1,0,0:0:0:0:
414,225,216674,1,8,0:0:0:0:
430,277,216759,1,0,0:0:0:0:
410,325,216844,1,0,0:0:0:0:
358,345,216928,1,0,0:0:0:0:
152,156,217014,6,0,L|138:100,4,57.0499982589722,8|0|0|0|0,0:0|0:0|0:0|0:0|0:0,0:0:0:0:
316,112,217523,1,8,0:0:0:0:
372,120,217607,1,0,0:0:0:0:
428,128,217692,1,0,0:0:0:0:
264,216,217861,1,0,0:0:0:0:
428,352,218031,1,8,0:0:0:0:
372,344,218115,1,0,0:0:0:0:
316,336,218200,1,0,0:0:0:0:
82,351,218370,6,0,L|71:304,7,48.8999985076905,6|0|0|0|0|0|0|0,3:0|0:0|0:0|0:0|0:0|0:0|0:0|0:0,0:0:0:0:
142,287,219048,5,8,0:0:0:0:
177,251,219132,1,0,0:0:0:0:
211,215,219217,1,2,2:0:0:0:
374,215,219387,1,2,2:0:0:0:
409,179,219471,1,0,0:0:0:0:
443,143,219556,1,2,2:0:0:0:
174,143,219726,6,0,L|105:73,1,97.799997015381,2|0,0:0|0:0,0:0:0:0:
179,55,219980,2,0,P|224:110|217:181,1,146.699995523071,2|2,0:0|0:0,0:0:0:0:
52,208,220404,2,0,L|149:194,1,97.799997015381,8|0,0:0|0:0,0:0:0:0:
160,240,220658,2,0,L|149:287,4,48.8999985076905
430,351,221082,5,2,3:0:0:0:
468,320,221166,1,0,0:0:0:0:
492,280,221251,1,0,0:0:0:0:
504,232,221336,1,0,0:0:0:0:
496,184,221421,1,0,0:0:0:0:
472,140,221505,1,0,0:0:0:0:
436,108,221590,1,0,0:0:0:0:
388,92,221675,1,0,0:0:0:0:
316,88,221760,5,8,0:0:0:0:
152,132,221929,2,0,L|141:179,1,48.8999985076905,2|0,0:0|0:0,0:0:0:0:
212,196,222098,2,0,L|309:210,1,97.799997015381,2|2,0:0|0:0,0:0:0:0:
52,236,222437,6,0,P|39:282|48:330,1,97.799997015381,2|0,0:0|0:0,0:0:0:0:
121,343,222692,2,0,L|267:321,1,146.699995523071,2|2,0:0|0:0,0:0:0:0:
432,280,223115,2,0,P|446:233|437:185,1,97.799997015381,8|0,0:0|0:0,0:0:0:0:
364,168,223370,2,0,L|353:121,4,48.8999985076905
196,60,223794,5,2,3:0:0:0:
144,80,223878,1,0,0:0:0:0:
124,128,223963,1,0,0:0:0:0:
140,180,224048,1,0,0:0:0:0:
188,204,224133,1,0,0:0:0:0:
236,228,224217,1,0,0:0:0:0:
252,280,224302,1,0,0:0:0:0:
232,328,224387,1,0,0:0:0:0:
160,332,224471,6,0,L|125:297,2,48.8999985076905,8|0|2,0:0|0:0|0:0,0:0:0:0:
323,332,224810,2,0,L|358:297,2,48.8999985076905,2|0|2,0:0|0:0|0:0,0:0:0:0:
96,192,225149,6,0,L|27:122,1,97.799997015381,2|0,0:0|0:0,0:0:0:0:
100,104,225404,2,0,L|246:82,1,146.699995523071,2|2,0:0|0:0,0:0:0:0:
412,56,225827,2,0,L|315:70,1,97.799997015381,8|0,0:0|0:0,0:0:0:0:
304,116,226082,2,0,L|315:163,4,48.8999985076905
82,351,226505,5,2,3:0:0:0:
44,320,226589,1,0,0:0:0:0:
20,280,226674,1,0,0:0:0:0:
8,232,226759,1,0,0:0:0:0:
16,184,226844,1,0,0:0:0:0:
40,140,226928,1,0,0:0:0:0:
76,108,227013,1,0,0:0:0:0:
124,92,227098,1,0,0:0:0:0:
196,88,227183,5,8,0:0:0:0:
32,132,227353,1,2,2:0:0:0:
44,180,227437,1,0,0:0:0:0:
56,228,227522,1,2,2:0:0:0:
184,252,227692,1,2,2:0:0:0:
436,344,227861,6,0,L|505:274,1,97.799997015381,8|0,0:0|0:0,0:0:0:0:
376,276,228200,2,0,L|365:229,1,48.8999985076905
296,212,228370,2,0,L|285:165,1,48.8999985076905
140,180,228539,2,0,L|71:110,1,97.799997015381,8|0,0:0|0:0,0:0:0:0:
176,204,228878,2,0,L|223:215,1,48.8999985076905,8|0,1:0|0:0,0:0:0:0:
56,276,229048,2,0,L|9:287,1,48.8999985076905,8|0,1:0|0:0,0:0:0:0:
172,344,229217,6,0,L|183:297,3,48.8999985076905,6|0|0|0,3:0|0:0|0:0|0:0,0:0:0:0:
256,280,229556,2,0,L|267:233,3,48.8999985076905
340,216,229895,6,0,L|375:181,2,48.8999985076905,8|0|2,0:0|0:0|2:0,0:0:0:0:
176,216,230234,2,0,L|141:181,2,48.8999985076905,2|0|2,2:0|0:0|2:0,0:0:0:0:
472,216,230573,6,0,L|403:146,1,97.799997015381,2|0,0:0|0:0,0:0:0:0:
332,128,230827,2,0,P|287:183|295:254,1,146.699995523071,2|2,0:0|0:0,0:0:0:0:
459,281,231251,2,0,L|362:267,1,97.799997015381,8|0,0:0|0:0,0:0:0:0:
327,225,231505,1,0,0:0:0:0:
315,173,231590,1,0,0:0:0:0:
327,121,231675,1,0,0:0:0:0:
363,81,231760,1,0,0:0:0:0:
411,61,231844,1,0,0:0:0:0:
260,64,231929,6,0,L|249:111,7,48.8999985076905,2|0|0|0|0|0|0|0,3:0|0:0|0:0|0:0|0:0|0:0|0:0|0:0,0:0:0:0:
176,128,232607,5,8,0:0:0:0:
12,164,232776,2,0,L|23:211,1,48.8999985076905,2|0,2:0|0:0,0:0:0:0:
96,228,232946,2,0,L|193:242,1,97.799997015381,2|2,2:0|2:0,0:0:0:0:
460,236,233285,6,0,P|473:282|464:330,1,97.799997015381,2|0,0:0|0:0,0:0:0:0:
391,343,233540,2,0,L|245:321,1,146.699995523071,2|2,0:0|0:0,0:0:0:0:
80,280,233963,2,0,P|66:233|75:185,1,97.799997015381,8|0,0:0|0:0,0:0:0:0:
148,168,234218,2,0,L|159:121,4,48.8999985076905
340,344,234641,5,2,3:0:0:0:
364,296,234726,1,0,0:0:0:0:
360,244,234811,1,0,0:0:0:0:
328,200,234896,1,0,0:0:0:0:
256,280,234980,2,0,L|245:233,3,48.8999985076905
172,216,235319,6,0,L|137:181,2,48.8999985076905,8|0|2,0:0|0:0|2:0,0:0:0:0:
336,216,235658,2,0,L|371:181,2,48.8999985076905,2|0|2,2:0|0:0|2:0,0:0:0:0:
40,216,235997,6,0,L|109:146,1,97.799997015381,2|0,0:0|0:0,0:0:0:0:
180,128,236251,2,0,P|225:183|217:254,1,146.699995523071,2|2,0:0|0:0,0:0:0:0:
53,281,236675,2,0,L|150:267,1,97.799997015381,8|0,0:0|0:0,0:0:0:0:
185,225,236929,1,0,0:0:0:0:
197,173,237014,1,0,0:0:0:0:
185,121,237099,1,0,0:0:0:0:
149,81,237184,1,0,0:0:0:0:
101,61,237268,1,0,0:0:0:0:
252,64,237353,6,0,L|263:111,7,48.8999985076905,2|0|0|0|0|0|0|0,3:0|0:0|0:0|0:0|0:0|0:0|0:0|0:0,0:0:0:0:
336,128,238031,5,8,0:0:0:0:
172,164,238200,1,2,2:0:0:0:
192,216,238285,1,0,0:0:0:0:
236,248,238369,1,2,2:0:0:0:
72,292,238539,1,2,2:0:0:0:
320,348,238709,6,0,P|327:301|316:254,1,97.799997015381,4|0,2:0|0:0,0:0:0:0:
212,180,239048,2,0,L|260:168,1,48.8999985076905,0|8,0:0|0:0,0:0:0:0:
376,112,239302,1,0,0:0:0:0:
180,288,239387,6,0,P|169:240|176:192,1,97.799997015381,4|0,2:0|0:0,0:0:0:0:
224,180,239641,1,0,0:0:0:0:
376,112,239726,2,0,L|329:101,1,48.8999985076905,8|8,1:0|1:0,0:0:0:0:
128,32,239895,2,0,L|81:21,1,48.8999985076905,8|8,1:0|1:0,0:0:0:0:
280,32,240065,1,4,3:0:0:0:
