osu file format v14

[General]
AudioFilename: audio.mp3
AudioLeadIn: 0
PreviewTime: 196531
Countdown: 0
SampleSet: Normal
StackLeniency: 0.7
Mode: 1
LetterboxInBreaks: 0
EpilepsyWarning: 1
WidescreenStoryboard: 1

[Editor]
Bookmarks: 21702,22967
DistanceSpacing: 0.8
BeatDivisor: 16
GridSize: 32
TimelineZoom: 1.7

[Metadata]
Title:Algebra
TitleUnicode:Algebra
Artist:Function Phantom
ArtistUnicode:Function Phantom
Creator:S a n d
Version:Aspire
Source:
Tags:
BeatmapID:1386590
BeatmapSetID:654135

[Difficulty]
HPDrainRate:5
CircleSize:5
OverallDifficulty:6
ApproachRate:5
SliderMultiplier:1.4
SliderTickRate:1

[Events]
//Background and Video events
0,0,"Algebra.png",0,0
//Break Periods
//Storyboard Layer 0 (Background)
//Storyboard Layer 1 (Fail)
//Storyboard Layer 2 (Pass)
//Storyboard Layer 3 (Foreground)
//Storyboard Sound Samples

[TimingPoints]
500,-333.333333333333,4,1,0,100,0,0
500,-333.333333333333,4,1,0,100,0,0
728,400,4,1,0,5,1,0
777,385.208012326656,4,1,0,5,1,0
825,361.969111969112,4,1,0,5,1,0
870,341.374601729631,4,1,0,5,1,0
912,322.997416020672,4,1,0,5,1,0
952,306.497752349816,4,1,0,5,1,0
990,291.601866251944,4,1,0,5,1,0
1026,278.086763070078,4,1,0,5,1,0
1060,265.768958185684,4,1,0,5,1,0
1093,254.496097726502,4,1,0,5,1,0
1124,244.140625,4,1,0,5,1,0
1154,225.76760987357,4,1,0,5,1,0
1182,209.96640537514,4,1,0,5,1,0
1208,196.232339089482,4,1,0,5,1,0
1232,184.184675834971,4,1,0,5,1,0
1255,168.653024510906,4,1,0,5,1,0
1276,155.537121526338,4,1,0,5,1,0
1286,-111.111111111111,4,1,0,5,0,0
1295,144.314027323456,4,1,0,5,1,0
1313,134.601579325197,4,1,0,5,1,0
1329,121.026303049863,4,1,0,5,1,0
1344,109.938434476693,4,1,0,5,1,0
1357,100.71169598496,4,1,0,5,1,0
1364,338.983050847458,4,1,0,100,1,0
1364,-50,4,1,0,100,0,0
1702,-71.4285714285714,4,1,0,30,0,0
2211,-83.3333333333333,4,1,0,30,0,0
2719,338.983050847458,4,1,0,30,1,8
2719,-90.909090909091,4,1,0,30,0,0
3228,-100,4,1,0,30,0,0
3735,-105.263157894737,4,1,0,30,0,0
4074,338.983050847458,4,1,0,5,1,9
4075,338.983050847458,4,1,0,5,1,1
4075,-111.111111111111,4,1,0,5,0,1
4413,-100,4,1,0,5,0,0
4583,338.983050847458,4,1,0,5,1,9
4583,-114.942528735632,4,1,0,5,0,1
4921,-100,4,1,0,5,0,0
5091,338.983050847458,4,1,0,5,1,9
5091,-119.047619047619,4,1,0,5,0,1
5429,-100,4,1,0,5,0,0
5600,338.983050847458,4,1,0,5,1,9
5600,-123.456790123457,4,1,0,5,0,1
5938,-100,4,1,0,5,0,0
6108,1355.93220338983,4,1,0,5,1,9
6108,-32.4675324675325,4,1,0,5,0,1
6701,-111.111111111111,4,1,0,5,0,0
6786,338.983050847458,4,1,0,30,1,0
6786,-111.111111111111,4,1,0,30,0,0
8141,338.983050847458,4,1,0,30,1,8
8141,-111.111111111111,4,1,0,30,0,0
9496,338.983050847458,4,1,0,5,1,9
9497,338.983050847458,4,1,0,5,1,1
9497,-111.111111111111,4,1,0,5,0,1
9835,-100,4,1,0,5,0,0
10005,338.983050847458,4,1,0,5,1,9
10005,-114.942528735632,4,1,0,5,0,1
10343,-100,4,1,0,5,0,0
10513,338.983050847458,4,1,0,5,1,9
10513,-119.047619047619,4,1,0,5,0,1
10851,-100,4,1,0,5,0,0
11022,338.983050847458,4,1,0,5,1,9
11022,-123.456790123457,4,1,0,5,0,1
11360,-100,4,1,0,5,0,0
11530,1355.93220338983,4,1,0,5,1,1
11530,-31.25,4,1,0,5,0,1
11565,400,4,1,0,5,1,1
11614,385.208012326656,4,1,0,5,1,1
11662,361.969111969112,4,1,0,5,1,1
11707,341.374601729631,4,1,0,5,1,1
11749,322.997416020672,4,1,0,5,1,1
11789,306.497752349816,4,1,0,5,1,1
11827,291.601866251944,4,1,0,5,1,1
11863,278.086763070078,4,1,0,5,1,1
11897,265.768958185684,4,1,0,5,1,1
11930,254.496097726502,4,1,0,5,1,1
11961,244.140625,4,1,0,5,1,1
11991,225.76760987357,4,1,0,5,1,1
12019,209.96640537514,4,1,0,5,1,1
12045,196.232339089482,4,1,0,5,1,1
12069,184.184675834971,4,1,0,5,1,1
12092,168.653024510906,4,1,0,5,1,1
12113,155.537121526338,4,1,0,5,1,1
12123,-111.111111111111,4,1,0,5,0,0
12132,144.314027323456,4,1,0,5,1,0
12150,134.601579325197,4,1,0,5,1,0
12166,121.026303049863,4,1,0,5,1,0
12181,109.938434476693,4,1,0,5,1,0
12194,100.71169598496,4,1,0,5,1,0
12208,338.983050847458,4,1,0,30,1,0
12208,-111.111111111111,4,1,0,30,0,0
13563,338.983050847458,4,1,0,30,1,8
13563,-111.111111111111,4,1,0,30,0,0
14919,338.983050847458,4,1,0,5,1,9
14920,338.983050847458,4,1,0,5,1,1
14920,-111.111111111111,4,1,0,5,0,1
15258,-100,4,1,0,5,0,0
15428,338.983050847458,4,1,0,5,1,9
15428,-114.942528735632,4,1,0,5,0,1
15766,-100,4,1,0,5,0,0
15936,338.983050847458,4,1,0,5,1,9
15936,-119.047619047619,4,1,0,5,0,1
16274,-100,4,1,0,5,0,0
16445,338.983050847458,4,1,0,5,1,9
16445,-123.456790123457,4,1,0,5,0,1
16783,-100,4,1,0,5,0,0
16953,1355.93220338983,4,1,0,5,1,9
16953,-32.4675324675325,4,1,0,5,0,1
17631,338.983050847458,4,1,0,30,1,0
17631,-133.333333333333,4,1,0,30,0,0
17885,-129.87012987013,4,1,0,34,0,0
17969,-126.582278481013,4,1,0,38,0,0
18139,-123.456790123457,4,1,0,44,0,0
18478,-119.047619047619,4,1,0,48,0,0
18647,-114.942528735632,4,1,0,51,0,0
19156,-111.111111111111,4,1,0,57,0,0
19325,-107.52688172043,4,1,0,63,0,0
19495,-104.166666666667,4,1,0,69,0,0
19834,-101.010101010101,4,1,0,75,0,0
20003,-98.0392156862745,4,1,0,81,0,0
20173,-95.2380952380952,4,1,0,87,0,0
20258,-92.5925925925926,4,1,0,93,0,0
20342,-90.0900900900901,4,1,0,99,0,0
20597,-87.719298245614,4,1,0,100,0,0
20681,-85.4700854700855,4,1,0,100,0,0
20851,-83.3333333333333,4,1,0,100,0,0
21190,-81.3008130081301,4,1,0,100,0,0
21359,-79.3650793650794,4,1,0,100,0,0
21698,338.983050847458,4,1,0,100,1,0
21698,-50,4,1,0,100,0,0
21699,0.09,4,1,0,100,1,0
21699,-100000,4,1,0,100,0,0
22037,338.983050847458,4,1,0,100,1,0
22037,-44.4444444444445,4,1,0,100,0,0
22038,0.135,4,1,0,100,1,0
22038,-100000,4,1,0,100,0,0
22376,338.983050847458,4,1,0,100,1,0
22376,-40,4,1,0,100,0,0
22377,0.2,4,1,0,100,1,0
22377,-100000,4,1,0,100,0,0
22714,338.983050847458,4,1,0,100,1,8
22714,-66.6666666666667,4,1,0,100,0,0
22715,0.175,4,1,0,100,1,0
22715,-100000,4,1,0,100,0,0
22798,338.983050847458,4,1,0,100,1,0
22798,-76.9230769230769,4,1,0,100,0,0
22799,0.135,4,1,0,100,1,0
22799,-100000,4,1,0,100,0,0
22883,338.983050847458,4,1,0,100,1,0
22883,-86.9565217391304,4,1,0,100,0,0
22884,0.09,4,1,0,100,1,0
22884,-100000,4,1,0,100,0,0
22967,338.983050847458,4,1,0,100,1,0
22967,-95.2380952380952,4,1,0,100,0,0
22968,0.05,4,1,0,100,1,0
22968,-100000,4,1,0,100,0,0
23058,338.983050847458,4,1,0,100,1,0
23227,-95.2380952380952,4,1,0,100,0,0
23283,-89.2857142857143,4,1,0,100,0,0
23340,-82.6446280991736,4,1,0,100,0,0
23396,-75.7575757575758,4,1,0,100,0,0
23566,-78.7401574803149,4,1,0,100,0,0
24074,-68.0272108843537,4,1,0,100,0,1
24411,-100,4,1,0,100,0,0
24497,-98.0392156862745,4,1,0,100,0,0
24582,-96.1538461538461,4,1,0,100,0,0
24638,-94.3396226415094,4,1,0,100,0,0
24695,-92.5925925925926,4,1,0,100,0,0
24751,-90.9090909090909,4,1,0,100,0,0
24921,-88.4955752212389,4,1,0,100,0,0
25090,-86.2068965517241,4,1,0,100,0,0
25147,-84.0336134453781,4,1,0,100,0,0
25260,-81.9672131147541,4,1,0,100,0,0
25316,-80,4,1,0,100,0,0
25429,-77.5193798449612,4,1,0,100,0,0
25600,-75.187969924812,4,1,0,100,0,0
25685,-72.463768115942,4,1,0,100,0,0
25769,-69.9300699300699,4,1,0,100,0,0
25939,-93.4579439252336,4,1,0,100,0,0
25995,-89.2857142857143,4,1,0,100,0,0
26052,-85.4700854700855,4,1,0,100,0,0
26108,-81.9672131147541,4,1,0,100,0,0
26278,-93.4579439252336,4,1,0,100,0,0
26363,-89.2857142857143,4,1,0,100,0,0
26447,-85.4700854700855,4,1,0,100,0,0
26532,-81.9672131147541,4,1,0,100,0,0
26617,-78.7401574803149,4,1,0,100,0,0
26702,-75.7575757575758,4,1,0,100,0,0
26786,-72.992700729927,4,1,0,100,0,0
27125,-40,4,1,0,100,0,0
27210,-43.4782608695652,4,1,0,100,0,0
27295,-47.1698113207547,4,1,0,100,0,0
27380,-51.0204081632653,4,1,0,100,0,0
27464,-54.9450549450549,4,1,0,100,0,0
27549,-58.8235294117647,4,1,0,100,0,0
27634,-62.5,4,1,0,100,0,0
27719,-65.7894736842105,4,1,0,100,0,0
27803,-50,4,1,0,100,0,0
27888,-55.5555555555556,4,1,0,100,0,0
27973,-61.7283950617284,4,1,0,100,0,0
28058,-68.4931506849315,4,1,0,100,0,0
28142,-75.7575757575758,4,1,0,100,0,0
28227,-83.3333333333333,4,1,0,100,0,0
28312,-90.9090909090909,4,1,0,100,0,0
28396,-98.0392156862745,4,1,0,100,0,0
28481,-100,4,1,0,100,0,0
28651,-95.2380952380952,4,1,0,100,0,0
28707,-89.2857142857143,4,1,0,100,0,0
28764,-82.6446280991736,4,1,0,100,0,0
28820,-75.7575757575758,4,1,0,100,0,0
28990,-93.4579439252336,4,1,0,100,0,0
29159,-85.4700854700855,4,1,0,100,0,0
29329,-78.7401574803149,4,1,0,100,0,0
29498,-68.0272108843537,4,1,0,100,0,1
29836,-85.4700854700855,4,1,0,100,0,0
29893,-81.9672131147541,4,1,0,100,0,0
29949,-75.7575757575758,4,1,0,100,0,0
30006,-68.0272108843537,4,1,0,100,0,0
30175,-68.0272108843537,4,1,0,100,0,0
30232,-75.7575757575758,4,1,0,100,0,0
30288,-81.9672131147541,4,1,0,100,0,0
30344,-85.4700854700855,4,1,0,100,0,0
30599,-84.7457627118644,4,1,0,100,0,0
30684,-83.3333333333333,4,1,0,100,0,0
30768,-81.3008130081301,4,1,0,100,0,0
30853,-78.7401574803149,4,1,0,100,0,0
31023,-75.7575757575758,4,1,0,100,0,0
31191,-72.992700729927,4,1,0,100,0,0
31363,-85.4700854700855,4,1,0,100,0,0
31419,-83.3333333333333,4,1,0,100,0,0
31476,-80,4,1,0,100,0,0
31532,-76.3358778625954,4,1,0,100,0,0
31702,-72.992700729927,4,1,0,100,0,0
31871,-85.4700854700855,4,1,0,100,0,0
31956,-84.7457627118644,4,1,0,100,0,0
32041,-83.3333333333333,4,1,0,100,0,0
32125,-81.3008130081301,4,1,0,100,0,0
32210,-78.7401574803149,4,1,0,100,0,0
32548,-71.4285714285714,4,1,0,100,0,1
32718,-76.9230769230769,4,1,0,100,0,0
32802,-74.0740740740741,4,1,0,100,0,0
32887,-68.9655172413793,4,1,0,100,0,0
33057,-62.5,4,1,0,100,0,1
33226,-68.9655172413793,4,1,0,100,0,0
33311,-66.6666666666667,4,1,0,100,0,0
33395,-64.5161290322581,4,1,0,100,0,0
33480,-60.6060606060606,4,1,0,100,0,0
33564,-52.6315789473684,4,1,0,100,0,1
33734,-55.5555555555556,4,1,0,100,0,0
33904,-45.4545454545455,4,1,0,100,0,1
34073,-95.2380952380952,4,1,0,100,0,0
34129,-89.2857142857143,4,1,0,100,0,0
34186,-82.6446280991736,4,1,0,100,0,0
34242,-75.7575757575758,4,1,0,100,0,0
34412,-78.7401574803149,4,1,0,100,0,0
34920,-68.0272108843537,4,1,0,100,0,1
35259,-100,4,1,0,100,0,0
35345,-98.0392156862745,4,1,0,100,0,0
35430,-96.1538461538461,4,1,0,100,0,0
35486,-94.3396226415094,4,1,0,100,0,0
35543,-92.5925925925926,4,1,0,100,0,0
35599,-90.9090909090909,4,1,0,100,0,0
35769,-88.4955752212389,4,1,0,100,0,0
35938,-86.2068965517241,4,1,0,100,0,0
35995,-84.0336134453781,4,1,0,100,0,0
36108,-81.9672131147541,4,1,0,100,0,0
36164,-80,4,1,0,100,0,0
36277,-77.5193798449612,4,1,0,100,0,0
36448,-75.187969924812,4,1,0,100,0,0
36615,-69.9300699300699,4,1,0,100,0,0
36786,-93.4579439252336,4,1,0,100,0,0
36844,-89.2857142857143,4,1,0,100,0,0
36901,-85.4700854700855,4,1,0,100,0,0
36956,-81.9672131147541,4,1,0,100,0,0
37125,-81.9672131147541,4,1,0,100,0,0
37295,-85.4700854700855,4,1,0,100,0,0
37380,-81.9672131147541,4,1,0,100,0,0
37464,-78.7401574803149,4,1,0,100,0,0
37549,-75.7575757575758,4,1,0,100,0,0
37634,-72.992700729927,4,1,0,100,0,0
37973,-100,4,1,0,100,0,0
38058,-98.0392156862745,4,1,0,100,0,0
38142,-90.9090909090909,4,1,0,100,0,0
38227,-83.3333333333333,4,1,0,100,0,0
38312,-75.7575757575758,4,1,0,100,0,0
38396,-68.4931506849315,4,1,0,100,0,0
38481,-61.7283950617284,4,1,0,100,0,0
38566,-55.5555555555556,4,1,0,100,0,0
38651,-40,4,1,0,100,0,0
38735,-43.4782608695652,4,1,0,100,0,0
38820,-47.1698113207547,4,1,0,100,0,0
38905,-51.0204081632653,4,1,0,100,0,0
38990,-54.9450549450549,4,1,0,100,0,0
39074,-58.8235294117647,4,1,0,100,0,0
39159,-62.5,4,1,0,100,0,0
39244,-65.7894736842105,4,1,0,100,0,0
39329,-67.5675675675676,4,1,0,100,0,0
39498,-84.7457627118644,4,1,0,100,0,0
39555,-81.3008130081301,4,1,0,100,0,0
39611,-78.125,4,1,0,100,0,0
39668,-72.463768115942,4,1,0,100,0,0
39837,-67.5675675675676,4,1,0,100,0,0
40176,-69.9300699300699,4,1,0,100,0,0
40346,-63.2911392405063,4,1,0,100,0,1
40685,-68.0272108843537,4,1,0,100,0,0
40741,-75.7575757575758,4,1,0,100,0,0
40798,-81.9672131147541,4,1,0,100,0,0
40854,-85.4700854700855,4,1,0,100,0,0
41024,-85.4700854700855,4,1,0,100,0,0
41080,-81.9672131147541,4,1,0,100,0,0
41137,-75.7575757575758,4,1,0,100,0,0
41193,-68.0272108843537,4,1,0,100,0,0
41363,-85.4700854700855,4,1,0,100,0,0
41447,-78.7401574803149,4,1,0,100,0,0
41532,-72.992700729927,4,1,0,100,0,0
42041,-67.5675675675676,4,1,0,100,0,0
42210,-84.7457627118644,4,1,0,100,0,0
42267,-81.3008130081301,4,1,0,100,0,0
42323,-78.125,4,1,0,100,0,0
42380,-72.463768115942,4,1,0,100,0,0
42549,-67.5675675675676,4,1,0,100,0,0
42719,-84.7457627118644,4,1,0,100,0,0
42803,-78.125,4,1,0,100,0,0
42888,-72.463768115942,4,1,0,100,0,0
42973,-67.5675675675676,4,1,0,100,0,0
43058,-63.2911392405063,4,1,0,100,0,0
43396,-71.4285714285714,4,1,0,100,0,1
43566,-76.9230769230769,4,1,0,100,0,0
43650,-74.0740740740741,4,1,0,100,0,0
43735,-68.9655172413793,4,1,0,100,0,0
43905,-62.5,4,1,0,100,0,1
44074,-68.9655172413793,4,1,0,100,0,0
44159,-66.6666666666667,4,1,0,100,0,0
44243,-64.5161290322581,4,1,0,100,0,0
44328,-60.6060606060606,4,1,0,100,0,0
44412,-52.6315789473684,4,1,0,100,0,1
44498,-51.2820512820513,4,1,0,100,0,1
44582,-50,4,1,0,100,0,0
44668,-47.6190476190476,4,1,0,100,0,0
44751,338.983050847458,4,1,0,100,1,0
44751,-45.4545454545455,4,1,0,100,0,1
44755,338.983050847458,4,1,0,100,1,1
44922,-100,4,1,0,100,0,0
51363,-111.111111111111,4,1,0,100,0,0
56786,-125,4,1,0,100,0,0
58312,-142.857142857143,4,1,0,100,0,0
62210,-166.666666666667,4,1,0,100,0,0
63566,-200,4,1,0,100,0,0
66447,-166.666666666667,4,1,0,100,0,1
66532,-158.730158730159,4,1,0,100,0,1
66617,-151.515151515152,4,1,0,100,0,1
66702,-144.927536231884,4,1,0,100,0,1
66786,-138.888888888889,4,1,0,100,0,1
66871,-133.333333333333,4,1,0,100,0,1
66956,-128.205128205128,4,1,0,100,0,1
67041,-123.456790123457,4,1,0,100,0,1
67125,-119.047619047619,4,1,0,100,0,1
67295,-114.942528735632,4,1,0,100,0,1
67464,-111.111111111111,4,1,0,100,0,1
67634,-107.52688172043,4,1,0,100,0,1
67803,-104.166666666667,4,1,0,100,0,1
67888,-101.010101010101,4,1,0,100,0,1
67973,-98.0392156862745,4,1,0,100,0,1
68058,-95.2380952380952,4,1,0,100,0,1
68142,-92.5925925925926,4,1,0,100,0,1
68227,-90.0900900900901,4,1,0,100,0,1
68312,-87.719298245614,4,1,0,100,0,1
68481,-85.4700854700855,4,1,0,100,0,1
68566,-83.3333333333333,4,1,0,100,0,1
68651,-81.3008130081301,4,1,0,100,0,1
68736,-79.3650793650794,4,1,0,100,0,1
68820,-77.5193798449612,4,1,0,100,0,1
69244,-79.3650793650794,4,1,0,100,0,1
69329,-81.3008130081301,4,1,0,100,0,1
69414,-83.3333333333333,4,1,0,100,0,1
69498,-85.4700854700855,4,1,0,100,0,1
69583,-87.719298245614,4,1,0,100,0,1
69668,-90.0900900900901,4,1,0,100,0,1
69753,-92.5925925925926,4,1,0,100,0,1
69837,-95.2380952380952,4,1,0,100,0,1
70007,-98.0392156862745,4,1,0,100,0,1
70176,-101.010101010101,4,1,0,100,0,1
70346,-104.166666666667,4,1,0,100,0,1
70515,-107.52688172043,4,1,0,100,0,1
70769,-111.111111111111,4,1,0,100,0,1
70854,-114.942528735632,4,1,0,100,0,1
71024,-119.047619047619,4,1,0,100,0,1
71193,-123.456790123457,4,1,0,100,0,1
71278,-128.205128205128,4,1,0,100,0,1
71363,-133.333333333333,4,1,0,100,0,1
71447,-138.888888888889,4,1,0,100,0,1
71532,-144.927536231884,4,1,0,100,0,1
71617,-151.515151515152,4,1,0,100,0,1
71702,-158.730158730159,4,1,0,100,0,1
71870,-166.666666666667,4,1,0,100,0,1
71955,-153.846153846154,4,1,0,100,0,1
72040,-142.857142857143,4,1,0,100,0,1
72125,-133.333333333333,4,1,0,100,0,1
72209,-125,4,1,0,100,0,1
72294,-117.647058823529,4,1,0,100,0,1
72379,-111.111111111111,4,1,0,100,0,1
72464,-105.263157894737,4,1,0,100,0,1
72548,-100,4,1,0,100,0,1
72718,-95.2380952380952,4,1,0,100,0,1
72887,-90.9090909090909,4,1,0,100,0,1
73057,-86.9565217391304,4,1,0,100,0,1
73226,-83.3333333333333,4,1,0,100,0,1
73311,-80,4,1,0,100,0,1
73396,-76.9230769230769,4,1,0,100,0,1
73481,-74.0740740740741,4,1,0,100,0,1
73565,-71.4285714285714,4,1,0,100,0,1
73650,-68.9655172413793,4,1,0,100,0,1
73735,-66.6666666666667,4,1,0,100,0,1
73904,-64.5161290322581,4,1,0,100,0,1
73989,-62.5,4,1,0,100,0,1
74074,-60.6060606060606,4,1,0,100,0,1
74159,-58.8235294117647,4,1,0,100,0,1
74243,-57.1428571428571,4,1,0,100,0,1
74667,-58.8235294117647,4,1,0,100,0,1
74752,-60.6060606060606,4,1,0,100,0,1
74837,-62.5,4,1,0,100,0,1
74921,-64.5161290322581,4,1,0,100,0,1
75006,-66.6666666666667,4,1,0,100,0,1
75091,-68.9655172413793,4,1,0,100,0,1
75176,-71.4285714285714,4,1,0,100,0,1
75260,-74.0740740740741,4,1,0,100,0,1
75430,-76.9230769230769,4,1,0,100,0,1
75599,-80,4,1,0,100,0,1
75769,-83.3333333333333,4,1,0,100,0,1
75938,-86.9565217391304,4,1,0,100,0,1
76024,-87.719298245614,4,1,0,100,0,1
76108,-88.4955752212389,4,1,0,100,0,1
76165,-88.4955752212389,4,1,0,100,0,1
76221,-90.0900900900901,4,1,0,100,0,1
76277,-90.9090909090909,4,1,0,100,0,1
76447,-95.2380952380952,4,1,0,100,0,1
76616,-100,4,1,0,100,0,1
76701,-105.263157894737,4,1,0,100,0,1
76786,-111.111111111111,4,1,0,100,0,1
76870,-117.647058823529,4,1,0,100,0,1
76955,-125,4,1,0,100,0,1
77125,-133.333333333333,4,1,0,100,0,1
77295,-76.9230769230769,4,1,0,100,0,1
77380,-76.3358778625954,4,1,0,100,0,1
77464,-76.9230769230769,4,1,0,100,0,1
77549,-75.7575757575758,4,1,0,100,0,1
77634,-76.9230769230769,4,1,0,100,0,1
77719,-75.187969924812,4,1,0,100,0,1
77803,-76.9230769230769,4,1,0,100,0,1
77888,-74.6268656716418,4,1,0,100,0,1
77973,-76.9230769230769,4,1,0,100,0,1
78142,-71.4285714285714,4,1,0,100,0,1
78185,-70.4225352112676,4,1,0,100,0,1
78312,-71.4285714285714,4,1,0,100,0,1
78354,-69.4444444444444,4,1,0,100,0,1
78481,-71.4285714285714,4,1,0,100,0,1
78524,-68.4931506849315,4,1,0,100,0,1
78651,-66.6666666666667,4,1,0,100,0,1
78736,-66.2251655629139,4,1,0,100,0,1
78820,-66.6666666666667,4,1,0,100,0,1
78905,-65.7894736842105,4,1,0,100,0,1
78990,-66.6666666666667,4,1,0,100,0,1
79075,-65.359477124183,4,1,0,100,0,1
79159,-66.6666666666667,4,1,0,100,0,1
79329,-62.5,4,1,0,100,0,1
79414,-62.111801242236,4,1,0,100,0,1
79498,-62.5,4,1,0,100,0,1
79583,-61.7283950617284,4,1,0,100,0,1
79668,-62.5,4,1,0,100,0,1
79724,-61.3496932515337,4,1,0,100,0,1
79781,-62.5,4,1,0,100,0,1
79837,-60.9756097560976,4,1,0,100,0,1
80007,-66.6666666666667,4,1,0,100,0,1
80091,-67.1140939597315,4,1,0,100,0,1
80176,-66.6666666666667,4,1,0,100,0,1
80261,-67.5675675675676,4,1,0,100,0,1
80346,-66.6666666666667,4,1,0,100,0,1
80430,-68.0272108843537,4,1,0,100,0,1
80515,-66.6666666666667,4,1,0,100,0,1
80600,-68.4931506849315,4,1,0,100,0,1
80685,-66.6666666666667,4,1,0,100,0,1
80854,-71.4285714285714,4,1,0,100,0,1
80897,-72.463768115942,4,1,0,100,0,1
81024,-71.4285714285714,4,1,0,100,0,1
81066,-73.5294117647059,4,1,0,100,0,1
81193,-71.4285714285714,4,1,0,100,0,1
81236,-74.6268656716418,4,1,0,100,0,1
81363,-71.4285714285714,4,1,0,100,0,1
81532,-76.9230769230769,4,1,0,100,0,1
81617,-77.5193798449612,4,1,0,100,0,1
81786,-76.9230769230769,4,1,0,100,0,1
81871,-78.125,4,1,0,100,0,1
82041,-76.9230769230769,4,1,0,100,0,1
82125,-78.7401574803149,4,1,0,100,0,1
82210,-76.9230769230769,4,1,0,100,0,1
82295,-79.3650793650794,4,1,0,100,0,1
82380,-76.9230769230769,4,1,0,100,0,1
82436,-80,4,1,0,100,0,1
82493,-76.9230769230769,4,1,0,100,0,1
82549,-80.6451612903226,4,1,0,100,0,1
82718,-76.9230769230769,4,1,0,100,0,1
82803,-76.3358778625954,4,1,0,100,0,1
82887,-76.9230769230769,4,1,0,100,0,1
82972,-75.7575757575758,4,1,0,100,0,1
83057,-76.9230769230769,4,1,0,100,0,1
83142,-75.187969924812,4,1,0,100,0,1
83226,-76.9230769230769,4,1,0,100,0,1
83311,-74.6268656716418,4,1,0,100,0,1
83396,-76.9230769230769,4,1,0,100,0,1
83565,-71.4285714285714,4,1,0,100,0,1
83608,-70.4225352112676,4,1,0,100,0,1
83735,-71.4285714285714,4,1,0,100,0,1
83777,-69.4444444444444,4,1,0,100,0,1
83904,-71.4285714285714,4,1,0,100,0,1
83947,-68.4931506849315,4,1,0,100,0,1
84074,-66.6666666666667,4,1,0,100,0,1
84159,-66.2251655629139,4,1,0,100,0,1
84243,-66.6666666666667,4,1,0,100,0,1
84328,-65.7894736842105,4,1,0,100,0,1
84413,-66.6666666666667,4,1,0,100,0,1
84498,-65.359477124183,4,1,0,100,0,1
84582,-66.6666666666667,4,1,0,100,0,1
84752,-62.5,4,1,0,100,0,1
84837,-62.111801242236,4,1,0,100,0,1
84921,-62.5,4,1,0,100,0,1
85006,-61.7283950617284,4,1,0,100,0,1
85091,-62.5,4,1,0,100,0,1
85147,-61.3496932515337,4,1,0,100,0,1
85204,-62.5,4,1,0,100,0,1
85260,-60.9756097560976,4,1,0,100,0,1
85430,-66.6666666666667,4,1,0,100,0,1
85514,-67.1140939597315,4,1,0,100,0,1
85599,-66.6666666666667,4,1,0,100,0,1
85684,-67.5675675675676,4,1,0,100,0,1
85769,-66.6666666666667,4,1,0,100,0,1
85853,-68.0272108843537,4,1,0,100,0,1
85938,-66.6666666666667,4,1,0,100,0,1
86023,-68.4931506849315,4,1,0,100,0,1
86108,-66.6666666666667,4,1,0,100,0,1
86277,-71.4285714285714,4,1,0,100,0,1
86320,-72.463768115942,4,1,0,100,0,1
86447,-71.4285714285714,4,1,0,100,0,1
86489,-73.5294117647059,4,1,0,100,0,1
86616,-71.4285714285714,4,1,0,100,0,1
86659,-74.6268656716418,4,1,0,100,0,1
86786,-71.4285714285714,4,1,0,100,0,1
86956,-68.9655172413793,4,1,0,100,0,1
87125,-66.6666666666667,4,1,0,100,0,1
87210,-65.7894736842105,4,1,0,100,0,1
87295,-64.5161290322581,4,1,0,100,0,1
87380,-63.6942675159236,4,1,0,100,0,1
87464,-62.5,4,1,0,100,0,1
87634,-60.6060606060606,4,1,0,100,0,1
87719,-59.8802395209581,4,1,0,100,0,1
87803,-58.8235294117647,4,1,0,100,0,1
87888,-58.1395348837209,4,1,0,100,0,1
87973,-57.1428571428571,4,1,0,100,0,1
88058,-56.4971751412429,4,1,0,100,0,1
88114,-56.4971751412429,4,1,0,100,0,0
88142,338.983050847458,4,1,0,100,1,9
88142,-55.5555555555556,4,1,0,100,0,1
88226,1355.93220338983,4,1,0,100,1,9
88226,-15,4,1,0,100,0,1
88311,1355.93220338983,4,1,0,100,1,9
88311,-15,4,1,0,100,0,1
88395,1355.93220338983,4,1,0,100,1,9
88395,-15,4,1,0,100,0,1
88480,1355.93220338983,4,1,0,100,1,9
88480,-15,4,1,0,100,0,1
88564,1355.93220338983,4,1,0,100,1,9
88564,-15,4,1,0,100,0,1
88649,1355.93220338983,4,1,0,100,1,9
88649,-15,4,1,0,100,0,1
88734,1355.93220338983,4,1,0,100,1,9
88734,-15,4,1,0,100,0,1
88819,1355.93220338983,4,1,0,100,1,9
88819,-15,4,1,0,100,0,1
88903,1355.93220338983,4,1,0,100,1,9
88903,-15,4,1,0,100,0,1
88988,1355.93220338983,4,1,0,100,1,9
88988,-15,4,1,0,100,0,1
89072,1355.93220338983,4,1,0,100,1,9
89072,-15,4,1,0,100,0,1
89157,1355.93220338983,4,1,0,100,1,9
89157,-15,4,1,0,100,0,1
89243,1355.93220338983,4,1,0,100,1,9
89243,-15,4,1,0,100,0,1
89328,1355.93220338983,4,1,0,100,1,9
89328,-15,4,1,0,100,0,1
89412,1355.93220338983,4,1,0,100,1,9
89412,-15,4,1,0,100,0,1
89497,1355.93220338983,4,1,0,100,1,9
89497,-15,4,1,0,100,0,1
89581,1355.93220338983,4,1,0,100,1,9
89581,-15,4,1,0,100,0,1
89666,1355.93220338983,4,1,0,100,1,9
89666,-15,4,1,0,100,0,1
89751,1355.93220338983,4,1,0,100,1,9
89751,-15,4,1,0,100,0,1
89836,1355.93220338983,4,1,0,100,1,9
89836,-15,4,1,0,100,0,1
89920,1355.93220338983,4,1,0,100,1,9
89920,-15,4,1,0,100,0,1
90005,1355.93220338983,4,1,0,100,1,9
90005,-15,4,1,0,100,0,1
90089,1355.93220338983,4,1,0,100,1,9
90089,-15,4,1,0,100,0,1
90174,1355.93220338983,4,1,0,100,1,9
90174,-15,4,1,0,100,0,1
90260,1355.93220338983,4,1,0,100,1,9
90260,-15,4,1,0,100,0,1
90345,1355.93220338983,4,1,0,100,1,9
90345,-15,4,1,0,100,0,1
90429,1355.93220338983,4,1,0,100,1,9
90429,-15,4,1,0,100,0,1
90514,1355.93220338983,4,1,0,100,1,9
90514,-15,4,1,0,100,0,1
90598,1355.93220338983,4,1,0,100,1,9
90598,-15,4,1,0,100,0,1
90683,1355.93220338983,4,1,0,100,1,9
90683,-15,4,1,0,100,0,1
90768,1355.93220338983,4,1,0,100,1,9
90768,-15,4,1,0,100,0,1
90853,1355.93220338983,4,1,0,100,1,9
90853,-15,4,1,0,100,0,1
90937,1355.93220338983,4,1,0,100,1,9
90937,-15,4,1,0,100,0,1
91022,1355.93220338983,4,1,0,100,1,9
91022,-15,4,1,0,100,0,1
91106,1355.93220338983,4,1,0,100,1,9
91106,-15,4,1,0,100,0,1
91191,1355.93220338983,4,1,0,100,1,9
91191,-15,4,1,0,100,0,1
91277,1355.93220338983,4,1,0,100,1,9
91277,-15,4,1,0,100,0,1
91362,1355.93220338983,4,1,0,100,1,9
91362,-15,4,1,0,100,0,1
91446,1355.93220338983,4,1,0,100,1,9
91446,-15,4,1,0,100,0,1
91531,1355.93220338983,4,1,0,100,1,9
91531,-15,4,1,0,100,0,1
91615,1355.93220338983,4,1,0,100,1,9
91615,-15,4,1,0,100,0,1
91700,1355.93220338983,4,1,0,100,1,9
91700,-15,4,1,0,100,0,1
91785,1355.93220338983,4,1,0,100,1,9
91785,-15,4,1,0,100,0,1
91870,1355.93220338983,4,1,0,100,1,9
91870,-15,4,1,0,100,0,1
91954,1355.93220338983,4,1,0,100,1,9
91954,-15,4,1,0,100,0,1
92039,1355.93220338983,4,1,0,100,1,9
92039,-15,4,1,0,100,0,1
92123,1355.93220338983,4,1,0,100,1,9
92123,-15,4,1,0,100,0,1
92208,1355.93220338983,4,1,0,100,1,9
92208,-15,4,1,0,100,0,1
92294,1355.93220338983,4,1,0,100,1,9
92294,-15,4,1,0,100,0,1
92379,1355.93220338983,4,1,0,100,1,9
92379,-15,4,1,0,100,0,1
92463,1355.93220338983,4,1,0,100,1,9
92463,-15,4,1,0,100,0,1
92548,1355.93220338983,4,1,0,100,1,9
92548,-15,4,1,0,100,0,1
92632,1355.93220338983,4,1,0,100,1,9
92632,-15,4,1,0,100,0,1
92717,1355.93220338983,4,1,0,100,1,9
92717,-15,4,1,0,100,0,1
92802,1355.93220338983,4,1,0,100,1,9
92802,-15,4,1,0,100,0,1
92887,1355.93220338983,4,1,0,100,1,9
92887,-15,4,1,0,100,0,1
92971,1355.93220338983,4,1,0,100,1,9
92971,-15,4,1,0,100,0,1
93056,1355.93220338983,4,1,0,100,1,9
93056,-15,4,1,0,100,0,1
93140,1355.93220338983,4,1,0,100,1,9
93140,-15,4,1,0,100,0,1
93225,1355.93220338983,4,1,0,100,1,9
93225,-15,4,1,0,100,0,1
93310,1355.93220338983,4,1,0,100,1,9
93310,-15,4,1,0,100,0,1
93395,1355.93220338983,4,1,0,100,1,9
93395,-15,4,1,0,100,0,1
93479,1355.93220338983,4,1,0,100,1,9
93479,-15,4,1,0,100,0,1
93564,1355.93220338983,4,1,0,100,1,9
93564,-15,4,1,0,100,0,1
93648,1355.93220338983,4,1,0,100,1,9
93648,-15,4,1,0,100,0,1
93733,1355.93220338983,4,1,0,100,1,9
93733,-15,4,1,0,100,0,1
93820,1355.93220338983,4,1,0,100,1,9
93820,-15,4,1,0,100,0,1
93905,1355.93220338983,4,1,0,100,1,9
93905,-15,4,1,0,100,0,1
93989,1355.93220338983,4,1,0,100,1,9
93989,-15,4,1,0,100,0,1
94074,1355.93220338983,4,1,0,100,1,9
94074,-15,4,1,0,100,0,1
94158,1355.93220338983,4,1,0,100,1,9
94158,-15,4,1,0,100,0,1
94243,1355.93220338983,4,1,0,100,1,9
94243,-15,4,1,0,100,0,1
94327,1355.93220338983,4,1,0,100,1,9
94327,-15,4,1,0,100,0,1
94412,1355.93220338983,4,1,0,100,1,9
94412,-15,4,1,0,100,0,1
94496,1355.93220338983,4,1,0,100,1,9
94496,-15,4,1,0,100,0,1
94581,1355.93220338983,4,1,0,100,1,9
94581,-15,4,1,0,100,0,1
94665,1355.93220338983,4,1,0,100,1,9
94665,-15,4,1,0,100,0,1
94750,1355.93220338983,4,1,0,100,1,9
94750,-15,4,1,0,100,0,1
94835,1355.93220338983,4,1,0,100,1,9
94835,-15,4,1,0,100,0,1
94920,1355.93220338983,4,1,0,100,1,9
94920,-15,4,1,0,100,0,1
95004,1355.93220338983,4,1,0,100,1,9
95004,-15,4,1,0,100,0,1
95089,1355.93220338983,4,1,0,100,1,9
95089,-15,4,1,0,100,0,1
95173,1355.93220338983,4,1,0,100,1,9
95173,-15,4,1,0,100,0,1
95258,1355.93220338983,4,1,0,100,1,9
95258,-15,4,1,0,100,0,1
95344,1355.93220338983,4,1,0,100,1,9
95344,-15,4,1,0,100,0,1
95429,1355.93220338983,4,1,0,100,1,9
95429,-15,4,1,0,100,0,1
95513,1355.93220338983,4,1,0,100,1,9
95513,-15,4,1,0,100,0,1
95598,1355.93220338983,4,1,0,100,1,9
95598,-15,4,1,0,100,0,1
95682,1355.93220338983,4,1,0,100,1,9
95682,-15,4,1,0,100,0,1
95767,1355.93220338983,4,1,0,100,1,9
95767,-15,4,1,0,100,0,1
95852,1355.93220338983,4,1,0,100,1,9
95852,-15,4,1,0,100,0,1
95937,1355.93220338983,4,1,0,100,1,9
95937,-15,4,1,0,100,0,1
96021,1355.93220338983,4,1,0,100,1,9
96021,-15,4,1,0,100,0,1
96106,1355.93220338983,4,1,0,100,1,9
96106,-15,4,1,0,100,0,1
96190,1355.93220338983,4,1,0,100,1,9
96190,-15,4,1,0,100,0,1
96275,1355.93220338983,4,1,0,100,1,9
96275,-15,4,1,0,100,0,1
96361,1355.93220338983,4,1,0,100,1,9
96361,-15,4,1,0,100,0,1
96446,1355.93220338983,4,1,0,100,1,9
96446,-15,4,1,0,100,0,1
96530,1355.93220338983,4,1,0,100,1,9
96530,-15,4,1,0,100,0,1
96615,1355.93220338983,4,1,0,100,1,9
96615,-15,4,1,0,100,0,1
96699,1355.93220338983,4,1,0,100,1,9
96699,-15,4,1,0,100,0,1
96784,1355.93220338983,4,1,0,100,1,9
96784,-15,4,1,0,100,0,1
96869,1355.93220338983,4,1,0,100,1,9
96869,-15,4,1,0,100,0,1
96954,1355.93220338983,4,1,0,100,1,9
96954,-15,4,1,0,100,0,1
97038,1355.93220338983,4,1,0,100,1,9
97038,-15,4,1,0,100,0,1
97123,1355.93220338983,4,1,0,100,1,9
97123,-15,4,1,0,100,0,1
97207,1355.93220338983,4,1,0,100,1,9
97207,-15,4,1,0,100,0,1
97292,1355.93220338983,4,1,0,100,1,9
97292,-15,4,1,0,100,0,1
97378,1355.93220338983,4,1,0,100,1,9
97378,-15,4,1,0,100,0,1
97463,1355.93220338983,4,1,0,100,1,9
97463,-15,4,1,0,100,0,1
97547,1355.93220338983,4,1,0,100,1,9
97547,-15,4,1,0,100,0,1
97632,1355.93220338983,4,1,0,100,1,9
97632,-15,4,1,0,100,0,0
97716,1355.93220338983,4,1,0,100,1,8
97716,-15,4,1,0,100,0,0
97801,1355.93220338983,4,1,0,100,1,8
97801,-15,4,1,0,100,0,0
97886,1355.93220338983,4,1,0,100,1,8
97886,-15,4,1,0,100,0,0
97971,1355.93220338983,4,1,0,100,1,8
97971,-15,4,1,0,100,0,0
98055,1355.93220338983,4,1,0,100,1,8
98055,-15,4,1,0,100,0,0
98140,1355.93220338983,4,1,0,100,1,8
98140,-15,4,1,0,100,0,0
98224,1355.93220338983,4,1,0,100,1,8
98224,-15,4,1,0,100,0,0
98309,1355.93220338983,4,1,0,100,1,8
98309,-15,4,1,0,100,0,0
98395,1355.93220338983,4,1,0,100,1,8
98395,-15,4,1,0,100,0,0
98480,1355.93220338983,4,1,0,100,1,8
98480,-15,4,1,0,100,0,0
98564,1355.93220338983,4,1,0,100,1,8
98564,-15,4,1,0,100,0,0
98649,1355.93220338983,4,1,0,100,1,8
98649,-15,4,1,0,100,0,0
98733,1355.93220338983,4,1,0,100,1,8
98733,-15,4,1,0,100,0,0
98818,1355.93220338983,4,1,0,100,1,8
98818,-15,4,1,0,100,0,0
98903,1355.93220338983,4,1,0,100,1,9
98903,-15,4,1,0,100,0,1
98988,1355.93220338983,4,1,0,100,1,9
98988,-15,4,1,0,100,0,1
99072,1355.93220338983,4,1,0,100,1,9
99072,-15,4,1,0,100,0,1
99157,1355.93220338983,4,1,0,100,1,9
99157,-15,4,1,0,100,0,1
99241,1355.93220338983,4,1,0,100,1,9
99241,-15,4,1,0,100,0,1
99326,1355.93220338983,4,1,0,100,1,9
99326,-15,4,1,0,100,0,1
99411,1355.93220338983,4,1,0,100,1,9
99411,-15,4,1,0,100,0,1
99496,1355.93220338983,4,1,0,100,1,9
99496,-15,4,1,0,100,0,1
99580,1355.93220338983,4,1,0,100,1,9
99580,-15,4,1,0,100,0,1
99665,1355.93220338983,4,1,0,100,1,9
99665,-15,4,1,0,100,0,1
99749,1355.93220338983,4,1,0,100,1,9
99749,-15,4,1,0,100,0,1
99834,1355.93220338983,4,1,0,100,1,9
99834,-15,4,1,0,100,0,1
99921,1355.93220338983,4,1,0,100,1,9
99921,-15,4,1,0,100,0,1
100006,1355.93220338983,4,1,0,100,1,9
100006,-15,4,1,0,100,0,1
100090,1355.93220338983,4,1,0,100,1,9
100090,-15,4,1,0,100,0,1
100175,1355.93220338983,4,1,0,100,1,9
100175,-15,4,1,0,100,0,1
100259,1355.93220338983,4,1,0,100,1,9
100259,-15,4,1,0,100,0,1
100344,1355.93220338983,4,1,0,100,1,9
100344,-15,4,1,0,100,0,1
100428,1355.93220338983,4,1,0,100,1,9
100428,-15,4,1,0,100,0,1
100513,1355.93220338983,4,1,0,100,1,9
100513,-15,4,1,0,100,0,1
100597,1355.93220338983,4,1,0,100,1,9
100597,-15,4,1,0,100,0,1
100682,1355.93220338983,4,1,0,100,1,9
100682,-15,4,1,0,100,0,1
100766,1355.93220338983,4,1,0,100,1,9
100766,-15,4,1,0,100,0,1
100851,1355.93220338983,4,1,0,100,1,9
100851,-15,4,1,0,100,0,1
100936,1355.93220338983,4,1,0,100,1,9
100936,-15,4,1,0,100,0,1
101021,1355.93220338983,4,1,0,100,1,9
101021,-15,4,1,0,100,0,1
101105,1355.93220338983,4,1,0,100,1,9
101105,-15,4,1,0,100,0,1
101190,1355.93220338983,4,1,0,100,1,9
101190,-15,4,1,0,100,0,1
101274,1355.93220338983,4,1,0,100,1,9
101274,-15,4,1,0,100,0,1
101359,1355.93220338983,4,1,0,100,1,9
101359,-15,4,1,0,100,0,1
101446,1355.93220338983,4,1,0,100,1,9
101446,-15,4,1,0,100,0,1
101531,1355.93220338983,4,1,0,100,1,9
101531,-15,4,1,0,100,0,1
101615,1355.93220338983,4,1,0,100,1,9
101615,-15,4,1,0,100,0,1
101700,1355.93220338983,4,1,0,100,1,9
101700,-15,4,1,0,100,0,1
101784,1355.93220338983,4,1,0,100,1,9
101784,-15,4,1,0,100,0,1
101869,1355.93220338983,4,1,0,100,1,9
101869,-15,4,1,0,100,0,1
101953,1355.93220338983,4,1,0,100,1,9
101953,-15,4,1,0,100,0,1
102037,1355.93220338983,4,1,0,100,1,9
102037,-15,4,1,0,100,0,1
102122,1355.93220338983,4,1,0,100,1,9
102122,-15,4,1,0,100,0,1
102206,1355.93220338983,4,1,0,100,1,9
102206,-15,4,1,0,100,0,1
102291,1355.93220338983,4,1,0,100,1,9
102291,-15,4,1,0,100,0,1
102375,1355.93220338983,4,1,0,100,1,9
102375,-15,4,1,0,100,0,1
102459,1355.93220338983,4,1,0,100,1,9
102459,-15,4,1,0,100,0,1
102544,1355.93220338983,4,1,0,100,1,9
102544,-15,4,1,0,100,0,1
102628,1355.93220338983,4,1,0,100,1,9
102628,-15,4,1,0,100,0,1
102713,1355.93220338983,4,1,0,100,1,9
102713,-15,4,1,0,100,0,1
102797,1355.93220338983,4,1,0,100,1,9
102797,-15,4,1,0,100,0,1
102881,1355.93220338983,4,1,0,100,1,9
102881,-15,4,1,0,100,0,1
102966,1355.93220338983,4,1,0,100,1,9
102966,-15,4,1,0,100,0,1
103050,1355.93220338983,4,1,0,100,1,9
103050,-15,4,1,0,100,0,1
103135,1355.93220338983,4,1,0,100,1,9
103135,-15,4,1,0,100,0,1
103219,1355.93220338983,4,1,0,100,1,9
103219,-15,4,1,0,100,0,1
103303,1355.93220338983,4,1,0,100,1,9
103303,-15,4,1,0,100,0,1
103388,1355.93220338983,4,1,0,100,1,9
103388,-15,4,1,0,100,0,1
103472,1355.93220338983,4,1,0,100,1,9
103472,-15,4,1,0,100,0,1
103557,1355.93220338983,4,1,0,100,1,9
103557,-15,4,1,0,100,0,1
103641,1355.93220338983,4,1,0,100,1,9
103641,-15,4,1,0,100,0,1
103735,1355.93220338983,4,1,0,100,1,9
103735,-15,4,1,0,100,0,1
103820,1355.93220338983,4,1,0,100,1,9
103820,-15,4,1,0,100,0,1
103904,1355.93220338983,4,1,0,100,1,9
103904,-15,4,1,0,100,0,1
103989,1355.93220338983,4,1,0,100,1,9
103989,-15,4,1,0,100,0,1
104073,1355.93220338983,4,1,0,100,1,9
104073,-15,4,1,0,100,0,1
104158,1355.93220338983,4,1,0,100,1,9
104158,-15,4,1,0,100,0,1
104243,1355.93220338983,4,1,0,100,1,9
104243,-15,4,1,0,100,0,1
104328,1355.93220338983,4,1,0,100,1,9
104328,-15,4,1,0,100,0,1
104412,1355.93220338983,4,1,0,100,1,9
104412,-15,4,1,0,100,0,1
104497,1355.93220338983,4,1,0,100,1,9
104497,-15,4,1,0,100,0,1
104581,1355.93220338983,4,1,0,100,1,9
104581,-15,4,1,0,100,0,1
104666,1355.93220338983,4,1,0,100,1,9
104666,-15,4,1,0,100,0,1
104752,1355.93220338983,4,1,0,100,1,9
104752,-15,4,1,0,100,0,1
104837,1355.93220338983,4,1,0,100,1,9
104837,-15,4,1,0,100,0,1
104921,1355.93220338983,4,1,0,100,1,9
104921,-15,4,1,0,100,0,1
105006,1355.93220338983,4,1,0,100,1,9
105006,-15,4,1,0,100,0,1
105090,1355.93220338983,4,1,0,100,1,9
105090,-15,4,1,0,100,0,1
105175,1355.93220338983,4,1,0,100,1,9
105175,-15,4,1,0,100,0,1
105260,1355.93220338983,4,1,0,100,1,9
105260,-15,4,1,0,100,0,1
105345,1355.93220338983,4,1,0,100,1,9
105345,-15,4,1,0,100,0,1
105429,1355.93220338983,4,1,0,100,1,9
105429,-15,4,1,0,100,0,1
105514,1355.93220338983,4,1,0,100,1,9
105514,-15,4,1,0,100,0,1
105598,1355.93220338983,4,1,0,100,1,9
105598,-15,4,1,0,100,0,1
105683,1355.93220338983,4,1,0,100,1,9
105683,-15,4,1,0,100,0,1
105769,1355.93220338983,4,1,0,100,1,9
105769,-15,4,1,0,100,0,1
105854,1355.93220338983,4,1,0,100,1,9
105854,-15,4,1,0,100,0,1
105938,1355.93220338983,4,1,0,100,1,9
105938,-15,4,1,0,100,0,1
106023,1355.93220338983,4,1,0,100,1,9
106023,-15,4,1,0,100,0,1
106107,1355.93220338983,4,1,0,100,1,9
106107,-15,4,1,0,100,0,1
106192,1355.93220338983,4,1,0,100,1,9
106192,-15,4,1,0,100,0,1
106277,1355.93220338983,4,1,0,100,1,9
106277,-15,4,1,0,100,0,1
106362,1355.93220338983,4,1,0,100,1,9
106362,-15,4,1,0,100,0,1
106446,1355.93220338983,4,1,0,100,1,9
106446,-15,4,1,0,100,0,1
106531,1355.93220338983,4,1,0,100,1,9
106531,-15,4,1,0,100,0,1
106615,1355.93220338983,4,1,0,100,1,9
106615,-15,4,1,0,100,0,1
106700,1355.93220338983,4,1,0,100,1,9
106700,-15,4,1,0,100,0,1
106786,1355.93220338983,4,1,0,100,1,9
106786,-15,4,1,0,100,0,1
106871,1355.93220338983,4,1,0,100,1,9
106871,-15,4,1,0,100,0,1
106955,1355.93220338983,4,1,0,100,1,9
106955,-15,4,1,0,100,0,1
107040,1355.93220338983,4,1,0,100,1,9
107040,-15,4,1,0,100,0,1
107124,1355.93220338983,4,1,0,100,1,9
107124,-15,4,1,0,100,0,1
107209,1355.93220338983,4,1,0,100,1,9
107209,-15,4,1,0,100,0,1
107294,1355.93220338983,4,1,0,100,1,9
107294,-15,4,1,0,100,0,1
107379,1355.93220338983,4,1,0,100,1,9
107379,-15,4,1,0,100,0,1
107463,1355.93220338983,4,1,0,100,1,9
107463,-15,4,1,0,100,0,1
107548,1355.93220338983,4,1,0,100,1,9
107548,-15,4,1,0,100,0,1
107632,1355.93220338983,4,1,0,100,1,9
107632,-15,4,1,0,100,0,1
107717,1355.93220338983,4,1,0,100,1,9
107717,-15,4,1,0,100,0,1
107803,1355.93220338983,4,1,0,100,1,9
107803,-15,4,1,0,100,0,1
107888,1355.93220338983,4,1,0,100,1,9
107888,-15,4,1,0,100,0,1
107972,1355.93220338983,4,1,0,100,1,9
107972,-15,4,1,0,100,0,1
108057,1355.93220338983,4,1,0,100,1,9
108057,-15,4,1,0,100,0,1
108141,1355.93220338983,4,1,0,100,1,9
108141,-15,4,1,0,100,0,1
108226,1355.93220338983,4,1,0,100,1,9
108226,-15,4,1,0,100,0,1
108311,1355.93220338983,4,1,0,100,1,9
108311,-15,4,1,0,100,0,1
108396,1355.93220338983,4,1,0,100,1,9
108396,-15,4,1,0,100,0,1
108480,1355.93220338983,4,1,0,100,1,9
108480,-15,4,1,0,100,0,1
108565,1355.93220338983,4,1,0,100,1,9
108565,-15,4,1,0,100,0,1
108649,1355.93220338983,4,1,0,100,1,9
108649,-15,4,1,0,100,0,1
108734,1355.93220338983,4,1,0,100,1,9
108734,-15,4,1,0,100,0,1
108819,1355.93220338983,4,1,0,100,1,9
108819,-15,4,1,0,100,0,1
108904,1355.93220338983,4,1,0,100,1,9
108904,-15,4,1,0,100,0,1
108988,1355.93220338983,4,1,0,100,1,9
108988,-15,4,1,0,100,0,1
109073,1355.93220338983,4,1,0,100,1,9
109073,-15,4,1,0,100,0,1
109157,1355.93220338983,4,1,0,100,1,9
109157,-15,4,1,0,100,0,1
109242,1355.93220338983,4,1,0,100,1,9
109242,-15,4,1,0,100,0,1
109329,1355.93220338983,4,1,0,100,1,9
109329,-15,4,1,0,100,0,1
109414,1355.93220338983,4,1,0,100,1,9
109414,-15,4,1,0,100,0,1
109498,1355.93220338983,4,1,0,100,1,9
109498,-15,4,1,0,100,0,1
109583,1355.93220338983,4,1,0,100,1,9
109583,-15,4,1,0,100,0,1
109667,1355.93220338983,4,1,0,100,1,9
109667,-15,4,1,0,100,0,1
109752,1355.93220338983,4,1,0,100,1,9
109752,-15,4,1,0,100,0,1
109837,338.983050847458,4,1,0,100,1,0
109837,-58.8235294117647,4,1,0,100,0,0
110006,-83.3333333333333,4,1,0,100,0,0
112548,-90.9090909090909,4,1,0,100,0,0
115514,-100,4,1,0,100,0,0
117972,-111.111111111111,4,1,0,100,0,0
120938,-125,4,1,0,100,0,0
123396,-142.857142857143,4,1,0,100,0,0
126362,-166.666666666667,4,1,0,100,0,0
128820,-200,4,1,0,100,0,0
129667,-222.222222222222,4,1,0,100,0,0
130175,-250,4,1,0,100,0,0
130684,-277.777777777778,4,1,0,100,0,0
131192,-303.030303030303,4,1,0,100,0,0
131532,338.983050847458,4,1,0,100,1,0
131532,-303.030303030303,4,1,0,100,0,0
132040,0.45,4,1,0,100,1,0
132040,-100000000,4,1,0,100,0,0
132220,338.983050847458,4,1,0,100,1,8
132379,0.45,4,1,0,100,1,0
132379,-100000000,4,1,0,100,0,0
132499,338.983050847458,4,1,0,100,1,8
132887,0.25,4,1,0,100,1,0
132887,-100000000,4,1,0,100,0,0
132987,338.983050847458,4,1,0,100,1,8
133396,0.45,4,1,0,100,1,0
133396,-100000000,4,1,0,100,0,0
133516,338.983050847458,4,1,0,100,1,8
133735,0.45,4,1,0,100,1,0
133735,-100000000,4,1,0,100,0,0
133855,338.983050847458,4,1,0,100,1,8
134243,338.983050847458,4,1,0,100,1,0
134243,-333.333333333333,4,1,0,100,0,0
134751,0.45,4,1,0,100,1,0
134751,-100000000,4,1,0,100,0,0
134931,338.983050847458,4,1,0,100,1,8
135090,0.45,4,1,0,100,1,0
135090,-100000000,4,1,0,100,0,0
135210,338.983050847458,4,1,0,100,1,8
135598,0.25,4,1,0,100,1,0
135598,-100000000,4,1,0,100,0,0
135698,338.983050847458,4,1,0,100,1,8
136107,0.45,4,1,0,100,1,0
136107,-100000000,4,1,0,100,0,0
136227,338.983050847458,4,1,0,100,1,8
136446,0.45,4,1,0,100,1,0
136446,-100000000,4,1,0,100,0,0
136566,338.983050847458,4,1,0,100,1,8
136954,338.983050847458,4,1,0,100,1,0
136954,-333.333333333333,4,1,0,100,0,0
136955,338.983050847458,4,1,0,100,1,0
136955,-333.333333333333,4,1,0,100,0,0
137463,0.45,4,1,0,100,1,0
137463,-100000000,4,1,0,100,0,0
137643,338.983050847458,4,1,0,100,1,8
137802,0.45,4,1,0,100,1,0
137802,-100000000,4,1,0,100,0,0
137922,338.983050847458,4,1,0,100,1,8
138310,0.25,4,1,0,100,1,0
138310,-100000000,4,1,0,100,0,0
138410,338.983050847458,4,1,0,100,1,8
138819,0.45,4,1,0,100,1,0
138819,-100000000,4,1,0,100,0,0
138939,338.983050847458,4,1,0,100,1,8
139158,0.45,4,1,0,100,1,0
139158,-100000000,4,1,0,100,0,0
139278,338.983050847458,4,1,0,100,1,8
139666,338.983050847458,4,1,0,100,1,0
139666,-333.333333333333,4,1,0,100,0,0
140174,0.45,4,1,0,100,1,0
140174,-100000000,4,1,0,100,0,0
140354,338.983050847458,4,1,0,100,1,8
140513,0.45,4,1,0,100,1,0
140513,-100000000,4,1,0,100,0,0
140633,338.983050847458,4,1,0,100,1,8
141021,0.25,4,1,0,100,1,0
141021,-100000000,4,1,0,100,0,0
141121,338.983050847458,4,1,0,100,1,8
141530,0.45,4,1,0,100,1,0
141530,-100000000,4,1,0,100,0,0
141650,338.983050847458,4,1,0,100,1,8
141869,0.45,4,1,0,100,1,0
141869,-100000000,4,1,0,100,0,0
141989,338.983050847458,4,1,0,100,1,8
142377,338.983050847458,4,1,0,100,1,0
142377,-333.333333333333,4,1,0,100,0,0
142885,0.45,4,1,0,100,1,0
142885,-100000000,4,1,0,100,0,0
143065,338.983050847458,4,1,0,100,1,8
143224,0.45,4,1,0,100,1,0
143224,-100000000,4,1,0,100,0,0
143344,338.983050847458,4,1,0,100,1,8
143732,0.25,4,1,0,100,1,0
143732,-100000000,4,1,0,100,0,0
143832,338.983050847458,4,1,0,100,1,8
144241,0.45,4,1,0,100,1,0
144241,-100000000,4,1,0,100,0,0
144361,338.983050847458,4,1,0,100,1,8
144580,0.45,4,1,0,100,1,0
144580,-100000000,4,1,0,100,0,0
144700,338.983050847458,4,1,0,100,1,8
145088,338.983050847458,4,1,0,100,1,0
145088,-333.333333333333,4,1,0,100,0,0
145596,0.45,4,1,0,100,1,0
145596,-100000000,4,1,0,100,0,0
145776,338.983050847458,4,1,0,100,1,8
145935,0.45,4,1,0,100,1,0
145935,-100000000,4,1,0,100,0,0
146055,338.983050847458,4,1,0,100,1,8
146443,0.25,4,1,0,100,1,0
146443,-100000000,4,1,0,100,0,0
146543,338.983050847458,4,1,0,100,1,8
146952,0.45,4,1,0,100,1,0
146952,-100000000,4,1,0,100,0,0
147072,338.983050847458,4,1,0,100,1,8
147291,0.45,4,1,0,100,1,0
147291,-100000000,4,1,0,100,0,0
147411,338.983050847458,4,1,0,100,1,8
147799,338.983050847458,4,1,0,100,1,0
147799,-333.333333333333,4,1,0,100,0,0
148307,0.45,4,1,0,100,1,0
148307,-100000000,4,1,0,100,0,0
148487,338.983050847458,4,1,0,100,1,8
148646,0.45,4,1,0,100,1,0
148646,-100000000,4,1,0,100,0,0
148766,338.983050847458,4,1,0,100,1,8
149154,0.25,4,1,0,100,1,0
149154,-100000000,4,1,0,100,0,0
149254,338.983050847458,4,1,0,100,1,8
149663,0.45,4,1,0,100,1,0
149663,-100000000,4,1,0,100,0,0
149783,338.983050847458,4,1,0,100,1,8
150002,0.45,4,1,0,100,1,0
150002,-100000000,4,1,0,100,0,0
150122,338.983050847458,4,1,0,100,1,8
150510,338.983050847458,4,1,0,100,1,0
150510,-333.333333333333,4,1,0,100,0,0
151018,0.45,4,1,0,100,1,0
151018,-100000000,4,1,0,100,0,0
151198,338.983050847458,4,1,0,100,1,8
151357,0.45,4,1,0,100,1,0
151357,-100000000,4,1,0,100,0,0
151477,338.983050847458,4,1,0,100,1,8
151865,0.25,4,1,0,100,1,0
151865,-100000000,4,1,0,100,0,0
151871,338.983050847458,4,1,0,100,1,8
151871,-250,4,1,0,100,0,8
153221,338.983050847458,4,1,0,100,1,0
153221,-200,4,1,0,100,0,0
153226,338.983050847458,4,1,0,100,1,0
153226,-142.857142857143,4,1,0,100,0,0
155938,-25,4,1,0,100,0,0
156023,-142.857142857143,4,1,0,100,0,0
156616,-142.857142857143,4,1,0,100,0,0
158650,-25,4,1,0,100,0,0
158735,-142.857142857143,4,1,0,100,0,0
161362,-25,4,1,0,100,0,0
161447,-142.857142857143,4,1,0,100,0,0
164074,-111.111111111111,4,1,0,100,0,0
166786,-90.909090909091,4,1,0,100,0,0
169498,-71.4285714285714,4,1,0,100,0,0
170175,-76.9230769230769,4,1,0,100,0,0
170853,-62.5,4,1,0,100,0,0
171531,-66.6666666666667,4,1,0,100,0,0
172209,-66.6666666666667,4,1,0,100,0,0
172294,-66.2251655629139,4,1,0,100,0,0
172379,-65.7894736842105,4,1,0,100,0,0
172464,-64.9350649350649,4,1,0,100,0,0
172548,-64.1025641025641,4,1,0,100,0,0
172633,-62.8930817610063,4,1,0,100,0,0
172718,-61.7283950617284,4,1,0,100,0,0
172803,-60.2409638554217,4,1,0,100,0,0
172887,-58.8235294117647,4,1,0,100,0,0
172972,-57.4712643678161,4,1,0,100,0,0
173057,-56.1797752808989,4,1,0,100,0,0
173142,-54.9450549450549,4,1,0,100,0,0
173226,-53.763440860215,4,1,0,100,0,0
173311,-52.6315789473684,4,1,0,100,0,0
173396,-51.5463917525773,4,1,0,100,0,0
173481,-50.5050505050505,4,1,0,100,0,0
173565,-49.5049504950495,4,1,0,100,0,0
173735,-58.1395348837209,4,1,0,100,0,0
173820,-57.8034682080925,4,1,0,100,0,0
173904,-57.4712643678161,4,1,0,100,0,0
173961,-56.8181818181818,4,1,0,100,0,0
174074,-56.1797752808989,4,1,0,100,0,0
174130,-55.2486187845304,4,1,0,100,0,0
174243,-54.054054054054,4,1,0,100,0,0
174328,-52.9100529100529,4,1,0,100,0,0
174413,-51.5463917525773,4,1,0,100,0,0
174498,-50.251256281407,4,1,0,100,0,0
174582,-49.0196078431373,4,1,0,100,0,0
174639,-47.8468899521531,4,1,0,100,0,0
174695,-46.7289719626168,4,1,0,100,0,0
174752,-45.662100456621,4,1,0,100,0,0
174922,-70.2702702702703,4,1,0,100,0,1
175091,-69.1489361702128,4,1,0,100,0,1
175148,-68.0628272251309,4,1,0,100,0,1
175204,-67.0103092783505,4,1,0,100,0,1
175261,-65.989847715736,4,1,0,100,0,1
175430,-65,4,1,0,100,0,1
175769,-64.0394088669951,4,1,0,100,0,1
175939,-63.1067961165049,4,1,0,100,0,1
175995,-62.200956937799,4,1,0,100,0,1
176052,-61.3207547169811,4,1,0,100,0,1
176108,-60.4651162790698,4,1,0,100,0,1
176278,-59.6330275229358,4,1,0,100,0,1
176363,-58.8235294117647,4,1,0,100,0,1
176447,-58.0357142857143,4,1,0,100,0,1
176504,-57.2687224669604,4,1,0,100,0,1
176560,-56.5217391304348,4,1,0,100,0,1
176617,-55.793991416309,4,1,0,100,0,1
176786,-55.0847457627119,4,1,0,100,0,1
176956,-54.3933054393305,4,1,0,100,0,1
177012,-53.7190082644628,4,1,0,100,0,1
177125,-53.0612244897959,4,1,0,100,0,1
177182,-52.4193548387097,4,1,0,100,0,1
177295,-51.792828685259,4,1,0,100,0,1
177464,-51.1811023622047,4,1,0,100,0,1
177521,-50.5836575875486,4,1,0,100,0,1
177577,-50,4,1,0,100,0,1
177634,-50.6329113924051,4,1,0,100,0,1
177888,-51.2820512820513,4,1,0,100,0,1
177973,-51.9480519480519,4,1,0,100,0,1
178142,-52.6315789473684,4,1,0,100,0,1
178312,-53.3333333333333,4,1,0,100,0,1
178397,-54.054054054054,4,1,0,100,0,1
178481,-54.7945205479452,4,1,0,100,0,1
178651,-55.5555555555556,4,1,0,100,0,1
178736,-56.3380281690141,4,1,0,100,0,1
178820,-57.1428571428571,4,1,0,100,0,1
178905,-57.9710144927536,4,1,0,100,0,1
178990,-58.8235294117647,4,1,0,100,0,1
179159,-59.7014925373134,4,1,0,100,0,1
179244,-60.6060606060606,4,1,0,100,0,1
179329,-61.5384615384615,4,1,0,100,0,1
179498,-62.5,4,1,0,100,0,1
179668,-63.4920634920635,4,1,0,100,0,1
179753,-64.5161290322581,4,1,0,100,0,1
179837,-65.5737704918033,4,1,0,100,0,1
179922,-66.6666666666667,4,1,0,100,0,1
180007,-67.7966101694915,4,1,0,100,0,1
180091,-68.9655172413793,4,1,0,100,0,1
180176,-70.1754385964912,4,1,0,100,0,1
180261,-71.4285714285714,4,1,0,100,0,1
180346,-72.8291316526611,4,1,0,100,0,1
180515,-74.2857142857143,4,1,0,100,0,1
180572,-75.801749271137,4,1,0,100,0,1
180628,-77.3809523809524,4,1,0,100,0,1
180685,-79.0273556231003,4,1,0,100,0,1
180854,-80.7453416149068,4,1,0,100,0,1
181193,-82.5396825396825,4,1,0,100,0,1
181363,-84.4155844155844,4,1,0,100,0,1
181419,-86.3787375415283,4,1,0,100,0,1
181476,-88.4353741496599,4,1,0,100,0,1
181532,-90.5923344947735,4,1,0,100,0,1
181702,-92.8571428571429,4,1,0,100,0,1
181787,-95.2380952380953,4,1,0,100,0,1
181871,-97.7443609022557,4,1,0,100,0,1
181928,-100.3861003861,4,1,0,100,0,1
181984,-103.174603174603,4,1,0,100,0,1
182041,-106.122448979592,4,1,0,100,0,1
182210,-109.243697478992,4,1,0,100,0,1
182380,-112.554112554113,4,1,0,100,0,1
182436,-116.071428571429,4,1,0,100,0,1
182549,-119.815668202765,4,1,0,100,0,1
182606,-123.809523809524,4,1,0,100,0,1
182719,-128.07881773399,4,1,0,100,0,1
182888,-132.65306122449,4,1,0,100,0,1
182945,-137.566137566138,4,1,0,100,0,1
183001,-142.857142857143,4,1,0,100,0,1
183058,-136.645962732919,4,1,0,100,0,1
183312,-130.952380952381,4,1,0,100,0,1
183397,-125.714285714286,4,1,0,100,0,1
183566,-120.879120879121,4,1,0,100,0,1
183736,-116.402116402116,4,1,0,100,0,1
183821,-112.244897959184,4,1,0,100,0,1
183905,-108.374384236453,4,1,0,100,0,1
183990,-104.761904761905,4,1,0,100,0,1
184075,-101.382488479263,4,1,0,100,0,1
184244,-98.2142857142857,4,1,0,100,0,1
184414,-95.2380952380953,4,1,0,100,0,1
184583,-92.436974789916,4,1,0,100,0,1
184668,-89.7959183673469,4,1,0,100,0,1
184753,-87.3015873015873,4,1,0,100,0,1
184837,-84.9420849420849,4,1,0,100,0,1
184922,-82.7067669172932,4,1,0,100,0,1
185091,-80.5860805860806,4,1,0,100,0,1
185261,-78.5714285714286,4,1,0,100,0,1
185430,-76.6550522648084,4,1,0,100,0,1
185600,-74.8299319727891,4,1,0,100,0,1
185685,-73.0897009966777,4,1,0,100,0,1
185769,-46.0829493087558,4,1,0,100,0,1
185769,-71.4285714285714,4,1,0,100,0,1
185939,-46.7289719626168,4,1,0,100,0,1
185996,-47.3933649289099,4,1,0,100,0,1
186052,-48.0769230769231,4,1,0,100,0,1
186109,-48.780487804878,4,1,0,100,0,1
186278,-49.5049504950495,4,1,0,100,0,1
186617,-50.251256281407,4,1,0,100,0,1
186787,-51.0204081632653,4,1,0,100,0,1
186843,-51.8134715025907,4,1,0,100,0,1
186900,-52.6315789473684,4,1,0,100,0,1
186956,-53.475935828877,4,1,0,100,0,1
187126,-54.3478260869565,4,1,0,100,0,1
187211,-55.2486187845304,4,1,0,100,0,1
187295,-56.1797752808989,4,1,0,100,0,1
187352,-57.1428571428571,4,1,0,100,0,1
187408,-58.1395348837209,4,1,0,100,0,1
187465,-59.1715976331361,4,1,0,100,0,1
187634,-60.2409638554217,4,1,0,100,0,1
187804,-61.3496932515337,4,1,0,100,0,1
187860,-62.5,4,1,0,100,0,1
187973,-63.6942675159236,4,1,0,100,0,1
188030,-64.9350649350649,4,1,0,100,0,1
188143,-66.2251655629139,4,1,0,100,0,1
188312,-67.5675675675676,4,1,0,100,0,1
188369,-68.9655172413793,4,1,0,100,0,1
188425,-70.4225352112676,4,1,0,100,0,1
188482,-71.9424460431655,4,1,0,100,0,1
188736,-73.5294117647059,4,1,0,100,0,1
188821,-75.187969924812,4,1,0,100,0,1
188990,-76.9230769230769,4,1,0,100,0,1
189160,-78.740157480315,4,1,0,100,0,1
189245,-80.6451612903226,4,1,0,100,0,1
189329,-82.6446280991736,4,1,0,100,0,1
189499,-84.7457627118644,4,1,0,100,0,1
189584,-86.9565217391304,4,1,0,100,0,1
189668,-89.2857142857143,4,1,0,100,0,1
189753,-91.7431192660551,4,1,0,100,0,1
189838,-94.3396226415094,4,1,0,100,0,1
190007,-97.0873786407767,4,1,0,100,0,1
190092,-100,4,1,0,100,0,1
190177,-103.092783505155,4,1,0,100,0,1
190346,-106.382978723404,4,1,0,100,0,1
190516,-109.89010989011,4,1,0,100,0,1
190601,-113.636363636364,4,1,0,100,0,1
190685,-117.647058823529,4,1,0,100,0,1
190770,-121.951219512195,4,1,0,100,0,1
190855,-126.582278481013,4,1,0,100,0,1
190939,-131.578947368421,4,1,0,100,0,1
191024,-136.986301369863,4,1,0,100,0,1
191109,-142.857142857143,4,1,0,100,0,1
191194,-135.734072022161,4,1,0,100,0,1
191363,-129.287598944591,4,1,0,100,0,1
191420,-123.425692695214,4,1,0,100,0,1
191476,-118.072289156627,4,1,0,100,0,1
191533,-113.163972286374,4,1,0,100,0,1
191702,-108.647450110865,4,1,0,100,0,1
192041,-104.477611940299,4,1,0,100,0,1
192211,-100.616016427105,4,1,0,100,0,1
192267,-97.029702970297,4,1,0,100,0,1
192324,-93.6902485659656,4,1,0,100,0,1
192380,-90.5730129390019,4,1,0,100,0,1
192550,-87.6565295169946,4,1,0,100,0,1
192635,-84.9220103986135,4,1,0,100,0,1
192719,-82.3529411764706,4,1,0,100,0,1
192776,-79.9347471451876,4,1,0,100,0,1
192832,-77.6545166402536,4,1,0,100,0,1
192889,-75.5007704160247,4,1,0,100,0,1
193058,-73.4632683658171,4,1,0,100,0,1
193228,-71.5328467153285,4,1,0,100,0,1
193284,-69.701280227596,4,1,0,100,0,1
193397,-67.9611650485437,4,1,0,100,0,1
193454,-66.3058186738836,4,1,0,100,0,1
193567,-64.7291941875826,4,1,0,100,0,1
193736,-63.2258064516129,4,1,0,100,0,1
193793,-61.7906683480454,4,1,0,100,0,1
193849,-60.4192355117139,4,1,0,100,0,1
193906,-59.1073582629674,4,1,0,100,0,1
194160,-57.8512396694215,4,1,0,100,0,1
194245,-56.6473988439306,4,1,0,100,0,1
194414,-55.4926387315968,4,1,0,100,0,1
194584,-54.3840177580466,4,1,0,100,0,1
194669,-53.3188248095756,4,1,0,100,0,1
194753,-52.2945570971185,4,1,0,100,0,1
194838,-51.3089005235602,4,1,0,100,0,1
194923,-50.3597122302158,4,1,0,100,0,1
195092,-49.4450050454087,4,1,0,100,0,1
195262,-48.5629335976214,4,1,0,100,0,1
195431,-47.7117818889971,4,1,0,100,0,1
195516,-46.88995215311,4,1,0,100,0,1
195601,-46.0959548447789,4,1,0,100,0,1
195685,-45.3283996299722,4,1,0,100,0,1
195770,-44.5859872611465,4,1,0,100,0,1
195939,-43.8675022381379,4,1,0,100,0,1
196109,-43.1718061674009,4,1,0,100,0,1
196193,-42.4978317432784,4,1,0,100,0,1
196278,-41.8445772843723,4,1,0,100,0,1
196363,-41.2111017661901,4,1,0,100,0,1
196448,-40.5965202982602,4,1,0,100,0,1
196533,-40,4,1,0,100,0,1
196616,-40,4,1,0,100,0,1
196701,-71.4285714285714,4,1,0,100,0,1
197972,-68.9655172413793,4,1,0,100,0,1
198650,-66.6666666666667,4,1,0,100,0,1
199328,-71.4285714285714,4,1,0,100,0,1
200684,-71.4285714285714,4,1,0,100,0,1
200769,-71.9424460431655,4,1,0,100,0,1
200853,-72.992700729927,4,1,0,100,0,1
200938,-74.6268656716418,4,1,0,100,0,1
201023,-76.9230769230769,4,1,0,100,0,1
201108,-80,4,1,0,100,0,1
201192,-84.0336134453781,4,1,0,100,0,1
201277,-89.2857142857143,4,1,0,100,0,1
201362,-71.4285714285714,4,1,0,100,0,1
201447,-71.9424460431655,4,1,0,100,0,1
201531,-72.992700729927,4,1,0,100,0,1
201616,-74.6268656716418,4,1,0,100,0,1
201701,-76.9230769230769,4,1,0,100,0,1
201786,-80,4,1,0,100,0,1
201870,-84.0336134453781,4,1,0,100,0,1
201955,-89.2857142857143,4,1,0,100,0,1
202040,-71.4285714285714,4,1,0,100,0,1
203452,-74.0740740740741,4,1,0,100,0,1
203509,-76.9230769230769,4,1,0,100,0,1
203565,-80,4,1,0,100,0,1
203735,-71.4285714285714,4,1,0,100,0,1
203791,-74.0740740740741,4,1,0,100,0,1
203848,-76.9230769230769,4,1,0,100,0,1
203904,-80,4,1,0,100,0,1
204074,-71.4285714285714,4,1,0,100,0,1
206023,-71.4285714285714,4,1,0,100,0,0
206108,338.983050847458,4,1,0,100,1,1
206108,-71.4285714285714,4,1,0,100,0,1
206192,-71.4285714285714,4,1,0,100,0,0
206531,-71.4285714285714,4,1,0,100,0,0
206616,338.983050847458,4,1,0,100,1,1
206616,-71.4285714285714,4,1,0,100,0,1
206700,-71.4285714285714,4,1,0,100,0,0
207039,-71.4285714285714,4,1,0,100,0,0
207124,338.983050847458,4,1,0,100,1,1
207124,-71.4285714285714,4,1,0,100,0,1
207208,-71.4285714285714,4,1,0,100,0,0
207378,-71.4285714285714,4,1,0,100,0,0
207464,338.983050847458,4,1,0,100,1,1
207464,-66.6666666666667,4,1,0,100,0,1
208650,-66.2251655629139,4,1,0,100,0,1
208735,-65.7894736842105,4,1,0,100,0,1
208819,-64.9350649350649,4,1,0,100,0,1
208904,-64.1025641025641,4,1,0,100,0,1
208989,-62.8930817610063,4,1,0,100,0,1
209045,-61.7283950617284,4,1,0,100,0,1
209102,-60.2409638554217,4,1,0,100,0,1
209158,-58.8235294117647,4,1,0,100,0,1
209328,-66.2251655629139,4,1,0,100,0,1
209413,-65.7894736842105,4,1,0,100,0,1
209497,-64.9350649350649,4,1,0,100,0,1
209582,-64.1025641025641,4,1,0,100,0,1
209667,-62.8930817610063,4,1,0,100,0,1
209723,-61.7283950617284,4,1,0,100,0,1
209780,-60.2409638554217,4,1,0,100,0,1
209836,-58.8235294117647,4,1,0,100,0,1
209893,-66.6666666666667,4,1,0,100,0,1
210174,-67.5675675675676,4,1,0,100,0,1
210231,-68.4931506849315,4,1,0,100,0,1
210287,-69.4444444444444,4,1,0,100,0,1
210344,-70.4225352112676,4,1,0,100,0,1
210514,-66.6666666666667,4,1,0,100,0,1
210683,-68.0272108843537,4,1,0,100,0,1
210740,-69.4444444444444,4,1,0,100,0,1
210796,-70.9219858156028,4,1,0,100,0,1
210853,-72.463768115942,4,1,0,100,0,1
211023,-66.6666666666667,4,1,0,100,0,1
211191,-68.4931506849315,4,1,0,100,0,1
211248,-70.4225352112676,4,1,0,100,0,1
211304,-72.463768115942,4,1,0,100,0,1
211361,-74.6268656716418,4,1,0,100,0,1
211531,-66.6666666666667,4,1,0,100,0,1
211616,-67.1140939597315,4,1,0,100,0,1
211700,-68.0272108843537,4,1,0,100,0,1
211785,-69.4444444444444,4,1,0,100,0,1
211870,-71.4285714285714,4,1,0,100,0,1
211955,-74.0740740740741,4,1,0,100,0,1
212039,-77.5193798449612,4,1,0,100,0,1
212124,-81.9672131147541,4,1,0,100,0,1
212209,-66.6666666666667,4,1,0,100,0,1
212294,-67.1140939597315,4,1,0,100,0,1
212378,-68.0272108843537,4,1,0,100,0,1
212463,-69.4444444444444,4,1,0,100,0,1
212548,-71.4285714285714,4,1,0,100,0,1
212633,-74.0740740740741,4,1,0,100,0,1
212717,-77.5193798449612,4,1,0,100,0,1
212802,-81.9672131147541,4,1,0,100,0,1
212887,211.864406779661,4,1,0,100,1,1
214243,199.401794616152,4,1,0,100,1,1
215599,188.323917137476,4,1,0,100,1,1
216277,178.412132024978,4,1,0,100,1,1
216955,169.491525423729,4,1,0,100,1,1
218311,338.983050847458,4,1,0,100,1,0
218311,-47.8468899521531,4,1,0,100,0,0
218395,-48.0769230769231,4,1,0,100,0,0
218480,-48.3091787439614,4,1,0,100,0,0
218565,-48.780487804878,4,1,0,100,0,0
218649,-49.2610837438424,4,1,0,100,0,0
218734,-49.7512437810945,4,1,0,100,0,0
218819,-50.5050505050505,4,1,0,100,0,0
218904,-51.2820512820513,4,1,0,100,0,0
218988,-52.0833333333333,4,1,0,100,0,0
219158,-53.1914893617021,4,1,0,100,0,0
219327,-54.3478260869565,4,1,0,100,0,0
219497,-55.5555555555556,4,1,0,100,0,0
219666,-57.1428571428571,4,1,0,100,0,0
219751,-58.8235294117647,4,1,0,100,0,0
219836,-60.6060606060606,4,1,0,100,0,0
219921,-62.8930817610063,4,1,0,100,0,0
220005,-65.359477124183,4,1,0,100,0,0
220090,-68.0272108843537,4,1,0,100,0,0
220175,-71.4285714285714,4,1,0,100,0,0
220344,-75.187969924812,4,1,0,100,0,0
220429,-79.3650793650794,4,1,0,100,0,0
220514,-84.7457627118644,4,1,0,100,0,0
220599,-90.9090909090909,4,1,0,100,0,0
220683,-99.009900990099,4,1,0,100,0,0
220740,-108.695652173913,4,1,0,100,0,0
220796,-120.481927710843,4,1,0,100,0,0
220853,-138.888888888889,4,1,0,100,0,0
223734,-51.0204081632653,4,1,0,100,0,0
223819,-53.475935828877,4,1,0,100,0,0
223904,-56.1797752808989,4,1,0,100,0,0
223988,-59.1715976331361,4,1,0,100,0,0
224073,-62.111801242236,4,1,0,100,0,0
224158,-65.359477124183,4,1,0,100,0,0
224243,-68.9655172413793,4,1,0,100,0,0
224327,-72.463768115942,4,1,0,100,0,0
224412,-76.3358778625954,4,1,0,100,0,0
224582,-80.6451612903226,4,1,0,100,0,0
224751,-84.7457627118644,4,1,0,100,0,0
224921,-89.2857142857143,4,1,0,100,0,0
225090,-93.4579439252336,4,1,0,100,0,0
225175,-98.0392156862745,4,1,0,100,0,0
225260,-102.040816326531,4,1,0,100,0,0
225344,-106.382978723404,4,1,0,100,0,0
225429,-111.111111111111,4,1,0,100,0,0
225514,-114.942528735632,4,1,0,100,0,0
225599,-119.047619047619,4,1,0,100,0,0
225768,-123.456790123457,4,1,0,100,0,0
225853,-126.582278481013,4,1,0,100,0,0
225938,-129.87012987013,4,1,0,100,0,0
226022,-133.333333333333,4,1,0,100,0,0
226107,-135.135135135135,4,1,0,100,0,0
226164,-136.986301369863,4,1,0,100,0,0
226220,-138.888888888889,4,1,0,100,0,0
226277,-140.845070422535,4,1,0,100,0,0
229158,-47.8468899521531,4,1,0,100,0,0
229242,-48.0769230769231,4,1,0,100,0,0
229327,-48.3091787439614,4,1,0,100,0,0
229412,-48.780487804878,4,1,0,100,0,0
229496,-49.2610837438424,4,1,0,100,0,0
229581,-49.7512437810945,4,1,0,100,0,0
229666,-50.5050505050505,4,1,0,100,0,0
229751,-51.2820512820513,4,1,0,100,0,0
229835,-52.0833333333333,4,1,0,100,0,0
230005,-53.1914893617021,4,1,0,100,0,0
230174,-54.3478260869565,4,1,0,100,0,0
230344,-55.5555555555556,4,1,0,100,0,0
230513,-57.1428571428571,4,1,0,100,0,0
230598,-58.8235294117647,4,1,0,100,0,0
230683,-60.6060606060606,4,1,0,100,0,0
230768,-62.8930817610063,4,1,0,100,0,0
230852,-65.359477124183,4,1,0,100,0,0
230937,-68.0272108843537,4,1,0,100,0,0
231022,-71.4285714285714,4,1,0,100,0,0
231191,-75.187969924812,4,1,0,100,0,0
231276,-79.3650793650794,4,1,0,100,0,0
231361,-84.7457627118644,4,1,0,100,0,0
231446,-90.9090909090909,4,1,0,100,0,0
231530,-99.009900990099,4,1,0,100,0,0
231587,-108.695652173913,4,1,0,100,0,0
231643,-120.481927710843,4,1,0,100,0,0
231700,-138.888888888889,4,1,0,100,0,0
231869,-120.481927710843,4,1,0,100,0,0
231954,-108.695652173913,4,1,0,100,0,0
232039,-99.009900990099,4,1,0,100,0,0
232124,-90.9090909090909,4,1,0,100,0,0
232208,-84.7457627118644,4,1,0,100,0,0
232293,-79.3650793650794,4,1,0,100,0,0
232378,-75.187969924812,4,1,0,100,0,0
232463,-71.4285714285714,4,1,0,100,0,0
232547,-68.0272108843537,4,1,0,100,0,0
232717,-65.359477124183,4,1,0,100,0,0
232886,-62.8930817610063,4,1,0,100,0,0
233056,-60.6060606060606,4,1,0,100,0,0
233225,-58.8235294117647,4,1,0,100,0,0
233480,-57.1428571428571,4,1,0,100,0,0
233564,-55.5555555555556,4,1,0,100,0,0
233734,-54.3478260869565,4,1,0,100,0,0
233903,-53.1914893617021,4,1,0,100,0,0
233988,-52.0833333333333,4,1,0,100,0,0
234073,-51.2820512820513,4,1,0,100,0,0
234158,-50.5050505050505,4,1,0,100,0,0
234242,-49.2610837438424,4,1,0,100,0,0
234327,-48.780487804878,4,1,0,100,0,0
234412,-48.3091787439614,4,1,0,100,0,0
234581,-51.0204081632653,4,1,0,100,0,0
234666,-53.475935828877,4,1,0,100,0,0
234751,-56.1797752808989,4,1,0,100,0,0
234835,-59.1715976331361,4,1,0,100,0,0
234920,-62.111801242236,4,1,0,100,0,0
235005,-65.359477124183,4,1,0,100,0,0
235090,-68.9655172413793,4,1,0,100,0,0
235174,-72.463768115942,4,1,0,100,0,0
235259,-76.3358778625954,4,1,0,100,0,0
235429,-80.6451612903226,4,1,0,100,0,0
235598,-84.7457627118644,4,1,0,100,0,0
235768,-89.2857142857143,4,1,0,100,0,0
235937,-93.4579439252336,4,1,0,100,0,0
236022,-98.0392156862745,4,1,0,100,0,0
236107,-102.040816326531,4,1,0,100,0,0
236191,-106.382978723404,4,1,0,100,0,0
236276,-111.111111111111,4,1,0,100,0,0
236361,-114.942528735632,4,1,0,100,0,0
236446,-119.047619047619,4,1,0,100,0,0
236615,-123.456790123457,4,1,0,100,0,0
236700,-126.582278481013,4,1,0,100,0,0
236785,-129.87012987013,4,1,0,100,0,0
236869,-133.333333333333,4,1,0,100,0,0
236954,-135.135135135135,4,1,0,100,0,0
237011,-136.986301369863,4,1,0,100,0,0
237067,-138.888888888889,4,1,0,100,0,0
237124,-140.845070422535,4,1,0,100,0,0
237293,-138.888888888889,4,1,0,100,0,0
237378,-136.986301369863,4,1,0,100,0,0
237463,-135.135135135135,4,1,0,100,0,0
237547,-133.333333333333,4,1,0,100,0,0
237632,-129.87012987013,4,1,0,100,0,0
237717,-126.582278481013,4,1,0,100,0,0
237802,-123.456790123457,4,1,0,100,0,0
237886,-119.047619047619,4,1,0,100,0,0
237971,-114.942528735632,4,1,0,100,0,0
238141,-111.111111111111,4,1,0,100,0,0
238310,-106.382978723404,4,1,0,100,0,0
238480,-102.040816326531,4,1,0,100,0,0
238649,-98.0392156862745,4,1,0,100,0,0
238819,-89.2857142857143,4,1,0,100,0,0
238988,-81.9672131147541,4,1,0,100,0,0
239073,-80.6451612903226,4,1,0,100,0,0
239158,-79.3650793650794,4,1,0,100,0,0
239243,-78.125,4,1,0,100,0,0
239327,-76.9230769230769,4,1,0,100,0,0
239497,-71.4285714285714,4,1,0,100,0,0
239582,-69.9300699300699,4,1,0,100,0,0
239666,-67.1140939597315,4,1,0,100,0,0
239751,-63.2911392405063,4,1,0,100,0,0
239836,-58.8235294117647,4,1,0,100,0,0
239921,-54.054054054054,4,1,0,100,0,0
240005,338.983050847458,4,1,0,100,1,0
240005,-49.2610837438424,4,1,0,100,0,0
240343,-71.4285714285714,4,1,0,30,0,0
240852,-83.3333333333333,4,1,0,30,0,0
241360,338.983050847458,4,1,0,30,1,8
241360,-90.909090909091,4,1,0,30,0,0
241869,-100,4,1,0,30,0,0
242376,-105.263157894737,4,1,0,30,0,0
242715,338.983050847458,4,1,0,5,1,9
242716,338.983050847458,4,1,0,5,1,1
242716,-111.111111111111,4,1,0,5,0,1
243054,-100,4,1,0,5,0,0
243224,338.983050847458,4,1,0,5,1,9
243224,-114.942528735632,4,1,0,5,0,1
243562,-100,4,1,0,5,0,0
243732,338.983050847458,4,1,0,5,1,9
243732,-119.047619047619,4,1,0,5,0,1
244070,-100,4,1,0,5,0,0
244241,338.983050847458,4,1,0,5,1,9
244241,-123.456790123457,4,1,0,5,0,1
244579,-100,4,1,0,5,0,0
244749,1355.93220338983,4,1,0,5,1,9
244749,-32.4675324675325,4,1,0,5,0,1
245342,-111.111111111111,4,1,0,5,0,0
245427,338.983050847458,4,1,0,30,1,0
245427,-111.111111111111,4,1,0,30,0,0
246782,338.983050847458,4,1,0,30,1,8
246782,-111.111111111111,4,1,0,30,0,0
248137,338.983050847458,4,1,0,5,1,9
248138,338.983050847458,4,1,0,5,1,1
248138,-111.111111111111,4,1,0,5,0,1
248476,-100,4,1,0,5,0,0
248646,338.983050847458,4,1,0,5,1,9
248646,-114.942528735632,4,1,0,5,0,1
248984,-100,4,1,0,5,0,0
249154,338.983050847458,4,1,0,5,1,9
249154,-119.047619047619,4,1,0,5,0,1
249492,-100,4,1,0,5,0,0
249663,338.983050847458,4,1,0,5,1,9
249663,-123.456790123457,4,1,0,5,0,1
250001,-100,4,1,0,5,0,0
250170,1355.93220338983,4,1,0,5,1,1
250170,-31.25,4,1,0,5,0,1
250848,338.983050847458,4,1,0,30,1,0
250848,-111.111111111111,4,1,0,30,0,0
252203,338.983050847458,4,1,0,30,1,8
252203,-111.111111111111,4,1,0,30,0,0
253559,338.983050847458,4,1,0,5,1,9
253560,338.983050847458,4,1,0,5,1,1
253560,-111.111111111111,4,1,0,5,0,1
253898,-100,4,1,0,5,0,0
254068,338.983050847458,4,1,0,5,1,9
254068,-114.942528735632,4,1,0,5,0,1
254406,-100,4,1,0,5,0,0
254576,338.983050847458,4,1,0,5,1,9
254576,-119.047619047619,4,1,0,5,0,1
254914,-100,4,1,0,5,0,0
255085,338.983050847458,4,1,0,5,1,9
255085,-123.456790123457,4,1,0,5,0,1
255423,-100,4,1,0,5,0,0
255593,1355.93220338983,4,1,0,5,1,9
255593,-32.4675324675325,4,1,0,5,0,1
256271,338.983050847458,4,1,0,30,1,0
256271,-111.111111111111,4,1,0,30,0,0
257626,338.983050847458,4,1,0,30,1,8
257626,-111.111111111111,4,1,0,30,0,0
258982,338.983050847458,4,1,0,5,1,9
258983,338.983050847458,4,1,0,5,1,1
258983,-111.111111111111,4,1,0,5,0,1
259321,-100,4,1,0,5,0,0
259491,338.983050847458,4,1,0,5,1,9
259491,-114.942528735632,4,1,0,5,0,1
259829,-100,4,1,0,5,0,0
259999,338.983050847458,4,1,0,5,1,9
259999,-119.047619047619,4,1,0,5,0,1
260337,-100,4,1,0,5,0,0
260508,338.983050847458,4,1,0,5,1,9
260508,-123.456790123457,4,1,0,5,0,1
260846,-100,4,1,0,5,0,0
261016,1355.93220338983,4,1,0,5,1,9
261016,-32.4675324675325,4,1,0,5,0,1
261100,400,4,1,0,5,1,0
261150,385.208012326656,4,1,0,5,1,0
261198,361.969111969112,4,1,0,5,1,0
261243,341.374601729631,4,1,0,5,1,0
261285,322.997416020672,4,1,0,5,1,0
261325,306.497752349816,4,1,0,5,1,0
261363,291.601866251944,4,1,0,5,1,0
261399,278.086763070078,4,1,0,5,1,0
261433,265.768958185684,4,1,0,5,1,0
261466,254.496097726502,4,1,0,5,1,0
261497,244.140625,4,1,0,5,1,0
261527,225.76760987357,4,1,0,5,1,0
261555,209.96640537514,4,1,0,5,1,0
261581,196.232339089482,4,1,0,5,1,0
261605,184.184675834971,4,1,0,5,1,0
261628,168.653024510906,4,1,0,5,1,0
261649,155.537121526338,4,1,0,5,1,0
261668,144.314027323456,4,1,0,5,1,0
261686,134.601579325197,4,1,0,5,1,0
261695,338.983050847458,4,1,0,30,1,0
261702,121.026303049863,4,1,0,5,1,0
261717,109.938434476693,4,1,0,5,1,0
261730,100.71169598496,4,1,0,5,1,0
261731,6,4,1,0,5,1,8

[HitObjects]
224,160,1364,5,4,0:0:0:0:
256,160,1872,1,0,0:0:0:0:
256,160,2380,1,0,0:0:0:0:
256,160,2889,1,0,0:0:0:0:
256,160,3397,1,0,0:0:0:0:
256,160,3736,1,0,0:0:0:0:
256,160,4075,1,8,0:0:0:0:
160,192,4076,2,0,L|192:192,1,0.1
160,192,4076,2,0,L|192:192,1,0.1
160,192,4076,2,0,L|192:192,1,0.1
256,160,4584,1,8,0:0:0:0:
160,192,4585,2,0,L|192:192,1,0.1
160,192,4585,2,0,L|192:192,1,0.1
160,192,4585,2,0,L|192:192,1,0.1
256,160,5092,1,8,0:0:0:0:
160,192,5093,2,0,L|192:192,1,0.1
160,192,5093,2,0,L|192:192,1,0.1
160,192,5093,2,0,L|192:192,1,0.1
256,160,5601,1,8,0:0:0:0:
160,192,5602,2,0,L|192:192,1,0.1
160,192,5602,2,0,L|192:192,1,0.1
160,192,5602,2,0,L|192:192,1,0.1
256,160,6109,1,8,0:0:0:0:
160,192,6110,2,0,L|192:192,1,0.1
160,192,6110,2,0,L|192:192,1,0.1
160,192,6110,2,0,L|192:192,1,0.1
256,160,6786,1,0,0:0:0:0:
160,192,6787,2,0,L|192:192,1,0.1
160,192,6787,2,0,L|192:192,1,0.1
160,192,6787,2,0,L|192:192,1,0.1
256,160,7294,1,0,0:0:0:0:
160,192,7295,2,0,L|192:192,1,0.1
160,192,7295,2,0,L|192:192,1,0.1
160,192,7295,2,0,L|192:192,1,0.1
64,160,7802,1,0,0:0:0:0:
256,160,8313,1,0,0:0:0:0:
256,160,8821,1,0,0:0:0:0:
224,128,9160,1,0,0:0:0:0:
256,160,9499,1,8,0:0:0:0:
160,192,9500,2,0,L|192:192,1,0.1
160,192,9500,2,0,L|192:192,1,0.1
160,192,9500,2,0,L|192:192,1,0.1
256,160,10008,1,8,0:0:0:0:
160,192,10009,2,0,L|192:192,1,0.1
160,192,10009,2,0,L|192:192,1,0.1
160,192,10009,2,0,L|192:192,1,0.1
256,160,10516,1,8,0:0:0:0:
160,192,10517,2,0,L|192:192,1,0.1
160,192,10517,2,0,L|192:192,1,0.1
160,192,10517,2,0,L|192:192,1,0.1
256,160,11025,1,8,0:0:0:0:
160,192,11026,2,0,L|192:192,1,0.1
160,192,11026,2,0,L|192:192,1,0.1
160,192,11026,2,0,L|192:192,1,0.1
256,160,11533,1,8,0:0:0:0:
160,192,11534,2,0,L|192:192,1,0.1
160,192,11534,2,0,L|192:192,1,0.1
160,192,11534,2,0,L|192:192,1,0.1
256,160,12208,1,0,0:0:0:0:
160,192,12209,2,0,L|192:192,1,0.1
160,192,12209,2,0,L|192:192,1,0.1
160,192,12209,2,0,L|192:192,1,0.1
256,160,12716,1,0,0:0:0:0:
160,192,12717,2,0,L|192:192,1,0.1
160,192,12717,2,0,L|192:192,1,0.1
160,192,12717,2,0,L|192:192,1,0.1
256,160,13224,1,0,0:0:0:0:
160,192,13225,2,0,L|192:192,1,0.1
160,192,13225,2,0,L|192:192,1,0.1
160,192,13225,2,0,L|192:192,1,0.1
96,160,13732,1,0,0:0:0:0:
256,160,14243,1,0,0:0:0:0:
224,128,14582,1,0,0:0:0:0:
256,160,14921,1,8,0:0:0:0:
160,192,14922,2,0,L|192:192,1,0.1
160,192,14922,2,0,L|192:192,1,0.1
160,192,14922,2,0,L|192:192,1,0.1
256,160,15430,1,8,0:0:0:0:
160,192,15431,2,0,L|192:192,1,0.1
160,192,15431,2,0,L|192:192,1,0.1
160,192,15431,2,0,L|192:192,1,0.1
256,160,15938,1,8,0:0:0:0:
160,192,15939,2,0,L|192:192,1,0.1
160,192,15939,2,0,L|192:192,1,0.1
160,192,15939,2,0,L|192:192,1,0.1
256,160,16447,1,8,0:0:0:0:
160,192,16448,2,0,L|192:192,1,0.1
160,192,16448,2,0,L|192:192,1,0.1
160,192,16448,2,0,L|192:192,1,0.1
256,160,16955,1,8,0:0:0:0:
160,192,16956,2,0,L|192:192,1,0.1
160,192,16956,2,0,L|192:192,1,0.1
160,192,16956,2,0,L|192:192,1,0.1
224,128,17631,1,0,0:0:0:0:
256,160,17885,1,0,0:0:0:0:
256,160,17969,1,8,0:0:0:0:
256,160,18139,1,0,0:0:0:0:
256,160,18478,1,0,0:0:0:0:
256,160,18647,1,8,0:0:0:0:
256,160,19156,1,0,0:0:0:0:
256,160,19325,1,8,0:0:0:0:
256,160,19495,1,0,0:0:0:0:
256,160,19834,1,0,0:0:0:0:
256,160,20003,1,8,0:0:0:0:
256,160,20173,1,8,0:0:0:0:
256,160,20258,1,8,0:0:0:0:
256,160,20342,1,0,0:0:0:0:
256,160,20597,1,0,0:0:0:0:
256,160,20681,1,8,0:0:0:0:
256,160,20851,1,0,0:0:0:0:
256,160,21190,1,0,0:0:0:0:
256,160,21359,1,8,0:0:0:0:
256,192,21698,1,12,0:0:0:0:
256,192,22037,1,4,0:0:0:0:
256,192,22376,1,12,0:0:0:0:
288,192,22714,1,8,0:0:0:0:
288,192,22798,1,8,0:0:0:0:
288,192,22883,1,8,0:0:0:0:
288,192,22967,1,8,0:0:0:0:
288,192,23058,1,4,0:0:0:0:
384,64,23227,1,0,0:0:0:0:
384,64,23283,1,0,0:0:0:0:
384,64,23340,1,0,0:0:0:0:
384,64,23396,1,8,0:0:0:0:
384,64,23566,1,0,0:0:0:0:
352,96,23905,1,0,0:0:0:0:
320,192,24074,1,8,0:0:0:0:
256,160,24412,1,0,0:0:0:0:
160,192,24413,2,0,L|192:192,1,0.1
160,192,24413,2,0,L|192:192,1,0.1
160,192,24413,2,0,L|192:192,1,0.1
256,160,24497,1,0,0:0:0:0:
160,192,24498,2,0,L|192:192,1,0.1
160,192,24498,2,0,L|192:192,1,0.1
160,192,24498,2,0,L|192:192,1,0.1
256,160,24582,1,8,0:0:0:0:
160,192,24583,2,0,L|192:192,1,0.1
160,192,24583,2,0,L|192:192,1,0.1
160,192,24583,2,0,L|192:192,1,0.1
256,160,24638,1,8,0:0:0:0:
160,192,24639,2,0,L|192:192,1,0.1
160,192,24639,2,0,L|192:192,1,0.1
160,192,24639,2,0,L|192:192,1,0.1
256,160,24695,1,8,0:0:0:0:
160,192,24696,2,0,L|192:192,1,0.1
160,192,24696,2,0,L|192:192,1,0.1
160,192,24696,2,0,L|192:192,1,0.1
256,160,24751,1,0,0:0:0:0:
160,192,24752,2,0,L|192:192,1,0.1
160,192,24752,2,0,L|192:192,1,0.1
160,192,24752,2,0,L|192:192,1,0.1
256,160,24922,1,0,0:0:0:0:
160,192,24923,2,0,L|192:192,1,0.1
160,192,24923,2,0,L|192:192,1,0.1
160,192,24923,2,0,L|192:192,1,0.1
256,160,25091,1,0,0:0:0:0:
160,192,25092,2,0,L|192:192,1,0.1
160,192,25092,2,0,L|192:192,1,0.1
160,192,25092,2,0,L|192:192,1,0.1
256,160,25148,1,8,0:0:0:0:
160,192,25149,2,0,L|192:192,1,0.1
160,192,25149,2,0,L|192:192,1,0.1
160,192,25149,2,0,L|192:192,1,0.1
256,160,25261,1,8,0:0:0:0:
160,192,25262,2,0,L|192:192,1,0.1
160,192,25262,2,0,L|192:192,1,0.1
160,192,25262,2,0,L|192:192,1,0.1
256,160,25317,1,8,0:0:0:0:
160,192,25318,2,0,L|192:192,1,0.1
160,192,25318,2,0,L|192:192,1,0.1
160,192,25318,2,0,L|192:192,1,0.1
256,160,25430,1,0,0:0:0:0:
160,192,25431,2,0,L|192:192,1,0.1
160,192,25431,2,0,L|192:192,1,0.1
160,192,25431,2,0,L|192:192,1,0.1
224,96,25600,1,0,0:0:0:0:
224,96,25685,1,0,0:0:0:0:
224,96,25769,1,0,0:0:0:0:
384,64,25939,1,0,0:0:0:0:
384,64,25995,1,0,0:0:0:0:
384,64,26052,1,0,0:0:0:0:
384,64,26108,1,8,0:0:0:0:
192,96,26278,1,0,0:0:0:0:
192,96,26363,1,0,0:0:0:0:
192,96,26447,1,0,0:0:0:0:
192,96,26532,1,8,0:0:0:0:
192,96,26617,1,0,0:0:0:0:
192,96,26702,1,0,0:0:0:0:
192,96,26786,1,8,0:0:0:0:
256,160,27125,1,4,0:0:0:0:
256,160,27210,1,8,0:0:0:0:
256,160,27295,1,8,0:0:0:0:
256,160,27380,1,8,0:0:0:0:
256,160,27464,1,8,0:0:0:0:
256,160,27549,1,8,0:0:0:0:
256,160,27634,1,8,0:0:0:0:
256,160,27719,1,8,0:0:0:0:
256,160,27803,1,4,0:0:0:0:
256,160,27888,1,8,0:0:0:0:
256,160,27973,1,8,0:0:0:0:
256,160,28058,1,8,0:0:0:0:
256,160,28142,1,8,0:0:0:0:
256,160,28227,1,8,0:0:0:0:
256,160,28312,1,8,0:0:0:0:
256,160,28396,1,8,0:0:0:0:
256,160,28481,1,4,0:0:0:0:
384,96,28651,1,0,0:0:0:0:
384,96,28707,1,0,0:0:0:0:
384,96,28764,1,0,0:0:0:0:
384,96,28820,1,8,0:0:0:0:
384,96,28990,1,0,0:0:0:0:
384,96,29159,1,0,0:0:0:0:
384,96,29216,1,0,0:0:0:0:
384,96,29329,1,0,0:0:0:0:
384,96,29385,1,0,0:0:0:0:
128,160,29498,1,8,0:0:0:0:
256,160,29836,1,0,0:0:0:0:
160,192,29837,2,0,L|192:192,1,0.1
160,192,29837,2,0,L|192:192,1,0.1
160,192,29837,2,0,L|192:192,1,0.1
256,160,29893,1,0,0:0:0:0:
160,192,29894,2,0,L|192:192,1,0.1
160,192,29894,2,0,L|192:192,1,0.1
160,192,29894,2,0,L|192:192,1,0.1
256,160,29949,1,8,0:0:0:0:
160,192,29950,2,0,L|192:192,1,0.1
160,192,29950,2,0,L|192:192,1,0.1
160,192,29950,2,0,L|192:192,1,0.1
256,160,30006,1,8,0:0:0:0:
160,192,30007,2,0,L|192:192,1,0.1
160,192,30007,2,0,L|192:192,1,0.1
160,192,30007,2,0,L|192:192,1,0.1
256,160,30175,1,0,0:0:0:0:
160,192,30176,2,0,L|192:192,1,0.1
160,192,30176,2,0,L|192:192,1,0.1
160,192,30176,2,0,L|192:192,1,0.1
256,160,30232,1,8,0:0:0:0:
160,192,30233,2,0,L|192:192,1,0.1
160,192,30233,2,0,L|192:192,1,0.1
160,192,30233,2,0,L|192:192,1,0.1
256,160,30288,1,8,0:0:0:0:
160,192,30289,2,0,L|192:192,1,0.1
160,192,30289,2,0,L|192:192,1,0.1
160,192,30289,2,0,L|192:192,1,0.1
256,160,30345,1,0,0:0:0:0:
160,192,30346,2,0,L|192:192,1,0.1
160,192,30346,2,0,L|192:192,1,0.1
160,192,30346,2,0,L|192:192,1,0.1
256,160,30514,1,0,0:0:0:0:
160,192,30515,2,0,L|192:192,1,0.1
160,192,30515,2,0,L|192:192,1,0.1
160,192,30515,2,0,L|192:192,1,0.1
256,160,30599,1,8,0:0:0:0:
160,192,30600,2,0,L|192:192,1,0.1
160,192,30600,2,0,L|192:192,1,0.1
160,192,30600,2,0,L|192:192,1,0.1
256,160,30684,1,0,0:0:0:0:
160,192,30685,2,0,L|192:192,1,0.1
160,192,30685,2,0,L|192:192,1,0.1
160,192,30685,2,0,L|192:192,1,0.1
256,160,30768,1,0,0:0:0:0:
160,192,30769,2,0,L|192:192,1,0.1
160,192,30769,2,0,L|192:192,1,0.1
160,192,30769,2,0,L|192:192,1,0.1
256,160,30853,1,8,0:0:0:0:
160,192,30854,2,0,L|192:192,1,0.1
160,192,30854,2,0,L|192:192,1,0.1
160,192,30854,2,0,L|192:192,1,0.1
256,160,31023,1,0,0:0:0:0:
160,192,31024,2,0,L|192:192,1,0.1
160,192,31024,2,0,L|192:192,1,0.1
160,192,31024,2,0,L|192:192,1,0.1
256,160,31192,1,0,0:0:0:0:
160,192,31193,2,0,L|192:192,1,0.1
160,192,31193,2,0,L|192:192,1,0.1
160,192,31193,2,0,L|192:192,1,0.1
352,128,31363,1,0,0:0:0:0:
352,128,31419,1,0,0:0:0:0:
352,128,31476,1,0,0:0:0:0:
352,128,31532,1,8,0:0:0:0:
352,128,31702,1,0,0:0:0:0:
256,128,31871,1,0,0:0:0:0:
256,128,31956,1,8,0:0:0:0:
256,128,32041,1,0,0:0:0:0:
256,128,32125,1,0,0:0:0:0:
256,128,32210,1,8,0:0:0:0:
256,160,32548,1,4,0:0:0:0:
160,192,32549,2,4,L|192:192,1,0.1
160,192,32549,2,4,L|192:192,1,0.1
160,192,32549,2,4,L|192:192,1,0.1
256,160,32718,1,8,0:0:0:0:
160,192,32719,2,0,L|192:192,1,0.1
160,192,32719,2,0,L|192:192,1,0.1
160,192,32719,2,0,L|192:192,1,0.1
256,160,32803,1,8,0:0:0:0:
160,192,32804,2,0,L|192:192,1,0.1
160,192,32804,2,0,L|192:192,1,0.1
160,192,32804,2,0,L|192:192,1,0.1
256,160,32887,1,0,0:0:0:0:
160,192,32888,2,0,L|192:192,1,0.1
160,192,32888,2,0,L|192:192,1,0.1
160,192,32888,2,0,L|192:192,1,0.1
256,160,33057,1,12,0:0:0:0:
160,192,33058,2,12,L|192:192,1,0.1
160,192,33058,2,12,L|192:192,1,0.1
160,192,33058,2,12,L|192:192,1,0.1
256,160,33226,1,0,0:0:0:0:
160,192,33227,2,0,L|192:192,1,0.1
160,192,33227,2,0,L|192:192,1,0.1
160,192,33227,2,0,L|192:192,1,0.1
256,160,33311,1,8,0:0:0:0:
160,192,33312,2,0,L|192:192,1,0.1
160,192,33312,2,0,L|192:192,1,0.1
160,192,33312,2,0,L|192:192,1,0.1
256,160,33396,1,0,0:0:0:0:
160,192,33397,2,0,L|192:192,1,0.1
160,192,33397,2,0,L|192:192,1,0.1
160,192,33397,2,0,L|192:192,1,0.1
256,160,33480,1,0,0:0:0:0:
160,192,33481,2,0,L|192:192,1,0.1
160,192,33481,2,0,L|192:192,1,0.1
160,192,33481,2,0,L|192:192,1,0.1
256,160,33565,1,12,0:0:0:0:
160,192,33566,2,12,L|192:192,1,0.1
160,192,33566,2,12,L|192:192,1,0.1
160,192,33566,2,12,L|192:192,1,0.1
256,160,33734,1,8,0:0:0:0:
160,192,33735,2,0,L|192:192,1,0.1
160,192,33735,2,0,L|192:192,1,0.1
160,192,33735,2,0,L|192:192,1,0.1
256,160,33904,1,4,0:0:0:0:
160,192,33905,2,4,L|192:192,1,0.1
160,192,33905,2,4,L|192:192,1,0.1
160,192,33905,2,4,L|192:192,1,0.1
256,160,34073,1,0,0:0:0:0:
160,192,34074,2,0,L|192:192,1,0.1
160,192,34074,2,0,L|192:192,1,0.1
160,192,34074,2,0,L|192:192,1,0.1
256,160,34129,1,0,0:0:0:0:
160,192,34130,2,0,L|192:192,1,0.1
160,192,34130,2,0,L|192:192,1,0.1
160,192,34130,2,0,L|192:192,1,0.1
256,160,34186,1,0,0:0:0:0:
160,192,34187,2,0,L|192:192,1,0.1
160,192,34187,2,0,L|192:192,1,0.1
160,192,34187,2,0,L|192:192,1,0.1
256,160,34242,1,8,0:0:0:0:
160,192,34243,2,0,L|192:192,1,0.1
160,192,34243,2,0,L|192:192,1,0.1
160,192,34243,2,0,L|192:192,1,0.1
256,160,34412,1,0,0:0:0:0:
160,192,34413,2,0,L|192:192,1,0.1
160,192,34413,2,0,L|192:192,1,0.1
160,192,34413,2,0,L|192:192,1,0.1
256,160,34752,1,0,0:0:0:0:
160,192,34753,2,0,L|192:192,1,0.1
160,192,34753,2,0,L|192:192,1,0.1
160,192,34753,2,0,L|192:192,1,0.1
256,160,34921,1,8,0:0:0:0:
160,192,34922,2,0,L|192:192,1,0.1
160,192,34922,2,0,L|192:192,1,0.1
160,192,34922,2,0,L|192:192,1,0.1
256,160,35261,1,0,0:0:0:0:
160,192,35262,2,0,L|192:192,1,0.1
160,192,35262,2,0,L|192:192,1,0.1
160,192,35262,2,0,L|192:192,1,0.1
256,160,35346,1,0,0:0:0:0:
160,192,35347,2,0,L|192:192,1,0.1
160,192,35347,2,0,L|192:192,1,0.1
160,192,35347,2,0,L|192:192,1,0.1
256,160,35430,1,8,0:0:0:0:
160,192,35431,2,8,L|192:192,1,0.1
160,192,35431,2,8,L|192:192,1,0.1
160,192,35431,2,8,L|192:192,1,0.1
256,160,35487,1,8,0:0:0:0:
160,192,35488,2,8,L|192:192,1,0.1
160,192,35488,2,8,L|192:192,1,0.1
160,192,35488,2,8,L|192:192,1,0.1
256,160,35543,1,8,0:0:0:0:
160,192,35544,2,8,L|192:192,1,0.1
160,192,35544,2,8,L|192:192,1,0.1
160,192,35544,2,8,L|192:192,1,0.1
256,160,35600,1,0,0:0:0:0:
160,192,35601,2,0,L|192:192,1,0.1
160,192,35601,2,0,L|192:192,1,0.1
160,192,35601,2,0,L|192:192,1,0.1
256,160,35769,1,0,0:0:0:0:
160,192,35770,2,0,L|192:192,1,0.1
160,192,35770,2,0,L|192:192,1,0.1
160,192,35770,2,0,L|192:192,1,0.1
256,160,35939,1,0,0:0:0:0:
160,192,35940,2,0,L|192:192,1,0.1
160,192,35940,2,0,L|192:192,1,0.1
160,192,35940,2,0,L|192:192,1,0.1
256,160,35995,1,8,0:0:0:0:
160,192,35996,2,8,L|192:192,1,0.1
160,192,35996,2,8,L|192:192,1,0.1
160,192,35996,2,8,L|192:192,1,0.1
256,160,36108,1,8,0:0:0:0:
160,192,36109,2,8,L|192:192,1,0.1
160,192,36109,2,8,L|192:192,1,0.1
160,192,36109,2,8,L|192:192,1,0.1
256,160,36165,1,8,0:0:0:0:
160,192,36166,2,8,L|192:192,1,0.1
160,192,36166,2,8,L|192:192,1,0.1
160,192,36166,2,8,L|192:192,1,0.1
256,160,36277,1,0,0:0:0:0:
160,192,36278,2,0,L|192:192,1,0.1
160,192,36278,2,0,L|192:192,1,0.1
160,192,36278,2,0,L|192:192,1,0.1
256,160,36446,1,8,0:0:0:0:
160,192,36447,2,8,L|192:192,1,0.1
160,192,36447,2,8,L|192:192,1,0.1
160,192,36447,2,8,L|192:192,1,0.1
224,96,36617,1,4,0:0:0:0:
224,96,36786,1,0,0:0:0:0:
224,96,36843,1,0,0:0:0:0:
224,96,36899,1,0,0:0:0:0:
224,96,36956,1,8,0:0:0:0:
224,96,37125,1,4,0:0:0:0:
320,64,37295,1,0,0:0:0:0:
320,64,37380,1,8,0:0:0:0:
320,64,37464,1,0,0:0:0:0:
320,64,37549,1,0,0:0:0:0:
320,64,37634,1,8,0:0:0:0:
256,128,37973,1,4,0:0:0:0:
256,128,38058,1,8,0:0:0:0:
256,128,38142,1,8,0:0:0:0:
256,128,38227,1,8,0:0:0:0:
256,128,38312,1,8,0:0:0:0:
256,128,38396,1,8,0:0:0:0:
256,128,38481,1,8,0:0:0:0:
256,128,38566,1,8,0:0:0:0:
256,160,38651,1,4,0:0:0:0:
256,160,38735,1,8,0:0:0:0:
256,160,38820,1,8,0:0:0:0:
256,160,38905,1,8,0:0:0:0:
256,160,38990,1,8,0:0:0:0:
256,160,39074,1,8,0:0:0:0:
256,160,39159,1,8,0:0:0:0:
256,160,39244,1,8,0:0:0:0:
256,160,39329,1,4,0:0:0:0:
288,128,39498,1,0,0:0:0:0:
288,128,39555,1,0,0:0:0:0:
288,128,39611,1,0,0:0:0:0:
288,128,39668,1,8,0:0:0:0:
288,128,39837,1,4,0:0:0:0:
256,128,40176,1,0,0:0:0:0:
256,128,40346,1,8,0:0:0:0:
256,160,40685,1,0,0:0:0:0:
160,192,40686,2,0,L|192:192,1,0.1
160,192,40686,2,0,L|192:192,1,0.1
160,192,40686,2,0,L|192:192,1,0.1
256,160,40741,1,0,0:0:0:0:
160,192,40742,2,0,L|192:192,1,0.1
160,192,40742,2,0,L|192:192,1,0.1
160,192,40742,2,0,L|192:192,1,0.1
256,160,40798,1,8,0:0:0:0:
160,192,40799,2,8,L|192:192,1,0.1
160,192,40799,2,8,L|192:192,1,0.1
160,192,40799,2,8,L|192:192,1,0.1
256,160,40854,1,8,0:0:0:0:
160,192,40855,2,8,L|192:192,1,0.1
160,192,40855,2,8,L|192:192,1,0.1
160,192,40855,2,8,L|192:192,1,0.1
256,160,41024,1,0,0:0:0:0:
160,192,41025,2,0,L|192:192,1,0.1
160,192,41025,2,0,L|192:192,1,0.1
160,192,41025,2,0,L|192:192,1,0.1
256,160,41080,1,8,0:0:0:0:
160,192,41081,2,8,L|192:192,1,0.1
160,192,41081,2,8,L|192:192,1,0.1
160,192,41081,2,8,L|192:192,1,0.1
256,160,41137,1,8,0:0:0:0:
160,192,41138,2,8,L|192:192,1,0.1
160,192,41138,2,8,L|192:192,1,0.1
160,192,41138,2,8,L|192:192,1,0.1
256,160,41193,1,0,0:0:0:0:
160,192,41194,2,0,L|192:192,1,0.1
160,192,41194,2,0,L|192:192,1,0.1
160,192,41194,2,0,L|192:192,1,0.1
256,160,41363,1,0,0:0:0:0:
160,192,41364,2,0,L|192:192,1,0.1
160,192,41364,2,0,L|192:192,1,0.1
160,192,41364,2,0,L|192:192,1,0.1
256,160,41447,1,8,0:0:0:0:
160,192,41448,2,8,L|192:192,1,0.1
160,192,41448,2,8,L|192:192,1,0.1
160,192,41448,2,8,L|192:192,1,0.1
256,160,41532,1,0,0:0:0:0:
160,192,41533,2,0,L|192:192,1,0.1
160,192,41533,2,0,L|192:192,1,0.1
160,192,41533,2,0,L|192:192,1,0.1
256,160,41702,1,8,0:0:0:0:
160,192,41703,2,8,L|192:192,1,0.1
160,192,41703,2,8,L|192:192,1,0.1
160,192,41703,2,8,L|192:192,1,0.1
256,160,41871,1,0,0:0:0:0:
160,192,41872,2,0,L|192:192,1,0.1
160,192,41872,2,0,L|192:192,1,0.1
160,192,41872,2,0,L|192:192,1,0.1
256,96,42041,1,4,0:0:0:0:
288,32,42210,1,0,0:0:0:0:
288,32,42267,1,0,0:0:0:0:
288,32,42323,1,0,0:0:0:0:
288,32,42380,1,8,0:0:0:0:
256,96,42549,1,4,0:0:0:0:
256,96,42719,1,0,0:0:0:0:
256,96,42803,1,8,0:0:0:0:
256,96,42888,1,0,0:0:0:0:
256,96,42973,1,0,0:0:0:0:
256,96,43058,1,8,0:0:0:0:
256,160,43396,1,4,0:0:0:0:
160,192,43397,2,4,L|192:192,1,0.1
160,192,43397,2,4,L|192:192,1,0.1
160,192,43397,2,4,L|192:192,1,0.1
256,160,43566,1,8,0:0:0:0:
160,192,43567,2,8,L|192:192,1,0.1
160,192,43567,2,8,L|192:192,1,0.1
160,192,43567,2,8,L|192:192,1,0.1
256,160,43651,1,8,0:0:0:0:
160,192,43652,2,8,L|192:192,1,0.1
160,192,43652,2,8,L|192:192,1,0.1
160,192,43652,2,8,L|192:192,1,0.1
256,160,43735,1,0,0:0:0:0:
160,192,43736,2,0,L|192:192,1,0.1
160,192,43736,2,0,L|192:192,1,0.1
160,192,43736,2,0,L|192:192,1,0.1
256,160,43905,1,12,0:0:0:0:
160,192,43906,2,12,L|192:192,1,0.1
160,192,43906,2,12,L|192:192,1,0.1
160,192,43906,2,12,L|192:192,1,0.1
256,160,44074,1,0,0:0:0:0:
160,192,44075,2,0,L|192:192,1,0.1
160,192,44075,2,0,L|192:192,1,0.1
160,192,44075,2,0,L|192:192,1,0.1
256,160,44159,1,8,0:0:0:0:
160,192,44160,2,8,L|192:192,1,0.1
160,192,44160,2,8,L|192:192,1,0.1
160,192,44160,2,8,L|192:192,1,0.1
256,160,44244,1,0,0:0:0:0:
160,192,44245,2,0,L|192:192,1,0.1
160,192,44245,2,0,L|192:192,1,0.1
160,192,44245,2,0,L|192:192,1,0.1
256,160,44329,1,0,0:0:0:0:
160,192,44330,2,0,L|192:192,1,0.1
160,192,44330,2,0,L|192:192,1,0.1
160,192,44330,2,0,L|192:192,1,0.1
256,160,44413,1,12,0:0:0:0:
160,192,44414,2,12,L|192:192,1,0.1
160,192,44414,2,12,L|192:192,1,0.1
160,192,44414,2,12,L|192:192,1,0.1
256,160,44583,1,8,0:0:0:0:
160,192,44584,2,8,L|192:192,1,0.1
160,192,44584,2,8,L|192:192,1,0.1
160,192,44584,2,8,L|192:192,1,0.1
256,160,44752,1,4,0:0:0:0:
160,192,44753,2,4,L|192:192,1,0.1
160,192,44753,2,4,L|192:192,1,0.1
160,192,44753,2,4,L|192:192,1,0.1
256,192,47464,1,0,0:0:0:0:
160,192,47464,2,0,L|192:192,1,0.1
256,192,47803,1,8,0:0:0:0:
160,192,47803,2,8,L|192:192,1,0.1
256,192,47973,1,0,0:0:0:0:
160,192,47973,2,0,L|192:192,1,0.1
256,192,48312,1,0,0:0:0:0:
160,192,48312,2,0,L|192:192,1,0.1
256,192,48481,1,8,0:0:0:0:
160,192,48481,2,8,L|192:192,1,0.1
256,192,48820,1,0,0:0:0:0:
160,192,48820,2,0,L|192:192,1,0.1
256,192,49075,1,0,0:0:0:0:
160,192,49075,2,0,L|192:192,1,0.1
256,192,49159,1,8,0:0:0:0:
160,192,49159,2,8,L|192:192,1,0.1
256,192,49329,1,0,0:0:0:0:
160,192,49329,2,0,L|192:192,1,0.1
256,192,49668,1,0,0:0:0:0:
160,192,49668,2,0,L|192:192,1,0.1
256,192,49753,1,0,0:0:0:0:
160,192,49753,2,8,L|192:192,1,0.1
256,192,49837,1,8,0:0:0:0:
160,192,49837,2,8,L|192:192,1,0.1
256,192,49922,1,8,0:0:0:0:
160,192,49922,2,8,L|192:192,1,0.1
256,192,50007,1,0,0:0:0:0:
160,192,50007,2,0,L|192:192,1,0.1
256,192,50091,1,0,0:0:0:0:
160,192,50091,2,8,L|192:192,1,0.1
256,192,50176,1,0,0:0:0:0:
160,192,50176,2,8,L|192:192,1,0.1
256,192,52888,1,0,0:0:0:0:
160,192,52888,2,0,L|192:192,1,0.1
256,192,53227,1,0,0:0:0:0:
160,192,53227,2,0,L|192:192,1,0.1
256,192,53396,1,8,0:0:0:0:
160,192,53396,2,8,L|192:192,1,0.1
256,192,53736,1,0,0:0:0:0:
160,192,53736,2,0,L|192:192,1,0.1
256,192,53905,1,8,0:0:0:0:
160,192,53905,2,8,L|192:192,1,0.1
256,192,54244,1,8,0:0:0:0:
160,192,54244,2,8,L|192:192,1,0.1
256,192,54498,1,8,0:0:0:0:
160,192,54498,2,8,L|192:192,1,0.1
256,192,54583,1,0,0:0:0:0:
160,192,54583,2,8,L|192:192,1,0.1
256,192,54753,1,8,0:0:0:0:
160,192,54753,2,8,L|192:192,1,0.1
256,192,54922,1,0,0:0:0:0:
160,192,54922,2,8,L|192:192,1,0.1
256,192,55007,1,8,0:0:0:0:
160,192,55007,2,8,L|192:192,1,0.1
256,192,55091,1,0,0:0:0:0:
160,192,55091,2,0,L|192:192,1,0.1
256,192,55176,1,0,0:0:0:0:
160,192,55176,2,0,L|192:192,1,0.1
256,192,55261,1,8,0:0:0:0:
160,192,55261,2,8,L|192:192,1,0.1
256,192,55346,1,8,0:0:0:0:
160,192,55346,2,8,L|192:192,1,0.1
256,192,55430,1,8,0:0:0:0:
160,192,55430,2,8,L|192:192,1,0.1
256,192,55515,1,8,0:0:0:0:
160,192,55515,2,8,L|192:192,1,0.1
256,192,55600,1,0,0:0:0:0:
160,192,55600,2,0,L|192:192,1,0.1
256,192,58312,1,0,0:0:0:0:
160,192,58312,2,0,L|192:192,1,0.1
256,192,58651,1,8,0:0:0:0:
160,192,58651,2,0,L|192:192,1,0.1
256,192,58820,1,0,0:0:0:0:
160,192,58820,2,0,L|192:192,1,0.1
256,192,58905,1,8,0:0:0:0:
160,192,58905,2,0,L|192:192,1,0.1
256,192,58990,1,0,0:0:0:0:
160,192,58990,2,0,L|192:192,1,0.1
256,192,59159,1,0,0:0:0:0:
160,192,59159,2,0,L|192:192,1,0.1
256,192,59329,1,8,0:0:0:0:
160,192,59329,2,8,L|192:192,1,0.1
256,192,59498,1,0,0:0:0:0:
160,192,59498,2,0,L|192:192,1,0.1
256,192,59668,1,0,0:0:0:0:
160,192,59668,2,0,L|192:192,1,0.1
256,192,59922,1,0,0:0:0:0:
160,192,59922,2,0,L|192:192,1,0.1
256,192,60007,1,8,0:0:0:0:
160,192,60007,2,0,L|192:192,1,0.1
256,192,60176,1,0,0:0:0:0:
160,192,60176,2,0,L|192:192,1,0.1
256,192,60515,1,0,0:0:0:0:
160,192,60515,2,0,L|192:192,1,0.1
256,192,60600,1,0,0:0:0:0:
160,192,60600,2,0,L|192:192,1,0.1
256,192,60685,1,8,0:0:0:0:
160,192,60685,2,0,L|192:192,1,0.1
256,192,60769,1,0,0:0:0:0:
160,192,60769,2,0,L|192:192,1,0.1
256,192,60854,1,8,0:0:0:0:
160,192,60854,2,0,L|192:192,1,0.1
256,192,60939,1,8,0:0:0:0:
160,192,60939,2,0,L|192:192,1,0.1
256,192,61024,1,0,0:0:0:0:
160,192,61024,2,0,L|192:192,1,0.1
256,192,63736,1,0,0:0:0:0:
160,192,63736,2,0,L|192:192,1,0.1
256,192,64075,1,8,0:0:0:0:
160,192,64075,2,8,L|192:192,1,0.1
256,192,64244,1,0,0:0:0:0:
160,192,64244,2,0,L|192:192,1,0.1
256,192,64583,1,0,0:0:0:0:
160,192,64583,2,0,L|192:192,1,0.1
256,192,64753,1,8,0:0:0:0:
160,192,64753,2,8,L|192:192,1,0.1
256,192,65091,1,0,0:0:0:0:
160,192,65091,2,0,L|192:192,1,0.1
288,160,66447,1,8,0:0:0:0:
352,128,66532,1,8,0:0:0:0:
352,128,66617,1,8,0:0:0:0:
352,128,66702,1,8,0:0:0:0:
352,128,66786,1,8,0:0:0:0:
352,128,66871,1,8,0:0:0:0:
256,128,66956,1,8,0:0:0:0:
256,128,67041,1,8,0:0:0:0:
256,128,67125,1,0,0:0:0:0:
256,128,67295,1,8,0:0:0:0:
256,96,67337,1,8,0:0:0:0:
256,128,67464,1,8,0:0:0:0:
192,64,67507,1,8,0:0:0:0:
256,128,67634,1,8,0:0:0:0:
224,96,67676,1,8,0:0:0:0:
256,128,67803,1,0,0:0:0:0:
256,128,67888,1,8,0:0:0:0:
256,128,67973,1,8,0:0:0:0:
256,128,68058,1,0,0:0:0:0:
256,128,68142,1,8,0:0:0:0:
256,128,68227,1,8,0:0:0:0:
256,128,68312,1,0,0:0:0:0:
256,128,68481,1,0,0:0:0:0:
256,128,68566,1,8,0:0:0:0:
256,128,68651,1,0,0:0:0:0:
256,128,68736,1,0,0:0:0:0:
384,64,68820,1,8,0:0:0:0:
384,64,68877,1,8,0:0:0:0:
384,64,68933,1,8,0:0:0:0:
384,64,68990,1,0,0:0:0:0:
288,128,69159,1,8,0:0:0:0:
256,128,69244,1,0,0:0:0:0:
256,128,69329,1,0,0:0:0:0:
256,128,69414,1,0,0:0:0:0:
256,128,69498,1,0,0:0:0:0:
256,128,69583,1,0,0:0:0:0:
256,128,69668,1,0,0:0:0:0:
256,128,69753,1,0,0:0:0:0:
256,128,69837,1,8,0:0:0:0:
256,128,70007,1,0,0:0:0:0:
224,96,70049,1,0,0:0:0:0:
256,128,70176,1,0,0:0:0:0:
224,96,70219,1,0,0:0:0:0:
256,128,70346,1,0,0:0:0:0:
224,96,70388,1,0,0:0:0:0:
256,128,70515,1,8,0:0:0:0:
256,128,70769,1,8,0:0:0:0:
256,128,70854,1,0,0:0:0:0:
256,128,71024,1,8,0:0:0:0:
256,128,71193,1,0,0:0:0:0:
256,128,71278,1,0,0:0:0:0:
256,128,71363,1,0,0:0:0:0:
256,128,71447,1,0,0:0:0:0:
256,128,71532,1,8,0:0:0:0:
256,128,71617,1,8,0:0:0:0:
256,128,71702,1,8,0:0:0:0:
256,160,71871,1,8,0:0:0:0:
256,160,71956,1,8,0:0:0:0:
256,160,72041,1,0,0:0:0:0:
256,160,72125,1,0,0:0:0:0:
256,160,72210,1,8,0:0:0:0:
256,160,72295,1,8,0:0:0:0:
256,160,72380,1,8,0:0:0:0:
256,160,72464,1,8,0:0:0:0:
256,160,72549,1,0,0:0:0:0:
384,64,72719,1,8,0:0:0:0:
224,64,72761,1,0,0:0:0:0:
384,64,72888,1,8,0:0:0:0:
256,64,72930,1,0,0:0:0:0:
384,64,73058,1,8,0:0:0:0:
256,64,73100,1,0,0:0:0:0:
224,128,73227,1,8,0:0:0:0:
224,128,73312,1,0,0:0:0:0:
224,128,73397,1,0,0:0:0:0:
224,128,73481,1,8,0:0:0:0:
224,128,73566,1,0,0:0:0:0:
224,128,73651,1,0,0:0:0:0:
224,128,73736,1,8,0:0:0:0:
256,160,73905,1,0,0:0:0:0:
256,160,73990,1,8,0:0:0:0:
256,160,74075,1,0,0:0:0:0:
256,160,74159,1,0,0:0:0:0:
288,64,74244,1,8,0:0:0:0:
288,64,74301,1,8,0:0:0:0:
288,64,74357,1,8,0:0:0:0:
288,64,74414,1,0,0:0:0:0:
288,96,74583,1,8,0:0:0:0:
288,96,74668,1,8,0:0:0:0:
288,96,74753,1,0,0:0:0:0:
288,96,74837,1,0,0:0:0:0:
288,96,74922,1,8,0:0:0:0:
288,96,75007,1,0,0:0:0:0:
288,96,75091,1,0,0:0:0:0:
288,96,75176,1,0,0:0:0:0:
288,96,75261,1,8,0:0:0:0:
288,96,75430,1,0,0:0:0:0:
256,96,75473,1,8,0:0:0:0:
288,96,75600,1,0,0:0:0:0:
192,64,75642,1,8,0:0:0:0:
288,96,75769,1,0,0:0:0:0:
224,64,75812,1,8,0:0:0:0:
352,64,75939,1,0,0:0:0:0:
256,160,76024,1,0,0:0:0:0:
320,96,76108,1,8,0:0:0:0:
320,96,76165,1,8,0:0:0:0:
320,96,76221,1,8,0:0:0:0:
320,96,76278,1,0,0:0:0:0:
320,96,76447,1,0,0:0:0:0:
288,128,76617,1,0,0:0:0:0:
288,128,76702,1,8,0:0:0:0:
288,128,76786,1,8,0:0:0:0:
288,128,76871,1,8,0:0:0:0:
288,128,76956,1,0,0:0:0:0:
224,64,76998,1,0,0:0:0:0:
288,128,77125,1,0,0:0:0:0:
224,64,77168,1,0,0:0:0:0:
224,64,77295,1,8,0:0:0:0:
256,192,77380,1,0,0:0:0:0:
256,192,77464,1,0,0:0:0:0:
256,192,77549,1,0,0:0:0:0:
256,192,77634,1,8,0:0:0:0:
256,192,77719,1,0,0:0:0:0:
256,192,77803,1,8,0:0:0:0:
256,192,77888,1,8,0:0:0:0:
256,192,77973,1,0,0:0:0:0:
256,192,78142,1,8,0:0:0:0:
384,64,78185,1,8,0:0:0:0:
384,64,78312,1,8,0:0:0:0:
384,64,78354,1,8,0:0:0:0:
384,64,78481,1,8,0:0:0:0:
384,64,78524,1,8,0:0:0:0:
288,160,78651,1,0,0:0:0:0:
288,160,78736,1,8,0:0:0:0:
288,160,78820,1,8,0:0:0:0:
288,160,78905,1,0,0:0:0:0:
288,160,78990,1,8,0:0:0:0:
288,160,79075,1,8,0:0:0:0:
288,160,79159,1,0,0:0:0:0:
320,160,79329,1,8,0:0:0:0:
320,160,79414,1,0,0:0:0:0:
320,160,79498,1,0,0:0:0:0:
320,160,79583,1,0,0:0:0:0:
320,160,79668,1,8,0:0:0:0:
384,64,79724,1,8,0:0:0:0:
384,64,79781,1,8,0:0:0:0:
384,64,79837,1,0,0:0:0:0:
352,128,80007,1,8,0:0:0:0:
352,128,80091,1,0,0:0:0:0:
352,128,80176,1,0,0:0:0:0:
352,128,80261,1,0,0:0:0:0:
352,128,80346,1,8,0:0:0:0:
352,128,80430,1,8,0:0:0:0:
352,128,80515,1,0,0:0:0:0:
352,128,80600,1,0,0:0:0:0:
352,128,80685,1,8,0:0:0:0:
352,128,80854,1,0,0:0:0:0:
352,128,80897,1,0,0:0:0:0:
352,128,81024,1,0,0:0:0:0:
352,128,81066,1,0,0:0:0:0:
352,128,81193,1,0,0:0:0:0:
352,128,81236,1,0,0:0:0:0:
352,128,81363,1,8,0:0:0:0:
256,160,81532,1,0,0:0:0:0:
256,160,81617,1,8,0:0:0:0:
256,160,81786,1,0,0:0:0:0:
256,160,81871,1,8,0:0:0:0:
256,160,82041,1,0,0:0:0:0:
256,160,82125,1,8,0:0:0:0:
256,160,82210,1,0,0:0:0:0:
256,160,82295,1,0,0:0:0:0:
320,128,82380,1,8,0:0:0:0:
320,128,82436,1,8,0:0:0:0:
320,128,82493,1,8,0:0:0:0:
320,128,82549,1,0,0:0:0:0:
288,128,82719,1,8,0:0:0:0:
288,128,82803,1,8,0:0:0:0:
288,128,82888,1,0,0:0:0:0:
288,128,82973,1,0,0:0:0:0:
288,128,83058,1,8,0:0:0:0:
288,128,83142,1,8,0:0:0:0:
288,128,83227,1,0,0:0:0:0:
288,128,83312,1,0,0:0:0:0:
288,128,83397,1,8,0:0:0:0:
320,128,83566,1,0,0:0:0:0:
352,128,83608,1,8,0:0:0:0:
352,128,83736,1,0,0:0:0:0:
352,128,83778,1,8,0:0:0:0:
352,128,83905,1,0,0:0:0:0:
352,128,83947,1,8,0:0:0:0:
352,128,84075,1,8,0:0:0:0:
288,160,84159,1,8,0:0:0:0:
288,160,84244,1,0,0:0:0:0:
288,160,84329,1,8,0:0:0:0:
288,160,84414,1,8,0:0:0:0:
288,160,84498,1,0,0:0:0:0:
288,160,84583,1,8,0:0:0:0:
288,160,84753,1,8,0:0:0:0:
288,160,84837,1,8,0:0:0:0:
288,160,84922,1,0,0:0:0:0:
288,160,85007,1,0,0:0:0:0:
320,128,85091,1,8,0:0:0:0:
320,128,85148,1,8,0:0:0:0:
320,128,85204,1,8,0:0:0:0:
320,128,85261,1,0,0:0:0:0:
320,128,85430,1,8,0:0:0:0:
256,192,85515,1,8,0:0:0:0:
256,192,85600,1,0,0:0:0:0:
256,192,85685,1,0,0:0:0:0:
256,192,85769,1,0,0:0:0:0:
256,192,85854,1,8,0:0:0:0:
256,192,85939,1,0,0:0:0:0:
256,192,86024,1,0,0:0:0:0:
256,192,86108,1,8,0:0:0:0:
320,128,86278,1,0,0:0:0:0:
320,128,86320,1,0,0:0:0:0:
320,128,86447,1,0,0:0:0:0:
320,128,86490,1,0,0:0:0:0:
320,128,86617,1,0,0:0:0:0:
320,128,86659,1,0,0:0:0:0:
256,192,86786,1,4,0:0:0:0:
256,192,86956,1,8,0:0:0:0:
256,192,87125,1,0,0:0:0:0:
256,192,87210,1,8,0:0:0:0:
256,192,87295,1,0,0:0:0:0:
256,192,87380,1,0,0:0:0:0:
256,192,87464,1,12,0:0:0:0:
256,192,87634,1,0,0:0:0:0:
256,192,87719,1,0,0:0:0:0:
256,192,87803,1,8,0:0:0:0:
256,192,87888,1,8,0:0:0:0:
256,192,87973,1,8,0:0:0:0:
256,192,88058,1,8,0:0:0:0:
256,192,88142,1,4,0:0:0:0:
320,160,88312,1,0,0:0:0:0:
320,160,88368,1,0,0:0:0:0:
320,160,88425,1,0,0:0:0:0:
256,160,88481,1,8,0:0:0:0:
160,192,88482,2,8,L|192:192,1,0.1
160,192,88482,2,8,L|192:192,1,0.1
160,192,88482,2,8,L|192:192,1,0.1
320,160,88651,1,0,0:0:0:0:
288,160,88990,1,0,0:0:0:0:
288,96,89075,1,0,0:0:0:0:
256,160,89159,1,8,0:0:0:0:
160,192,89160,2,8,L|192:192,1,0.1
160,192,89160,2,8,L|192:192,1,0.1
160,192,89160,2,8,L|192:192,1,0.1
288,160,89329,1,0,0:0:0:0:
288,160,89498,1,0,0:0:0:0:
352,128,89555,1,0,0:0:0:0:
256,160,89668,1,8,0:0:0:0:
160,192,89669,2,8,L|192:192,1,0.1
160,192,89669,2,8,L|192:192,1,0.1
160,192,89669,2,8,L|192:192,1,0.1
256,160,89724,1,8,0:0:0:0:
160,192,89725,2,8,L|192:192,1,0.1
160,192,89725,2,8,L|192:192,1,0.1
160,192,89725,2,8,L|192:192,1,0.1
352,128,89837,1,0,0:0:0:0:
256,160,90007,1,8,0:0:0:0:
160,192,90008,2,8,L|192:192,1,0.1
160,192,90008,2,8,L|192:192,1,0.1
160,192,90008,2,8,L|192:192,1,0.1
352,128,90176,1,0,0:0:0:0:
352,128,90233,1,0,0:0:0:0:
256,160,90346,1,8,0:0:0:0:
160,192,90347,2,8,L|192:192,1,0.1
160,192,90347,2,8,L|192:192,1,0.1
160,192,90347,2,8,L|192:192,1,0.1
256,160,90402,1,8,0:0:0:0:
160,192,90403,2,8,L|192:192,1,0.1
160,192,90403,2,8,L|192:192,1,0.1
160,192,90403,2,8,L|192:192,1,0.1
352,128,90515,1,0,0:0:0:0:
352,128,90685,1,0,0:0:0:0:
288,128,90769,1,0,0:0:0:0:
352,128,90854,1,0,0:0:0:0:
224,128,91108,1,0,0:0:0:0:
256,160,91193,1,8,0:0:0:0:
160,192,91194,2,8,L|192:192,1,0.1
160,192,91194,2,8,L|192:192,1,0.1
160,192,91194,2,8,L|192:192,1,0.1
224,128,91363,1,0,0:0:0:0:
224,128,91532,1,0,0:0:0:0:
224,128,91617,1,0,0:0:0:0:
224,128,91702,1,0,0:0:0:0:
224,128,91786,1,0,0:0:0:0:
256,160,91871,1,8,0:0:0:0:
160,192,91872,2,8,L|192:192,1,0.1
160,192,91872,2,8,L|192:192,1,0.1
160,192,91872,2,8,L|192:192,1,0.1
256,160,92041,1,8,0:0:0:0:
160,192,92042,2,8,L|192:192,1,0.1
160,192,92042,2,8,L|192:192,1,0.1
160,192,92042,2,8,L|192:192,1,0.1
256,160,92097,1,8,0:0:0:0:
160,192,92098,2,8,L|192:192,1,0.1
160,192,92098,2,8,L|192:192,1,0.1
160,192,92098,2,8,L|192:192,1,0.1
256,160,92154,1,8,0:0:0:0:
160,192,92155,2,8,L|192:192,1,0.1
160,192,92155,2,8,L|192:192,1,0.1
160,192,92155,2,8,L|192:192,1,0.1
288,128,92210,1,0,0:0:0:0:
288,128,92464,1,0,0:0:0:0:
256,160,92549,1,8,0:0:0:0:
160,192,92550,2,8,L|192:192,1,0.1
160,192,92550,2,8,L|192:192,1,0.1
160,192,92550,2,8,L|192:192,1,0.1
288,128,92719,1,0,0:0:0:0:
256,160,92888,1,8,0:0:0:0:
160,192,92889,2,8,L|192:192,1,0.1
160,192,92889,2,8,L|192:192,1,0.1
160,192,92889,2,8,L|192:192,1,0.1
288,128,93058,1,0,0:0:0:0:
224,64,93142,1,0,0:0:0:0:
256,160,93227,1,8,0:0:0:0:
160,192,93228,2,8,L|192:192,1,0.1
160,192,93228,2,8,L|192:192,1,0.1
160,192,93228,2,8,L|192:192,1,0.1
256,160,93312,1,8,0:0:0:0:
160,192,93313,2,8,L|192:192,1,0.1
160,192,93313,2,8,L|192:192,1,0.1
160,192,93313,2,8,L|192:192,1,0.1
256,160,93397,1,8,0:0:0:0:
160,192,93398,2,8,L|192:192,1,0.1
160,192,93398,2,8,L|192:192,1,0.1
160,192,93398,2,8,L|192:192,1,0.1
256,160,93481,1,8,0:0:0:0:
160,192,93482,2,8,L|192:192,1,0.1
160,192,93482,2,8,L|192:192,1,0.1
160,192,93482,2,8,L|192:192,1,0.1
288,128,93566,1,0,0:0:0:0:
320,64,93736,1,0,0:0:0:0:
320,64,93792,1,0,0:0:0:0:
320,64,93849,1,0,0:0:0:0:
256,160,93905,1,8,0:0:0:0:
160,192,93906,2,8,L|192:192,1,0.1
160,192,93906,2,8,L|192:192,1,0.1
160,192,93906,2,8,L|192:192,1,0.1
320,160,94075,1,0,0:0:0:0:
288,160,94414,1,0,0:0:0:0:
288,96,94499,1,0,0:0:0:0:
256,160,94583,1,8,0:0:0:0:
160,192,94584,2,8,L|192:192,1,0.1
160,192,94584,2,8,L|192:192,1,0.1
160,192,94584,2,8,L|192:192,1,0.1
288,160,94753,1,0,0:0:0:0:
288,160,94922,1,0,0:0:0:0:
352,128,94979,1,0,0:0:0:0:
256,160,95091,1,8,0:0:0:0:
160,192,95092,2,8,L|192:192,1,0.1
160,192,95092,2,8,L|192:192,1,0.1
160,192,95092,2,8,L|192:192,1,0.1
256,160,95148,1,8,0:0:0:0:
160,192,95149,2,8,L|192:192,1,0.1
160,192,95149,2,8,L|192:192,1,0.1
160,192,95149,2,8,L|192:192,1,0.1
352,128,95261,1,0,0:0:0:0:
256,160,95430,1,8,0:0:0:0:
160,192,95431,2,8,L|192:192,1,0.1
160,192,95431,2,8,L|192:192,1,0.1
160,192,95431,2,8,L|192:192,1,0.1
352,128,95600,1,0,0:0:0:0:
352,128,95657,1,0,0:0:0:0:
256,160,95769,1,8,0:0:0:0:
160,192,95770,2,8,L|192:192,1,0.1
160,192,95770,2,8,L|192:192,1,0.1
160,192,95770,2,8,L|192:192,1,0.1
256,160,95826,1,8,0:0:0:0:
160,192,95827,2,8,L|192:192,1,0.1
160,192,95827,2,8,L|192:192,1,0.1
160,192,95827,2,8,L|192:192,1,0.1
352,128,95939,1,0,0:0:0:0:
352,128,96109,1,0,0:0:0:0:
288,128,96193,1,0,0:0:0:0:
352,128,96278,1,0,0:0:0:0:
224,128,96532,1,0,0:0:0:0:
256,160,96617,1,8,0:0:0:0:
160,192,96618,2,8,L|192:192,1,0.1
160,192,96618,2,8,L|192:192,1,0.1
160,192,96618,2,8,L|192:192,1,0.1
224,128,96787,1,0,0:0:0:0:
224,128,96956,1,0,0:0:0:0:
224,128,97041,1,0,0:0:0:0:
224,128,97126,1,0,0:0:0:0:
224,128,97210,1,0,0:0:0:0:
256,160,97295,1,8,0:0:0:0:
160,192,97296,2,8,L|192:192,1,0.1
160,192,97296,2,8,L|192:192,1,0.1
160,192,97296,2,8,L|192:192,1,0.1
256,160,97464,1,8,0:0:0:0:
160,192,97465,2,8,L|192:192,1,0.1
160,192,97465,2,8,L|192:192,1,0.1
160,192,97465,2,8,L|192:192,1,0.1
288,128,97634,1,4,0:0:0:0:
224,128,97803,1,0,0:0:0:0:
256,160,97888,1,8,0:0:0:0:
160,192,97889,2,8,L|192:192,1,0.1
160,192,97889,2,8,L|192:192,1,0.1
160,192,97889,2,8,L|192:192,1,0.1
224,128,97973,1,0,0:0:0:0:
224,128,98058,1,0,0:0:0:0:
256,160,98142,1,8,0:0:0:0:
160,192,98143,2,8,L|192:192,1,0.1
160,192,98143,2,8,L|192:192,1,0.1
160,192,98143,2,8,L|192:192,1,0.1
256,160,98312,1,12,0:0:0:0:
160,192,98313,2,12,L|192:192,1,0.1
160,192,98313,2,12,L|192:192,1,0.1
160,192,98313,2,12,L|192:192,1,0.1
224,128,98481,1,0,0:0:0:0:
256,160,98651,1,12,0:0:0:0:
160,192,98652,2,12,L|192:192,1,0.1
160,192,98652,2,12,L|192:192,1,0.1
160,192,98652,2,12,L|192:192,1,0.1
256,160,98820,1,8,0:0:0:0:
160,192,98821,2,8,L|192:192,1,0.1
160,192,98821,2,8,L|192:192,1,0.1
160,192,98821,2,8,L|192:192,1,0.1
256,160,98905,1,8,0:0:0:0:
160,192,98906,2,8,L|192:192,1,0.1
160,192,98906,2,8,L|192:192,1,0.1
160,192,98906,2,8,L|192:192,1,0.1
256,160,98990,1,4,0:0:0:0:
160,192,98991,2,4,L|192:192,1,0.1
160,192,98991,2,4,L|192:192,1,0.1
160,192,98991,2,4,L|192:192,1,0.1
256,160,99159,1,0,0:0:0:0:
160,192,99160,2,0,L|192:192,1,0.1
160,192,99160,2,0,L|192:192,1,0.1
160,192,99160,2,0,L|192:192,1,0.1
256,160,99216,1,0,0:0:0:0:
160,192,99217,2,0,L|192:192,1,0.1
160,192,99217,2,0,L|192:192,1,0.1
160,192,99217,2,0,L|192:192,1,0.1
256,160,99272,1,0,0:0:0:0:
160,192,99273,2,0,L|192:192,1,0.1
160,192,99273,2,0,L|192:192,1,0.1
160,192,99273,2,0,L|192:192,1,0.1
320,160,99328,1,8,0:0:0:0:
256,160,99498,1,0,0:0:0:0:
160,192,99499,2,0,L|192:192,1,0.1
160,192,99499,2,0,L|192:192,1,0.1
160,192,99499,2,0,L|192:192,1,0.1
256,128,99667,1,8,0:0:0:0:
256,160,99837,1,0,0:0:0:0:
160,192,99838,2,0,L|192:192,1,0.1
160,192,99838,2,0,L|192:192,1,0.1
160,192,99838,2,0,L|192:192,1,0.1
256,160,99922,1,0,0:0:0:0:
160,192,99923,2,0,L|192:192,1,0.1
160,192,99923,2,0,L|192:192,1,0.1
160,192,99923,2,0,L|192:192,1,0.1
288,160,100006,1,8,0:0:0:0:
256,160,100176,1,0,0:0:0:0:
160,192,100177,2,0,L|192:192,1,0.1
160,192,100177,2,0,L|192:192,1,0.1
160,192,100177,2,0,L|192:192,1,0.1
256,160,100346,1,0,0:0:0:0:
160,192,100347,2,0,L|192:192,1,0.1
160,192,100347,2,0,L|192:192,1,0.1
160,192,100347,2,0,L|192:192,1,0.1
256,160,100402,1,0,0:0:0:0:
160,192,100403,2,0,L|192:192,1,0.1
160,192,100403,2,0,L|192:192,1,0.1
160,192,100403,2,0,L|192:192,1,0.1
352,128,100515,1,8,0:0:0:0:
352,128,100571,1,8,0:0:0:0:
256,160,100685,1,0,0:0:0:0:
160,192,100686,2,0,L|192:192,1,0.1
160,192,100686,2,0,L|192:192,1,0.1
160,192,100686,2,0,L|192:192,1,0.1
256,160,100741,1,0,0:0:0:0:
160,192,100742,2,0,L|192:192,1,0.1
160,192,100742,2,0,L|192:192,1,0.1
160,192,100742,2,0,L|192:192,1,0.1
352,128,100854,1,8,0:0:0:0:
320,128,100911,1,8,0:0:0:0:
256,160,101024,1,0,0:0:0:0:
160,192,101025,2,0,L|192:192,1,0.1
160,192,101025,2,0,L|192:192,1,0.1
160,192,101025,2,0,L|192:192,1,0.1
256,160,101080,1,0,0:0:0:0:
160,192,101081,2,0,L|192:192,1,0.1
160,192,101081,2,0,L|192:192,1,0.1
160,192,101081,2,0,L|192:192,1,0.1
288,128,101193,1,8,0:0:0:0:
352,128,101249,1,8,0:0:0:0:
256,160,101363,1,0,0:0:0:0:
160,192,101364,2,0,L|192:192,1,0.1
160,192,101364,2,0,L|192:192,1,0.1
160,192,101364,2,0,L|192:192,1,0.1
256,160,101532,1,0,0:0:0:0:
160,192,101533,2,0,L|192:192,1,0.1
160,192,101533,2,0,L|192:192,1,0.1
160,192,101533,2,0,L|192:192,1,0.1
256,160,101617,1,0,0:0:0:0:
160,192,101618,2,0,L|192:192,1,0.1
160,192,101618,2,0,L|192:192,1,0.1
160,192,101618,2,0,L|192:192,1,0.1
256,160,101702,1,0,0:0:0:0:
160,192,101703,2,0,L|192:192,1,0.1
160,192,101703,2,0,L|192:192,1,0.1
160,192,101703,2,0,L|192:192,1,0.1
256,160,101956,1,0,0:0:0:0:
160,192,101957,2,0,L|192:192,1,0.1
160,192,101957,2,0,L|192:192,1,0.1
160,192,101957,2,0,L|192:192,1,0.1
224,128,102040,1,8,0:0:0:0:
256,160,102210,1,0,0:0:0:0:
160,192,102211,2,0,L|192:192,1,0.1
160,192,102211,2,0,L|192:192,1,0.1
160,192,102211,2,0,L|192:192,1,0.1
256,160,102380,1,0,0:0:0:0:
160,192,102381,2,0,L|192:192,1,0.1
160,192,102381,2,0,L|192:192,1,0.1
160,192,102381,2,0,L|192:192,1,0.1
256,160,102464,1,0,0:0:0:0:
160,192,102465,2,0,L|192:192,1,0.1
160,192,102465,2,0,L|192:192,1,0.1
160,192,102465,2,0,L|192:192,1,0.1
256,160,102549,1,0,0:0:0:0:
160,192,102550,2,0,L|192:192,1,0.1
160,192,102550,2,0,L|192:192,1,0.1
160,192,102550,2,0,L|192:192,1,0.1
256,160,102634,1,0,0:0:0:0:
160,192,102635,2,0,L|192:192,1,0.1
160,192,102635,2,0,L|192:192,1,0.1
160,192,102635,2,0,L|192:192,1,0.1
224,128,102718,1,8,0:0:0:0:
288,128,102888,1,8,0:0:0:0:
288,128,102944,1,8,0:0:0:0:
288,128,103001,1,8,0:0:0:0:
256,160,103058,1,0,0:0:0:0:
160,192,103059,2,0,L|192:192,1,0.1
160,192,103059,2,0,L|192:192,1,0.1
160,192,103059,2,0,L|192:192,1,0.1
256,160,103312,1,0,0:0:0:0:
160,192,103313,2,0,L|192:192,1,0.1
160,192,103313,2,0,L|192:192,1,0.1
160,192,103313,2,0,L|192:192,1,0.1
288,128,103396,1,8,0:0:0:0:
256,160,103566,1,0,0:0:0:0:
160,192,103567,2,0,L|192:192,1,0.1
160,192,103567,2,0,L|192:192,1,0.1
160,192,103567,2,0,L|192:192,1,0.1
256,160,103735,1,8,0:0:0:0:
256,160,103905,1,0,0:0:0:0:
160,192,103906,2,0,L|192:192,1,0.1
160,192,103906,2,0,L|192:192,1,0.1
160,192,103906,2,0,L|192:192,1,0.1
256,160,103990,1,0,0:0:0:0:
160,192,103991,2,0,L|192:192,1,0.1
160,192,103991,2,0,L|192:192,1,0.1
160,192,103991,2,0,L|192:192,1,0.1
288,128,104074,1,8,0:0:0:0:
288,128,104159,1,8,0:0:0:0:
288,128,104244,1,8,0:0:0:0:
288,128,104328,1,8,0:0:0:0:
256,160,104414,1,0,0:0:0:0:
160,192,104415,2,0,L|192:192,1,0.1
160,192,104415,2,0,L|192:192,1,0.1
160,192,104415,2,0,L|192:192,1,0.1
256,160,104583,1,0,0:0:0:0:
160,192,104584,2,0,L|192:192,1,0.1
160,192,104584,2,0,L|192:192,1,0.1
160,192,104584,2,0,L|192:192,1,0.1
256,160,104640,1,0,0:0:0:0:
160,192,104641,2,0,L|192:192,1,0.1
160,192,104641,2,0,L|192:192,1,0.1
160,192,104641,2,0,L|192:192,1,0.1
256,160,104696,1,0,0:0:0:0:
160,192,104697,2,0,L|192:192,1,0.1
160,192,104697,2,0,L|192:192,1,0.1
160,192,104697,2,0,L|192:192,1,0.1
320,64,104752,1,8,0:0:0:0:
256,160,104922,1,0,0:0:0:0:
160,192,104923,2,0,L|192:192,1,0.1
160,192,104923,2,0,L|192:192,1,0.1
160,192,104923,2,0,L|192:192,1,0.1
256,128,105091,1,8,0:0:0:0:
256,160,105261,1,0,0:0:0:0:
160,192,105262,2,0,L|192:192,1,0.1
160,192,105262,2,0,L|192:192,1,0.1
160,192,105262,2,0,L|192:192,1,0.1
256,160,105346,1,0,0:0:0:0:
160,192,105347,2,0,L|192:192,1,0.1
160,192,105347,2,0,L|192:192,1,0.1
160,192,105347,2,0,L|192:192,1,0.1
288,160,105430,1,8,0:0:0:0:
256,160,105600,1,0,0:0:0:0:
160,192,105601,2,0,L|192:192,1,0.1
160,192,105601,2,0,L|192:192,1,0.1
160,192,105601,2,0,L|192:192,1,0.1
256,160,105769,1,0,0:0:0:0:
160,192,105770,2,0,L|192:192,1,0.1
160,192,105770,2,0,L|192:192,1,0.1
160,192,105770,2,0,L|192:192,1,0.1
256,160,105826,1,0,0:0:0:0:
160,192,105827,2,0,L|192:192,1,0.1
160,192,105827,2,0,L|192:192,1,0.1
160,192,105827,2,0,L|192:192,1,0.1
352,128,105939,1,8,0:0:0:0:
352,128,105995,1,8,0:0:0:0:
256,160,106108,1,0,0:0:0:0:
160,192,106109,2,0,L|192:192,1,0.1
160,192,106109,2,0,L|192:192,1,0.1
160,192,106109,2,0,L|192:192,1,0.1
256,160,106165,1,0,0:0:0:0:
160,192,106166,2,0,L|192:192,1,0.1
160,192,106166,2,0,L|192:192,1,0.1
160,192,106166,2,0,L|192:192,1,0.1
352,128,106278,1,8,0:0:0:0:
256,64,106334,1,8,0:0:0:0:
256,160,106447,1,0,0:0:0:0:
160,192,106448,2,0,L|192:192,1,0.1
160,192,106448,2,0,L|192:192,1,0.1
160,192,106448,2,0,L|192:192,1,0.1
256,160,106504,1,0,0:0:0:0:
160,192,106505,2,0,L|192:192,1,0.1
160,192,106505,2,0,L|192:192,1,0.1
160,192,106505,2,0,L|192:192,1,0.1
352,128,106617,1,8,0:0:0:0:
352,128,106673,1,8,0:0:0:0:
256,160,106786,1,0,0:0:0:0:
160,192,106787,2,0,L|192:192,1,0.1
160,192,106787,2,0,L|192:192,1,0.1
160,192,106787,2,0,L|192:192,1,0.1
256,160,106956,1,0,0:0:0:0:
160,192,106957,2,0,L|192:192,1,0.1
160,192,106957,2,0,L|192:192,1,0.1
160,192,106957,2,0,L|192:192,1,0.1
256,160,107041,1,0,0:0:0:0:
160,192,107042,2,0,L|192:192,1,0.1
160,192,107042,2,0,L|192:192,1,0.1
160,192,107042,2,0,L|192:192,1,0.1
256,160,107125,1,0,0:0:0:0:
160,192,107126,2,0,L|192:192,1,0.1
160,192,107126,2,0,L|192:192,1,0.1
160,192,107126,2,0,L|192:192,1,0.1
256,160,107380,1,0,0:0:0:0:
160,192,107381,2,0,L|192:192,1,0.1
160,192,107381,2,0,L|192:192,1,0.1
160,192,107381,2,0,L|192:192,1,0.1
224,128,107464,1,8,0:0:0:0:
256,160,107634,1,0,0:0:0:0:
160,192,107635,2,0,L|192:192,1,0.1
160,192,107635,2,0,L|192:192,1,0.1
160,192,107635,2,0,L|192:192,1,0.1
256,160,107803,1,0,0:0:0:0:
160,192,107804,2,0,L|192:192,1,0.1
160,192,107804,2,0,L|192:192,1,0.1
160,192,107804,2,0,L|192:192,1,0.1
256,160,107888,1,0,0:0:0:0:
160,192,107889,2,0,L|192:192,1,0.1
160,192,107889,2,0,L|192:192,1,0.1
160,192,107889,2,0,L|192:192,1,0.1
256,160,107973,1,0,0:0:0:0:
160,192,107974,2,0,L|192:192,1,0.1
160,192,107974,2,0,L|192:192,1,0.1
160,192,107974,2,0,L|192:192,1,0.1
256,160,108058,1,0,0:0:0:0:
160,192,108059,2,0,L|192:192,1,0.1
160,192,108059,2,0,L|192:192,1,0.1
160,192,108059,2,0,L|192:192,1,0.1
224,128,108142,1,8,0:0:0:0:
288,128,108312,1,8,0:0:0:0:
256,160,108481,1,4,0:0:0:0:
160,192,108482,2,4,L|192:192,1,0.1
160,192,108482,2,4,L|192:192,1,0.1
160,160,108649,1,0,0:0:0:0:
224,128,108735,1,8,0:0:0:0:
160,160,108818,1,0,0:0:0:0:
160,160,108903,1,0,0:0:0:0:
224,128,108989,1,8,0:0:0:0:
256,160,109157,1,12,0:0:0:0:
160,192,109158,2,12,L|192:192,1,0.1
160,192,109158,2,12,L|192:192,1,0.1
192,160,109326,1,0,0:0:0:0:
192,160,109413,1,0,0:0:0:0:
192,128,109498,1,8,0:0:0:0:
192,128,109583,1,8,0:0:0:0:
192,128,109668,1,8,0:0:0:0:
192,128,109753,1,8,0:0:0:0:
256,160,109837,1,4,0:0:0:0:
160,192,109838,2,4,L|192:192,1,0.1
160,192,109838,2,4,L|192:192,1,0.1
256,192,112548,1,0,0:0:0:0:
160,192,112548,2,0,L|192:192,1,0.1
256,192,112887,1,8,0:0:0:0:
160,192,112887,2,0,L|192:192,1,0.1
256,192,113057,1,0,0:0:0:0:
160,192,113057,2,0,L|192:192,1,0.1
256,192,113142,1,0,0:0:0:0:
160,192,113142,2,0,L|192:192,1,0.1
256,192,113226,1,8,0:0:0:0:
160,192,113226,2,8,L|192:192,1,0.1
256,192,113396,1,8,0:0:0:0:
160,192,113396,2,0,L|192:192,1,0.1
256,192,113565,1,0,0:0:0:0:
160,192,113565,2,0,L|192:192,1,0.1
256,192,113735,1,8,0:0:0:0:
160,192,113735,2,8,L|192:192,1,0.1
256,192,113820,1,8,0:0:0:0:
160,192,113820,2,8,L|192:192,1,0.1
256,192,113904,1,0,0:0:0:0:
160,192,113904,2,0,L|192:192,1,0.1
256,192,114074,1,0,0:0:0:0:
160,192,114074,2,0,L|192:192,1,0.1
256,192,114159,1,0,0:0:0:0:
160,192,114159,2,0,L|192:192,1,0.1
256,192,114243,1,8,0:0:0:0:
160,192,114243,2,8,L|192:192,1,0.1
256,192,114413,1,0,0:0:0:0:
160,192,114413,2,0,L|192:192,1,0.1
256,192,114752,1,0,0:0:0:0:
160,192,114752,2,0,L|192:192,1,0.1
256,192,114837,1,0,0:0:0:0:
160,192,114837,2,0,L|192:192,1,0.1
256,192,114921,1,8,0:0:0:0:
160,192,114921,2,8,L|192:192,1,0.1
256,192,115006,1,8,0:0:0:0:
160,192,115006,2,8,L|192:192,1,0.1
256,192,115091,1,8,0:0:0:0:
160,192,115091,2,8,L|192:192,1,0.1
256,192,115175,1,0,0:0:0:0:
160,192,115175,2,0,L|192:192,1,0.1
256,192,115260,1,0,0:0:0:0:
160,192,115260,2,0,L|192:192,1,0.1
256,192,117972,1,8,0:0:0:0:
160,192,117972,2,8,L|192:192,1,0.1
256,192,118057,1,8,0:0:0:0:
160,192,118057,2,8,L|192:192,1,0.1
256,192,118142,1,8,0:0:0:0:
160,192,118142,2,8,L|192:192,1,0.1
256,192,118311,1,0,0:0:0:0:
160,192,118311,2,0,L|192:192,1,0.1
256,192,118481,1,8,0:0:0:0:
160,192,118481,2,8,L|192:192,1,0.1
256,192,118565,1,8,0:0:0:0:
160,192,118565,2,8,L|192:192,1,0.1
256,192,118651,1,8,0:0:0:0:
160,192,118651,2,8,L|192:192,1,0.1
256,192,118820,1,8,0:0:0:0:
160,192,118820,2,8,L|192:192,1,0.1
256,192,118989,1,0,0:0:0:0:
160,192,118989,2,0,L|192:192,1,0.1
256,192,119328,1,0,0:0:0:0:
160,192,119328,2,0,L|192:192,1,0.1
256,192,119498,1,8,0:0:0:0:
160,192,119498,2,8,L|192:192,1,0.1
256,192,119582,1,8,0:0:0:0:
160,192,119582,2,8,L|192:192,1,0.1
256,192,119667,1,8,0:0:0:0:
160,192,119667,2,8,L|192:192,1,0.1
256,192,119837,1,0,0:0:0:0:
160,192,119837,2,0,L|192:192,1,0.1
256,192,120006,1,0,0:0:0:0:
160,192,120006,2,0,L|192:192,1,0.1
256,192,120091,1,8,0:0:0:0:
160,192,120091,2,8,L|192:192,1,0.1
256,192,120175,1,8,0:0:0:0:
160,192,120175,2,8,L|192:192,1,0.1
256,192,120260,1,0,0:0:0:0:
160,192,120260,2,0,L|192:192,1,0.1
256,192,120345,1,8,0:0:0:0:
160,192,120345,2,8,L|192:192,1,0.1
256,192,120430,1,8,0:0:0:0:
160,192,120430,2,8,L|192:192,1,0.1
256,192,120514,1,0,0:0:0:0:
160,192,120514,2,0,L|192:192,1,0.1
256,192,120599,1,8,0:0:0:0:
160,192,120599,2,8,L|192:192,1,0.1
256,192,120684,1,0,0:0:0:0:
160,192,120684,2,0,L|192:192,1,0.1
256,192,123396,1,0,0:0:0:0:
160,192,123396,2,0,L|192:192,1,0.1
256,192,123735,1,8,0:0:0:0:
160,192,123735,2,8,L|192:192,1,0.1
256,192,123904,1,0,0:0:0:0:
160,192,123904,2,0,L|192:192,1,0.1
256,192,123989,1,0,0:0:0:0:
160,192,123989,2,0,L|192:192,1,0.1
256,192,124074,1,8,0:0:0:0:
160,192,124074,2,8,L|192:192,1,0.1
256,192,124243,1,0,0:0:0:0:
160,192,124243,2,0,L|192:192,1,0.1
256,192,124413,1,8,0:0:0:0:
160,192,124413,2,8,L|192:192,1,0.1
256,192,124582,1,8,0:0:0:0:
160,192,124582,2,8,L|192:192,1,0.1
256,192,124752,1,0,0:0:0:0:
160,192,124752,2,0,L|192:192,1,0.1
256,192,124837,1,0,0:0:0:0:
160,192,124837,2,0,L|192:192,1,0.1
256,192,124921,1,0,0:0:0:0:
160,192,124921,2,0,L|192:192,1,0.1
256,192,125006,1,0,0:0:0:0:
160,192,125006,2,0,L|192:192,1,0.1
256,192,125091,1,8,0:0:0:0:
160,192,125091,2,8,L|192:192,1,0.1
256,192,125260,1,0,0:0:0:0:
160,192,125260,2,0,L|192:192,1,0.1
256,192,125599,1,0,0:0:0:0:
160,192,125599,2,0,L|192:192,1,0.1
256,192,125684,1,8,0:0:0:0:
160,192,125684,2,8,L|192:192,1,0.1
256,192,125769,1,8,0:0:0:0:
160,192,125769,2,8,L|192:192,1,0.1
256,192,125853,1,8,0:0:0:0:
160,192,125853,2,8,L|192:192,1,0.1
256,192,125938,1,0,0:0:0:0:
160,192,125938,2,0,L|192:192,1,0.1
256,192,126023,1,0,0:0:0:0:
160,192,126023,2,0,L|192:192,1,0.1
256,192,126108,1,0,0:0:0:0:
160,192,126108,2,0,L|192:192,1,0.1
256,192,128820,1,8,0:0:0:0:
160,192,128820,2,8,L|192:192,1,0.1
256,192,128904,1,8,0:0:0:0:
160,192,128904,2,8,L|192:192,1,0.1
256,192,128989,1,0,0:0:0:0:
160,192,128989,2,0,L|192:192,1,0.1
256,192,129159,1,0,0:0:0:0:
160,192,129159,2,0,L|192:192,1,0.1
256,192,129328,1,8,0:0:0:0:
160,192,129328,2,8,L|192:192,1,0.1
256,192,129667,1,8,0:0:0:0:
160,192,129667,2,8,L|192:192,1,0.1
256,192,129837,1,0,0:0:0:0:
160,192,129837,2,0,L|192:192,1,0.1
256,192,130177,1,0,0:0:0:0:
288,160,130685,1,8,0:0:0:0:
288,160,131193,1,8,0:0:0:0:
288,160,131532,1,4,0:0:0:0:
256,160,134244,1,0,0:0:0:0:
256,192,136956,1,0,0:0:0:0:
256,192,139668,1,0,0:0:0:0:
256,192,142380,1,0,0:0:0:0:
256,192,145091,1,0,0:0:0:0:
256,192,147803,1,0,0:0:0:0:
256,192,150515,1,0,0:0:0:0:
320,128,151871,1,8,0:0:0:0:
320,128,151927,1,8,0:0:0:0:
320,128,151983,1,8,0:0:0:0:
320,128,152040,1,0,0:0:0:0:
320,128,152209,1,8,0:0:0:0:
320,96,152379,1,0,0:0:0:0:
320,96,152464,1,0,0:0:0:0:
320,96,152548,1,8,0:0:0:0:
320,96,152633,1,8,0:0:0:0:
320,96,152718,1,0,0:0:0:0:
320,96,152803,1,0,0:0:0:0:
320,96,152887,1,8,0:0:0:0:
256,192,153227,1,4,0:0:0:0:
256,192,153397,1,8,0:0:0:0:
256,192,153566,1,8,0:0:0:0:
256,192,153736,1,0,0:0:0:0:
256,192,153905,1,8,0:0:0:0:
256,192,154075,1,8,0:0:0:0:
256,192,154159,1,8,0:0:0:0:
256,192,154244,1,0,0:0:0:0:
256,192,154414,1,8,0:0:0:0:
256,192,154583,1,0,0:0:0:0:
224,192,154837,1,8,0:0:0:0:
224,192,155091,1,8,0:0:0:0:
224,192,155261,1,0,0:0:0:0:
224,192,155430,1,8,0:0:0:0:
224,192,155515,1,8,0:0:0:0:
224,192,155600,1,0,0:0:0:0:
224,192,155769,1,8,0:0:0:0:
256,192,155938,12,0,158650,0:0:0:0:
224,192,156617,5,0,0:0:0:0:
224,192,156786,1,8,0:0:0:0:
224,192,156871,1,0,0:0:0:0:
224,192,156956,1,8,0:0:0:0:
224,192,157125,1,0,0:0:0:0:
224,192,157295,1,8,0:0:0:0:
224,224,157464,1,0,0:0:0:0:
224,224,157549,1,8,0:0:0:0:
224,224,157719,1,0,0:0:0:0:
224,224,157803,1,8,0:0:0:0:
224,224,157973,1,0,0:0:0:0:
224,224,158142,1,8,0:0:0:0:
256,160,158227,1,0,0:0:0:0:
256,160,158312,1,8,0:0:0:0:
256,160,158397,1,0,0:0:0:0:
256,160,158481,1,8,0:0:0:0:
256,192,158650,12,0,161362,0:0:0:0:
192,160,159329,5,0,0:0:0:0:
224,192,159498,1,8,0:0:0:0:
224,192,159668,1,0,0:0:0:0:
224,192,159837,1,8,0:0:0:0:
352,128,159921,1,0,0:0:0:0:
224,192,160007,1,8,0:0:0:0:
352,128,160175,1,0,0:0:0:0:
256,128,160261,1,8,0:0:0:0:
256,96,160430,1,0,0:0:0:0:
256,128,160515,1,8,0:0:0:0:
256,128,160685,1,8,0:0:0:0:
256,128,160854,1,0,0:0:0:0:
256,128,160939,1,8,0:0:0:0:
256,128,161024,1,0,0:0:0:0:
256,128,161108,1,8,0:0:0:0:
256,128,161193,1,0,0:0:0:0:
256,192,161362,12,0,164074,0:0:0:0:
224,224,162041,5,0,0:0:0:0:
256,160,162210,1,8,0:0:0:0:
256,160,162380,1,0,0:0:0:0:
192,128,162464,1,8,0:0:0:0:
256,160,162549,1,0,0:0:0:0:
256,160,162719,1,8,0:0:0:0:
256,160,162888,1,0,0:0:0:0:
256,160,162973,1,8,0:0:0:0:
256,160,163058,1,0,0:0:0:0:
256,160,163227,1,8,0:0:0:0:
256,160,163397,1,0,0:0:0:0:
256,160,163481,1,8,0:0:0:0:
256,160,163566,1,0,0:0:0:0:
256,160,163651,1,8,0:0:0:0:
256,160,163736,1,8,0:0:0:0:
256,160,163820,1,0,0:0:0:0:
256,160,163905,1,8,0:0:0:0:
256,160,164075,1,4,0:0:0:0:
256,128,164244,1,8,0:0:0:0:
256,128,164329,1,8,0:0:0:0:
256,128,164414,1,0,0:0:0:0:
256,128,164583,1,8,0:0:0:0:
256,128,164753,1,0,0:0:0:0:
256,128,164922,1,8,0:0:0:0:
256,128,165091,1,0,0:0:0:0:
256,128,165176,1,8,0:0:0:0:
256,128,165261,1,8,0:0:0:0:
256,128,165346,1,8,0:0:0:0:
256,128,165430,1,0,0:0:0:0:
256,128,165600,1,8,0:0:0:0:
256,128,165685,1,8,0:0:0:0:
256,128,165769,1,0,0:0:0:0:
256,160,165939,1,8,0:0:0:0:
256,160,166108,1,0,0:0:0:0:
256,160,166193,1,8,0:0:0:0:
256,160,166363,1,8,0:0:0:0:
256,160,166447,1,0,0:0:0:0:
256,160,166617,1,8,0:0:0:0:
256,160,166786,1,4,0:0:0:0:
256,128,166956,1,8,0:0:0:0:
256,128,167041,1,8,0:0:0:0:
256,128,167126,1,0,0:0:0:0:
256,128,167295,1,8,0:0:0:0:
256,128,167465,1,0,0:0:0:0:
256,128,167634,1,8,0:0:0:0:
256,128,167803,1,0,0:0:0:0:
256,128,167888,1,8,0:0:0:0:
256,128,167973,1,8,0:0:0:0:
256,128,168058,1,8,0:0:0:0:
256,128,168142,1,0,0:0:0:0:
256,128,168312,1,8,0:0:0:0:
256,128,168397,1,8,0:0:0:0:
256,128,168481,1,0,0:0:0:0:
256,160,168651,1,8,0:0:0:0:
256,160,168736,1,8,0:0:0:0:
256,160,168820,1,0,0:0:0:0:
256,160,168990,1,8,0:0:0:0:
256,160,169075,1,8,0:0:0:0:
256,160,169159,1,0,0:0:0:0:
256,160,169244,1,8,0:0:0:0:
256,160,169329,1,0,0:0:0:0:
256,160,169498,1,4,0:0:0:0:
224,160,169668,1,8,0:0:0:0:
224,160,169837,1,0,0:0:0:0:
224,160,169922,1,0,0:0:0:0:
224,160,170007,1,8,0:0:0:0:
224,160,170176,1,12,0:0:0:0:
224,160,170346,1,0,0:0:0:0:
224,160,170515,1,8,0:0:0:0:
224,160,170600,1,8,0:0:0:0:
224,160,170685,1,0,0:0:0:0:
224,160,170854,1,4,0:0:0:0:
224,160,171024,1,8,0:0:0:0:
224,160,171193,1,0,0:0:0:0:
224,160,171278,1,0,0:0:0:0:
224,160,171363,1,8,0:0:0:0:
224,160,171532,1,12,0:0:0:0:
224,160,171702,1,0,0:0:0:0:
224,160,171871,1,8,0:0:0:0:
224,160,171956,1,8,0:0:0:0:
224,160,172041,1,0,0:0:0:0:
192,160,172210,1,0,0:0:0:0:
288,96,172295,1,8,0:0:0:0:
256,128,172380,1,8,0:0:0:0:
288,96,172464,1,0,0:0:0:0:
288,96,172549,1,8,0:0:0:0:
256,128,172634,1,0,0:0:0:0:
256,128,172719,1,8,0:0:0:0:
288,96,172803,1,0,0:0:0:0:
256,128,172888,1,8,0:0:0:0:
288,96,172973,1,8,0:0:0:0:
256,128,173058,1,0,0:0:0:0:
288,96,173142,1,0,0:0:0:0:
256,128,173227,1,8,0:0:0:0:
256,128,173312,1,0,0:0:0:0:
256,128,173397,1,8,0:0:0:0:
288,128,173481,1,0,0:0:0:0:
288,128,173566,1,12,0:0:0:0:
256,128,173736,1,0,0:0:0:0:
256,128,173820,1,0,0:0:0:0:
256,128,173905,1,8,0:0:0:0:
352,64,173962,1,8,0:0:0:0:
352,64,174075,1,8,0:0:0:0:
352,64,174131,1,8,0:0:0:0:
320,128,174244,1,0,0:0:0:0:
320,128,174329,1,8,0:0:0:0:
320,128,174414,1,0,0:0:0:0:
320,128,174498,1,0,0:0:0:0:
352,128,174583,1,8,0:0:0:0:
352,128,174640,1,0,0:0:0:0:
352,128,174696,1,0,0:0:0:0:
352,128,174753,1,8,0:0:0:0:
256,128,174922,1,4,0:0:0:0:
384,96,175091,1,0,0:0:0:0:
384,96,175148,1,0,0:0:0:0:
384,96,175204,1,0,0:0:0:0:
384,96,175261,1,8,0:0:0:0:
384,96,175430,1,0,0:0:0:0:
320,128,175769,1,0,0:0:0:0:
320,128,175939,1,8,0:0:0:0:
416,128,175995,1,0,0:0:0:0:
416,96,176052,1,0,0:0:0:0:
320,128,176108,1,8,0:0:0:0:
320,128,176278,1,0,0:0:0:0:
384,96,176363,1,0,0:0:0:0:
320,160,176447,1,8,0:0:0:0:
320,128,176504,1,8,0:0:0:0:
320,128,176560,1,8,0:0:0:0:
320,128,176617,1,0,0:0:0:0:
320,128,176786,1,0,0:0:0:0:
224,64,176956,1,0,0:0:0:0:
224,64,177012,1,0,0:0:0:0:
224,64,177125,1,8,0:0:0:0:
224,64,177182,1,8,0:0:0:0:
224,64,177295,1,0,0:0:0:0:
256,32,177464,1,8,0:0:0:0:
352,64,177521,1,8,0:0:0:0:
352,64,177577,1,8,0:0:0:0:
352,64,177634,1,0,0:0:0:0:
320,96,177888,1,0,0:0:0:0:
320,96,177973,1,8,0:0:0:0:
320,96,178142,1,0,0:0:0:0:
288,128,178312,1,8,0:0:0:0:
288,128,178397,1,8,0:0:0:0:
320,96,178481,1,0,0:0:0:0:
320,96,178651,1,8,0:0:0:0:
288,128,178736,1,8,0:0:0:0:
288,128,178820,1,8,0:0:0:0:
288,128,178905,1,8,0:0:0:0:
288,128,178990,1,0,0:0:0:0:
288,128,179159,1,0,0:0:0:0:
288,128,179244,1,0,0:0:0:0:
288,128,179329,1,8,0:0:0:0:
288,128,179498,1,0,0:0:0:0:
288,128,179668,1,0,0:0:0:0:
288,128,179753,1,0,0:0:0:0:
288,128,179837,1,8,0:0:0:0:
288,128,179922,1,0,0:0:0:0:
288,128,180007,1,8,0:0:0:0:
288,128,180091,1,8,0:0:0:0:
288,128,180176,1,8,0:0:0:0:
288,128,180261,1,8,0:0:0:0:
288,128,180346,1,0,0:0:0:0:
384,96,180515,1,0,0:0:0:0:
384,96,180572,1,0,0:0:0:0:
384,96,180628,1,0,0:0:0:0:
384,96,180685,1,8,0:0:0:0:
384,96,180854,1,0,0:0:0:0:
320,128,181193,1,0,0:0:0:0:
320,128,181363,1,8,0:0:0:0:
416,128,181419,1,0,0:0:0:0:
416,96,181476,1,0,0:0:0:0:
320,128,181532,1,8,0:0:0:0:
320,128,181702,1,0,0:0:0:0:
384,96,181787,1,0,0:0:0:0:
320,160,181871,1,8,0:0:0:0:
320,128,181928,1,8,0:0:0:0:
320,128,181984,1,8,0:0:0:0:
320,128,182041,1,0,0:0:0:0:
320,128,182210,1,0,0:0:0:0:
224,64,182380,1,0,0:0:0:0:
224,64,182436,1,0,0:0:0:0:
224,64,182549,1,8,0:0:0:0:
224,64,182606,1,8,0:0:0:0:
224,64,182719,1,0,0:0:0:0:
256,32,182888,1,8,0:0:0:0:
352,64,182945,1,8,0:0:0:0:
352,64,183001,1,8,0:0:0:0:
352,64,183058,1,0,0:0:0:0:
320,96,183312,1,0,0:0:0:0:
320,96,183397,1,8,0:0:0:0:
320,96,183566,1,0,0:0:0:0:
288,128,183736,1,8,0:0:0:0:
288,128,183821,1,8,0:0:0:0:
320,96,183905,1,0,0:0:0:0:
256,64,183990,1,0,0:0:0:0:
256,64,184075,1,8,0:0:0:0:
288,128,184244,1,8,0:0:0:0:
224,128,184414,1,4,0:0:0:0:
224,128,184583,1,0,0:0:0:0:
224,128,184668,1,8,0:0:0:0:
224,128,184753,1,0,0:0:0:0:
224,128,184837,1,0,0:0:0:0:
224,128,184922,1,8,0:0:0:0:
224,128,185091,1,12,0:0:0:0:
224,128,185261,1,0,0:0:0:0:
224,128,185430,1,12,0:0:0:0:
224,128,185600,1,8,0:0:0:0:
224,128,185685,1,8,0:0:0:0:
224,128,185769,1,4,0:0:0:0:
384,96,185939,1,0,0:0:0:0:
384,96,185996,1,0,0:0:0:0:
384,96,186052,1,0,0:0:0:0:
384,96,186109,1,8,0:0:0:0:
384,96,186278,1,0,0:0:0:0:
320,128,186617,1,0,0:0:0:0:
320,128,186787,1,8,0:0:0:0:
416,128,186843,1,0,0:0:0:0:
416,96,186900,1,0,0:0:0:0:
320,128,186956,1,8,0:0:0:0:
320,128,187126,1,0,0:0:0:0:
384,96,187211,1,0,0:0:0:0:
320,160,187295,1,8,0:0:0:0:
320,128,187352,1,8,0:0:0:0:
320,128,187408,1,8,0:0:0:0:
320,128,187465,1,0,0:0:0:0:
320,128,187634,1,0,0:0:0:0:
224,64,187804,1,0,0:0:0:0:
224,64,187860,1,0,0:0:0:0:
224,64,187973,1,8,0:0:0:0:
224,64,188030,1,8,0:0:0:0:
224,64,188143,1,0,0:0:0:0:
256,32,188312,1,8,0:0:0:0:
352,64,188369,1,8,0:0:0:0:
352,64,188425,1,8,0:0:0:0:
352,64,188482,1,0,0:0:0:0:
320,96,188736,1,0,0:0:0:0:
320,96,188821,1,8,0:0:0:0:
320,96,188990,1,0,0:0:0:0:
288,128,189160,1,8,0:0:0:0:
288,128,189245,1,8,0:0:0:0:
320,96,189329,1,0,0:0:0:0:
320,96,189499,1,8,0:0:0:0:
288,128,189584,1,8,0:0:0:0:
288,128,189668,1,8,0:0:0:0:
288,128,189753,1,8,0:0:0:0:
288,128,189838,1,0,0:0:0:0:
288,128,190007,1,0,0:0:0:0:
288,128,190092,1,0,0:0:0:0:
288,128,190177,1,8,0:0:0:0:
288,128,190346,1,0,0:0:0:0:
288,128,190516,1,0,0:0:0:0:
288,128,190601,1,0,0:0:0:0:
288,128,190685,1,8,0:0:0:0:
288,128,190770,1,0,0:0:0:0:
288,128,190855,1,8,0:0:0:0:
288,128,190939,1,8,0:0:0:0:
288,128,191024,1,8,0:0:0:0:
288,128,191109,1,8,0:0:0:0:
288,128,191194,1,0,0:0:0:0:
384,96,191363,1,0,0:0:0:0:
384,96,191420,1,0,0:0:0:0:
384,96,191476,1,0,0:0:0:0:
384,96,191533,1,8,0:0:0:0:
384,96,191702,1,0,0:0:0:0:
320,128,192041,1,0,0:0:0:0:
320,128,192211,1,8,0:0:0:0:
416,128,192267,1,0,0:0:0:0:
416,96,192324,1,0,0:0:0:0:
320,128,192380,1,8,0:0:0:0:
320,128,192550,1,0,0:0:0:0:
384,96,192635,1,0,0:0:0:0:
320,160,192719,1,8,0:0:0:0:
320,128,192776,1,8,0:0:0:0:
320,128,192832,1,8,0:0:0:0:
320,128,192889,1,0,0:0:0:0:
320,128,193058,1,0,0:0:0:0:
224,64,193228,1,0,0:0:0:0:
224,64,193284,1,0,0:0:0:0:
224,64,193397,1,8,0:0:0:0:
224,64,193454,1,8,0:0:0:0:
224,64,193567,1,0,0:0:0:0:
256,32,193736,1,8,0:0:0:0:
352,64,193793,1,8,0:0:0:0:
352,64,193849,1,8,0:0:0:0:
352,64,193906,1,0,0:0:0:0:
320,96,194160,1,0,0:0:0:0:
320,96,194245,1,8,0:0:0:0:
320,96,194414,1,0,0:0:0:0:
288,128,194584,1,8,0:0:0:0:
288,128,194669,1,8,0:0:0:0:
320,96,194753,1,0,0:0:0:0:
256,64,194838,1,0,0:0:0:0:
256,64,194923,1,8,0:0:0:0:
288,128,195092,1,8,0:0:0:0:
224,128,195262,1,4,0:0:0:0:
224,128,195431,1,0,0:0:0:0:
224,128,195516,1,8,0:0:0:0:
224,128,195601,1,0,0:0:0:0:
224,128,195685,1,0,0:0:0:0:
224,128,195770,1,8,0:0:0:0:
224,128,195939,1,12,0:0:0:0:
224,128,196109,1,8,0:0:0:0:
160,96,196193,1,0,0:0:0:0:
160,96,196278,1,8,0:0:0:0:
192,96,196363,1,8,0:0:0:0:
224,128,196448,1,8,0:0:0:0:
224,128,196533,1,8,0:0:0:0:
224,128,196617,1,4,0:0:0:0:
256,160,196786,1,0,0:0:0:0:
160,192,196787,2,0,L|192:192,1,0.1
256,160,196842,1,0,0:0:0:0:
160,192,196843,2,0,L|192:192,1,0.1
256,160,196899,1,0,0:0:0:0:
160,192,196900,2,0,L|192:192,1,0.1
256,160,196955,1,8,0:0:0:0:
160,192,196956,2,8,L|192:192,1,0.1
256,160,197125,1,4,0:0:0:0:
160,192,197126,2,4,L|192:192,1,0.1
256,160,197294,1,0,0:0:0:0:
160,192,197295,2,0,L|192:192,1,0.1
256,160,197379,1,0,0:0:0:0:
160,192,197380,2,0,L|192:192,1,0.1
256,160,197464,1,8,0:0:0:0:
160,192,197465,2,8,L|192:192,1,0.1
256,160,197548,1,8,0:0:0:0:
160,192,197549,2,8,L|192:192,1,0.1
256,160,197633,1,0,0:0:0:0:
160,192,197634,2,0,L|192:192,1,0.1
256,160,197803,1,8,0:0:0:0:
160,192,197804,2,8,L|192:192,1,0.1
256,160,197972,1,4,0:0:0:0:
160,192,197973,2,4,L|192:192,1,0.1
256,160,198142,1,8,0:0:0:0:
160,192,198143,2,8,L|192:192,1,0.1
256,160,198198,1,8,0:0:0:0:
160,192,198199,2,8,L|192:192,1,0.1
256,160,198311,1,0,0:0:0:0:
160,192,198312,2,0,L|192:192,1,0.1
256,160,198368,1,0,0:0:0:0:
160,192,198369,2,0,L|192:192,1,0.1
256,160,198481,1,8,0:0:0:0:
160,192,198482,2,8,L|192:192,1,0.1
256,160,198650,1,0,0:0:0:0:
160,192,198651,2,0,L|192:192,1,0.1
256,160,198707,1,0,0:0:0:0:
160,192,198708,2,0,L|192:192,1,0.1
256,160,198820,1,8,0:0:0:0:
160,192,198821,2,8,L|192:192,1,0.1
256,160,198876,1,8,0:0:0:0:
160,192,198877,2,8,L|192:192,1,0.1
256,160,198989,1,0,0:0:0:0:
160,192,198990,2,0,L|192:192,1,0.1
256,160,199046,1,0,0:0:0:0:
160,192,199047,2,0,L|192:192,1,0.1
256,160,199159,1,8,0:0:0:0:
160,192,199160,2,8,L|192:192,1,0.1
256,160,199328,1,4,0:0:0:0:
160,192,199329,2,4,L|192:192,1,0.1
256,160,199498,1,0,0:0:0:0:
160,192,199499,2,0,L|192:192,1,0.1
256,160,199554,1,0,0:0:0:0:
160,192,199555,2,0,L|192:192,1,0.1
256,160,199611,1,0,0:0:0:0:
160,192,199612,2,0,L|192:192,1,0.1
256,160,199667,1,8,0:0:0:0:
160,192,199668,2,8,L|192:192,1,0.1
256,160,199837,1,4,0:0:0:0:
160,192,199838,2,4,L|192:192,1,0.1
256,160,200006,1,0,0:0:0:0:
160,192,200007,2,0,L|192:192,1,0.1
256,160,200091,1,8,0:0:0:0:
160,192,200092,2,8,L|192:192,1,0.1
256,160,200175,1,0,0:0:0:0:
160,192,200176,2,0,L|192:192,1,0.1
256,160,200260,1,0,0:0:0:0:
160,192,200261,2,0,L|192:192,1,0.1
256,160,200345,1,8,0:0:0:0:
160,192,200346,2,8,L|192:192,1,0.1
256,160,200514,1,0,0:0:0:0:
160,192,200515,2,0,L|192:192,1,0.1
256,160,200684,1,4,0:0:0:0:
160,192,200685,2,4,L|192:192,1,0.1
256,160,200769,1,8,0:0:0:0:
160,192,200770,2,8,L|192:192,1,0.1
256,160,200853,1,8,0:0:0:0:
160,192,200854,2,8,L|192:192,1,0.1
256,160,200938,1,8,0:0:0:0:
160,192,200939,2,8,L|192:192,1,0.1
256,160,201023,1,8,0:0:0:0:
160,192,201024,2,8,L|192:192,1,0.1
256,160,201108,1,8,0:0:0:0:
160,192,201109,2,8,L|192:192,1,0.1
256,160,201192,1,8,0:0:0:0:
160,192,201193,2,8,L|192:192,1,0.1
256,160,201277,1,8,0:0:0:0:
160,192,201278,2,8,L|192:192,1,0.1
256,160,201362,1,4,0:0:0:0:
160,192,201363,2,4,L|192:192,1,0.1
288,128,201447,1,8,0:0:0:0:
288,128,201532,1,8,0:0:0:0:
288,128,201617,1,8,0:0:0:0:
288,128,201701,1,8,0:0:0:0:
288,128,201786,1,8,0:0:0:0:
288,128,201871,1,8,0:0:0:0:
288,128,201956,1,8,0:0:0:0:
256,160,202040,1,4,0:0:0:0:
160,192,202041,2,4,L|192:192,1,0.1
256,160,202209,1,0,0:0:0:0:
160,192,202210,2,0,L|192:192,1,0.1
256,160,202265,1,0,0:0:0:0:
160,192,202266,2,0,L|192:192,1,0.1
256,160,202322,1,0,0:0:0:0:
160,192,202323,2,0,L|192:192,1,0.1
256,160,202378,1,8,0:0:0:0:
160,192,202379,2,8,L|192:192,1,0.1
256,160,202548,1,4,0:0:0:0:
160,192,202549,2,4,L|192:192,1,0.1
256,160,202718,1,0,0:0:0:0:
160,192,202719,2,0,L|192:192,1,0.1
256,160,202803,1,8,0:0:0:0:
160,192,202804,2,8,L|192:192,1,0.1
256,160,202887,1,0,0:0:0:0:
160,192,202888,2,0,L|192:192,1,0.1
256,160,202972,1,0,0:0:0:0:
160,192,202973,2,0,L|192:192,1,0.1
256,160,203057,1,8,0:0:0:0:
160,192,203058,2,8,L|192:192,1,0.1
256,160,203226,1,0,0:0:0:0:
160,192,203227,2,0,L|192:192,1,0.1
256,160,203396,1,8,0:0:0:0:
160,192,203397,2,8,L|192:192,1,0.1
256,160,203452,1,8,0:0:0:0:
160,192,203453,2,8,L|192:192,1,0.1
256,160,203509,1,8,0:0:0:0:
160,192,203510,2,8,L|192:192,1,0.1
256,160,203565,1,0,0:0:0:0:
160,192,203566,2,0,L|192:192,1,0.1
256,160,203735,1,0,0:0:0:0:
160,192,203736,2,0,L|192:192,1,0.1
256,160,203791,1,8,0:0:0:0:
160,192,203792,2,8,L|192:192,1,0.1
256,160,203848,1,8,0:0:0:0:
160,192,203849,2,8,L|192:192,1,0.1
256,160,203904,1,0,0:0:0:0:
160,192,203905,2,0,L|192:192,1,0.1
256,160,204074,1,0,0:0:0:0:
160,192,204075,2,0,L|192:192,1,0.1
256,160,204159,1,8,0:0:0:0:
160,192,204160,2,8,L|192:192,1,0.1
256,160,204243,1,0,0:0:0:0:
160,192,204244,2,0,L|192:192,1,0.1
256,160,204413,1,8,0:0:0:0:
160,192,204414,2,8,L|192:192,1,0.1
256,160,204498,1,0,0:0:0:0:
160,192,204499,2,0,L|192:192,1,0.1
256,160,204582,1,8,0:0:0:0:
160,192,204583,2,8,L|192:192,1,0.1
256,160,204667,1,8,0:0:0:0:
160,192,204668,2,8,L|192:192,1,0.1
256,160,204752,1,4,0:0:0:0:
160,192,204753,2,4,L|192:192,1,0.1
256,160,204921,1,0,0:0:0:0:
160,192,204922,2,0,L|192:192,1,0.1
256,160,204977,1,0,0:0:0:0:
160,192,204978,2,0,L|192:192,1,0.1
256,160,205034,1,0,0:0:0:0:
160,192,205035,2,0,L|192:192,1,0.1
256,160,205090,1,8,0:0:0:0:
160,192,205091,2,8,L|192:192,1,0.1
256,160,205260,1,4,0:0:0:0:
160,192,205261,2,4,L|192:192,1,0.1
256,160,205430,1,0,0:0:0:0:
160,192,205431,2,0,L|192:192,1,0.1
256,160,205514,1,0,0:0:0:0:
160,192,205515,2,0,L|192:192,1,0.1
256,160,205599,1,0,0:0:0:0:
160,192,205600,2,0,L|192:192,1,0.1
256,160,205684,1,8,0:0:0:0:
160,192,205685,2,8,L|192:192,1,0.1
256,160,205769,1,0,0:0:0:0:
160,192,205770,2,0,L|192:192,1,0.1
256,160,205938,1,8,0:0:0:0:
160,192,205939,2,8,L|192:192,1,0.1
256,160,206108,1,12,0:0:0:0:
160,192,206109,2,12,L|192:192,1,0.1
160,192,206109,2,12,L|192:192,1,0.1
160,192,206109,2,12,L|192:192,1,0.1
256,160,206277,1,0,0:0:0:0:
160,192,206278,2,0,L|192:192,1,0.1
160,192,206278,2,0,L|192:192,1,0.1
160,192,206278,2,0,L|192:192,1,0.1
256,160,206362,1,8,0:0:0:0:
160,192,206363,2,8,L|192:192,1,0.1
160,192,206363,2,8,L|192:192,1,0.1
160,192,206363,2,8,L|192:192,1,0.1
256,160,206447,1,0,0:0:0:0:
160,192,206448,2,0,L|192:192,1,0.1
160,192,206448,2,0,L|192:192,1,0.1
160,192,206448,2,0,L|192:192,1,0.1
256,160,206616,1,12,0:0:0:0:
160,192,206617,2,12,L|192:192,1,0.1
160,192,206617,2,12,L|192:192,1,0.1
160,192,206617,2,12,L|192:192,1,0.1
256,160,206786,1,0,0:3:0:0:
160,192,206787,2,0,L|192:192,1,0.1,0|0,0:3|0:3,0:3:0:0:
160,192,206787,2,0,L|192:192,1,0.1,0|0,0:3|0:3,0:3:0:0:
160,192,206787,2,0,L|192:192,1,0.1,0|0,0:3|0:3,0:3:0:0:
256,160,206870,1,8,0:0:0:0:
160,192,206871,2,8,L|192:192,1,0.1
160,192,206871,2,8,L|192:192,1,0.1
160,192,206871,2,8,L|192:192,1,0.1
256,160,206955,1,0,0:0:0:0:
160,192,206956,2,0,L|192:192,1,0.1
160,192,206956,2,0,L|192:192,1,0.1
160,192,206956,2,0,L|192:192,1,0.1
256,160,207040,1,0,0:0:0:0:
160,192,207041,2,0,L|192:192,1,0.1
160,192,207041,2,0,L|192:192,1,0.1
160,192,207041,2,0,L|192:192,1,0.1
256,160,207125,1,12,0:0:0:0:
160,192,207126,2,12,L|192:192,1,0.1
160,192,207126,2,12,L|192:192,1,0.1
160,192,207126,2,12,L|192:192,1,0.1
256,160,207294,1,8,0:0:0:0:
160,192,207295,2,8,L|192:192,1,0.1
160,192,207295,2,8,L|192:192,1,0.1
160,192,207295,2,8,L|192:192,1,0.1
256,160,207464,1,4,0:0:0:0:
160,192,207465,2,4,L|192:192,1,0.1
160,192,207465,2,4,L|192:192,1,0.1
160,192,207465,2,4,L|192:192,1,0.1
256,160,207633,1,0,0:0:0:0:
160,192,207634,2,0,L|192:192,1,0.1
160,192,207634,2,0,L|192:192,1,0.1
160,192,207634,2,0,L|192:192,1,0.1
256,160,207690,1,0,0:0:0:0:
160,192,207691,2,0,L|192:192,1,0.1
160,192,207691,2,0,L|192:192,1,0.1
160,192,207691,2,0,L|192:192,1,0.1
256,160,207746,1,0,0:0:0:0:
160,192,207747,2,0,L|192:192,1,0.1
160,192,207747,2,0,L|192:192,1,0.1
160,192,207747,2,0,L|192:192,1,0.1
256,160,207803,1,8,0:0:0:0:
160,192,207804,2,8,L|192:192,1,0.1
160,192,207804,2,8,L|192:192,1,0.1
160,192,207804,2,8,L|192:192,1,0.1
256,160,207972,1,4,0:0:0:0:
160,192,207973,2,4,L|192:192,1,0.1
160,192,207973,2,4,L|192:192,1,0.1
160,192,207973,2,4,L|192:192,1,0.1
256,160,208142,1,0,0:0:0:0:
160,192,208143,2,0,L|192:192,1,0.1
160,192,208143,2,0,L|192:192,1,0.1
160,192,208143,2,0,L|192:192,1,0.1
256,160,208198,1,0,0:0:0:0:
160,192,208199,2,0,L|192:192,1,0.1
160,192,208199,2,0,L|192:192,1,0.1
160,192,208199,2,0,L|192:192,1,0.1
256,160,208311,1,0,0:0:0:0:
160,192,208312,2,0,L|192:192,1,0.1
160,192,208312,2,0,L|192:192,1,0.1
160,192,208312,2,0,L|192:192,1,0.1
256,160,208368,1,0,0:0:0:0:
160,192,208369,2,0,L|192:192,1,0.1
160,192,208369,2,0,L|192:192,1,0.1
160,192,208369,2,0,L|192:192,1,0.1
256,160,208480,1,8,0:0:0:0:
160,192,208481,2,8,L|192:192,1,0.1
160,192,208481,2,8,L|192:192,1,0.1
160,192,208481,2,8,L|192:192,1,0.1
256,160,208650,1,0,0:0:0:0:
160,192,208651,2,0,L|192:192,1,0.1
160,192,208651,2,0,L|192:192,1,0.1
160,192,208651,2,0,L|192:192,1,0.1
256,160,208735,1,8,0:0:0:0:
160,192,208736,2,8,L|192:192,1,0.1
160,192,208736,2,8,L|192:192,1,0.1
160,192,208736,2,8,L|192:192,1,0.1
256,160,208819,1,0,0:0:0:0:
160,192,208820,2,0,L|192:192,1,0.1
160,192,208820,2,0,L|192:192,1,0.1
160,192,208820,2,0,L|192:192,1,0.1
256,160,208904,1,0,0:0:0:0:
160,192,208905,2,0,L|192:192,1,0.1
160,192,208905,2,0,L|192:192,1,0.1
160,192,208905,2,0,L|192:192,1,0.1
256,160,208989,1,8,0:0:0:0:
160,192,208990,2,8,L|192:192,1,0.1
160,192,208990,2,8,L|192:192,1,0.1
160,192,208990,2,8,L|192:192,1,0.1
256,160,209045,1,8,0:0:0:0:
160,192,209046,2,8,L|192:192,1,0.1
160,192,209046,2,8,L|192:192,1,0.1
160,192,209046,2,8,L|192:192,1,0.1
256,160,209102,1,8,0:0:0:0:
160,192,209103,2,8,L|192:192,1,0.1
160,192,209103,2,8,L|192:192,1,0.1
160,192,209103,2,8,L|192:192,1,0.1
256,160,209158,1,0,0:0:0:0:
160,192,209159,2,0,L|192:192,1,0.1
160,192,209159,2,0,L|192:192,1,0.1
160,192,209159,2,0,L|192:192,1,0.1
256,160,209328,1,0,0:0:0:0:
160,192,209329,2,0,L|192:192,1,0.1
160,192,209329,2,0,L|192:192,1,0.1
160,192,209329,2,0,L|192:192,1,0.1
256,160,209413,1,8,0:0:0:0:
160,192,209414,2,8,L|192:192,1,0.1
160,192,209414,2,8,L|192:192,1,0.1
160,192,209414,2,8,L|192:192,1,0.1
256,160,209497,1,0,0:0:0:0:
160,192,209498,2,0,L|192:192,1,0.1
160,192,209498,2,0,L|192:192,1,0.1
160,192,209498,2,0,L|192:192,1,0.1
256,160,209582,1,0,0:0:0:0:
160,192,209583,2,0,L|192:192,1,0.1
160,192,209583,2,0,L|192:192,1,0.1
160,192,209583,2,0,L|192:192,1,0.1
256,160,209667,1,8,0:0:0:0:
160,192,209668,2,8,L|192:192,1,0.1
160,192,209668,2,8,L|192:192,1,0.1
160,192,209668,2,8,L|192:192,1,0.1
256,160,209723,1,8,0:0:0:0:
160,192,209724,2,8,L|192:192,1,0.1
160,192,209724,2,8,L|192:192,1,0.1
160,192,209724,2,8,L|192:192,1,0.1
256,160,209780,1,8,0:0:0:0:
160,192,209781,2,8,L|192:192,1,0.1
160,192,209781,2,8,L|192:192,1,0.1
160,192,209781,2,8,L|192:192,1,0.1
256,160,209836,1,0,0:0:0:0:
160,192,209837,2,0,L|192:192,1,0.1
160,192,209837,2,0,L|192:192,1,0.1
160,192,209837,2,0,L|192:192,1,0.1
256,160,210006,1,8,0:0:0:0:
160,192,210007,2,8,L|192:192,1,0.1
160,192,210007,2,8,L|192:192,1,0.1
160,192,210007,2,8,L|192:192,1,0.1
256,160,210175,1,0,0:0:0:0:
160,192,210176,2,0,L|192:192,1,0.1
160,192,210176,2,0,L|192:192,1,0.1
160,192,210176,2,0,L|192:192,1,0.1
256,160,210231,1,0,0:0:0:0:
160,192,210232,2,0,L|192:192,1,0.1
160,192,210232,2,0,L|192:192,1,0.1
160,192,210232,2,0,L|192:192,1,0.1
256,160,210288,1,0,0:0:0:0:
160,192,210289,2,0,L|192:192,1,0.1
160,192,210289,2,0,L|192:192,1,0.1
160,192,210289,2,0,L|192:192,1,0.1
256,160,210344,1,0,0:0:0:0:
160,192,210345,2,0,L|192:192,1,0.1
160,192,210345,2,0,L|192:192,1,0.1
160,192,210345,2,0,L|192:192,1,0.1
256,160,210514,1,8,0:0:0:0:
160,192,210515,2,8,L|192:192,1,0.1
160,192,210515,2,8,L|192:192,1,0.1
160,192,210515,2,8,L|192:192,1,0.1
256,160,210684,1,0,0:0:0:0:
160,192,210685,2,0,L|192:192,1,0.1
160,192,210685,2,0,L|192:192,1,0.1
160,192,210685,2,0,L|192:192,1,0.1
256,160,210740,1,0,0:0:0:0:
160,192,210741,2,0,L|192:192,1,0.1
160,192,210741,2,0,L|192:192,1,0.1
160,192,210741,2,0,L|192:192,1,0.1
256,160,210797,1,0,0:0:0:0:
160,192,210798,2,0,L|192:192,1,0.1
160,192,210798,2,0,L|192:192,1,0.1
160,192,210798,2,0,L|192:192,1,0.1
256,160,210853,1,0,0:0:0:0:
160,192,210854,2,0,L|192:192,1,0.1
160,192,210854,2,0,L|192:192,1,0.1
160,192,210854,2,0,L|192:192,1,0.1
256,160,211023,1,8,0:0:0:0:
160,192,211024,2,8,L|192:192,1,0.1
160,192,211024,2,8,L|192:192,1,0.1
160,192,211024,2,8,L|192:192,1,0.1
256,160,211192,1,0,0:0:0:0:
160,192,211193,2,0,L|192:192,1,0.1
160,192,211193,2,0,L|192:192,1,0.1
160,192,211193,2,0,L|192:192,1,0.1
256,160,211248,1,0,0:0:0:0:
160,192,211249,2,0,L|192:192,1,0.1
160,192,211249,2,0,L|192:192,1,0.1
160,192,211249,2,0,L|192:192,1,0.1
256,160,211305,1,0,0:0:0:0:
160,192,211306,2,0,L|192:192,1,0.1
160,192,211306,2,0,L|192:192,1,0.1
160,192,211306,2,0,L|192:192,1,0.1
256,160,211361,1,0,0:0:0:0:
160,192,211362,2,0,L|192:192,1,0.1
160,192,211362,2,0,L|192:192,1,0.1
160,192,211362,2,0,L|192:192,1,0.1
256,160,211531,1,4,0:0:0:0:
160,192,211532,2,4,L|192:192,1,0.1
160,192,211532,2,4,L|192:192,1,0.1
160,192,211532,2,4,L|192:192,1,0.1
256,160,211616,1,8,0:0:0:0:
160,192,211617,2,8,L|192:192,1,0.1
160,192,211617,2,8,L|192:192,1,0.1
160,192,211617,2,8,L|192:192,1,0.1
256,160,211701,1,8,0:0:0:0:
160,192,211702,2,8,L|192:192,1,0.1
160,192,211702,2,8,L|192:192,1,0.1
160,192,211702,2,8,L|192:192,1,0.1
256,160,211786,1,8,0:0:0:0:
160,192,211787,2,8,L|192:192,1,0.1
160,192,211787,2,8,L|192:192,1,0.1
160,192,211787,2,8,L|192:192,1,0.1
256,160,211870,1,8,0:0:0:0:
160,192,211871,2,8,L|192:192,1,0.1
160,192,211871,2,8,L|192:192,1,0.1
160,192,211871,2,8,L|192:192,1,0.1
256,160,211955,1,8,0:0:0:0:
160,192,211956,2,8,L|192:192,1,0.1
160,192,211956,2,8,L|192:192,1,0.1
160,192,211956,2,8,L|192:192,1,0.1
256,160,212040,1,8,0:0:0:0:
160,192,212041,2,8,L|192:192,1,0.1
160,192,212041,2,8,L|192:192,1,0.1
160,192,212041,2,8,L|192:192,1,0.1
256,160,212125,1,8,0:0:0:0:
160,192,212126,2,8,L|192:192,1,0.1
160,192,212126,2,8,L|192:192,1,0.1
160,192,212126,2,8,L|192:192,1,0.1
256,160,212209,1,4,0:0:0:0:
160,192,212210,2,4,L|192:192,1,0.1
160,192,212210,2,4,L|192:192,1,0.1
160,192,212210,2,4,L|192:192,1,0.1
256,160,212294,1,8,0:0:0:0:
160,192,212295,2,8,L|192:192,1,0.1
160,192,212295,2,8,L|192:192,1,0.1
160,192,212295,2,8,L|192:192,1,0.1
256,160,212379,1,8,0:0:0:0:
160,192,212380,2,8,L|192:192,1,0.1
160,192,212380,2,8,L|192:192,1,0.1
160,192,212380,2,8,L|192:192,1,0.1
256,160,212464,1,8,0:0:0:0:
160,192,212465,2,8,L|192:192,1,0.1
160,192,212465,2,8,L|192:192,1,0.1
160,192,212465,2,8,L|192:192,1,0.1
256,160,212548,1,8,0:0:0:0:
160,192,212549,2,8,L|192:192,1,0.1
160,192,212549,2,8,L|192:192,1,0.1
160,192,212549,2,8,L|192:192,1,0.1
256,160,212633,1,8,0:0:0:0:
160,192,212634,2,8,L|192:192,1,0.1
160,192,212634,2,8,L|192:192,1,0.1
160,192,212634,2,8,L|192:192,1,0.1
256,160,212718,1,8,0:0:0:0:
160,192,212719,2,8,L|192:192,1,0.1
160,192,212719,2,8,L|192:192,1,0.1
160,192,212719,2,8,L|192:192,1,0.1
256,160,212803,1,8,0:0:0:0:
160,192,212804,2,8,L|192:192,1,0.1
160,192,212804,2,8,L|192:192,1,0.1
160,192,212804,2,8,L|192:192,1,0.1
256,160,212887,1,4,0:0:0:0:
160,192,212888,2,4,L|192:192,1,0.1
160,192,212888,2,4,L|192:192,1,0.1
160,192,212888,2,4,L|192:192,1,0.1
256,160,213057,1,0,0:0:0:0:
160,192,213058,2,0,L|192:192,1,0.1
160,192,213058,2,0,L|192:192,1,0.1
160,192,213058,2,0,L|192:192,1,0.1
256,160,213226,1,8,0:0:0:0:
160,192,213227,2,8,L|192:192,1,0.1
160,192,213227,2,8,L|192:192,1,0.1
160,192,213227,2,8,L|192:192,1,0.1
256,160,213311,1,8,0:0:0:0:
160,192,213312,2,8,L|192:192,1,0.1
160,192,213312,2,8,L|192:192,1,0.1
160,192,213312,2,8,L|192:192,1,0.1
256,160,213396,1,0,0:0:0:0:
160,192,213397,2,0,L|192:192,1,0.1
160,192,213397,2,0,L|192:192,1,0.1
160,192,213397,2,0,L|192:192,1,0.1
256,160,213565,1,0,0:0:0:0:
160,192,213566,2,0,L|192:192,1,0.1
160,192,213566,2,0,L|192:192,1,0.1
160,192,213566,2,0,L|192:192,1,0.1
256,160,213650,1,8,0:0:0:0:
160,192,213651,2,8,L|192:192,1,0.1
160,192,213651,2,8,L|192:192,1,0.1
160,192,213651,2,8,L|192:192,1,0.1
256,160,213735,1,0,0:0:0:0:
160,192,213736,2,0,L|192:192,1,0.1
160,192,213736,2,0,L|192:192,1,0.1
160,192,213736,2,0,L|192:192,1,0.1
256,160,213819,1,0,0:0:0:0:
160,192,213820,2,0,L|192:192,1,0.1
160,192,213820,2,0,L|192:192,1,0.1
160,192,213820,2,0,L|192:192,1,0.1
256,160,213904,1,8,0:0:0:0:
160,192,213905,2,8,L|192:192,1,0.1
160,192,213905,2,8,L|192:192,1,0.1
160,192,213905,2,8,L|192:192,1,0.1
256,160,213989,1,0,0:0:0:0:
160,192,213990,2,0,L|192:192,1,0.1
160,192,213990,2,0,L|192:192,1,0.1
160,192,213990,2,0,L|192:192,1,0.1
256,160,214074,1,8,0:0:0:0:
160,192,214075,2,8,L|192:192,1,0.1
160,192,214075,2,8,L|192:192,1,0.1
160,192,214075,2,8,L|192:192,1,0.1
256,160,214243,1,0,0:0:0:0:
160,192,214244,2,0,L|192:192,1,0.1
160,192,214244,2,0,L|192:192,1,0.1
160,192,214244,2,0,L|192:192,1,0.1
256,160,214300,1,0,0:0:0:0:
160,192,214301,2,0,L|192:192,1,0.1
160,192,214301,2,0,L|192:192,1,0.1
160,192,214301,2,0,L|192:192,1,0.1
256,160,214356,1,0,0:0:0:0:
160,192,214357,2,0,L|192:192,1,0.1
160,192,214357,2,0,L|192:192,1,0.1
160,192,214357,2,0,L|192:192,1,0.1
256,160,214413,1,8,0:0:0:0:
160,192,214414,2,8,L|192:192,1,0.1
160,192,214414,2,8,L|192:192,1,0.1
160,192,214414,2,8,L|192:192,1,0.1
256,160,214582,1,8,0:0:0:0:
160,192,214583,2,8,L|192:192,1,0.1
160,192,214583,2,8,L|192:192,1,0.1
160,192,214583,2,8,L|192:192,1,0.1
256,160,214639,1,8,0:0:0:0:
160,192,214640,2,8,L|192:192,1,0.1
160,192,214640,2,8,L|192:192,1,0.1
160,192,214640,2,8,L|192:192,1,0.1
256,160,214695,1,8,0:0:0:0:
160,192,214696,2,8,L|192:192,1,0.1
160,192,214696,2,8,L|192:192,1,0.1
160,192,214696,2,8,L|192:192,1,0.1
256,160,214752,1,0,0:0:0:0:
160,192,214753,2,0,L|192:192,1,0.1
160,192,214753,2,0,L|192:192,1,0.1
160,192,214753,2,0,L|192:192,1,0.1
256,160,214921,1,0,0:0:0:0:
160,192,214922,2,0,L|192:192,1,0.1
160,192,214922,2,0,L|192:192,1,0.1
160,192,214922,2,0,L|192:192,1,0.1
256,160,215006,1,8,0:0:0:0:
160,192,215007,2,8,L|192:192,1,0.1
160,192,215007,2,8,L|192:192,1,0.1
160,192,215007,2,8,L|192:192,1,0.1
256,160,215091,1,0,0:0:0:0:
160,192,215092,2,0,L|192:192,1,0.1
160,192,215092,2,0,L|192:192,1,0.1
160,192,215092,2,0,L|192:192,1,0.1
256,160,215175,1,0,0:0:0:0:
160,192,215176,2,0,L|192:192,1,0.1
160,192,215176,2,0,L|192:192,1,0.1
160,192,215176,2,0,L|192:192,1,0.1
256,160,215260,1,8,0:0:0:0:
160,192,215261,2,8,L|192:192,1,0.1
160,192,215261,2,8,L|192:192,1,0.1
160,192,215261,2,8,L|192:192,1,0.1
256,160,215345,1,8,0:0:0:0:
160,192,215346,2,8,L|192:192,1,0.1
160,192,215346,2,8,L|192:192,1,0.1
160,192,215346,2,8,L|192:192,1,0.1
256,160,215430,1,0,0:0:0:0:
160,192,215431,2,0,L|192:192,1,0.1
160,192,215431,2,0,L|192:192,1,0.1
160,192,215431,2,0,L|192:192,1,0.1
256,160,215599,1,0,0:0:0:0:
160,192,215600,2,0,L|192:192,1,0.1
160,192,215600,2,0,L|192:192,1,0.1
160,192,215600,2,0,L|192:192,1,0.1
256,160,215684,1,8,0:0:0:0:
160,192,215685,2,8,L|192:192,1,0.1
160,192,215685,2,8,L|192:192,1,0.1
160,192,215685,2,8,L|192:192,1,0.1
256,160,215769,1,0,0:0:0:0:
160,192,215770,2,0,L|192:192,1,0.1
160,192,215770,2,0,L|192:192,1,0.1
160,192,215770,2,0,L|192:192,1,0.1
256,160,215853,1,0,0:0:0:0:
160,192,215854,2,0,L|192:192,1,0.1
160,192,215854,2,0,L|192:192,1,0.1
160,192,215854,2,0,L|192:192,1,0.1
256,160,215938,1,8,0:0:0:0:
160,192,215939,2,8,L|192:192,1,0.1
160,192,215939,2,8,L|192:192,1,0.1
160,192,215939,2,8,L|192:192,1,0.1
256,160,216023,1,8,0:0:0:0:
160,192,216024,2,8,L|192:192,1,0.1
160,192,216024,2,8,L|192:192,1,0.1
160,192,216024,2,8,L|192:192,1,0.1
256,160,216108,1,0,0:0:0:0:
160,192,216109,2,0,L|192:192,1,0.1
160,192,216109,2,0,L|192:192,1,0.1
160,192,216109,2,0,L|192:192,1,0.1
256,160,216192,1,0,0:0:0:0:
160,192,216193,2,0,L|192:192,1,0.1
160,192,216193,2,0,L|192:192,1,0.1
160,192,216193,2,0,L|192:192,1,0.1
256,160,216277,1,0,0:0:0:0:
160,192,216278,2,0,L|192:192,1,0.1
160,192,216278,2,0,L|192:192,1,0.1
160,192,216278,2,0,L|192:192,1,0.1
256,160,216362,1,8,0:0:0:0:
160,192,216363,2,8,L|192:192,1,0.1
160,192,216363,2,8,L|192:192,1,0.1
160,192,216363,2,8,L|192:192,1,0.1
256,160,216447,1,0,0:0:0:0:
160,192,216448,2,0,L|192:192,1,0.1
160,192,216448,2,0,L|192:192,1,0.1
160,192,216448,2,0,L|192:192,1,0.1
256,160,216531,1,0,0:0:0:0:
160,192,216532,2,0,L|192:192,1,0.1
160,192,216532,2,0,L|192:192,1,0.1
160,192,216532,2,0,L|192:192,1,0.1
256,160,216616,1,8,0:0:0:0:
160,192,216617,2,8,L|192:192,1,0.1
160,192,216617,2,8,L|192:192,1,0.1
160,192,216617,2,8,L|192:192,1,0.1
256,160,216701,1,8,0:0:0:0:
160,192,216702,2,8,L|192:192,1,0.1
160,192,216702,2,8,L|192:192,1,0.1
160,192,216702,2,8,L|192:192,1,0.1
256,160,216786,1,8,0:0:0:0:
160,192,216787,2,8,L|192:192,1,0.1
160,192,216787,2,8,L|192:192,1,0.1
160,192,216787,2,8,L|192:192,1,0.1
256,160,216870,1,8,0:0:0:0:
160,192,216871,2,8,L|192:192,1,0.1
160,192,216871,2,8,L|192:192,1,0.1
160,192,216871,2,8,L|192:192,1,0.1
256,160,216955,1,4,0:0:0:0:
160,192,216956,2,4,L|192:192,1,0.1
160,192,216956,2,4,L|192:192,1,0.1
160,192,216956,2,4,L|192:192,1,0.1
256,160,217125,1,8,0:0:0:0:
160,192,217126,2,8,L|192:192,1,0.1
160,192,217126,2,8,L|192:192,1,0.1
160,192,217126,2,8,L|192:192,1,0.1
256,160,217181,1,8,0:0:0:0:
160,192,217182,2,8,L|192:192,1,0.1
160,192,217182,2,8,L|192:192,1,0.1
160,192,217182,2,8,L|192:192,1,0.1
256,160,217238,1,8,0:0:0:0:
160,192,217239,2,8,L|192:192,1,0.1
160,192,217239,2,8,L|192:192,1,0.1
160,192,217239,2,8,L|192:192,1,0.1
256,160,217294,1,0,0:0:0:0:
160,192,217295,2,0,L|192:192,1,0.1
160,192,217295,2,0,L|192:192,1,0.1
160,192,217295,2,0,L|192:192,1,0.1
256,160,217464,1,12,0:0:0:0:
160,192,217465,2,12,L|192:192,1,0.1
160,192,217465,2,12,L|192:192,1,0.1
160,192,217465,2,12,L|192:192,1,0.1
256,160,217633,1,0,0:0:0:0:
160,192,217634,2,0,L|192:192,1,0.1
160,192,217634,2,0,L|192:192,1,0.1
160,192,217634,2,0,L|192:192,1,0.1
256,160,217718,1,0,0:0:0:0:
160,192,217719,2,0,L|192:192,1,0.1
160,192,217719,2,0,L|192:192,1,0.1
160,192,217719,2,0,L|192:192,1,0.1
256,160,217802,1,8,0:0:0:0:
160,192,217803,2,8,L|192:192,1,0.1
160,192,217803,2,8,L|192:192,1,0.1
160,192,217803,2,8,L|192:192,1,0.1
256,160,217887,1,8,0:0:0:0:
160,192,217888,2,8,L|192:192,1,0.1
160,192,217888,2,8,L|192:192,1,0.1
160,192,217888,2,8,L|192:192,1,0.1
256,160,217972,1,4,0:0:0:0:
160,192,217973,2,4,L|192:192,1,0.1
160,192,217973,2,4,L|192:192,1,0.1
160,192,217973,2,4,L|192:192,1,0.1
256,160,218141,1,8,0:0:0:0:
160,192,218142,2,8,L|192:192,1,0.1
160,192,218142,2,8,L|192:192,1,0.1
160,192,218142,2,8,L|192:192,1,0.1
256,160,218311,1,4,0:0:0:0:
160,192,218312,2,4,L|192:192,1,0.1
160,192,218312,2,4,L|192:192,1,0.1
160,192,218312,2,4,L|192:192,1,0.1
352,128,218397,1,8,0:0:0:0:
352,128,218482,1,8,0:0:0:0:
352,128,218567,1,8,0:0:0:0:
352,128,218651,1,8,0:0:0:0:
352,128,218736,1,8,0:0:0:0:
256,128,218821,1,8,0:0:0:0:
256,128,218906,1,8,0:0:0:0:
256,128,218990,1,0,0:0:0:0:
256,128,219160,1,8,0:0:0:0:
256,96,219202,1,8,0:0:0:0:
256,128,219329,1,8,0:0:0:0:
192,64,219372,1,8,0:0:0:0:
256,128,219499,1,8,0:0:0:0:
224,96,219541,1,8,0:0:0:0:
256,128,219668,1,0,0:0:0:0:
256,128,219753,1,8,0:0:0:0:
256,128,219838,1,8,0:0:0:0:
256,128,219923,1,0,0:0:0:0:
256,128,220007,1,8,0:0:0:0:
256,128,220092,1,8,0:0:0:0:
256,128,220177,1,0,0:0:0:0:
256,128,220346,1,0,0:0:0:0:
256,128,220431,1,8,0:0:0:0:
256,128,220516,1,0,0:0:0:0:
256,128,220601,1,0,0:0:0:0:
384,64,220685,1,8,0:0:0:0:
384,64,220742,1,8,0:0:0:0:
384,64,220798,1,8,0:0:0:0:
384,64,220855,1,0,0:0:0:0:
288,128,221024,1,8,0:0:0:0:
256,128,221109,1,0,0:0:0:0:
256,128,221194,1,0,0:0:0:0:
256,128,221279,1,0,0:0:0:0:
256,128,221363,1,0,0:0:0:0:
256,128,221448,1,0,0:0:0:0:
256,128,221533,1,0,0:0:0:0:
256,128,221618,1,0,0:0:0:0:
256,128,221702,1,8,0:0:0:0:
256,128,221872,1,0,0:0:0:0:
224,96,221914,1,0,0:0:0:0:
256,128,222041,1,0,0:0:0:0:
224,96,222084,1,0,0:0:0:0:
256,128,222211,1,0,0:0:0:0:
224,96,222253,1,0,0:0:0:0:
256,128,222380,1,8,0:0:0:0:
256,128,222634,1,8,0:0:0:0:
256,128,222719,1,0,0:0:0:0:
256,128,222889,1,8,0:0:0:0:
256,128,223058,1,0,0:0:0:0:
256,128,223143,1,0,0:0:0:0:
256,128,223228,1,0,0:0:0:0:
256,128,223312,1,0,0:0:0:0:
256,128,223397,1,8,0:0:0:0:
256,128,223482,1,8,0:0:0:0:
256,128,223567,1,8,0:0:0:0:
256,160,223736,1,8,0:0:0:0:
256,160,223821,1,8,0:0:0:0:
256,160,223906,1,0,0:0:0:0:
256,160,223990,1,0,0:0:0:0:
256,160,224075,1,8,0:0:0:0:
256,160,224160,1,8,0:0:0:0:
256,160,224245,1,8,0:0:0:0:
256,160,224329,1,8,0:0:0:0:
256,160,224414,1,0,0:0:0:0:
384,64,224584,1,8,0:0:0:0:
224,64,224626,1,0,0:0:0:0:
384,64,224753,1,8,0:0:0:0:
256,64,224795,1,0,0:0:0:0:
384,64,224923,1,8,0:0:0:0:
256,64,224965,1,0,0:0:0:0:
224,128,225092,1,8,0:0:0:0:
224,128,225177,1,0,0:0:0:0:
224,128,225262,1,0,0:0:0:0:
224,128,225346,1,8,0:0:0:0:
224,128,225431,1,0,0:0:0:0:
224,128,225516,1,0,0:0:0:0:
224,128,225601,1,8,0:0:0:0:
256,160,225770,1,0,0:0:0:0:
256,160,225855,1,8,0:0:0:0:
256,160,225940,1,0,0:0:0:0:
256,160,226024,1,0,0:0:0:0:
288,64,226109,1,8,0:0:0:0:
288,64,226166,1,8,0:0:0:0:
288,64,226222,1,8,0:0:0:0:
288,64,226279,1,0,0:0:0:0:
288,96,226448,1,8,0:0:0:0:
288,96,226533,1,8,0:0:0:0:
288,96,226618,1,0,0:0:0:0:
288,96,226702,1,0,0:0:0:0:
288,96,226787,1,8,0:0:0:0:
288,96,226872,1,0,0:0:0:0:
288,96,226956,1,0,0:0:0:0:
288,96,227041,1,0,0:0:0:0:
288,96,227126,1,8,0:0:0:0:
288,96,227295,1,0,0:0:0:0:
256,96,227338,1,8,0:0:0:0:
288,96,227465,1,0,0:0:0:0:
192,64,227507,1,8,0:0:0:0:
288,96,227634,1,0,0:0:0:0:
224,64,227677,1,8,0:0:0:0:
352,64,227804,1,0,0:0:0:0:
256,160,227889,1,0,0:0:0:0:
320,96,227973,1,8,0:0:0:0:
320,96,228030,1,8,0:0:0:0:
320,96,228086,1,8,0:0:0:0:
320,96,228143,1,0,0:0:0:0:
320,96,228312,1,0,0:0:0:0:
288,128,228482,1,0,0:0:0:0:
288,128,228567,1,8,0:0:0:0:
288,128,228651,1,8,0:0:0:0:
288,128,228736,1,8,0:0:0:0:
288,128,228821,1,0,0:0:0:0:
224,64,228863,1,0,0:0:0:0:
288,128,228990,1,0,0:0:0:0:
224,64,229033,1,0,0:0:0:0:
224,64,229160,1,8,0:0:0:0:
256,192,229245,1,0,0:0:0:0:
256,192,229329,1,0,0:0:0:0:
256,192,229414,1,0,0:0:0:0:
256,192,229499,1,8,0:0:0:0:
256,192,229584,1,0,0:0:0:0:
256,192,229668,1,8,0:0:0:0:
256,192,229753,1,8,0:0:0:0:
256,192,229838,1,0,0:0:0:0:
256,192,230007,1,8,0:0:0:0:
384,64,230050,1,8,0:0:0:0:
384,64,230177,1,8,0:0:0:0:
384,64,230219,1,8,0:0:0:0:
384,64,230346,1,8,0:0:0:0:
384,64,230388,1,8,0:0:0:0:
288,160,230516,1,0,0:0:0:0:
288,160,230601,1,8,0:0:0:0:
288,160,230685,1,8,0:0:0:0:
288,160,230770,1,0,0:0:0:0:
288,160,230855,1,8,0:0:0:0:
288,160,230940,1,8,0:0:0:0:
288,160,231024,1,0,0:0:0:0:
320,160,231194,1,8,0:0:0:0:
320,160,231279,1,0,0:0:0:0:
320,160,231363,1,0,0:0:0:0:
320,160,231448,1,0,0:0:0:0:
320,160,231533,1,8,0:0:0:0:
384,64,231589,1,8,0:0:0:0:
384,64,231646,1,8,0:0:0:0:
384,64,231702,1,0,0:0:0:0:
352,128,231872,1,8,0:0:0:0:
352,128,231956,1,0,0:0:0:0:
352,128,232041,1,0,0:0:0:0:
352,128,232126,1,0,0:0:0:0:
352,128,232211,1,8,0:0:0:0:
352,128,232295,1,8,0:0:0:0:
352,128,232380,1,0,0:0:0:0:
352,128,232465,1,0,0:0:0:0:
352,128,232550,1,8,0:0:0:0:
352,128,232719,1,0,0:0:0:0:
352,128,232762,1,0,0:0:0:0:
352,128,232889,1,0,0:0:0:0:
352,128,232931,1,0,0:0:0:0:
352,128,233058,1,0,0:0:0:0:
352,128,233101,1,0,0:0:0:0:
352,128,233228,1,8,0:0:0:0:
256,160,233397,1,0,0:0:0:0:
256,160,233482,1,8,0:0:0:0:
256,160,233651,1,0,0:0:0:0:
256,160,233736,1,8,0:0:0:0:
256,160,233906,1,0,0:0:0:0:
256,160,233990,1,8,0:0:0:0:
256,160,234075,1,0,0:0:0:0:
256,160,234160,1,0,0:0:0:0:
320,128,234245,1,8,0:0:0:0:
320,128,234301,1,8,0:0:0:0:
320,128,234358,1,8,0:0:0:0:
320,128,234414,1,0,0:0:0:0:
288,128,234584,1,8,0:0:0:0:
288,128,234668,1,8,0:0:0:0:
288,128,234753,1,0,0:0:0:0:
288,128,234838,1,0,0:0:0:0:
288,128,234923,1,8,0:0:0:0:
288,128,235007,1,8,0:0:0:0:
288,128,235092,1,0,0:0:0:0:
288,128,235177,1,0,0:0:0:0:
288,128,235262,1,8,0:0:0:0:
320,128,235431,1,0,0:0:0:0:
352,128,235473,1,8,0:0:0:0:
352,128,235601,1,0,0:0:0:0:
352,128,235643,1,8,0:0:0:0:
352,128,235770,1,0,0:0:0:0:
352,128,235812,1,8,0:0:0:0:
352,128,235940,1,8,0:0:0:0:
288,160,236024,1,8,0:0:0:0:
288,160,236109,1,0,0:0:0:0:
288,160,236194,1,8,0:0:0:0:
288,160,236279,1,8,0:0:0:0:
288,160,236363,1,0,0:0:0:0:
288,160,236448,1,8,0:0:0:0:
288,160,236618,1,8,0:0:0:0:
288,160,236702,1,8,0:0:0:0:
288,160,236787,1,0,0:0:0:0:
288,160,236872,1,0,0:0:0:0:
320,128,236956,1,8,0:0:0:0:
320,128,237013,1,8,0:0:0:0:
320,128,237069,1,8,0:0:0:0:
320,128,237126,1,0,0:0:0:0:
320,128,237295,1,8,0:0:0:0:
256,192,237380,1,8,0:0:0:0:
256,192,237465,1,0,0:0:0:0:
256,192,237550,1,0,0:0:0:0:
256,192,237634,1,0,0:0:0:0:
256,192,237719,1,8,0:0:0:0:
256,192,237804,1,0,0:0:0:0:
256,192,237889,1,0,0:0:0:0:
256,192,237973,1,8,0:0:0:0:
320,128,238143,1,0,0:0:0:0:
320,128,238185,1,0,0:0:0:0:
320,128,238312,1,0,0:0:0:0:
320,128,238355,1,0,0:0:0:0:
320,128,238482,1,0,0:0:0:0:
320,128,238524,1,0,0:0:0:0:
256,192,238651,1,4,0:0:0:0:
256,192,238821,1,8,0:0:0:0:
256,192,238990,1,0,0:0:0:0:
256,192,239075,1,8,0:0:0:0:
256,192,239160,1,0,0:0:0:0:
256,192,239245,1,0,0:0:0:0:
256,192,239329,1,12,0:0:0:0:
256,192,239499,1,0,0:0:0:0:
256,192,239584,1,0,0:0:0:0:
256,192,239668,1,8,0:0:0:0:
256,192,239753,1,8,0:0:0:0:
256,192,239838,1,8,0:0:0:0:
256,192,239923,1,8,0:0:0:0:
224,160,240007,5,4,0:0:0:0:
256,160,240515,1,0,0:0:0:0:
256,160,241023,1,0,0:0:0:0:
256,160,241532,1,0,0:0:0:0:
256,160,242040,1,0,0:0:0:0:
256,160,242379,1,0,0:0:0:0:
256,160,242718,1,8,0:0:0:0:
160,192,242719,2,0,L|192:192,1,0.1
160,192,242719,2,0,L|192:192,1,0.1
160,192,242719,2,0,L|192:192,1,0.1
256,160,243227,1,8,0:0:0:0:
160,192,243228,2,8,L|192:192,1,0.1
160,192,243228,2,8,L|192:192,1,0.1
160,192,243228,2,8,L|192:192,1,0.1
256,160,243735,1,8,0:0:0:0:
160,192,243736,2,0,L|192:192,1,0.1
160,192,243736,2,0,L|192:192,1,0.1
160,192,243736,2,0,L|192:192,1,0.1
256,160,244244,1,8,0:0:0:0:
160,192,244245,2,0,L|192:192,1,0.1
160,192,244245,2,0,L|192:192,1,0.1
160,192,244245,2,0,L|192:192,1,0.1
256,160,244752,1,8,0:0:0:0:
160,192,244753,2,0,L|192:192,1,0.1
160,192,244753,2,0,L|192:192,1,0.1
160,192,244753,2,0,L|192:192,1,0.1
256,160,245429,1,0,0:0:0:0:
160,192,245430,2,0,L|192:192,1,0.1
160,192,245430,2,0,L|192:192,1,0.1
160,192,245430,2,0,L|192:192,1,0.1
256,160,245937,1,0,0:0:0:0:
160,192,245938,2,0,L|192:192,1,0.1
160,192,245938,2,0,L|192:192,1,0.1
160,192,245938,2,0,L|192:192,1,0.1
64,160,246445,1,0,0:0:0:0:
256,160,246956,1,0,0:0:0:0:
256,160,247464,1,0,0:0:0:0:
224,128,247803,1,0,0:0:0:0:
256,160,248142,1,8,0:0:0:0:
160,192,248143,2,0,L|192:192,1,0.1
160,192,248143,2,0,L|192:192,1,0.1
160,192,248143,2,0,L|192:192,1,0.1
256,160,248651,1,8,0:0:0:0:
160,192,248652,2,0,L|192:192,1,0.1
160,192,248652,2,0,L|192:192,1,0.1
160,192,248652,2,0,L|192:192,1,0.1
256,160,249159,1,8,0:0:0:0:
160,192,249160,2,0,L|192:192,1,0.1
160,192,249160,2,0,L|192:192,1,0.1
160,192,249160,2,0,L|192:192,1,0.1
256,160,249668,1,8,0:0:0:0:
160,192,249669,2,0,L|192:192,1,0.1
160,192,249669,2,0,L|192:192,1,0.1
160,192,249669,2,0,L|192:192,1,0.1
256,160,250176,1,8,0:0:0:0:
160,192,250177,2,0,L|192:192,1,0.1
160,192,250177,2,0,L|192:192,1,0.1
160,192,250177,2,0,L|192:192,1,0.1
256,160,250851,1,0,0:0:0:0:
160,192,250852,2,0,L|192:192,1,0.1
160,192,250852,2,0,L|192:192,1,0.1
160,192,250852,2,0,L|192:192,1,0.1
256,160,251359,1,0,0:0:0:0:
160,192,251360,2,0,L|192:192,1,0.1
160,192,251360,2,0,L|192:192,1,0.1
160,192,251360,2,0,L|192:192,1,0.1
256,160,251867,1,0,0:0:0:0:
160,192,251868,2,0,L|192:192,1,0.1
160,192,251868,2,0,L|192:192,1,0.1
160,192,251868,2,0,L|192:192,1,0.1
96,160,252375,1,0,0:0:0:0:
256,160,252886,1,0,0:0:0:0:
224,128,253225,1,0,0:0:0:0:
256,160,253564,1,8,0:0:0:0:
160,192,253565,2,0,L|192:192,1,0.1
160,192,253565,2,0,L|192:192,1,0.1
160,192,253565,2,0,L|192:192,1,0.1
256,160,254073,1,8,0:0:0:0:
160,192,254074,2,0,L|192:192,1,0.1
160,192,254074,2,0,L|192:192,1,0.1
160,192,254074,2,0,L|192:192,1,0.1
256,160,254581,1,8,0:0:0:0:
160,192,254582,2,0,L|192:192,1,0.1
160,192,254582,2,0,L|192:192,1,0.1
160,192,254582,2,0,L|192:192,1,0.1
256,160,255090,1,8,0:0:0:0:
160,192,255091,2,0,L|192:192,1,0.1
160,192,255091,2,0,L|192:192,1,0.1
160,192,255091,2,0,L|192:192,1,0.1
256,160,255598,1,8,0:0:0:0:
160,192,255599,2,0,L|192:192,1,0.1
160,192,255599,2,0,L|192:192,1,0.1
160,192,255599,2,0,L|192:192,1,0.1
256,160,256272,1,0,0:0:0:0:
160,192,256273,2,0,L|192:192,1,0.1
160,192,256273,2,0,L|192:192,1,0.1
160,192,256273,2,0,L|192:192,1,0.1
256,160,256780,1,0,0:0:0:0:
160,192,256781,2,0,L|192:192,1,0.1
160,192,256781,2,0,L|192:192,1,0.1
160,192,256781,2,0,L|192:192,1,0.1
256,160,257294,1,0,0:0:0:0:
256,160,257803,1,0,0:0:0:0:
256,160,258305,1,0,0:0:0:0:
256,160,258644,1,0,0:0:0:0:
256,160,258983,1,8,0:0:0:0:
160,192,258984,2,0,L|192:192,1,0.1
160,192,258984,2,0,L|192:192,1,0.1
160,192,258984,2,0,L|192:192,1,0.1
256,160,259498,1,8,0:0:0:0:
160,192,259499,2,0,L|192:192,1,0.1
160,192,259499,2,0,L|192:192,1,0.1
160,192,259499,2,0,L|192:192,1,0.1
256,160,259999,1,8,0:0:0:0:
160,192,260000,2,0,L|192:192,1,0.1
160,192,260000,2,0,L|192:192,1,0.1
160,192,260000,2,0,L|192:192,1,0.1
256,160,260508,1,8,0:0:0:0:
160,192,260509,2,0,L|192:192,1,0.1
160,192,260509,2,0,L|192:192,1,0.1
160,192,260509,2,0,L|192:192,1,0.1
256,160,261016,1,8,0:0:0:0:
160,192,261017,2,0,L|192:192,1,0.1
160,192,261017,2,0,L|192:192,1,0.1
160,192,261017,2,0,L|192:192,1,0.1
256,160,261740,1,8,0:0:0:0:
160,192,261741,2,0,L|192:192,1,0.1
160,192,261741,2,0,L|192:192,1,0.1
160,192,261741,2,0,L|192:192,1,0.1
