osu file format v14

[General]
AudioFilename: audio.mp3
AudioLeadIn: 0
PreviewTime: -1
Countdown: 0
SampleSet: None
StackLeniency: 0.2
Mode: 0
LetterboxInBreaks: 0
WidescreenStoryboard: 1

[Editor]
DistanceSpacing: 0.8
BeatDivisor: 4
GridSize: 4
TimelineZoom: 1.8

[Metadata]
Title:Algebra
TitleUnicode:Algebra
Artist:Function Phantom
ArtistUnicode:Function Phantom
Creator:Ranipla
Version:TAG16
Source:PEPPY
Tags:16
BeatmapID:1319073
BeatmapSetID:625757

[Difficulty]
HPDrainRate:3
CircleSize:4
OverallDifficulty:10
ApproachRate:9
SliderMultiplier:2.1
SliderTickRate:0.5

[Events]
//Background and Video events
0,0,"Say Peppy is weabo in chat If I will win.jpg",0,0
//Break Periods
//Storyboard Layer 0 (Background)
//Storyboard Layer 1 (Fail)
//Storyboard Layer 2 (Pass)
//Storyboard Layer 3 (Foreground)
//Storyboard Sound Samples

[TimingPoints]
1364,338.983050847458,4,2,0,100,1,0
3397,6,4,1,0,100,1,0
3735,338.983050847458,4,1,0,100,1,0
11475,3389.83050847458,4,1,0,100,1,0
11475,-200,4,1,0,100,0,0
11870,338.983050847458,4,1,0,100,1,0
17540,4000,4,1,0,100,1,0
17641,3000,4,1,0,100,1,0
17980,2000,4,1,0,100,1,0
18318,1428.57142857143,4,1,0,100,1,0
18656,1090.90909090909,4,1,0,100,1,0
18994,937.5,4,1,0,100,1,0
19332,869.565217391304,4,1,0,100,1,0
19673,789.473684210526,4,1,0,100,1,0
20008,666.666666666667,4,1,0,100,1,0
20346,600,4,1,0,100,1,0
20684,540.540540540541,4,1,0,100,1,0
21022,487.80487804878,4,1,0,100,1,0
21360,447.761194029851,4,1,0,100,1,0
21698,444.444444444444,4,1,0,100,1,0
22036,405.405405405405,4,1,0,100,1,0
22374,375,4,1,0,100,1,0
22712,355.029585798817,4,1,0,100,1,0
23050,338.983050847458,4,1,0,100,1,0
23304,-100,4,1,0,100,0,0
23897,-66.6666666666667,4,1,0,100,0,0
24151,-90.0900900900901,4,1,0,100,0,0
24405,-133.333333333333,4,1,0,100,0,0
24829,-100,4,1,0,100,0,0
25422,-66.6666666666667,4,1,0,100,0,0
25846,-133.333333333333,4,1,0,100,0,0
26270,-100,4,1,0,100,0,0
26778,-133.333333333333,4,1,0,100,0,0
27372,-66.6666666666667,4,1,0,100,0,0
27795,-100,4,1,0,100,0,0
28388,-200,4,1,0,100,0,0
28765,-66.6666666666667,4,1,0,100,0,0
28943,-66.6666666666667,4,1,0,100,0,0
29019,-100,4,1,0,100,0,0
29189,-107.52688172043,4,1,0,100,0,0
29274,-113.636363636364,4,1,0,100,0,0
29358,-125,4,1,0,100,0,0
29443,-136.986301369863,4,1,0,100,0,0
29452,-133.333333333333,4,1,0,100,0,0
29528,-153.846153846154,4,1,0,100,0,0
29613,-175.438596491228,4,1,0,100,0,0
29697,-200,4,1,0,100,0,0
29744,-50,4,1,0,100,0,0
30036,-50,4,1,0,100,0,0
30130,-100,4,1,0,100,0,0
30375,-100,4,1,0,100,0,0
30507,-133.333333333333,4,1,0,100,0,0
30714,-83.3333333333333,4,1,0,100,0,0
30808,-66.6666666666667,4,1,0,100,0,0
30884,-71.4285714285714,4,1,0,100,0,0
31053,-62.5,4,1,0,100,0,0
31223,-55.5555555555556,4,1,0,100,0,0
31401,-133.333333333333,4,1,0,100,0,0
31796,-100,4,1,0,100,0,0
31796,-100,4,1,0,100,0,0
31910,-100,4,1,0,100,0,0
32369,-66.6666666666667,4,1,0,100,0,0
32369,-66.6666666666667,4,1,0,100,0,0
32538,-133.333333333333,4,1,0,100,0,0
32538,-133.333333333333,4,1,0,100,0,0
32541,169.491525423729,4,1,0,100,1,0
32541,-50,4,1,0,100,0,0
32708,-100,4,1,0,100,0,0
32708,-100,4,1,0,100,0,0
32877,-133.333333333333,4,1,0,100,0,0
32877,-133.333333333333,4,1,0,100,0,0
32976,-100,4,1,0,100,0,0
32976,-100,4,1,0,100,0,0
33047,-66.6666666666667,4,1,0,100,0,0
33047,-66.6666666666667,4,1,0,100,0,0
33169,-66.6666666666667,4,1,0,100,0,0
33169,-66.6666666666667,4,1,0,100,0,0
33338,-133.333333333333,4,1,0,100,0,0
33338,-133.333333333333,4,1,0,100,0,0
33508,-100,4,1,0,100,0,0
33508,-100,4,1,0,100,0,0
33677,-133.333333333333,4,1,0,100,0,0
33677,-133.333333333333,4,1,0,100,0,0
33847,-66.6666666666667,4,1,0,100,0,0
33847,-66.6666666666667,4,1,0,100,0,0
33859,-66.6666666666667,4,1,0,100,0,0
33859,-66.6666666666667,4,1,0,100,0,0
33896,338.983050847458,4,1,0,100,1,0
34028,-133.333333333333,4,1,0,100,0,0
34028,-133.333333333333,4,1,0,100,0,0
34198,-100,4,1,0,100,0,0
34198,-100,4,1,0,100,0,0
34367,-133.333333333333,4,1,0,100,0,0
34367,-133.333333333333,4,1,0,100,0,0
34466,-100,4,1,0,100,0,0
34466,-100,4,1,0,100,0,0
34537,-66.6666666666667,4,1,0,100,0,0
34537,-66.6666666666667,4,1,0,100,0,0
34659,-66.6666666666667,4,1,0,100,0,0
34659,-66.6666666666667,4,1,0,100,0,0
34828,-133.333333333333,4,1,0,100,0,0
34828,-133.333333333333,4,1,0,100,0,0
34998,-100,4,1,0,100,0,0
34998,-100,4,1,0,100,0,0
35167,-133.333333333333,4,1,0,100,0,0
35167,-133.333333333333,4,1,0,100,0,0
35169,-66.6666666666667,4,1,0,100,0,0
35169,-66.6666666666667,4,1,0,100,0,0
35337,-66.6666666666667,4,1,0,100,0,0
35337,-66.6666666666667,4,1,0,100,0,0
35338,-133.333333333333,4,1,0,100,0,0
35338,-133.333333333333,4,1,0,100,0,0
35508,-100,4,1,0,100,0,0
35508,-100,4,1,0,100,0,0
35677,-133.333333333333,4,1,0,100,0,0
35677,-133.333333333333,4,1,0,100,0,0
35776,-100,4,1,0,100,0,0
35776,-100,4,1,0,100,0,0
35847,-66.6666666666667,4,1,0,100,0,0
35847,-66.6666666666667,4,1,0,100,0,0
35969,-66.6666666666667,4,1,0,100,0,0
35969,-66.6666666666667,4,1,0,100,0,0
36138,-133.333333333333,4,1,0,100,0,0
36138,-133.333333333333,4,1,0,100,0,0
36308,-100,4,1,0,100,0,0
36308,-100,4,1,0,100,0,0
36477,-133.333333333333,4,1,0,100,0,0
36477,-133.333333333333,4,1,0,100,0,0
36647,-66.6666666666667,4,1,0,100,0,0
36647,-66.6666666666667,4,1,0,100,0,0
36659,-66.6666666666667,4,1,0,100,0,0
36659,-66.6666666666667,4,1,0,100,0,0
36828,-133.333333333333,4,1,0,100,0,0
36828,-133.333333333333,4,1,0,100,0,0
36998,-100,4,1,0,100,0,0
36998,-100,4,1,0,100,0,0
37167,-133.333333333333,4,1,0,100,0,0
37167,-133.333333333333,4,1,0,100,0,0
37266,-100,4,1,0,100,0,0
37266,-100,4,1,0,100,0,0
37337,-66.6666666666667,4,1,0,100,0,0
37337,-66.6666666666667,4,1,0,100,0,0
37459,-66.6666666666667,4,1,0,100,0,0
37459,-66.6666666666667,4,1,0,100,0,0
37628,-133.333333333333,4,1,0,100,0,0
37628,-133.333333333333,4,1,0,100,0,0
37798,-100,4,1,0,100,0,0
37798,-100,4,1,0,100,0,0
37967,-133.333333333333,4,1,0,100,0,0
37967,-133.333333333333,4,1,0,100,0,0
38088,-66.6666666666667,4,1,0,100,0,0
38088,-66.6666666666667,4,1,0,100,0,0
38137,-66.6666666666667,4,1,0,100,0,0
38137,-66.6666666666667,4,1,0,100,0,0
38210,-66.6666666666667,4,1,0,100,0,0
38210,-66.6666666666667,4,1,0,100,0,0
38379,-133.333333333333,4,1,0,100,0,0
38379,-133.333333333333,4,1,0,100,0,0
38549,-100,4,3,0,100,0,0
38549,-100,4,3,0,100,0,0
38718,-133.333333333333,4,1,0,100,0,0
38718,-133.333333333333,4,1,0,100,0,0
38888,-66.6666666666667,4,1,0,100,0,0
38888,-66.6666666666667,4,1,0,100,0,0
38900,-66.6666666666667,4,3,0,100,0,0
38900,-66.6666666666667,4,3,0,100,0,0
39069,-133.333333333333,4,1,0,100,0,0
39069,-133.333333333333,4,1,0,100,0,0
39239,-100,4,1,0,100,0,0
39239,-100,4,1,0,100,0,0
39408,-133.333333333333,4,1,0,100,0,0
39408,-133.333333333333,4,1,0,100,0,0
39507,-100,4,1,0,100,0,0
39507,-100,4,1,0,100,0,0
39578,-66.6666666666667,4,1,0,100,0,0
39578,-66.6666666666667,4,1,0,100,0,0
39700,-66.6666666666667,4,1,0,100,0,0
39700,-66.6666666666667,4,1,0,100,0,0
39869,-133.333333333333,4,1,0,100,0,0
39869,-133.333333333333,4,1,0,100,0,0
40039,-100,4,1,0,100,0,0
40039,-100,4,1,0,100,0,0
40208,-133.333333333333,4,1,0,100,0,0
40208,-133.333333333333,4,1,0,100,0,0
40378,-66.6666666666667,4,1,0,100,0,0
40378,-66.6666666666667,4,1,0,100,0,0
40609,-100,4,1,0,100,0,0
40609,-100,4,1,0,100,0,0
40948,-133.333333333333,4,1,0,100,0,0
40948,-133.333333333333,4,1,0,100,0,0
41353,-66.6666666666667,4,1,0,100,0,0
41607,-100,4,1,0,100,0,0
41678,-66.6666666666667,4,1,0,100,0,0
41678,-66.6666666666667,4,1,0,100,0,0
41800,-66.6666666666667,4,1,0,100,0,0
41800,-66.6666666666667,4,1,0,100,0,0
41969,-133.333333333333,4,1,0,100,0,0
41969,-133.333333333333,4,1,0,100,0,0
42139,-100,4,1,0,100,0,0
42139,-100,4,1,0,100,0,0
42308,-133.333333333333,4,1,0,100,0,0
42308,-133.333333333333,4,1,0,100,0,0
42478,-66.6666666666667,4,1,0,100,0,0
42478,-66.6666666666667,4,1,0,100,0,0
42709,-100,4,1,0,100,0,0
42709,-100,4,1,0,100,0,0
43048,-133.333333333333,4,1,0,100,0,0
43048,-133.333333333333,4,1,0,100,0,0
43387,84.7457627118644,4,1,0,100,1,0
43387,-50,4,1,0,100,0,0
44742,338.983050847458,4,1,0,100,1,0
44742,-100,4,1,0,100,0,0
59318,-133.333333333333,4,1,0,100,0,0
65165,-66.6666666666667,4,1,0,100,0,0
65419,-100,4,1,0,100,0,0
65589,-107.52688172043,4,1,0,100,0,0
65674,-113.636363636364,4,1,0,100,0,0
65758,-125,4,1,0,100,0,0
65843,-136.986301369863,4,1,0,100,0,0
65928,-153.846153846154,4,1,0,100,0,0
66013,-175.438596491228,4,1,0,100,0,0
66097,-200,4,1,0,100,0,0
66436,-50,4,1,0,100,0,0
66775,-100,4,1,0,100,0,0
67114,-83.3333333333333,4,1,0,100,0,0
67284,-71.4285714285714,4,1,0,100,0,0
67453,-62.5,4,1,0,100,0,0
67623,-55.5555555555556,4,1,0,100,0,0
68196,-100,4,1,0,100,0,0
68196,-100,4,1,0,100,0,0
68769,-66.6666666666667,4,1,0,100,0,0
68769,-66.6666666666667,4,1,0,100,0,0
68938,-133.333333333333,4,1,0,100,0,0
68938,-133.333333333333,4,1,0,100,0,0
69108,-100,4,1,0,100,0,0
69108,-100,4,1,0,100,0,0
69277,-133.333333333333,4,1,0,100,0,0
69277,-133.333333333333,4,1,0,100,0,0
69376,-100,4,1,0,100,0,0
69376,-100,4,1,0,100,0,0
69447,-66.6666666666667,4,1,0,100,0,0
69447,-66.6666666666667,4,1,0,100,0,0
69569,-66.6666666666667,4,1,0,100,0,0
69569,-66.6666666666667,4,1,0,100,0,0
69738,-133.333333333333,4,1,0,100,0,0
69738,-133.333333333333,4,1,0,100,0,0
69908,-100,4,1,0,100,0,0
69908,-100,4,1,0,100,0,0
70077,-133.333333333333,4,1,0,100,0,0
70077,-133.333333333333,4,1,0,100,0,0
70247,-66.6666666666667,4,1,0,100,0,0
70247,-66.6666666666667,4,1,0,100,0,0
70259,-66.6666666666667,4,1,0,100,0,0
70259,-66.6666666666667,4,1,0,100,0,0
70428,-133.333333333333,4,1,0,100,0,0
70428,-133.333333333333,4,1,0,100,0,0
70598,-100,4,1,0,100,0,0
70598,-100,4,1,0,100,0,0
70767,-133.333333333333,4,1,0,100,0,0
70767,-133.333333333333,4,1,0,100,0,0
70866,-100,4,1,0,100,0,0
70866,-100,4,1,0,100,0,0
70937,-66.6666666666667,4,1,0,100,0,0
70937,-66.6666666666667,4,1,0,100,0,0
71059,-66.6666666666667,4,1,0,100,0,0
71059,-66.6666666666667,4,1,0,100,0,0
71228,-133.333333333333,4,1,0,100,0,0
71228,-133.333333333333,4,1,0,100,0,0
71398,-100,4,1,0,100,0,0
71398,-100,4,1,0,100,0,0
71567,-133.333333333333,4,1,0,100,0,0
71567,-133.333333333333,4,1,0,100,0,0
71569,-66.6666666666667,4,1,0,100,0,0
71569,-66.6666666666667,4,1,0,100,0,0
71737,-66.6666666666667,4,1,0,100,0,0
71737,-66.6666666666667,4,1,0,100,0,0
71738,-133.333333333333,4,1,0,100,0,0
71738,-133.333333333333,4,1,0,100,0,0
71908,-100,4,1,0,100,0,0
71908,-100,4,1,0,100,0,0
72077,-133.333333333333,4,1,0,100,0,0
72077,-133.333333333333,4,1,0,100,0,0
72176,-100,4,1,0,100,0,0
72176,-100,4,1,0,100,0,0
72247,-66.6666666666667,4,1,0,100,0,0
72247,-66.6666666666667,4,1,0,100,0,0
72369,-66.6666666666667,4,1,0,100,0,0
72369,-66.6666666666667,4,1,0,100,0,0
72538,-133.333333333333,4,1,0,100,0,0
72538,-133.333333333333,4,1,0,100,0,0
72708,-100,4,1,0,100,0,0
72708,-100,4,1,0,100,0,0
72877,-133.333333333333,4,1,0,100,0,0
72877,-133.333333333333,4,1,0,100,0,0
73047,-66.6666666666667,4,1,0,100,0,0
73047,-66.6666666666667,4,1,0,100,0,0
73059,-66.6666666666667,4,1,0,100,0,0
73059,-66.6666666666667,4,1,0,100,0,0
73228,-133.333333333333,4,1,0,100,0,0
73228,-133.333333333333,4,1,0,100,0,0
73398,-100,4,1,0,100,0,0
73398,-100,4,1,0,100,0,0
73567,-133.333333333333,4,1,0,100,0,0
73567,-133.333333333333,4,1,0,100,0,0
73666,-100,4,1,0,100,0,0
73666,-100,4,1,0,100,0,0
73737,-66.6666666666667,4,1,0,100,0,0
73737,-66.6666666666667,4,1,0,100,0,0
73859,-66.6666666666667,4,1,0,100,0,0
73859,-66.6666666666667,4,1,0,100,0,0
74028,-133.333333333333,4,1,0,100,0,0
74028,-133.333333333333,4,1,0,100,0,0
74198,-50,4,1,0,100,0,0
74198,-100,4,1,0,100,0,0
74367,-133.333333333333,4,1,0,100,0,0
74367,-133.333333333333,4,1,0,100,0,0
74488,-66.6666666666667,4,1,0,100,0,0
74488,-66.6666666666667,4,1,0,100,0,0
74537,-66.6666666666667,4,1,0,100,0,0
74537,-66.6666666666667,4,1,0,100,0,0
74610,-66.6666666666667,4,1,0,100,0,0
74610,-66.6666666666667,4,1,0,100,0,0
74779,-133.333333333333,4,1,0,100,0,0
74779,-133.333333333333,4,1,0,100,0,0
74949,-100,4,3,0,100,0,0
74949,-100,4,3,0,100,0,0
75118,-133.333333333333,4,1,0,100,0,0
75118,-133.333333333333,4,1,0,100,0,0
75288,-66.6666666666667,4,1,0,100,0,0
75288,-66.6666666666667,4,1,0,100,0,0
75300,-66.6666666666667,4,3,0,100,0,0
75300,-66.6666666666667,4,3,0,100,0,0
75469,-133.333333333333,4,1,0,100,0,0
75469,-133.333333333333,4,1,0,100,0,0
75639,-100,4,1,0,100,0,0
75639,-100,4,1,0,100,0,0
75808,-133.333333333333,4,1,0,100,0,0
75808,-133.333333333333,4,1,0,100,0,0
75907,-100,4,1,0,100,0,0
75907,-100,4,1,0,100,0,0
75978,-66.6666666666667,4,1,0,100,0,0
75978,-66.6666666666667,4,1,0,100,0,0
76100,-66.6666666666667,4,1,0,100,0,0
76100,-66.6666666666667,4,1,0,100,0,0
76269,-133.333333333333,4,1,0,100,0,0
76269,-133.333333333333,4,1,0,100,0,0
76439,-100,4,1,0,100,0,0
76439,-100,4,1,0,100,0,0
76608,-133.333333333333,4,1,0,100,0,0
76608,-133.333333333333,4,1,0,100,0,0
76778,-66.6666666666667,4,1,0,100,0,0
76778,-66.6666666666667,4,1,0,100,0,0
77009,-100,4,1,0,100,0,0
77009,-100,4,1,0,100,0,0
77348,-133.333333333333,4,1,0,100,0,0
77348,-133.333333333333,4,1,0,100,0,0
82708,6,4,1,0,100,1,0
82708,-50,4,1,0,100,0,0
82792,-133.333333333333,4,1,0,100,0,0
83047,338.983050847458,4,1,0,100,1,0
88131,338.983050847458,4,1,0,100,1,0
88131,-1600,4,1,0,100,0,0
109656,-66.6666666666667,4,1,0,100,0,0
131520,-133.333333333333,4,3,0,5,0,0
142368,-133.333333333333,4,3,0,40,0,0
147792,-133.333333333333,4,3,0,60,0,0
150503,-133.333333333333,4,3,0,80,0,0
150588,-133.333333333333,4,3,0,5,0,0
153215,-100,4,1,0,100,0,0
155503,-5,4,1,0,100,0,0
155927,-100,4,1,0,100,0,0
157283,-20000000,4,1,0,100,0,0
158215,-50,4,1,0,100,0,0
159486,6.000600060006,4,1,0,100,1,0
159656,338.983050847458,4,1,0,100,1,0
159985,-50,4,1,0,100,0,0
160249,-66.6666666666667,4,1,0,100,0,0
160503,-100,4,1,0,100,0,0
173554,-80,4,1,0,100,0,0
173723,-66.6666666666667,4,1,0,100,0,0
173893,-57.1428571428571,4,1,0,100,0,0
174062,-50,4,1,0,100,0,0
174910,-133.333333333333,4,1,0,100,0,0
175079,-100,4,1,0,100,0,0
175249,-66.6666666666667,4,1,0,100,0,0
175310,-133.333333333333,4,1,0,100,0,0
175479,-100,4,1,0,100,0,0
175649,-66.6666666666667,4,1,0,100,0,0
175740,-133.333333333333,4,1,0,100,0,0
175909,-100,4,1,0,100,0,0
176079,-66.6666666666667,4,1,0,100,0,0
176140,-133.333333333333,4,1,0,100,0,0
176309,-100,4,1,0,100,0,0
176479,-66.6666666666667,4,1,0,100,0,0
176910,-133.333333333333,4,1,0,100,0,0
177079,-100,4,1,0,100,0,0
177249,-66.6666666666667,4,1,0,100,0,0
177310,-133.333333333333,4,1,0,100,0,0
177479,-100,4,1,0,100,0,0
177649,-66.6666666666667,4,1,0,100,0,0
177740,-133.333333333333,4,1,0,100,0,0
177909,-100,4,1,0,100,0,0
178079,-66.6666666666667,4,1,0,100,0,0
178140,-133.333333333333,4,1,0,100,0,0
178309,-100,4,1,0,100,0,0
178479,-66.6666666666667,4,1,0,100,0,0
178910,-133.333333333333,4,1,0,100,0,0
179079,-100,4,1,0,100,0,0
179249,-66.6666666666667,4,1,0,100,0,0
179310,-133.333333333333,4,1,0,100,0,0
179479,-100,4,1,0,100,0,0
179649,-66.6666666666667,4,1,0,100,0,0
179740,-133.333333333333,4,1,0,100,0,0
179909,-100,4,1,0,100,0,0
180079,-66.6666666666667,4,1,0,100,0,0
180140,-133.333333333333,4,1,0,100,0,0
180309,-100,4,1,0,100,0,0
180479,-66.6666666666667,4,1,0,100,0,0
180910,-133.333333333333,4,1,0,100,0,0
181079,-100,4,1,0,100,0,0
181249,-66.6666666666667,4,1,0,100,0,0
181310,-133.333333333333,4,1,0,100,0,0
181479,-100,4,1,0,100,0,0
181649,-66.6666666666667,4,1,0,100,0,0
181740,-133.333333333333,4,1,0,100,0,0
181909,-100,4,1,0,100,0,0
182079,-66.6666666666667,4,1,0,100,0,0
182140,-133.333333333333,4,1,0,100,0,0
182309,-100,4,1,0,100,0,0
182479,-66.6666666666667,4,1,0,100,0,0
182910,-133.333333333333,4,1,0,100,0,0
183079,-100,4,1,0,100,0,0
183249,-66.6666666666667,4,1,0,100,0,0
183310,-133.333333333333,4,1,0,100,0,0
183479,-100,4,1,0,100,0,0
183649,-66.6666666666667,4,1,0,100,0,0
183740,-133.333333333333,4,1,0,100,0,0
183909,-100,4,1,0,100,0,0
184079,-66.6666666666667,4,1,0,100,0,0
184140,-133.333333333333,4,1,0,100,0,0
184309,-100,4,1,0,100,0,0
184479,-66.6666666666667,4,1,0,100,0,0
184910,-133.333333333333,4,1,0,100,0,0
185079,-100,4,1,0,100,0,0
185249,-66.6666666666667,4,1,0,100,0,0
185310,-133.333333333333,4,1,0,100,0,0
185479,-100,4,1,0,100,0,0
185649,-66.6666666666667,4,1,0,100,0,0
185740,-133.333333333333,4,1,0,100,0,0
185909,-100,4,1,0,100,0,0
186079,-66.6666666666667,4,1,0,100,0,0
186140,-133.333333333333,4,1,0,100,0,0
186309,-100,4,1,0,100,0,0
186479,-66.6666666666667,4,1,0,100,0,0
186910,-133.333333333333,4,1,0,100,0,0
187079,-100,4,1,0,100,0,0
187249,-66.6666666666667,4,1,0,100,0,0
187310,-133.333333333333,4,1,0,100,0,0
187479,-100,4,1,0,100,0,0
187649,-66.6666666666667,4,1,0,100,0,0
187740,-133.333333333333,4,1,0,100,0,0
187909,-100,4,1,0,100,0,0
188079,-66.6666666666667,4,1,0,100,0,0
188140,-133.333333333333,4,1,0,100,0,0
188309,-100,4,1,0,100,0,0
188479,-66.6666666666667,4,1,0,100,0,0
188910,-133.333333333333,4,1,0,100,0,0
189079,-100,4,1,0,100,0,0
189249,-66.6666666666667,4,1,0,100,0,0
189310,-133.333333333333,4,1,0,100,0,0
189479,-100,4,1,0,100,0,0
189649,-100,4,1,0,100,0,0
189649,-66.6666666666667,4,1,0,100,0,0
189740,-133.333333333333,4,1,0,100,0,0
189740,-66.6666666666667,4,1,0,100,0,0
189909,-133.333333333333,4,1,0,100,0,0
189909,-100,4,1,0,100,0,0
190079,-66.6666666666667,4,1,0,100,0,0
190079,-100,4,1,0,100,0,0
190140,-66.6666666666667,4,1,0,100,0,0
190140,-133.333333333333,4,1,0,100,0,0
190309,-100,4,1,0,100,0,0
190309,-100,4,1,0,100,0,0
190479,-66.6666666666667,4,1,0,100,0,0
190479,-100,4,1,0,100,0,0
190719,-66.6666666666667,4,1,0,100,0,0
190719,-133.333333333333,4,1,0,100,0,0
190810,-66.6666666666667,4,1,0,100,0,0
190810,-133.333333333333,4,1,0,100,0,0
190979,-100,4,1,0,100,0,0
190979,-133.333333333333,4,1,0,100,0,0
191149,-100,4,1,0,100,0,0
191149,-66.6666666666667,4,1,0,100,0,0
191210,-133.333333333333,4,1,0,100,0,0
191379,-100,4,1,0,100,0,0
191549,-66.6666666666667,4,1,0,100,0,0
191859,-133.333333333333,4,1,0,100,0,0
192179,-66.6666666666667,4,1,0,100,0,0
192179,-100,4,1,0,100,0,0
192419,-66.6666666666667,4,1,0,100,0,0
192419,-133.333333333333,4,1,0,100,0,0
192510,-66.6666666666667,4,1,0,100,0,0
192510,-133.333333333333,4,1,0,100,0,0
192679,-66.6666666666667,4,1,0,100,0,0
192679,-100,4,1,0,100,0,0
192849,-66.6666666666667,4,1,0,100,0,0
192849,-100,4,1,0,100,0,0
192910,-133.333333333333,4,1,0,100,0,0
193079,-100,4,1,0,100,0,0
193249,-66.6666666666667,4,1,0,100,0,0
193410,-133.333333333333,4,1,0,100,0,0
193579,-100,4,1,0,100,0,0
193749,-133.333333333333,4,1,0,100,0,0
194099,-66.6666666666667,4,1,0,100,0,0
194190,-133.333333333333,4,1,0,100,0,0
194359,-100,4,1,0,100,0,0
194529,-66.6666666666667,4,1,0,100,0,0
194590,-133.333333333333,4,1,0,100,0,0
194759,-100,4,1,0,100,0,0
194929,-133.333333333333,4,1,0,100,0,0
195169,-66.6666666666667,4,1,0,100,0,0
195260,-133.333333333333,4,1,0,100,0,0
195429,-100,4,1,0,100,0,0
195599,-66.6666666666667,4,1,0,100,0,0
195660,-133.333333333333,4,1,0,100,0,0
195829,-100,4,1,0,100,0,0
195999,-66.6666666666667,4,1,0,100,0,0
196266,169.491525423729,4,1,0,100,1,0
196604,338.983050847458,4,1,0,100,1,0
218298,169.491525423729,4,1,0,100,1,0
218298,-50,4,1,0,100,0,0
218975,338.983050847458,4,1,0,100,1,0
218975,-100,4,1,0,100,0,0
219313,-133.333333333333,4,1,0,100,0,0
219652,-100,4,1,0,100,0,0
219991,-66.6666666666667,4,1,0,100,0,0
220113,-133.333333333333,4,1,0,100,0,0
220452,-100,4,1,0,100,0,0
220791,-66.6666666666667,4,1,0,100,0,0
221163,-133.333333333333,4,1,0,100,0,0
221502,-100,4,1,0,100,0,0
221841,-66.6666666666667,4,1,0,100,0,0
221963,-133.333333333333,4,1,0,100,0,0
222302,-100,4,1,0,100,0,0
222641,-66.6666666666667,4,1,0,100,0,0
223113,-133.333333333333,4,1,0,100,0,0
223452,-100,4,1,0,100,0,0
223791,-66.6666666666667,4,1,0,100,0,0
223913,-133.333333333333,4,1,0,100,0,0
224252,-100,4,1,0,100,0,0
224591,-66.6666666666667,4,1,0,100,0,0
224963,-133.333333333333,4,1,0,100,0,0
225302,-100,4,1,0,100,0,0
225641,-66.6666666666667,4,1,0,100,0,0
225763,-133.333333333333,4,1,0,100,0,0
226102,-100,4,1,0,100,0,0
226441,-66.6666666666667,4,1,0,100,0,0
226913,-133.333333333333,4,1,0,100,0,0
227252,-100,4,1,0,100,0,0
227591,-66.6666666666667,4,1,0,100,0,0
227713,-133.333333333333,4,1,0,100,0,0
228052,-100,4,1,0,100,0,0
228391,-66.6666666666667,4,1,0,100,0,0
228763,-133.333333333333,4,1,0,100,0,0
229102,-100,4,1,0,100,0,0
229441,-66.6666666666667,4,1,0,100,0,0
229563,-133.333333333333,4,1,0,100,0,0
229902,-100,4,1,0,100,0,0
230241,-66.6666666666667,4,1,0,100,0,0
230713,-133.333333333333,4,1,0,100,0,0
231052,-100,4,1,0,100,0,0
231391,-66.6666666666667,4,1,0,100,0,0
231513,-133.333333333333,4,1,0,100,0,0
231852,-100,4,1,0,100,0,0
232191,-66.6666666666667,4,1,0,100,0,0
232563,-133.333333333333,4,1,0,100,0,0
232902,-100,4,1,0,100,0,0
233241,-66.6666666666667,4,1,0,100,0,0
233363,-133.333333333333,4,1,0,100,0,0
233702,-100,4,1,0,100,0,0
234041,-66.6666666666667,4,1,0,100,0,0
234568,-200,4,1,0,100,0,0
234652,-50,4,1,0,100,0,0
234768,-200,4,1,0,100,0,0
234852,-50,4,1,0,100,0,0
234968,-200,4,1,0,100,0,0
235052,-50,4,1,0,100,0,0
235168,-200,4,1,0,100,0,0
235252,-50,4,1,0,100,0,0
235368,-200,4,1,0,100,0,0
235452,-50,4,1,0,100,0,0
235568,-200,4,1,0,100,0,0
235652,-50,4,1,0,100,0,0
235768,-200,4,1,0,100,0,0
235852,-50,4,1,0,100,0,0
235968,-200,4,1,0,100,0,0
236052,-50,4,1,0,100,0,0
236168,-200,4,1,0,100,0,0
236252,-50,4,1,0,100,0,0
236368,-200,4,1,0,100,0,0
236452,-50,4,1,0,100,0,0
236568,-200,4,1,0,100,0,0
236652,-50,4,1,0,100,0,0
236768,-200,4,1,0,100,0,0
236852,-50,4,1,0,100,0,0
236968,-200,4,1,0,100,0,0
237052,-50,4,1,0,100,0,0
237168,-200,4,1,0,100,0,0
237252,-50,4,1,0,100,0,0
237368,-200,4,1,0,100,0,0
237452,-50,4,1,0,100,0,0
237568,-200,4,1,0,100,0,0
237652,-50,4,1,0,100,0,0
237768,-200,4,1,0,100,0,0
237852,-50,4,1,0,100,0,0
237968,-200,4,1,0,100,0,0
238052,-50,4,1,0,100,0,0
238168,-200,4,1,0,100,0,0
238252,-50,4,1,0,100,0,0
238368,-200,4,1,0,100,0,0
238452,-50,4,1,0,100,0,0
238568,-200,4,1,0,100,0,0
238652,-50,4,1,0,100,0,0
238768,-200,4,1,0,100,0,0
238852,-50,4,1,0,100,0,0
238968,-200,4,1,0,100,0,0
239052,-50,4,1,0,100,0,0
239168,-200,4,1,0,100,0,0
239252,-50,4,1,0,100,0,0
239368,-200,4,1,0,100,0,0
239452,-50,4,1,0,100,0,0
239568,-200,4,1,0,100,0,0
239652,-50,4,1,0,100,0,0
239768,-200,4,1,0,100,0,0
239852,-50,4,1,0,100,0,0
239968,-200,4,1,0,100,0,0
239991,-200,4,1,0,100,0,0
239991,-100,4,1,0,100,0,0
261686,-20000,4,1,0,5,0,0

[Colours]
Combo1 : 0,0,255
Combo2 : 255,0,128

[HitObjects]
72,152,516,5,8,0:0:0:0:
72,152,601,5,0,0:0:0:0:
72,152,686,5,8,0:0:0:0:
72,152,770,5,0,0:0:0:0:
72,152,855,5,8,0:0:0:0:
72,152,940,5,0,0:0:0:0:
72,152,1025,5,8,0:0:0:0:
72,152,1109,5,0,0:0:0:0:
72,152,1194,5,8,0:0:0:0:
72,152,1279,5,0,0:0:0:0:
72,152,1364,5,12,0:0:0:0:
200,148,1533,6,0,L|416:148,1,210
200,148,1872,6,8,L|416:148,1,210
236,212,2380,5,0,0:0:0:0:
320,224,2550,5,0,0:0:0:0:
256,272,2719,5,8,0:0:0:0:
188,200,2889,6,0,P|260:36|444:280,1,630
84,164,3228,6,0,P|60:100|300:88,1,420
180,140,3397,6,0,P|228:156|304:168,1,105
180,140,3566,6,0,P|228:156|304:168,1,105
192,240,4073,6,2,B|316:252|320:252|488:12|488:12|-56:168|-56:168|448:324,1,1470
180,284,4243,6,0,B|304:296|308:296|476:56|476:56|-68:212|-68:212|324:348,1,1365
136,288,4412,6,0,B|260:300|264:300|432:60|432:60|-112:216|-112:216|172:336,1,1260
136,288,4582,6,0,B|260:300|264:300|432:60|432:60|-112:216|-112:216|72:312,1,1155
168,344,4751,6,0,B|292:356|296:356|464:116|464:116|-80:272|-80:272|-4:332,1,1050
256,340,4921,6,0,B|380:352|384:352|504:152|504:152|8:268|8:268|84:328,1,945
280,384,5090,6,0,B|404:396|408:396|488:224|488:224|32:312|32:312|108:372,1,840
256,340,5260,6,0,B|380:352|384:352|432:180|432:180|8:268|8:268|84:328,1,735
248,328,5429,6,0,B|372:340|376:340|364:184|364:184|0:256|0:256|76:316,1,630
248,328,5599,6,0,B|372:340|376:340|284:232|284:232|0:256|0:256|76:316,1,525
248,328,5768,6,0,B|288:308|376:340|224:280|224:280|0:256|0:256|76:316,1,420
248,328,5938,6,0,B|240:300|376:340|216:296|216:296|48:264|48:264|76:316,1,315
248,328,6107,6,0,B|240:300|376:340|216:296|216:296|96:284|96:284|76:316,1,210
248,328,6277,6,0,B|240:300|376:340|216:296|216:296|196:292|196:292|164:300,1,105
256,192,6616,5,8,0:0:0:0:
104,104,6785,6,0,P|172:88|272:116,2,157.5,2|8|0,0:0|0:0|0:0,0:0:0:0:
256,192,7520,5,0,0:0:0:0:
140,168,7802,5,8,0:0:0:0:
196,120,8085,5,0,0:0:0:0:
220,192,8311,6,0,P|268:176|336:160,1,105,0|8,0:0|0:0,0:0:0:0:
144,240,8650,5,0,0:0:0:0:
284,256,8819,6,0,P|324:236|392:232,1,105
104,140,9158,5,0,0:0:0:0:
244,92,9328,5,8,0:0:0:0:
256,192,9497,5,0,0:0:0:0:
112,224,9667,6,0,P|168:192|320:240,1,210
180,268,9836,6,0,P|200:156|116:80,1,210
252,284,10345,5,8,0:0:0:0:
208,124,10514,6,0,P|264:92|408:136,1,210
312,164,10684,6,0,L|420:184,1,105
100,252,11023,5,8,0:0:0:0:
144,132,11192,5,8,0:0:0:0:
248,144,11503,6,0,L|265:144,1,17.5
100,220,12207,5,12,0:0:0:0:
184,120,12293,5,0,0:0:0:0:
184,208,12378,5,0,0:0:0:0:
268,244,12463,5,0,0:0:0:0:
312,96,12547,5,0,0:0:0:0:
348,172,12632,5,0,0:0:0:0:
336,256,12716,5,12,0:0:0:0:
216,316,12802,5,0,0:0:0:0:
224,56,12886,5,0,0:0:0:0:
100,220,12971,5,0,0:0:0:0:
184,120,13056,5,0,0:0:0:0:
184,208,13141,5,0,0:0:0:0:
268,244,13225,5,12,0:0:0:0:
312,96,13310,5,0,0:0:0:0:
348,172,13395,5,0,0:0:0:0:
336,256,13480,5,0,0:0:0:0:
216,316,13565,5,0,0:0:0:0:
224,56,13649,5,0,0:0:0:0:
100,220,13733,5,12,0:0:0:0:
184,120,13819,5,0,0:0:0:0:
184,208,13904,5,0,0:0:0:0:
268,244,13989,5,0,0:0:0:0:
312,96,14072,5,12,0:0:0:0:
348,172,14158,5,0,0:0:0:0:
336,256,14242,5,12,0:0:0:0:
216,316,14328,5,0,0:0:0:0:
224,56,14412,5,0,0:0:0:0:
100,220,14497,5,0,0:0:0:0:
184,120,14582,5,12,0:0:0:0:
184,208,14667,5,0,0:0:0:0:
268,244,14752,5,0,0:0:0:0:
312,96,14836,5,0,0:0:0:0:
300,188,14920,6,0,L|408:92,1,105
300,188,15090,6,0,L|408:92,1,105
300,188,15259,6,0,L|408:92,1,105
300,188,15429,6,0,L|408:92,1,105
300,188,15598,6,0,L|408:92,1,105
300,188,15768,6,0,L|408:92,1,105
300,188,15937,6,0,L|408:92,1,105
300,188,16107,6,0,L|408:92,1,105
300,188,16276,6,0,L|408:92,1,105
300,188,16446,6,0,L|408:92,1,105
300,188,16615,6,0,L|408:92,1,105
300,188,16785,6,0,L|408:92,1,105
300,188,16954,6,0,L|408:92,1,105
300,188,17124,6,0,L|408:92,1,105
300,188,17293,6,0,L|408:92,1,105
168,80,17463,5,0,0:0:0:0:
216,192,17641,5,0,0:0:0:0:
216,192,17980,5,0,0:0:0:0:
216,192,18318,5,0,0:0:0:0:
216,192,18656,5,0,0:0:0:0:
216,192,18994,5,0,0:0:0:0:
216,192,19332,5,0,0:0:0:0:
216,192,19670,5,0,0:0:0:0:
216,192,20008,5,0,0:0:0:0:
216,192,20346,5,0,0:0:0:0:
216,192,20515,5,0,0:0:0:0:
216,192,20684,5,0,0:0:0:0:
216,192,20853,5,0,0:0:0:0:
216,192,21022,5,0,0:0:0:0:
216,192,21191,5,0,0:0:0:0:
216,192,21360,5,0,0:0:0:0:
216,192,21529,5,0,0:0:0:0:
216,192,21698,5,0,0:0:0:0:
216,192,21782,5,0,0:0:0:0:
216,192,21867,5,0,0:0:0:0:
216,192,21952,5,0,0:0:0:0:
216,192,22036,5,0,0:0:0:0:
216,192,22120,5,0,0:0:0:0:
216,192,22205,5,0,0:0:0:0:
216,192,22290,5,0,0:0:0:0:
124,104,22374,6,0,L|240:104,1,105
124,104,22543,6,0,L|240:104,1,105
124,104,22712,6,0,L|240:104,1,105
124,104,22881,6,0,L|240:104,1,105
216,176,23304,5,0,0:0:0:0:
216,176,23389,5,0,0:0:0:0:
216,176,23474,5,0,0:0:0:0:
216,176,23559,5,0,0:0:0:0:
216,176,23643,5,0,0:0:0:0:
288,216,23727,6,0,P|352:192|340:136,1,105
292,112,23897,6,0,P|360:56|440:64,1,157.500006008148
136,116,24066,6,0,P|208:48|152:44,1,157.500006008148
124,220,24405,5,0,0:0:0:0:
208,232,24575,5,0,0:0:0:0:
208,232,24660,5,0,0:0:0:0:
208,232,24744,5,0,0:0:0:0:
208,232,24829,5,0,0:0:0:0:
208,232,24914,5,0,0:0:0:0:
208,232,24999,5,0,0:0:0:0:
152,128,25083,6,0,P|220:104|268:112,1,105
312,200,25422,5,8,0:0:0:0:
312,200,25507,5,8,0:0:0:0:
312,200,25592,5,8,0:0:0:0:
312,200,25677,5,8,0:0:0:0:
104,236,25761,6,0,P|372:144|432:160,1,315.000012016297
100,108,26185,5,0,0:0:0:0:
100,108,26270,5,0,0:0:0:0:
100,108,26355,5,0,0:0:0:0:
176,140,26439,6,0,P|288:128|308:208,1,210
108,240,26948,5,0,0:0:0:0:
336,92,27117,6,8,L|336:176,1,78.7500030040742
336,92,27287,6,8,L|336:176,1,78.7500030040742
248,76,27456,6,8,L|248:252,1,157.500006008148
248,76,27626,6,8,L|248:252,1,157.500006008148
104,52,27795,6,8,L|116:176,1,105
104,52,27965,6,8,L|116:176,1,105
104,52,28134,6,8,L|116:176,1,105
216,156,28473,6,0,P|256:128|316:148,1,105
264,244,28897,5,0,0:0:0:0:
264,244,28982,5,0,0:0:0:0:
264,244,29066,5,0,0:0:0:0:
264,244,29151,5,8,0:0:0:0:
264,244,29236,5,0,0:0:0:0:
264,244,29321,5,0,0:0:0:0:
264,244,29405,5,0,0:0:0:0:
264,244,29490,5,8,0:0:0:0:
264,244,29575,5,0,0:0:0:0:
264,244,29660,5,0,0:0:0:0:
264,244,29744,5,0,0:0:0:0:
116,176,29829,6,0,P|248:104|420:112,1,315,8|0,0:0|0:0,0:0:0:0:
348,184,30168,5,8,0:0:0:0:
348,184,30253,5,0,0:0:0:0:
348,184,30338,5,0,0:0:0:0:
304,156,30422,5,0,0:0:0:0:
96,84,30507,6,0,P|160:48|196:48,1,78.7500030040742
216,92,30761,5,8,0:0:0:0:
172,160,30846,6,0,P|248:216|236:284,1,157.500006008148
76,216,31185,5,8,0:0:0:0:
76,216,31270,5,0,0:0:0:0:
76,216,31355,5,0,0:0:0:0:
76,216,31439,5,0,0:0:0:0:
76,216,31524,5,8,0:0:0:0:
76,216,31609,5,0,0:0:0:0:
76,216,31694,5,0,0:0:0:0:
76,216,31778,5,0,0:0:0:0:
76,216,31863,5,8,0:0:0:0:
76,216,31948,5,0,0:0:0:0:
76,216,32033,5,0,0:0:0:0:
76,216,32117,5,0,0:0:0:0:
76,216,32202,5,8,0:0:0:0:
76,216,32287,5,0,0:0:0:0:
76,216,32372,5,0,0:0:0:0:
76,216,32456,5,0,0:0:0:0:
132,116,32541,6,0,P|344:252|448:120,1,420
256,96,32879,5,0,0:0:0:0:
336,192,33049,6,0,P|88:304|80:228,1,472.500018024445
144,176,33388,5,0,0:0:0:0:
284,220,33557,5,8,0:0:0:0:
284,220,33642,5,8,0:0:0:0:
284,220,33727,5,8,0:0:0:0:
284,220,33812,5,8,0:0:0:0:
232,132,33896,6,0,P|288:92|368:88,1,105
376,172,34065,6,0,L|312:256,1,105
128,156,34404,5,0,0:0:0:0:
64,72,34573,6,0,L|160:56,1,78.7500030040742
172,128,34658,6,0,L|236:64,1,78.7500030040742
428,248,34743,6,0,L|368:160,1,78.7500030040742
344,320,34828,6,0,L|416:320,1,39.3750015020371
344,92,34912,6,0,L|396:100,1,39.3750015020371
212,244,34997,6,0,L|172:200,1,39.3750015020371,8|0,0:0|0:0,0:0:0:0:
108,224,35082,6,0,L|160:284,1,52.5
224,148,35167,6,0,L|256:172,1,39.3750015020371
260,96,35251,6,0,L|180:72,1,78.7500030040742,8|0,0:0|0:0,0:0:0:0:
72,96,35336,5,0,0:0:0:0:
72,96,35421,5,8,0:0:0:0:
72,96,35506,5,0,0:0:0:0:
72,96,35590,5,8,0:0:0:0:
72,96,35675,5,0,0:0:0:0:
72,96,35759,5,8,0:0:0:0:
72,96,35845,5,0,0:0:0:0:
72,96,35929,5,8,0:0:0:0:
72,96,36014,5,0,0:0:0:0:
72,96,36098,5,8,0:0:0:0:
72,96,36184,5,0,0:0:0:0:
72,96,36268,5,8,0:0:0:0:
72,96,36353,5,0,0:0:0:0:
72,96,36437,5,8,0:0:0:0:
72,96,36523,5,0,0:0:0:0:
204,136,36607,6,0,L|372:136,1,157.500006008148
112,60,36777,6,2,L|328:64,1,157.500006008148
160,228,37116,5,0,0:0:0:0:
288,216,37285,5,8,0:0:0:0:
288,216,37370,5,8,0:0:0:0:
288,216,37455,5,8,0:0:0:0:
288,216,37540,5,8,0:0:0:0:
288,216,37624,5,8,0:0:0:0:
288,216,37709,5,8,0:0:0:0:
288,216,37794,5,8,0:0:0:0:
288,216,37879,5,8,0:0:0:0:
88,164,37963,6,0,P|56:80|168:80,1,210
228,120,38302,5,0,0:0:0:0:
228,120,38387,5,0,0:0:0:0:
228,120,38472,5,0,0:0:0:0:
228,120,38557,5,0,0:0:0:0:
184,192,38641,5,0,0:0:0:0:
228,120,38726,5,0,0:0:0:0:
228,120,38811,5,0,0:0:0:0:
228,120,38896,5,0,0:0:0:0:
184,192,38980,5,0,0:0:0:0:
228,120,39065,5,0,0:0:0:0:
228,120,39150,5,0,0:0:0:0:
228,120,39235,5,0,0:0:0:0:
352,208,39319,6,0,P|380:148|368:88,1,105
100,128,39658,5,0,0:0:0:0:
96,260,39828,6,0,B|228:224|96:80|480:264|480:264|160:80,1,787.500030040742
208,280,39997,6,8,L|352:80,1,236.250009012223
32,64,40167,6,0,P|92:36|148:40,1,105
208,120,40760,5,0,0:0:0:0:
252,120,40845,5,0,0:0:0:0:
280,56,40929,5,0,0:0:0:0:
292,120,41014,5,10,0:0:0:0:
276,200,41099,5,0,0:0:0:0:
276,200,41184,5,0,0:0:0:0:
276,200,41268,5,0,0:0:0:0:
56,216,41353,6,0,P|104:156|60:100,1,157.500006008148
128,260,41523,6,0,P|176:200|168:180,1,78.7500030040742
124,56,41607,5,0,0:0:0:0:
128,260,41692,6,0,P|176:200|172:112,1,157.500006008148
200,284,41862,6,0,P|248:224|248:144,1,157.500006008148
244,76,42031,5,0,0:0:0:0:
272,80,42116,5,0,0:0:0:0:
312,84,42201,5,0,0:0:0:0:
312,84,42285,5,0,0:0:0:0:
272,80,42370,5,8,0:0:0:0:
312,84,42455,5,0,0:0:0:0:
312,84,42539,5,0,0:0:0:0:
312,84,42624,5,0,0:0:0:0:
272,80,42709,5,8,0:0:0:0:
312,84,42794,5,0,0:0:0:0:
312,84,42878,5,0,0:0:0:0:
312,84,42963,5,0,0:0:0:0:
272,80,43048,5,8,0:0:0:0:
312,84,43133,5,0,0:0:0:0:
312,84,43217,5,0,0:0:0:0:
312,84,43302,5,0,0:0:0:0:
0,308,43387,6,0,P|432:104|484:304,1,840
196,216,43725,5,0,0:0:0:0:
48,344,43895,6,0,P|348:-16|456:348,1,840
316,188,44234,5,0,0:0:0:0:
120,156,44403,5,8,0:0:0:0:
120,156,44488,5,8,0:0:0:0:
120,156,44573,5,8,0:0:0:0:
120,156,44658,5,8,0:0:0:0:
264,92,44742,5,14,0:0:0:0:
36,44,45080,5,0,0:0:0:0:
16,120,45419,5,2,0:0:0:0:
8,188,45758,5,4,0:0:0:0:
24,112,46097,5,8,0:0:0:0:
64,240,46436,5,0,0:0:0:0:
36,44,46775,5,2,0:0:0:0:
36,44,47114,5,4,0:0:0:0:
8,160,47453,5,8,0:0:0:0:
36,44,47792,5,0,0:0:0:0:
36,44,48131,5,2,0:0:0:0:
36,44,48470,5,4,0:0:0:0:
20,124,48809,5,8,0:0:0:0:
36,44,49148,5,0,0:0:0:0:
36,44,49487,5,2,0:0:0:0:
36,44,49826,5,4,0:0:0:0:
16,132,50165,5,8,0:0:0:0:
36,44,50504,5,0,0:0:0:0:
36,44,50843,5,2,0:0:0:0:
36,44,51182,5,4,0:0:0:0:
20,160,51521,5,8,0:0:0:0:
36,44,51860,5,0,0:0:0:0:
36,44,52199,5,2,0:0:0:0:
36,44,52538,5,4,0:0:0:0:
20,136,52877,5,8,0:0:0:0:
36,44,53216,5,0,0:0:0:0:
36,44,53555,5,2,0:0:0:0:
36,44,53894,5,4,0:0:0:0:
20,144,54233,5,8,0:0:0:0:
160,120,54572,5,0,0:0:0:0:
160,120,54911,5,2,0:0:0:0:
92,176,55589,6,0,P|136:96|188:84,1,105
232,216,55928,5,0,0:0:0:0:
336,180,56097,6,0,P|304:112|256:96,1,105
136,284,56436,5,0,0:0:0:0:
296,280,56606,5,0,0:0:0:0:
356,256,56775,5,0,0:0:0:0:
24,200,56945,5,0,0:0:0:0:
24,192,57030,5,0,0:0:0:0:
24,188,57114,5,0,0:0:0:0:
24,180,57199,5,0,0:0:0:0:
60,124,57284,6,0,P|124:100|164:104,1,105
96,188,57453,6,0,L|220:184,1,105
236,252,57792,5,0,0:0:0:0:
236,252,57877,5,0,0:0:0:0:
236,252,57962,5,0,0:0:0:0:
292,152,58131,6,0,P|368:148|388:172,1,105
368,232,58301,5,0,0:0:0:0:
112,168,58470,5,0,0:0:0:0:
184,100,58640,5,0,0:0:0:0:
128,244,58809,6,0,P|212:220|256:228,1,105
192,296,58979,6,0,P|260:288|304:264,1,105
32,140,59318,5,0,0:0:0:0:
264,120,59487,5,0,0:0:0:0:
48,208,59657,6,0,L|124:160,1,78.7500030040742
184,152,59996,6,0,L|260:212,1,78.7500030040742
272,128,60335,5,0,0:0:0:0:
344,88,60504,5,0,0:0:0:0:
372,144,60674,5,0,0:0:0:0:
312,188,60843,5,0,0:0:0:0:
60,220,61013,6,0,L|96:128,1,78.7500030040742
192,232,61182,6,0,L|208:136,1,78.7500030040742
312,112,61352,5,0,0:0:0:0:
112,60,61521,5,12,0:0:0:0:
292,268,61691,5,12,0:0:0:0:
132,264,61860,5,4,0:0:0:0:
368,204,62030,5,4,0:0:0:0:
216,88,62199,5,12,0:0:0:0:
80,156,62369,5,12,0:0:0:0:
296,216,62538,5,6,0:0:0:0:
216,208,62708,5,4,0:0:0:0:
312,124,62877,5,4,0:0:0:0:
168,132,63047,5,4,0:0:0:0:
88,120,63216,5,4,0:0:0:0:
128,240,63386,5,6,0:0:0:0:
256,256,63555,5,6,0:0:0:0:
232,168,63725,6,0,L|384:76,1,157.500006008148
384,292,63894,6,0,L|96:124,1,315.000012016297
140,280,64064,6,0,L|188:112,1,157.500006008148
468,236,64233,6,0,L|248:84,1,236.250009012223
60,256,64572,6,0,L|232:292,1,157.500006008148
152,228,65080,6,0,P|184:160|200:132,1,78.7500030040742
240,236,65250,6,0,P|348:160|336:116,1,157.500006008148
40,160,65419,6,0,P|84:80|128:56,1,105
232,88,65589,5,0,0:0:0:0:
80,240,65674,5,0,0:0:0:0:
80,240,65758,5,0,0:0:0:0:
80,240,65843,5,0,0:0:0:0:
80,240,65928,5,0,0:0:0:0:
80,240,66013,5,0,0:0:0:0:
80,240,66097,5,0,0:0:0:0:
176,236,66436,6,0,P|272:168|360:56,1,210
292,268,66606,6,0,P|360:176|464:120,1,210
56,160,66775,6,0,P|112:96|272:80,1,210
224,160,67284,6,0,P|308:120|360:136,1,146.999995513916
108,276,67453,6,0,P|192:236|264:264,1,168
128,80,67623,5,0,0:0:0:0:
68,208,67792,6,0,P|160:152|360:168,1,283.499991348267
68,208,68047,6,0,P|160:152|360:168,1,283.499991348267
68,208,68301,6,0,P|160:152|244:152,1,157.5
264,248,68555,5,0,0:0:0:0:
264,248,68640,5,0,0:0:0:0:
264,248,68725,5,0,0:0:0:0:
160,224,68809,6,0,P|248:104|364:244,1,315.000012016297
276,176,68894,6,0,P|368:84|388:156,1,236.250009012223
320,252,68979,6,0,P|404:216|408:204,1,78.7500030040742
200,292,69064,6,0,L|228:236,1,39.3750015020371
52,168,69148,6,0,P|92:84|396:92,1,420
120,196,69996,6,0,L|176:148,1,52.5
256,236,70165,6,0,L|272:192,1,39.3750015020371
232,120,70335,6,0,L|320:120,1,78.7500030040742
72,88,70504,5,0,0:0:0:0:
120,88,70504,5,8,0:0:0:0:
120,88,70674,5,8,0:0:0:0:
72,88,70674,5,0,0:0:0:0:
72,88,70843,5,0,0:0:0:0:
120,88,70843,5,8,0:0:0:0:
120,88,71013,5,8,0:0:0:0:
72,88,71013,5,0,0:0:0:0:
72,88,71182,5,0,0:0:0:0:
120,88,71182,5,8,0:0:0:0:
120,88,71182,5,8,0:0:0:0:
72,88,71182,5,0,0:0:0:0:
72,88,71436,5,0,0:0:0:0:
120,88,71436,5,8,0:0:0:0:
72,88,71521,5,0,0:0:0:0:
120,88,71521,5,8,0:0:0:0:
72,88,71606,5,0,0:0:0:0:
120,88,71606,5,8,0:0:0:0:
120,88,71691,5,8,0:0:0:0:
72,88,71691,5,0,0:0:0:0:
72,88,71775,5,0,0:0:0:0:
120,88,71775,5,8,0:0:0:0:
120,200,71860,6,0,P|204:128|252:128,1,157.500006008148
200,248,71945,6,0,P|300:216|352:176,1,157.5
312,96,72284,5,0,0:0:0:0:
312,96,72369,5,8,0:0:0:0:
312,96,72453,5,0,0:0:0:0:
32,280,72538,6,2,L|112:256,1,78.7500030040742
32,280,72708,6,2,L|136:252,1,105
48,164,72877,6,2,L|144:136,1,78.7500030040742
120,216,73047,6,2,L|276:172,1,157.500006008148
288,92,73216,5,0,0:0:0:0:
228,256,73470,5,0,0:0:0:0:
196,176,73725,6,0,P|300:140|320:120,1,105
12,224,74148,6,0,L|204:104,1,196.875007510186
220,224,74657,5,0,0:0:0:0:
220,224,74742,5,0,0:0:0:0:
220,224,74826,5,0,0:0:0:0:
220,224,74911,5,8,0:0:0:0:
88,128,74996,5,0,0:0:0:0:
88,128,75080,5,0,0:0:0:0:
88,128,75165,5,0,0:0:0:0:
228,124,75250,6,0,P|300:96|332:104,1,78.7500030040742,8|0,0:0|0:0,0:0:0:0:
320,176,75419,6,0,P|404:208|436:280,1,157.500006008148,0|8,0:0|0:0,0:0:0:0:
324,292,75589,6,0,P|264:332|228:328,1,78.7500030040742
144,260,75758,5,0,0:0:0:0:
120,180,75928,6,0,L|284:216,1,157.5
116,104,76267,5,0,0:0:0:0:
116,104,76436,5,8,0:0:0:0:
260,120,76606,5,0,0:0:0:0:
368,112,76775,6,0,L|376:168,1,39.3750015020371
328,216,76860,6,0,L|308:120,1,78.7500030040742
116,212,76945,6,8,L|256:112,1,157.500006008148
208,280,77114,6,0,L|144:152,1,105
64,64,77284,5,0,0:0:0:0:
64,64,77369,5,8,0:0:0:0:
64,64,77453,5,0,0:0:0:0:
64,64,77538,5,8,0:0:0:0:
64,64,77623,5,0,0:0:0:0:
64,64,77708,5,8,0:0:0:0:
64,64,77792,5,0,0:0:0:0:
64,64,77877,5,8,0:0:0:0:
296,168,77962,6,0,P|344:124|380:128,1,78.7500030040742
352,236,78131,6,0,P|316:280|276:284,1,78.7500030040742
232,232,78301,6,0,P|200:184|204:152,1,78.7500030040742
144,104,78470,6,0,P|188:72|196:40,1,78.7500030040742
20,156,78640,6,0,P|88:160|144:212,1,118.125004506111
20,84,78894,6,0,P|68:76|120:128,1,118.125004506111
264,76,79148,6,0,P|336:112|356:156,1,118.125004506111
272,244,79403,5,0,0:0:0:0:
272,244,79487,5,8,0:0:0:0:
176,56,79572,5,0,0:0:0:0:
44,208,79657,5,8,0:0:0:0:
44,208,79699,5,8,0:0:0:0:
44,208,79742,5,0,0:0:0:0:
44,208,79784,5,0,0:0:0:0:
44,208,79826,5,8,0:0:0:0:
44,208,79869,5,8,0:0:0:0:
44,208,79911,5,0,0:0:0:0:
44,208,79953,5,8,0:0:0:0:
104,120,79996,6,0,L|276:128,1,157.500006008148
264,232,80335,6,0,L|96:220,1,157.500006008148
196,108,80674,5,0,0:0:0:0:
196,108,80843,5,0,0:0:0:0:
196,108,81013,5,8,0:0:0:0:
196,108,81182,5,0,0:0:0:0:
212,204,81352,6,8,L|308:152,1,78.7500030040742
212,204,81436,6,8,L|308:152,1,78.7500030040742
212,204,81521,6,8,L|308:152,1,78.7500030040742
212,204,81606,6,8,L|308:152,1,78.7500030040742
212,204,81691,6,8,L|308:152,1,78.7500030040742
212,204,81775,6,0,L|308:152,1,78.7500030040742
212,204,81860,6,0,L|308:152,1,78.7500030040742
112,104,81945,5,0,0:0:0:0:
112,104,82030,5,0,0:0:0:0:
44,212,82199,5,8,0:0:0:0:
104,212,82369,5,0,0:0:0:0:
156,248,82538,5,8,0:0:0:0:
228,176,82708,5,0,0:0:0:0:
96,112,83047,5,2,0:0:0:0:
96,112,83131,5,2,0:0:0:0:
96,112,83216,5,2,0:0:0:0:
96,112,83300,5,2,0:0:0:0:
96,112,83385,5,2,0:0:0:0:
96,112,83470,5,2,0:0:0:0:
96,112,83555,5,2,0:0:0:0:
96,112,83639,5,2,0:0:0:0:
96,112,83724,5,2,0:0:0:0:
96,112,83808,5,2,0:0:0:0:
96,112,83893,5,2,0:0:0:0:
96,112,83978,5,2,0:0:0:0:
96,112,84063,5,2,0:0:0:0:
96,112,84147,5,2,0:0:0:0:
96,112,84232,5,2,0:0:0:0:
96,112,84316,5,2,0:0:0:0:
96,112,84401,5,2,0:0:0:0:
96,112,84486,5,2,0:0:0:0:
96,112,84572,5,2,0:0:0:0:
96,112,84656,5,2,0:0:0:0:
96,112,84741,5,2,0:0:0:0:
96,112,84825,5,2,0:0:0:0:
96,112,84910,5,2,0:0:0:0:
96,112,84995,5,2,0:0:0:0:
96,112,85080,5,2,0:0:0:0:
96,112,85164,5,2,0:0:0:0:
96,112,85249,5,2,0:0:0:0:
96,112,85333,5,2,0:0:0:0:
96,112,85418,5,2,0:0:0:0:
96,112,85503,5,2,0:0:0:0:
96,112,85589,5,2,0:0:0:0:
96,112,85673,5,2,0:0:0:0:
96,112,85758,5,2,0:0:0:0:
96,112,85842,5,2,0:0:0:0:
96,112,85927,5,2,0:0:0:0:
96,112,86012,5,2,0:0:0:0:
96,112,86097,5,2,0:0:0:0:
96,112,86181,5,2,0:0:0:0:
96,112,86266,5,2,0:0:0:0:
96,112,86350,5,2,0:0:0:0:
96,112,86435,5,2,0:0:0:0:
96,112,86520,5,2,0:0:0:0:
96,112,86606,5,2,0:0:0:0:
96,112,86690,5,2,0:0:0:0:
96,112,86775,5,2,0:0:0:0:
96,112,86859,5,2,0:0:0:0:
96,112,86944,5,2,0:0:0:0:
96,112,87029,5,2,0:0:0:0:
96,112,87114,5,2,0:0:0:0:
96,112,87198,5,2,0:0:0:0:
96,112,87283,5,2,0:0:0:0:
96,112,87367,5,2,0:0:0:0:
96,112,87452,5,2,0:0:0:0:
96,112,87537,5,2,0:0:0:0:
96,112,87623,5,2,0:0:0:0:
96,112,87707,5,2,0:0:0:0:
96,112,87792,5,2,0:0:0:0:
96,112,87876,5,2,0:0:0:0:
96,112,87961,5,2,0:0:0:0:
96,112,88046,5,2,0:0:0:0:
212,160,88131,5,0,0:0:0:0:
300,92,88300,5,0,0:0:0:0:
300,92,88385,5,0,0:0:0:0:
300,92,88470,5,0,0:0:0:0:
48,160,88639,5,0,0:0:0:0:
128,228,88808,6,0,L|136:232,1,5.25
128,228,88893,6,0,L|136:232,1,5.25
128,228,88978,6,0,L|136:232,1,5.25
128,228,89063,6,0,L|136:232,1,5.25
108,96,89147,5,0,0:0:0:0:
220,160,89317,5,0,0:0:0:0:
316,96,89486,5,8,0:0:0:0:
316,96,89656,5,0,0:0:0:0:
316,96,89825,5,8,0:0:0:0:
316,96,89995,5,0,0:0:0:0:
80,124,90164,6,0,L|108:140,1,31.5
124,88,90249,6,0,L|148:100,1,26.25
176,156,90334,6,0,L|196:168,1,21
220,120,90419,6,0,L|236:128,1,15.75
112,208,90503,6,0,L|124:216,1,10.5
348,184,90842,5,0,0:0:0:0:
256,244,91012,5,0,0:0:0:0:
180,264,91181,5,0,0:0:0:0:
352,280,91351,5,0,0:0:0:0:
100,188,91520,5,0,0:0:0:0:
100,188,91605,5,0,0:0:0:0:
100,188,91690,5,0,0:0:0:0:
100,188,91775,5,0,0:0:0:0:
100,188,91859,5,0,0:0:0:0:
204,152,92029,5,0,0:0:0:0:
204,152,92029,5,8,0:0:0:0:
204,152,92198,5,8,0:0:0:0:
204,152,92198,5,0,0:0:0:0:
204,152,92368,5,0,0:0:0:0:
204,152,92368,5,8,0:0:0:0:
204,152,92537,5,8,0:0:0:0:
204,152,92537,5,0,0:0:0:0:
204,152,92707,5,0,0:0:0:0:
204,152,92707,5,8,0:0:0:0:
72,128,92876,5,0,0:0:0:0:
72,128,92961,5,0,0:0:0:0:
72,128,93046,5,0,0:0:0:0:
72,128,93131,5,0,0:0:0:0:
72,128,93215,5,0,0:0:0:0:
248,68,93385,5,0,0:0:0:0:
152,224,93554,6,0,L|156:216,1,5.25
208,216,93724,6,0,L|204:224,1,5.25
268,204,93893,6,0,L|272:196,1,5.25
224,164,94063,6,0,L|232:160,1,5.25
156,116,94232,5,0,0:0:0:0:
156,116,94317,5,0,0:0:0:0:
156,116,94402,5,0,0:0:0:0:
156,116,94486,5,0,0:0:0:0:
244,72,94571,6,0,L|256:76,1,10.5
120,176,94910,5,8,0:0:0:0:
120,176,94995,5,0,0:0:0:0:
120,176,95080,5,0,0:0:0:0:
120,176,95164,5,0,0:0:0:0:
120,176,95249,5,8,0:0:0:0:
120,176,95334,5,0,0:0:0:0:
120,176,95419,5,0,0:0:0:0:
120,176,95503,5,0,0:0:0:0:
120,176,95588,5,8,0:0:0:0:
120,176,95673,5,0,0:0:0:0:
120,176,95758,5,0,0:0:0:0:
120,176,95842,5,0,0:0:0:0:
120,176,95927,5,8,0:0:0:0:
120,176,96012,5,0,0:0:0:0:
120,176,96097,5,0,0:0:0:0:
120,176,96181,5,0,0:0:0:0:
240,120,96266,5,0,0:0:0:0:
240,120,96351,5,0,0:0:0:0:
240,120,96436,5,0,0:0:0:0:
240,120,96520,5,0,0:0:0:0:
240,120,96605,5,0,0:0:0:0:
236,228,96775,5,8,0:0:0:0:
240,120,96944,5,0,0:0:0:0:
240,120,97029,5,0,0:0:0:0:
240,120,97114,5,0,0:0:0:0:
240,120,97198,5,0,0:0:0:0:
240,120,97283,5,0,0:0:0:0:
236,228,97453,5,8,0:0:0:0:
240,120,97622,5,0,0:0:0:0:
240,120,97707,5,0,0:0:0:0:
240,120,97792,5,0,0:0:0:0:
240,120,97876,5,0,0:0:0:0:
240,120,97961,5,0,0:0:0:0:
236,228,98131,5,8,0:0:0:0:
240,120,98300,5,0,0:0:0:0:
240,120,98385,5,0,0:0:0:0:
240,120,98470,5,0,0:0:0:0:
240,120,98554,5,0,0:0:0:0:
240,120,98639,5,0,0:0:0:0:
144,136,98724,5,0,0:0:0:0:
236,228,98809,5,8,0:0:0:0:
184,80,98893,5,0,0:0:0:0:
212,160,98978,5,0,0:0:0:0:
300,92,99147,5,0,0:0:0:0:
300,92,99232,5,0,0:0:0:0:
300,92,99317,5,0,0:0:0:0:
48,160,99486,5,0,0:0:0:0:
128,228,99655,6,0,L|136:232,1,5.25
128,228,99740,6,0,L|136:232,1,5.25
128,228,99825,6,0,L|136:232,1,5.25
128,228,99910,6,0,L|136:232,1,5.25
108,96,99994,5,0,0:0:0:0:
220,160,100164,5,0,0:0:0:0:
316,96,100333,5,8,0:0:0:0:
316,96,100503,5,0,0:0:0:0:
316,96,100672,5,8,0:0:0:0:
316,96,100842,5,0,0:0:0:0:
80,124,101011,6,0,L|108:140,1,31.5
124,88,101096,6,0,L|148:100,1,26.25
176,156,101181,6,0,L|196:168,1,21
220,120,101266,6,0,L|236:128,1,15.75
112,208,101350,6,0,L|124:216,1,10.5
348,184,101689,5,0,0:0:0:0:
256,244,101859,5,0,0:0:0:0:
180,264,102028,5,0,0:0:0:0:
352,280,102198,5,0,0:0:0:0:
100,188,102367,5,0,0:0:0:0:
100,188,102452,5,0,0:0:0:0:
100,188,102537,5,0,0:0:0:0:
100,188,102622,5,0,0:0:0:0:
100,188,102706,5,0,0:0:0:0:
204,152,102876,5,8,0:0:0:0:
204,152,102876,5,0,0:0:0:0:
204,152,103045,5,8,0:0:0:0:
204,152,103045,5,0,0:0:0:0:
204,152,103215,5,8,0:0:0:0:
204,152,103215,5,0,0:0:0:0:
204,152,103384,5,8,0:0:0:0:
204,152,103384,5,0,0:0:0:0:
204,152,103554,5,8,0:0:0:0:
204,152,103554,5,0,0:0:0:0:
72,128,103723,5,0,0:0:0:0:
72,128,103808,5,0,0:0:0:0:
72,128,103893,5,0,0:0:0:0:
72,128,103978,5,0,0:0:0:0:
72,128,104062,5,0,0:0:0:0:
248,68,104232,5,0,0:0:0:0:
152,224,104401,6,0,L|156:216,1,5.25
208,216,104571,6,0,L|204:224,1,5.25
268,204,104740,6,0,L|272:196,1,5.25
224,164,104910,6,0,L|232:160,1,5.25
156,116,105079,5,0,0:0:0:0:
156,116,105164,5,0,0:0:0:0:
156,116,105249,5,0,0:0:0:0:
156,116,105333,5,0,0:0:0:0:
244,72,105418,6,0,L|256:76,1,10.5
120,176,105757,5,8,0:0:0:0:
120,176,105842,5,0,0:0:0:0:
120,176,105927,5,0,0:0:0:0:
120,176,106011,5,0,0:0:0:0:
120,176,106096,5,8,0:0:0:0:
120,176,106181,5,0,0:0:0:0:
120,176,106266,5,0,0:0:0:0:
120,176,106350,5,0,0:0:0:0:
120,176,106435,5,8,0:0:0:0:
120,176,106520,5,0,0:0:0:0:
120,176,106605,5,0,0:0:0:0:
120,176,106689,5,0,0:0:0:0:
120,176,106774,5,8,0:0:0:0:
120,176,106859,5,0,0:0:0:0:
120,176,106944,5,0,0:0:0:0:
120,176,107028,5,0,0:0:0:0:
240,120,107113,5,0,0:0:0:0:
240,120,107198,5,0,0:0:0:0:
240,120,107283,5,0,0:0:0:0:
240,120,107367,5,0,0:0:0:0:
240,120,107452,5,0,0:0:0:0:
236,228,107622,5,8,0:0:0:0:
240,120,107791,5,0,0:0:0:0:
240,120,107876,5,0,0:0:0:0:
240,120,107961,5,0,0:0:0:0:
240,120,108045,5,0,0:0:0:0:
240,120,108130,5,0,0:0:0:0:
236,228,108300,5,8,0:0:0:0:
240,120,108469,5,0,0:0:0:0:
240,120,108554,5,0,0:0:0:0:
240,120,108639,5,0,0:0:0:0:
240,120,108723,5,0,0:0:0:0:
240,120,108808,5,0,0:0:0:0:
236,228,108978,5,8,0:0:0:0:
112,256,109147,5,0,0:0:0:0:
408,96,109232,5,0,0:0:0:0:
132,64,109317,5,0,0:0:0:0:
284,200,109401,5,0,0:0:0:0:
192,40,109486,5,0,0:0:0:0:
144,136,109571,5,0,0:0:0:0:
248,104,109656,5,0,0:0:0:0:
248,104,109656,5,0,0:0:0:0:
248,104,109656,5,8,0:0:0:0:
248,104,109656,5,8,0:0:0:0:
248,104,109741,5,0,0:0:0:0:
248,104,109741,5,0,0:0:0:0:
248,104,109741,5,8,0:0:0:0:
248,104,109741,5,8,0:0:0:0:
248,104,109825,5,0,0:0:0:0:
248,104,109825,5,0,0:0:0:0:
248,104,109825,5,8,0:0:0:0:
248,104,109825,5,8,0:0:0:0:
216,148,109995,6,0,P|328:216|144:8,1,1496.25005707741
112,184,110164,6,0,P|208:228|256:284,1,157.500006008148,0|8,0:0|0:0,0:0:0:0:
40,108,110842,6,0,P|108:168|184:208,1,157.500006008148,0|2,0:0|0:0,0:0:0:0:
112,104,111012,6,0,P|196:48|164:304,1,551.25002102852,8|0,0:0|0:0,0:0:0:0:
216,148,111605,6,0,P|328:216|152:8,1,1338.75005106926
60,136,113046,5,0,0:0:0:0:
76,192,113215,6,0,P|160:160|240:176,1,157.500006008148
104,120,113385,6,0,P|160:40|240:40,1,157.500006008148
312,232,113554,6,8,P|400:204|456:152,1,157.500006008148
128,244,113724,6,0,P|216:216|272:164,1,157.500006008148,8|0,0:0|0:0,0:0:0:0:
80,144,114063,5,0,0:0:0:0:
96,144,114147,5,0,0:0:0:0:
168,152,114232,6,0,P|252:80|344:80,1,157.500006008148
256,296,114402,6,0,P|404:208|80:132,1,787.500030040742
100,160,115419,5,0,0:0:0:0:
96,160,115503,5,0,0:0:0:0:
96,160,115588,5,0,0:0:0:0:
92,228,115758,6,0,P|212:192|272:208,1,157.500006008148
140,148,115927,6,0,P|232:124|256:56,1,157.500006008148
368,152,116097,5,0,0:0:0:0:
232,236,116266,5,0,0:0:0:0:
112,200,116436,6,0,P|200:168|228:108,1,157.500006008148
48,224,116775,6,0,L|64:144,1,78.7500030040742
80,268,116859,6,0,L|156:216,1,78.7500030040742
216,224,116944,5,0,0:0:0:0:
44,316,117114,6,0,P|132:288|200:304,1,157.500006008148
140,156,117283,5,0,0:0:0:0:
308,176,117453,5,0,0:0:0:0:
168,144,117453,6,0,P|252:40|292:32,1,157.500006008148
300,248,117792,5,0,0:0:0:0:
208,136,117961,5,0,0:0:0:0:
232,156,118131,5,0,0:0:0:0:
232,156,118215,5,0,0:0:0:0:
232,156,118300,5,8,0:0:0:0:
84,184,118469,5,0,0:0:0:0:
144,184,118639,5,0,0:0:0:0:
196,192,118808,5,0,0:0:0:0:
92,104,118978,5,8,0:0:0:0:
300,248,119147,5,0,0:0:0:0:
208,136,119316,5,0,0:0:0:0:
232,156,119486,5,0,0:0:0:0:
232,156,119570,5,0,0:0:0:0:
232,156,119655,5,8,0:0:0:0:
84,184,119824,5,0,0:0:0:0:
144,184,119994,5,0,0:0:0:0:
196,192,120163,5,0,0:0:0:0:
92,104,120333,5,8,0:0:0:0:
208,136,120672,5,0,0:0:0:0:
232,156,120842,5,0,0:0:0:0:
232,156,120926,5,0,0:0:0:0:
232,156,121011,5,8,0:0:0:0:
84,184,121180,5,0,0:0:0:0:
144,184,121350,5,0,0:0:0:0:
196,192,121519,5,0,0:0:0:0:
92,104,121689,5,8,0:0:0:0:
300,248,121858,5,0,0:0:0:0:
208,136,122027,5,0,0:0:0:0:
232,156,122197,5,0,0:0:0:0:
232,156,122281,5,0,0:0:0:0:
232,156,122366,5,8,0:0:0:0:
84,184,122535,5,0,0:0:0:0:
144,184,122705,5,0,0:0:0:0:
196,192,122874,5,0,0:0:0:0:
92,104,123044,5,8,0:0:0:0:
300,248,123215,5,0,0:0:0:0:
208,136,123384,5,0,0:0:0:0:
232,156,123554,5,0,0:0:0:0:
232,156,123638,5,0,0:0:0:0:
232,156,123723,5,8,0:0:0:0:
84,184,123892,5,0,0:0:0:0:
144,184,124062,5,0,0:0:0:0:
196,192,124231,5,0,0:0:0:0:
92,104,124401,5,8,0:0:0:0:
300,248,124571,5,0,0:0:0:0:
208,136,124740,5,0,0:0:0:0:
232,156,124910,5,0,0:0:0:0:
232,156,124994,5,0,0:0:0:0:
232,156,125079,5,8,0:0:0:0:
84,184,125248,5,0,0:0:0:0:
144,184,125418,5,0,0:0:0:0:
196,192,125587,5,0,0:0:0:0:
92,104,125757,5,8,0:0:0:0:
300,248,125927,5,0,0:0:0:0:
208,136,126096,5,0,0:0:0:0:
232,156,126266,5,0,0:0:0:0:
232,156,126350,5,0,0:0:0:0:
232,156,126435,5,8,0:0:0:0:
84,184,126604,5,0,0:0:0:0:
144,184,126774,5,0,0:0:0:0:
196,192,126943,5,0,0:0:0:0:
92,104,127113,5,8,0:0:0:0:
300,248,127283,5,0,0:0:0:0:
208,136,127452,5,0,0:0:0:0:
232,156,127622,5,0,0:0:0:0:
232,156,127706,5,0,0:0:0:0:
232,156,127791,5,8,0:0:0:0:
84,184,127960,5,0,0:0:0:0:
144,184,128130,5,0,0:0:0:0:
196,192,128299,5,0,0:0:0:0:
92,104,128469,5,8,0:0:0:0:
300,248,128639,5,0,0:0:0:0:
208,136,128808,5,0,0:0:0:0:
232,156,128978,5,0,0:0:0:0:
232,156,129062,5,0,0:0:0:0:
232,156,129147,5,8,0:0:0:0:
84,184,129316,5,0,0:0:0:0:
144,184,129486,5,0,0:0:0:0:
196,192,129655,5,0,0:0:0:0:
92,104,129825,5,8,0:0:0:0:
300,248,129995,5,0,0:0:0:0:
208,136,130164,5,0,0:0:0:0:
232,156,130334,5,0,0:0:0:0:
232,156,130418,5,0,0:0:0:0:
232,156,130503,5,8,0:0:0:0:
84,184,130672,5,0,0:0:0:0:
144,184,130842,5,0,0:0:0:0:
196,192,131011,5,0,0:0:0:0:
92,104,131181,5,8,0:0:0:0:
60,272,131520,6,0,P|260:-72|84:296,1,1260.00004806519
60,272,134232,6,0,P|260:-72|84:296,1,1260.00004806519
60,272,136944,6,0,P|260:-72|84:296,1,1260.00004806519
128,176,137283,6,0,L|208:124,1,78.7500030040742
128,176,137622,6,0,L|208:124,1,78.7500030040742
128,176,137961,6,0,L|208:124,1,78.7500030040742
128,176,138639,6,0,L|208:124,1,78.7500030040742
128,176,138978,6,0,L|208:124,1,78.7500030040742
128,176,139317,6,0,L|208:124,1,78.7500030040742
60,272,139656,6,0,P|260:-72|84:296,1,1260.00004806519
128,176,139995,6,0,L|208:124,1,78.7500030040742
128,176,140334,6,0,L|208:124,1,78.7500030040742
128,176,140673,6,0,L|208:124,1,78.7500030040742
128,176,141351,6,0,L|208:124,1,78.7500030040742
128,176,141520,6,0,L|208:124,1,78.7500030040742
128,176,141690,6,0,L|208:124,1,78.7500030040742
128,176,141859,6,0,L|208:124,1,78.7500030040742
128,176,142029,6,0,L|208:124,1,78.7500030040742
60,272,142368,6,0,P|260:-72|84:296,1,1260.00004806519
60,272,145080,6,0,P|260:-72|84:296,1,1260.00004806519
60,272,147792,6,0,P|260:-72|84:296,1,1260.00004806519
60,272,150503,6,0,P|260:-72|84:296,1,1260.00004806519
108,184,150842,6,0,L|196:136,1,78.7500030040742
108,184,151181,6,0,L|196:136,1,78.7500030040742
108,184,151520,6,0,L|196:136,1,78.7500030040742
208,220,151859,6,0,L|340:112,1,157.500006008148
128,112,152198,6,0,L|280:56,1,157.500006008148
108,184,152537,6,0,L|196:136,1,78.7500030040742
108,184,152707,6,0,L|196:136,1,78.7500030040742
108,184,152876,6,0,L|196:136,1,78.7500030040742
224,192,153215,6,2,P|288:112|300:296,1,420
88,176,153893,6,8,P|112:120|164:112,1,105
88,176,154063,6,0,P|112:120|164:112,1,105
88,176,154232,6,8,P|112:120|164:112,1,105
88,176,154402,6,0,P|112:120|164:112,1,105
184,152,154571,6,0,P|208:96|328:84,1,157.5
184,152,154825,6,0,P|208:96|328:84,1,157.5
232,184,155080,6,0,P|256:128|328:124,1,105
184,152,155249,6,0,P|208:96|328:84,1,157.5
76,144,155503,5,0,0:0:0:0:
76,144,155588,5,8,0:0:0:0:
72,144,155673,5,0,0:0:0:0:
72,144,155758,5,8,0:0:0:0:
72,144,155842,5,8,0:0:0:0:
140,96,155927,6,0,P|204:92|340:184,1,210
160,156,156266,6,0,P|256:64|332:64,1,210
176,148,156775,5,2,0:0:0:0:
200,152,156944,5,8,0:0:0:0:
228,176,157114,5,0,0:0:0:0:
56,200,157283,6,0,L|72:192,1,15.75
56,200,157537,6,0,L|72:192,1,15.75
72,172,157792,6,0,L|84:168,1,10.5
56,200,157961,6,0,L|72:192,1,15.75
84,264,158215,6,0,P|400:104|376:56,1,525
160,140,158639,6,0,P|272:76|348:116,1,210
240,208,158808,6,0,P|348:168|440:104,1,210
84,84,158978,6,0,P|216:16|308:16,1,210
60,256,159147,6,0,P|176:196|284:264,1,210
16,192,159317,6,0,L|464:72,1,420
372,248,159486,6,0,L|300:168,1,105
152,316,159656,6,0,P|248:292|292:276,1,105
64,88,159825,6,0,P|144:56|208:56,1,105
432,224,159994,6,0,P|456:156|264:104,1,315
24,232,160249,6,0,P|112:168|304:144,1,236.250009012223
368,168,160503,6,0,P|400:72|380:56,1,105
152,304,160672,6,0,P|264:272|364:256,1,210
104,72,160927,5,0,0:0:0:0:
184,80,161096,5,8,0:0:0:0:
184,80,161181,5,8,0:0:0:0:
184,80,161266,5,8,0:0:0:0:
184,80,161350,5,8,0:0:0:0:
112,168,161520,5,0,0:0:0:0:
284,152,161689,5,0,0:0:0:0:
384,128,161859,5,0,0:0:0:0:
80,260,162028,6,0,P|152:240|216:232,1,105
296,264,162198,6,0,L|436:244,1,105
144,76,162367,6,0,P|224:48|280:64,1,105
212,160,162537,6,0,P|288:124|316:96,1,105
24,164,162706,5,0,0:0:0:0:
112,176,162876,5,0,0:0:0:0:
112,176,162961,5,8,0:0:0:0:
112,176,163130,5,0,0:0:0:0:
112,176,163215,5,8,0:0:0:0:
192,124,163384,5,0,0:0:0:0:
256,196,163554,5,0,0:0:0:0:
256,196,163639,5,0,0:0:0:0:
336,176,163723,6,8,P|400:128|424:76,1,105
300,92,163893,6,8,P|356:40|396:32,1,105
128,224,164062,5,8,0:0:0:0:
100,136,164232,5,0,0:0:0:0:
128,224,164401,5,8,0:0:0:0:
100,136,164571,5,0,0:0:0:0:
128,224,164740,5,8,0:0:0:0:
100,136,164910,5,0,0:0:0:0:
128,224,165079,5,8,0:0:0:0:
100,136,165249,5,0,0:0:0:0:
128,224,165418,5,8,0:0:0:0:
100,136,165588,5,0,0:0:0:0:
128,224,165757,5,8,0:0:0:0:
100,136,165927,5,0,0:0:0:0:
128,224,166096,5,8,0:0:0:0:
100,136,166266,5,0,0:0:0:0:
128,224,166435,5,8,0:0:0:0:
100,136,166605,5,0,0:0:0:0:
128,224,166774,5,8,0:0:0:0:
100,136,166944,5,0,0:0:0:0:
128,224,167113,5,8,0:0:0:0:
100,136,167283,5,0,0:0:0:0:
128,224,167452,5,8,0:0:0:0:
100,136,167622,5,0,0:0:0:0:
128,224,167791,5,8,0:0:0:0:
100,136,167961,5,0,0:0:0:0:
128,224,168130,5,8,0:0:0:0:
100,136,168300,5,0,0:0:0:0:
128,224,168469,5,8,0:0:0:0:
100,136,168639,5,0,0:0:0:0:
128,224,168808,5,8,0:0:0:0:
100,136,168978,5,0,0:0:0:0:
128,224,169147,5,8,0:0:0:0:
100,136,169317,5,0,0:0:0:0:
264,140,169486,5,8,0:0:0:0:
264,140,169656,5,8,0:0:0:0:
264,140,169825,5,8,0:0:0:0:
264,140,169994,5,8,0:0:0:0:
264,140,170164,5,8,0:0:0:0:
264,140,170334,5,8,0:0:0:0:
264,140,170503,5,8,0:0:0:0:
264,140,170672,5,8,0:0:0:0:
264,140,170842,5,8,0:0:0:0:
264,140,171012,5,8,0:0:0:0:
264,140,171181,5,8,0:0:0:0:
264,140,171350,5,8,0:0:0:0:
264,140,171520,5,8,0:0:0:0:
264,140,171690,5,8,0:0:0:0:
264,140,171859,5,8,0:0:0:0:
264,140,172028,5,8,0:0:0:0:
264,140,172198,5,8,0:0:0:0:
264,140,172283,5,0,0:0:0:0:
264,140,172367,5,0,0:0:0:0:
264,140,172452,5,0,0:0:0:0:
264,140,172537,5,8,0:0:0:0:
264,140,172622,5,0,0:0:0:0:
264,140,172706,5,0,0:0:0:0:
264,140,172791,5,0,0:0:0:0:
264,140,172876,5,8,0:0:0:0:
264,140,172961,5,0,0:0:0:0:
264,140,173045,5,0,0:0:0:0:
264,140,173130,5,0,0:0:0:0:
264,140,173215,5,8,0:0:0:0:
264,140,173300,5,0,0:0:0:0:
264,140,173384,5,0,0:0:0:0:
336,36,173469,5,0,0:0:0:0:
124,240,173554,6,0,P|180:196|180:136,1,131.25
96,112,173723,6,0,P|160:76|256:72,1,157.500006008148
320,252,173893,6,0,P|392:184|348:96,1,183.750001752377,0|8,0:0|0:0,0:0:0:0:
40,288,174062,5,8,0:0:0:0:
88,176,174147,5,0,0:0:0:0:
88,176,174232,5,0,0:0:0:0:
148,264,174401,5,0,0:0:0:0:
148,264,174444,5,0,0:0:0:0:
148,264,174486,5,0,0:0:0:0:
148,264,174528,5,0,0:0:0:0:
148,264,174571,5,0,0:0:0:0:
148,264,174614,5,0,0:0:0:0:
148,264,174656,5,0,0:0:0:0:
148,264,174698,5,0,0:0:0:0:
148,264,174741,5,0,0:0:0:0:
148,264,174783,5,0,0:0:0:0:
148,264,174825,5,0,0:0:0:0:
148,264,174867,5,0,0:0:0:0:
168,168,174910,6,0,P|252:144|340:184,1,157.500006008148
88,124,175079,6,0,P|120:56|260:56,1,210
236,304,175249,6,0,L|420:348,1,157.500006008148
60,240,175418,6,8,P|84:184|32:96,1,157.500006008148
316,244,175503,6,8,L|400:144,1,105
356,128,175588,6,8,P|368:48|284:40,1,157.5
156,236,175757,6,8,L|256:136,1,118.125004506111
448,284,175842,6,8,P|468:200|396:148,1,157.500006008148
160,120,175927,6,8,P|104:56|48:52,1,105
204,304,176011,6,8,L|384:256,1,157.5
248,112,176266,6,8,P|316:80|336:88,1,78.7500030040742
152,72,176435,6,8,P|220:40|248:52,1,105
152,72,176605,6,8,P|220:40|288:88,1,157.500006008148
152,72,176774,6,8,P|220:40|296:100,1,157.500006008148
136,192,176944,5,8,0:0:0:0:
136,192,177028,5,0,0:0:0:0:
136,192,177113,5,8,0:0:0:0:
136,192,177198,5,8,0:0:0:0:
240,240,177283,6,0,P|384:176|368:136,1,236.250009012223
228,160,177367,6,0,L|372:112,1,118.125004506111
392,328,177452,6,0,L|440:268,1,39.3750015020371
148,112,177537,6,0,L|156:52,1,52.5
48,196,177791,5,0,0:0:0:0:
112,280,177961,6,0,P|164:224|84:136,1,210
264,268,178130,6,0,P|336:212|188:96,1,315.000012016297
388,264,178300,6,8,B|452:164|434:147|421:124|421:124|420:112,1,157.500006008148
236,204,178469,6,0,L|92:48,1,210,0|8,0:0|0:0,0:0:0:0:
44,248,178978,6,0,L|128:248,1,78.7500030040742
44,184,179062,6,0,L|16:96,1,78.7500030040742
224,296,179147,6,0,L|340:264,1,105
312,192,179232,6,8,L|328:88,1,105
424,296,179317,6,8,L|412:196,1,78.7500030040742
184,192,179401,6,8,L|180:104,1,78.7500030040742
432,116,179571,6,0,P|496:88|524:116,1,105
256,88,179740,6,0,L|280:40,1,39.3750015020371
76,84,179825,6,0,P|152:40|168:36,1,78.7500030040742
32,212,179994,6,0,L|68:164,1,52.5
140,256,180079,6,0,L|304:224,1,157.500006008148
396,140,180249,5,0,0:0:0:0:
368,88,180333,5,8,0:0:0:0:
368,88,180418,5,8,0:0:0:0:
368,88,180503,5,8,0:0:0:0:
368,88,180588,5,8,0:0:0:0:
368,88,180672,5,8,0:0:0:0:
368,88,180757,5,8,0:0:0:0:
368,88,180842,5,8,0:0:0:0:
368,88,180927,5,8,0:0:0:0:
80,144,181011,6,0,L|192:136,1,78.7500030040742
200,260,181181,6,0,L|296:188,1,105
236,108,181350,6,0,L|152:44,1,78.7500030040742
280,320,181520,6,0,L|392:280,1,105,0|8,0:0|0:0,0:0:0:0:
76,232,181689,5,8,0:0:0:0:
76,232,181774,5,8,0:0:0:0:
76,232,181859,5,8,0:0:0:0:
76,232,181944,5,8,0:0:0:0:
76,232,182028,5,8,0:0:0:0:
76,232,182113,5,8,0:0:0:0:
76,232,182198,5,8,0:0:0:0:
76,232,182283,5,8,0:0:0:0:
208,192,182367,6,0,P|260:152|316:152,1,105
300,256,182452,6,0,L|452:180,1,157.5
200,80,182537,6,0,P|40:20|20:56,1,236.250009012223
76,116,182622,6,8,L|136:200,1,78.7500030040742
368,60,182706,6,8,P|296:16|216:32,1,157.500006008148
168,332,182791,6,8,P|252:272|200:256,1,157.500006008148
128,260,182876,6,8,L|204:204,1,78.7500030040742
32,176,182961,5,0,0:0:0:0:
360,320,183045,6,0,P|396:256|376:228,1,78.7500030040742
464,64,183130,6,0,L|252:24,1,210
348,184,183215,6,0,P|388:128|428:120,1,105
204,136,183384,6,0,L|292:104,1,78.7500030040742
140,84,183554,6,0,P|104:28|64:28,1,105
104,264,183723,6,0,P|156:192|232:200,1,157.500006008148
264,348,183893,6,0,L|324:280,1,78.7500030040742
8,212,184062,6,0,L|200:96,1,210
36,112,184232,6,0,L|132:72,1,78.7500030040742
360,216,184401,6,0,L|344:108,1,105
344,112,184571,6,0,L|236:68,1,78.7500030040742
228,64,184656,6,0,L|132:44,1,78.7500030040742
132,148,184740,6,0,L|268:272,1,157.500006008148
264,272,184910,6,0,L|156:268,1,78.7500030040742
44,268,185079,6,0,L|48:152,1,105
52,268,185249,6,0,L|208:340,1,157.500006008148
252,208,185418,6,0,L|424:152,1,157.500006008148,0|10,0:0|0:0,0:0:0:0:
128,128,185588,6,0,P|232:64|356:64,1,210
404,296,185927,5,0,0:0:0:0:
440,272,186011,5,0,0:0:0:0:
440,272,186096,5,0,0:0:0:0:
440,272,186181,5,0,0:0:0:0:
440,272,186266,5,0,0:0:0:0:
440,272,186350,5,0,0:0:0:0:
440,272,186435,5,0,0:0:0:0:
440,272,186520,5,0,0:0:0:0:
440,272,186605,5,0,0:0:0:0:
440,272,186689,5,0,0:0:0:0:
440,272,186774,5,0,0:0:0:0:
440,272,186859,5,0,0:0:0:0:
440,272,186944,5,0,0:0:0:0:
440,272,187028,5,0,0:0:0:0:
440,272,187113,5,8,0:0:0:0:
140,136,187198,5,0,0:0:0:0:
140,136,187283,5,0,0:0:0:0:
140,136,187367,5,0,0:0:0:0:
280,172,187452,5,8,0:0:0:0:
224,60,187537,5,8,0:0:0:0:
200,280,187622,5,0,0:0:0:0:
200,280,187706,5,0,0:0:0:0:
84,216,187791,6,8,L|188:172,1,78.7500030040742
316,280,187876,6,8,P|384:208|384:204,1,78.7500030040742
360,144,187961,6,8,L|156:28,1,210
356,64,188130,6,8,L|440:60,1,78.7500030040742
60,104,188300,6,8,L|172:116,1,78.7500030040742
180,284,188469,5,8,0:0:0:0:
184,284,188554,5,0,0:0:0:0:
180,284,188639,5,0,0:0:0:0:
176,284,188723,5,0,0:0:0:0:
180,284,188808,5,0,0:0:0:0:
180,284,188893,5,0,0:0:0:0:
180,284,188978,5,0,0:0:0:0:
180,284,189062,5,0,0:0:0:0:
248,168,189147,6,0,L|300:116,1,52.5
132,152,189232,6,0,P|184:104|140:80,1,105
40,80,189317,6,0,L|80:44,1,39.3750015020371
336,216,189401,6,0,L|376:184,1,39.3750015020371
32,196,189656,5,0,0:0:0:0:
128,272,189825,6,8,P|420:252|88:72,1,945.000036048891
256,60,189910,6,0,P|408:144|280:200,1,393.750015020371
192,220,189994,6,0,P|236:152|72:148,1,315.000012016297
20,304,190079,6,0,P|80:200|220:292,1,315
352,148,190164,6,0,P|168:60|100:128,1,315.000012016297
444,348,190249,6,0,L|304:224,1,157.500006008148
24,64,190333,5,8,0:0:0:0:
268,136,191011,5,8,0:0:0:0:
144,188,191181,6,0,P|204:88|328:52,1,210
384,260,191350,6,0,L|404:176,1,78.7500030040742
204,264,191689,5,0,0:0:0:0:
296,236,191859,6,0,L|396:104,1,157.500006008148
64,168,192028,6,0,L|160:56,1,118.125004506111
168,148,192198,6,0,L|264:120,1,52.5
204,56,192367,6,0,L|112:44,1,52.5
88,268,192452,6,0,L|492:240,1,393.750015020371
148,188,192706,6,0,L|328:180,1,157.500006008148
328,28,193045,5,0,0:0:0:0:
212,288,193215,5,8,0:0:0:0:
212,288,193300,5,8,0:0:0:0:
212,288,193384,5,8,0:0:0:0:
212,288,193469,5,8,0:0:0:0:
212,288,193554,5,8,0:0:0:0:
148,184,193723,6,0,L|256:124,1,105,0|8,0:0|0:0,0:0:0:0:
108,88,193893,5,0,0:0:0:0:
360,176,194062,5,0,0:0:0:0:
260,72,194232,6,0,L|432:60,1,157.500006008148
172,208,194401,6,8,L|500:288,1,315
28,136,194740,6,0,L|176:48,1,157.500006008148
144,184,195249,5,8,0:0:0:0:
260,208,195418,5,0,0:0:0:0:
288,120,195588,5,8,0:0:0:0:
216,280,195757,5,0,0:0:0:0:
136,120,195927,5,0,0:0:0:0:
136,120,196011,5,0,0:0:0:0:
136,120,196096,5,0,0:0:0:0:
136,120,196181,5,0,0:0:0:0:
232,56,196266,5,8,0:0:0:0:
232,56,196308,5,8,0:0:0:0:
232,56,196350,5,8,0:0:0:0:
232,56,196393,5,8,0:0:0:0:
232,56,196435,5,8,0:0:0:0:
232,56,196477,5,8,0:0:0:0:
232,56,196520,5,8,0:0:0:0:
232,56,196562,5,8,0:0:0:0:
84,248,196604,6,0,P|176:200|220:196,1,105
244,220,196773,6,0,L|344:144,1,105
312,280,196942,6,0,L|404:208,1,105
120,120,197281,5,0,0:0:0:0:
120,120,197366,5,0,0:0:0:0:
120,120,197451,5,0,0:0:0:0:
120,288,197536,6,0,L|312:48,1,262.5
248,264,197959,6,0,L|348:200,1,105
248,264,198129,6,0,L|348:200,1,105
248,264,198298,6,0,L|404:88,1,210
88,160,198637,5,0,0:0:0:0:
88,160,198722,5,0,0:0:0:0:
88,160,198807,5,0,0:0:0:0:
88,160,198892,5,0,0:0:0:0:
164,120,198976,6,0,L|268:64,1,105
0,340,199146,6,0,L|580:-4,1,735
288,304,199315,6,0,L|384:236,1,105
16,112,199400,6,0,L|204:48,1,157.5
192,344,199570,6,0,P|280:212|120:116,1,367.5
432,184,199739,6,0,L|452:124,1,52.5
212,24,199909,6,0,L|416:168,1,210
24,200,199993,6,0,L|60:140,1,52.5
228,300,200502,6,0,P|352:244|84:176,1,735
108,316,200671,6,0,L|292:160,1,210
184,152,201010,6,0,L|232:96,1,52.5
184,152,201095,6,0,L|232:96,1,52.5
184,152,201180,6,0,L|232:96,1,52.5
184,152,201265,6,0,L|232:96,1,52.5
184,152,201349,6,0,L|232:96,1,52.5
184,152,201434,6,0,L|232:96,1,52.5
184,152,201519,6,0,L|232:96,1,52.5
184,152,201604,6,0,L|232:96,1,52.5
184,152,201688,6,0,L|232:96,1,52.5
184,152,201773,6,0,L|232:96,1,52.5
184,152,201858,6,0,L|232:96,1,52.5
184,152,201942,6,0,L|232:96,1,52.5
80,256,202027,6,0,L|208:228,1,105
280,288,202197,6,0,L|356:172,1,105
72,168,202366,6,0,P|120:72|256:60,1,210
156,332,202536,6,0,L|376:72,1,315
164,132,203044,5,0,0:0:0:0:
36,244,203129,6,0,P|68:128|300:320,1,577.5
360,228,203214,5,0,0:0:0:0:
128,320,203383,6,0,L|236:200,1,157.5
128,320,203637,6,0,L|236:200,1,157.5
112,224,204061,6,0,L|536:72,1,420
416,272,204146,6,0,L|176:16,1,315
456,244,204231,6,0,L|328:56,1,210
212,300,204315,6,0,L|152:160,1,105
264,344,204400,6,0,L|164:76,1,262.5
48,248,204909,6,0,L|52:172,1,52.5
48,248,204993,6,0,L|52:172,1,52.5
56,68,205078,6,0,P|312:128|168:392,1,630
220,212,205248,5,0,0:0:0:0:
408,268,205417,6,0,L|408:124,1,105
116,212,205587,6,0,L|232:152,1,105
24,244,205841,6,0,L|76:168,1,52.5
180,280,205926,6,0,L|248:228,1,52.5
408,64,206095,6,0,L|420:172,1,105
384,308,206095,6,8,L|320:216,1,105
384,308,206265,6,8,L|320:216,1,105
408,64,206265,6,0,L|420:172,1,105
408,64,206434,6,0,L|420:172,1,105
384,308,206434,6,8,L|320:216,1,105
384,308,206604,6,8,L|320:216,1,105
408,64,206604,6,0,L|420:172,1,105
408,64,206773,6,0,L|420:172,1,105
384,308,206773,6,8,L|320:216,1,105
384,308,206942,6,8,L|320:216,1,105
408,64,206942,6,0,L|420:172,1,105
408,64,207112,6,0,L|420:172,1,105
384,308,207112,6,8,L|320:216,1,105
384,308,207281,6,8,L|320:216,1,105
408,64,207281,6,0,L|420:172,1,105
84,248,207451,6,0,P|176:200|220:196,1,105
244,220,207620,6,0,L|344:144,1,105
312,280,207789,6,0,L|404:208,1,105
120,120,208128,5,0,0:0:0:0:
120,120,208213,5,0,0:0:0:0:
120,120,208298,5,0,0:0:0:0:
120,288,208383,6,0,L|312:48,1,262.5
248,264,208806,6,0,L|348:200,1,105
248,264,208976,6,0,L|348:200,1,105
248,264,209145,6,0,L|404:88,1,210
88,160,209484,5,0,0:0:0:0:
88,160,209569,5,0,0:0:0:0:
88,160,209654,5,0,0:0:0:0:
88,160,209739,5,0,0:0:0:0:
164,120,209823,6,0,L|268:64,1,105
0,340,209993,6,0,L|580:-4,1,735
288,304,210162,6,0,L|384:236,1,105
16,112,210247,6,0,L|204:48,1,157.5
192,344,210417,6,0,P|280:212|120:116,1,367.5
432,184,210586,6,0,L|452:124,1,52.5
212,24,210756,6,0,L|416:168,1,210
24,200,210840,6,0,L|60:140,1,52.5
228,300,211349,6,0,P|352:244|84:176,1,735
108,316,211518,6,0,L|292:160,1,210
184,152,211857,6,0,L|232:96,1,52.5
184,152,211942,6,0,L|232:96,1,52.5
184,152,212027,6,0,L|232:96,1,52.5
184,152,212112,6,0,L|232:96,1,52.5
184,152,212196,6,0,L|232:96,1,52.5
184,152,212281,6,0,L|232:96,1,52.5
184,152,212366,6,0,L|232:96,1,52.5
184,152,212451,6,0,L|232:96,1,52.5
184,152,212535,6,0,L|232:96,1,52.5
184,152,212620,6,0,L|232:96,1,52.5
184,152,212705,6,0,L|232:96,1,52.5
184,152,212789,6,0,L|232:96,1,52.5
80,256,212874,6,0,L|208:228,1,105
280,288,213044,6,0,L|356:172,1,105
72,168,213213,6,0,P|120:72|256:60,1,210
156,332,213383,6,0,L|376:72,1,315
164,132,213891,5,0,0:0:0:0:
36,244,213976,6,0,P|68:128|300:320,1,577.5
360,228,214061,5,0,0:0:0:0:
128,320,214230,6,0,L|236:200,1,157.5
128,320,214484,6,0,L|236:200,1,157.5
112,224,214908,6,0,L|536:72,1,420
416,272,214993,6,0,L|176:16,1,315
456,244,215078,6,0,L|328:56,1,210
212,300,215162,6,0,L|152:160,1,105
264,344,215247,6,0,L|164:76,1,262.5
48,248,215756,6,0,L|52:172,1,52.5
48,248,215840,6,0,L|52:172,1,52.5
56,68,215925,6,0,P|312:128|168:392,1,630
220,212,216095,5,0,0:0:0:0:
408,268,216264,6,0,L|408:124,1,105
116,212,216434,6,0,L|232:152,1,105
24,244,216688,6,0,L|76:168,1,52.5
180,280,216773,6,0,L|248:228,1,52.5
408,64,216942,6,0,L|420:172,1,105
384,308,216942,6,8,L|320:216,1,105
408,64,217112,6,0,L|420:172,1,105
384,308,217112,6,8,L|320:216,1,105
384,308,217281,6,8,L|320:216,1,105
408,64,217281,6,0,L|420:172,1,105
384,308,217451,6,8,L|320:216,1,105
408,64,217451,6,0,L|420:172,1,105
408,64,217620,6,0,L|420:172,1,105
384,308,217620,6,8,L|320:216,1,105
408,64,217789,6,0,L|420:172,1,105
384,308,217789,6,8,L|320:216,1,105
408,64,217959,6,0,L|420:172,1,105
384,308,217959,6,8,L|320:216,1,105
408,64,218128,6,0,L|420:172,1,105
384,308,218128,6,8,L|320:216,1,105
64,220,218298,6,0,P|212:-8|80:348,1,1680
184,208,218975,6,0,L|280:144,1,105,0|8,0:0|0:0,0:0:0:0:
328,236,219144,5,8,0:0:0:0:
328,236,219229,5,8,0:0:0:0:
328,236,219313,5,8,0:0:0:0:
328,236,219398,5,8,0:0:0:0:
328,236,219483,5,8,0:0:0:0:
328,236,219568,5,8,0:0:0:0:
88,200,219652,6,0,L|200:80,1,157.5
88,200,219907,6,0,L|200:80,1,157.5
204,216,220161,6,0,L|272:136,1,78.7500030040742
340,240,220330,5,0,0:0:0:0:
340,240,220415,5,0,0:0:0:0:
340,240,220500,5,8,0:0:0:0:
340,240,220585,5,0,0:0:0:0:
340,240,220670,5,0,0:0:0:0:
340,240,220755,5,8,0:0:0:0:
340,240,220839,5,0,0:0:0:0:
340,240,220924,5,0,0:0:0:0:
84,136,221008,6,0,L|160:100,1,78.7500030040742
96,248,221008,6,0,P|496:-4|128:32,1,1260.00004806519
84,136,221093,6,0,L|160:100,1,78.7500030040742
84,136,221178,6,0,L|148:104,1,39.3750015020371
84,136,221263,6,0,L|144:100,1,39.3750015020371
84,136,221347,6,0,L|144:100,1,39.3750015020371
84,136,221432,6,0,L|144:100,1,39.3750015020371
84,136,221517,6,0,L|156:96,1,52.5
84,136,221602,6,0,L|156:96,1,52.5
280,188,221686,5,0,0:0:0:0:
352,220,221856,5,8,0:0:0:0:
328,112,222025,5,0,0:0:0:0:
212,180,222195,5,8,0:0:0:0:
100,144,222364,6,0,L|296:84,1,157.5,0|8,0:0|0:0,0:0:0:0:
292,216,222534,5,0,0:0:0:0:
100,144,222619,6,8,L|296:84,1,157.5
292,216,222789,5,0,0:0:0:0:
192,220,223042,5,0,0:0:0:0:
192,220,223212,5,0,0:0:0:0:
192,220,223381,5,0,0:0:0:0:
192,220,223551,5,0,0:0:0:0:
32,196,223720,6,8,P|184:112|544:336,1,630
272,272,223805,5,0,0:0:0:0:
272,272,223890,5,0,0:0:0:0:
272,272,223975,5,0,0:0:0:0:
272,272,224059,5,0,0:0:0:0:
272,272,224144,5,0,0:0:0:0:
272,272,224229,5,0,0:0:0:0:
272,272,224313,5,0,0:0:0:0:
72,248,224398,6,0,L|176:196,1,105
72,248,224568,6,0,L|176:196,1,105
72,248,224737,6,0,L|232:196,1,157.500006008148
72,248,224907,6,0,L|232:196,1,157.500006008148
72,248,225076,6,0,L|176:216,1,78.7500030040742
116,108,225246,6,0,L|384:92,1,236.250009012223
236,344,225415,6,0,L|352:264,1,105
96,304,225585,6,0,P|440:188|288:56,1,735
276,196,225754,5,0,0:0:0:0:
52,184,225924,5,0,0:0:0:0:
184,252,226093,6,0,L|264:4,1,236.250009012223
120,104,226263,6,0,L|224:48,1,105
16,256,226432,6,0,L|248:200,1,210
328,232,226602,5,0,0:0:0:0:
56,172,226771,6,0,P|396:92|480:360,1,630.000024032594
200,144,226941,5,8,0:0:0:0:
200,144,227110,5,8,0:0:0:0:
200,144,227280,5,8,0:0:0:0:
152,308,227449,6,0,L|352:200,1,210
88,264,227619,6,0,L|248:156,1,157.500006008148
312,124,227788,5,0,0:0:0:0:
48,132,227958,5,0,0:0:0:0:
120,116,228042,6,8,L|252:44,1,118.125004506111
244,256,228212,5,0,0:0:0:0:
36,276,228466,6,0,L|380:160,1,315.000012016297,0|12,0:0|0:0,0:0:0:0:
300,132,228636,5,0,0:0:0:0:
376,96,228720,5,0,0:0:0:0:
96,128,228975,5,12,0:0:0:0:
152,276,229144,6,0,P|216:68|216:340,1,840
312,184,229822,5,0,0:0:0:0:
300,184,229907,5,0,0:0:0:0:
300,184,229991,5,0,0:0:0:0:
300,184,230076,5,0,0:0:0:0:
300,184,230161,5,0,0:0:0:0:
300,184,230246,5,0,0:0:0:0:
300,184,230330,5,0,0:0:0:0:
292,184,230415,5,0,0:0:0:0:
48,256,230500,6,0,L|168:24,1,236.250009012223
48,256,230754,6,0,L|152:152,1,118.125004506111
48,256,231008,6,0,L|128:192,1,78.7500030040742
240,240,231178,6,0,P|260:144|324:180,1,157.5
340,168,231432,6,0,B|236:192|-32:364,1,393.750015020371
40,124,231517,5,8,0:0:0:0:
40,124,231602,5,8,0:0:0:0:
40,124,231686,5,8,0:0:0:0:
40,124,231771,5,8,0:0:0:0:
104,208,231856,6,0,P|236:68|400:208,1,420
204,320,231941,6,0,L|480:136,1,315
252,152,232025,5,0,0:0:0:0:
180,208,232110,6,0,L|240:172,1,52.5
324,168,232195,6,0,L|236:128,1,78.7500030040742
404,288,232364,5,0,0:0:0:0:
104,324,232534,6,0,L|248:224,1,157.500006008148
104,324,232703,6,0,L|176:264,1,78.7500030040742
316,272,232703,5,8,0:0:0:0:
104,324,232873,6,0,L|176:264,1,78.7500030040742
104,324,233042,6,0,L|196:240,1,105
316,272,233042,5,2,0:0:0:0:
92,188,233212,6,0,P|248:100|424:272,1,420
236,224,233381,6,0,L|332:68,1,157.500006008148
264,272,233551,6,0,L|444:112,1,236.250009012223
24,100,233720,5,8,0:0:0:0:
112,260,233890,5,8,0:0:0:0:
176,180,234059,5,0,0:0:0:0:
8,192,234144,6,0,L|404:92,1,393.750015020371,0|8,0:0|0:0,0:0:0:0:
196,264,234568,6,8,L|312:208,1,105
56,252,234737,5,0,0:0:0:0:
196,264,234907,6,8,L|568:16,1,420
56,64,235076,5,0,0:0:0:0:
196,264,235246,6,8,L|312:208,1,105
176,56,235415,5,0,0:0:0:0:
372,272,235585,6,8,L|432:184,1,105
120,64,235754,5,0,0:0:0:0:
120,232,235924,6,8,L|492:-16,1,420
288,312,236093,5,0,0:0:0:0:
160,296,236263,6,8,L|548:72,1,420
36,136,236432,5,0,0:0:0:0:
120,232,236602,6,8,L|180:144,1,105
236,48,236771,5,0,0:0:0:0:
120,232,236941,6,8,L|504:12,1,420
16,52,237110,5,0,0:0:0:0:
256,232,237280,6,8,L|384:44,1,210
208,324,237364,5,0,0:0:0:0:
120,232,237449,6,8,L|192:208,1,52.5
312,316,237534,5,0,0:0:0:0:
120,232,237619,6,8,L|136:164,1,52.5
416,320,237703,5,0,0:0:0:0:
120,232,237788,6,8,L|192:208,1,52.5
80,84,237873,5,0,0:0:0:0:
284,288,237958,6,8,L|568:188,1,210
160,68,238042,5,0,0:0:0:0:
248,132,238128,6,8,L|468:16,1,210
232,36,238212,5,0,0:0:0:0:
360,200,238297,6,8,L|580:148,1,210
12,28,238381,5,0,0:0:0:0:
44,160,238466,6,8,L|264:108,1,210
108,216,238551,5,0,0:0:0:0:
40,256,238636,6,8,L|76:240,1,26.25
172,264,238720,6,8,L|292:216,1,105
172,264,238805,6,8,L|212:264,1,26.25
172,264,238890,6,8,L|292:216,1,105
172,264,238975,6,8,L|212:264,1,26.25
172,264,239059,6,8,L|292:216,1,105
172,264,239144,6,8,L|296:264,1,105
172,264,239229,6,8,L|208:272,1,26.25
92,148,239313,5,0,0:0:0:0:
92,148,239356,5,8,0:0:0:0:
92,148,239398,5,0,0:0:0:0:
92,148,239441,5,8,0:0:0:0:
92,148,239483,5,0,0:0:0:0:
92,148,239525,5,8,0:0:0:0:
92,148,239568,5,0,0:0:0:0:
92,148,239610,5,0,0:0:0:0:
92,148,239652,5,8,0:0:0:0:
92,148,239695,5,0,0:0:0:0:
92,148,239737,5,0,0:0:0:0:
92,148,239780,5,8,0:0:0:0:
92,148,239822,5,0,0:0:0:0:
92,148,239864,5,8,0:0:0:0:
88,152,239907,5,0,0:0:0:0:
88,152,239949,5,8,0:0:0:0:
8,400,239991,6,0,P|424:-80|392:408,1,1575
144,156,245161,5,8,0:0:0:0:
144,156,245246,5,8,0:0:0:0:
144,156,245330,5,8,0:0:0:0:
8,400,245415,6,0,P|424:-80|392:408,1,1575
108,188,250669,5,8,0:0:0:0:
8,400,250839,6,0,P|424:-80|392:408,1,1575
8,400,256263,6,0,P|424:-80|392:408,1,1575
0,392,261686,6,0,B|416:-208|532:408,1,997.5
