osu file format v14

[General]
AudioFilename: audio.mp3
AudioLeadIn: 0
PreviewTime: 84016
Countdown: 0
SampleSet: Soft
StackLeniency: 0.7
Mode: 0
LetterboxInBreaks: 0
WidescreenStoryboard: 1

[Editor]
DistanceSpacing: 1.6
BeatDivisor: 4
GridSize: 4
TimelineZoom: 1.7

[Metadata]
Title:Lost Fairy World
TitleUnicode:ロスト・フェアリーワールド
Artist:Funatsu Yota (CV: Furukawa Makoto) & Sano Tsubaki (CV: Matsuoka Yoshitsugu)
ArtistUnicode:船津謡太 (CV: 古川慎) & 佐野椿⽣ (CV: 松岡禎丞)
Creator:KennethBBG
Version:Hard
Source:君と僕と世界のほとり Phrase3 片思い卒業式
Tags:Aurorance kimi boku to sekai no hotori Kataomoi Sotsugyoushiki BL boyslove Boys Love yaoi japanese Jpop J-pop pop Jrock j-rock Rock duet song male vocalists vocals 真崎エリカ Masaki Erica 藤井健太郎 Kentaro Fujii 廣澤優也 Hirosawa Yuuya Yuya
BeatmapID:4443355
BeatmapSetID:2115836

[Difficulty]
HPDrainRate:5
CircleSize:3.7
OverallDifficulty:6
ApproachRate:7.5
SliderMultiplier:1.35
SliderTickRate:1

[Events]
//Background and Video events
0,0,"BG.jpg",0,0
//Break Periods
//Storyboard Layer 0 (Background)
//Storyboard Layer 1 (Fail)
//Storyboard Layer 2 (Pass)
//Storyboard Layer 3 (Foreground)
//Storyboard Layer 4 (Overlay)
//Storyboard Sound Samples

[TimingPoints]
2287,324.324324324324,4,2,1,30,1,0
2287,-153.846153846153,4,2,1,30,0,0
21422,-153.846153846153,4,2,1,35,0,0
21746,-153.846153846153,4,2,1,60,0,0
23043,-100,4,2,1,60,0,0
33422,-100,4,2,1,70,0,0
37151,-83.3333333333333,4,2,1,70,0,0
38449,-100,4,2,1,70,0,0
38611,-100,4,2,1,75,0,0
43800,-133.333333333333,4,2,1,55,0,0
53854,-117.647058823529,4,2,1,55,0,0
59368,-117.647058823529,4,2,1,60,0,0
64557,-142.857142857143,4,2,1,55,0,0
73476,-125,4,2,1,55,0,0
74935,-111.111111111111,4,2,1,60,0,0
79962,-100,4,2,1,60,0,0
85314,-100,4,2,1,75,0,1
86449,-100,4,2,1,75,0,1
92286,-133.333333333333,4,2,1,75,0,1
92935,-100,4,2,1,75,0,1
104773,-100,4,2,1,75,0,0
107368,-100,4,2,1,60,0,0
109962,-100,4,2,1,70,0,0
118476,-100,4,2,1,60,0,0
118962,-100,4,2,1,50,0,0
119449,-100,4,2,1,40,0,0
119935,-100,4,2,1,30,0,0
120422,-100,4,2,1,20,0,0
120989,-100,4,2,1,5,0,0

[Colours]
Combo1 : 81,81,111
Combo2 : 242,214,13
Combo3 : 23,153,249
Combo4 : 235,90,20

[HitObjects]
387,323,23043,6,0,B|460:335|460:335|516:295,2,135,2|8|8,3:2|0:0|0:0,0:0:0:0:
338,256,23853,1,8,0:0:0:0:
338,256,23934,1,8,0:0:0:0:
338,256,24016,2,0,B|326:220|326:220|334:189,1,67.5,8|2,0:0|3:2,0:0:0:0:
0,384,25637,6,0,B|20:346|62:333|62:333|114:354,1,135,10|10,0:0|0:0,0:0:0:0:
162,281,26124,1,2,3:2:0:0:
258,330,26286,2,0,L|248:264,1,67.5,8|8,0:0|0:0,0:0:0:0:
247,247,26529,1,8,0:0:0:0:
247,247,26610,1,10,0:0:0:0:
344,201,26772,6,0,P|357:275|368:337,1,135,4|0,3:2|3:2,0:0:0:0:
442,384,27259,1,8,0:0:0:0:
503,321,27421,1,0,3:2:0:0:
457,151,27745,6,0,P|379:141|343:195,1,135,6|8,3:2|0:0,0:0:0:0:
339,216,28151,1,8,0:0:0:0:
339,216,28232,2,0,L|324:68,1,135,6|8,3:2|3:2,0:0:0:0:
250,35,28718,2,0,L|244:-4,2,33.75,8|8|10,0:0|0:0|3:2,0:0:0:0:
162,45,29043,2,0,L|155:91,2,33.75,8|8|8,0:0|0:0|3:2,0:0:0:0:
199,169,29367,6,0,L|59:139,1,135,6|8,3:2|0:0,0:0:0:0:
10,207,29853,1,10,3:2:0:0:
77,279,30016,5,8,0:0:0:0:
77,279,30097,1,8,0:0:0:0:
77,279,30178,2,0,L|111:277,3,33.75,10|8|8|8,3:2|0:0|0:0|0:0,0:0:0:0:
147,301,30502,2,0,L|182:298,3,33.75,2|8|8|8,3:2|0:0|0:0|0:0,0:0:0:0:
220,315,30826,6,0,P|227:344|207:386,2,67.5,6|2|2,3:2|0:0|3:2,0:0:0:0:
327,329,31313,2,0,P|388:320|465:299,1,135,12|0,3:2|3:2,0:0:0:0:
477,195,31799,2,0,P|462:121|452:56,1,135,12|0,0:0|3:2,0:0:0:0:
347,32,32286,6,0,P|303:42|213:61,1,135,12|0,0:0|3:2,0:0:0:0:
157,133,32773,1,10,0:0:0:0:
99,68,32935,1,10,0:0:0:0:
0,384,33422,6,0,P|5:347|10:309,1,67.5,6|2,3:2|0:0,0:0:0:0:
52,241,33746,2,0,P|85:245|118:250,1,67.5,10|2,3:2|0:0,0:0:0:0:
191,309,34070,1,2,3:2:0:0:
191,309,34232,2,0,P|196:272|206:226,1,67.5,2|8,3:2|0:0,0:0:0:0:
271,188,34557,6,0,B|291:186|317:194|317:194|349:181|349:181|383:188|416:179,1,135,2|2,3:2|3:2,0:0:0:0:
477,226,35043,1,10,0:0:0:0:
512,144,35205,2,0,L|501:61,1,67.5,2|0,3:2|0:0,0:0:0:0:
444,16,35530,2,0,P|415:0|375:1,2,67.5,2|10|2,3:2|0:0|0:0,0:0:0:0:
385,81,36016,6,0,P|348:86|302:96,1,67.5,2|2,3:2|0:0,0:0:0:0:
250,35,36341,2,0,P|195:33|109:20,1,135,10|2,3:2|3:2,0:0:0:0:
52,80,36826,2,0,P|57:116|67:162,1,67.5,2|8,3:2|0:0,0:0:0:0:
18,269,37151,6,0,B|50:240|50:240|113:226|159:280,1,161.999995056153,6|2,3:2|3:2,0:0:0:0:
197,362,37638,1,8,0:0:0:0:
284,378,37800,1,2,3:2:0:0:
284,378,37962,1,2,0:0:0:0:
354,324,38124,2,0,P|346:286|336:241,1,80.9999975280763,6|10,3:2|0:0,0:0:0:0:
371,158,38449,5,10,0:0:0:0:
371,158,38530,1,10,0:0:0:0:
371,158,38611,2,0,P|328:147|242:216,1,135,6|8,3:2|3:2,0:0:0:0:
126,74,39259,1,2,3:2:0:0:
185,12,39422,2,0,P|217:19|251:25,1,67.5,2|10,3:2|0:0,0:0:0:0:
334,53,39746,6,0,P|416:70|484:88,1,135,2|0,3:2|3:2,0:0:0:0:
512,154,40232,2,0,P|503:194|498:225,1,67.5,10|0,0:0|3:2,0:0:0:0:
512,309,40557,2,0,P|429:326|413:382,1,135,2|10,0:0|0:0,0:0:0:0:
347,304,41043,1,0,0:0:0:0:
265,364,41205,6,0,P|195:374|136:322,1,135,4|8,3:2|3:2,0:0:0:0:
0,224,41854,5,10,3:2:0:0:
0,224,41935,1,8,3:2:0:0:
0,224,42016,1,2,1:2:0:0:
68,165,42178,1,2,3:2:0:0:
37,69,42341,5,6,3:2:0:0:
0,30,43800,6,0,P|53:36|105:44,1,101.250003862381,6|2,3:2|3:2,0:0:0:0:
174,12,44286,2,0,P|183:60|153:108,1,101.250003862381,2|2,0:0|0:0,0:0:0:0:
85,151,44773,1,2,3:2:0:0:
85,151,44935,2,0,L|75:209,1,50.6250019311906,2|0,0:0|3:2,0:0:0:0:
118,360,45422,2,0,B|85:364|62:362|62:362|38:378|1:394,2,101.250003862381,2|2|2,3:2|3:2|3:2,0:0:0:0:
230,218,46395,6,0,P|283:208|318:243,1,101.250003862381,2|0,3:2|3:2,0:0:0:0:
397,264,46881,1,2,0:0:0:0:
397,264,47043,2,0,L|408:195,1,50.6250019311906,2|0,3:2|0:0,0:0:0:0:
495,198,47368,2,0,L|481:304,1,101.250003862381,0|0,3:2|3:2,0:0:0:0:
302,327,48016,6,0,P|273:333|208:286,1,101.250003862381,2|2,3:2|3:2,0:0:0:0:
173,228,48503,1,0,0:0:0:0:
173,228,48665,2,0,P|179:190|184:168,1,50.6250019311906,2|0,3:2|0:0,0:0:0:0:
237,90,48989,6,0,P|200:72|131:96,1,101.250003862381,6|0,3:2|3:2,0:0:0:0:
102,158,49476,2,0,P|91:204|78:268,1,101.250003862381,2|2,0:0|0:0,0:0:0:0:
70,342,49962,1,2,3:2:0:0:
159,314,50124,6,0,B|250:329|194:374|303:386,1,151.875005793572,2|2,0:0|3:2,0:0:0:0:
381,262,50935,2,0,P|403:218|372:166,1,101.250003862381,2|2,3:2|3:2,0:0:0:0:
382,173,51422,1,0,0:0:0:0:
312,119,51584,6,0,P|304:57|299:0,2,101.250003862381,0|0|0,3:2|3:2|3:2,0:0:0:0:
295,293,52557,5,2,3:2:0:0:
366,340,52719,1,6,3:2:0:0:
437,161,53530,6,0,P|453:133|447:97,1,50.6250019311906,0|10,3:2|0:0,0:0:0:0:
471,34,53854,1,2,3:2:0:0:
381,65,54016,5,10,0:0:0:0:
381,65,54097,1,8,0:0:0:0:
381,65,54178,2,0,B|356:88|356:88|311:92|278:64,1,114.750002188683,6|10,3:2|0:0,0:0:0:0:
201,31,54665,2,0,P|216:111|223:156,1,114.750002188683,2|2,0:0|3:2,0:0:0:0:
188,231,55151,1,2,0:0:0:0:
188,231,55314,1,10,0:0:0:0:
85,337,55638,5,0,3:2:0:0:
89,339,55800,2,0,P|26:344|-2:390,2,114.750002188683,10|2|10,0:0|3:2|0:0,0:0:0:0:
272,329,56773,2,0,B|340:347|297:372|382:386,1,114.750002188683,2|8,3:2|0:0,0:0:0:0:
465,365,57259,1,8,0:0:0:0:
465,365,57341,1,8,0:0:0:0:
465,365,57422,2,0,P|477:294|445:252,1,114.750002188683,2|0,3:2|0:0,0:0:0:0:
381,206,57908,1,8,0:0:0:0:
381,206,58070,6,0,L|394:139,1,57.3750010943413,0|0,0:0|3:2,0:0:0:0:
476,141,58395,2,0,P|487:89|507:10,1,114.750002188683,10|2,0:0|3:2,0:0:0:0:
414,38,58881,1,8,0:0:0:0:
414,38,58962,1,8,0:0:0:0:
414,38,59043,2,0,L|372:29,3,28.6875005471707,10|8|8|8,0:0|0:0|0:0|0:0,0:0:0:0:
344,54,59368,6,0,P|271:69|211:78,1,114.750002188683,6|8,3:2|0:0,0:0:0:0:
0,255,60016,2,0,P|67:232|117:262,1,114.750002188683,2|0,3:2|0:0,0:0:0:0:
54,317,60503,6,0,P|90:323|232:343,1,172.125003283024,2|10,0:0|0:0,0:0:0:0:
300,384,61151,1,8,0:0:0:0:
300,384,61232,1,8,0:0:0:0:
300,384,61314,2,0,P|313:350|294:299,1,86.0625016415119,2|0,3:2|0:0,0:0:0:0:
274,279,61638,1,10,0:0:0:0:
321,199,61800,1,2,0:0:0:0:
321,199,61962,2,0,B|348:194|364:202|364:202|385:201|385:201|410:216|446:220,1,114.750002188683,0|8,3:2|0:0,0:0:0:0:
512,113,62530,5,8,3:2:0:0:
512,113,62611,2,0,L|498:4,1,86.0625016415119,0|0,3:2|0:0,0:0:0:0:
491,11,62935,1,10,3:2:0:0:
410,52,63097,6,0,P|353:28|287:102,1,172.125003283024,6|10,3:2|0:0,0:0:0:0:
216,143,63746,2,0,L|208:113,2,28.6875005471707,8|8|2,0:0|0:0|1:2,0:0:0:0:
157,195,64070,2,0,L|85:189,2,57.3750010943413,2|0|0,1:2|3:2|3:2,0:0:0:0:
226,252,64557,6,0,P|236:300|249:357,1,94.4999971160889,4|2,3:2|3:2,0:0:0:0:
386,384,65205,2,0,P|434:374|454:334,1,94.4999971160889,10|2,0:0|0:0,0:0:0:0:
466,248,65692,2,0,B|414:247|441:229|374:225,1,94.4999971160889,2|2,3:2|3:2,0:0:0:0:
294,213,66178,1,0,3:2:0:0:
400,114,66503,1,8,0:0:0:0:
302,19,66827,1,0,0:0:0:0:
180,125,67151,6,0,P|146:122|110:69,1,94.4999971160889,0|2,3:2|3:2,0:0:0:0:
110,76,67638,1,0,0:0:0:0:
109,0,67800,2,0,P|63:9|35:52,1,94.4999971160889,10|2,0:0|0:0,0:0:0:0:
45,133,68286,2,0,P|54:191|60:239,1,94.4999971160889,0|2,3:2|3:2,0:0:0:0:
19,303,68773,2,0,L|78:319,1,47.2499985580445,2|2,3:2|0:0,0:0:0:0:
122,377,69097,1,8,0:0:0:0:
241,276,69422,1,0,0:0:0:0:
365,384,69746,6,0,P|373:338|385:276,1,94.4999971160889,4|2,3:2|3:2,0:0:0:0:
512,170,70395,2,0,L|495:77,1,94.4999971160889,10|2,0:0|0:0,0:0:0:0:
443,16,70881,2,0,P|381:13|354:54,1,94.4999971160889,2|0,3:2|3:2,0:0:0:0:
345,111,71368,1,2,0:0:0:0:
280,245,71692,2,0,P|233:256|173:272,1,94.4999971160889,10|2,0:0|0:0,0:0:0:0:
54,214,72341,6,0,B|50:153|78:169|72:120,1,94.4999971160889,2|0,3:2|3:2,0:0:0:0:
40,46,72827,1,2,0:0:0:0:
122,20,72989,2,0,L|230:1,1,94.4999971160889,10|2,0:0|0:0,0:0:0:0:
306,74,73476,6,0,B|343:74|366:55|366:55|383:79|416:85,1,108,6|8,3:2|0:0,0:0:0:0:
418,91,73881,1,8,0:0:0:0:
418,91,73962,1,8,0:0:0:0:
471,169,74124,2,0,L|503:176,2,27,8|8|8,0:0|0:0|0:0,0:0:0:0:
422,244,74449,1,8,0:0:0:0:
422,244,74530,1,8,0:0:0:0:
422,244,74611,2,0,L|431:281,3,27,2|0|2|0,1:2|1:2|3:2|3:2,0:0:0:0:
425,294,74935,6,0,B|403:300|371:286|371:286|355:303|355:303|332:301|312:311,1,121.499996292114,4|0,3:2|3:2,0:0:0:0:
229,324,75422,2,0,P|224:356|219:392,2,60.7499981460572,2|0|0,3:2|3:2|3:2,0:0:0:0:
262,248,75908,2,0,P|269:209|272:171,1,60.7499981460572,2|0,3:2|3:2,0:0:0:0:
311,114,76232,6,0,P|256:102|201:143,1,121.499996292114,2|0,3:2|3:2,0:0:0:0:
149,76,76719,2,0,P|153:42|158:6,2,60.7499981460572,2|0|0,3:2|3:2|3:2,0:0:0:0:
112,147,77205,1,8,3:2:0:0:
29,188,77368,5,0,3:2:0:0:
29,188,77449,1,0,3:2:0:0:
29,188,77530,2,0,P|43:266|55:332,1,121.499996292114,6|2,3:2|3:2,0:0:0:0:
92,380,78016,2,0,P|125:374|158:392,1,60.7499981460572,2|0,3:2|3:2,0:0:0:0:
228,355,78341,2,0,P|257:361|285:350,1,60.7499981460572,10|0,3:2|3:2,0:0:0:0:
248,275,78665,6,0,L|262:154,1,121.499996292114,6|8,3:2|0:0,0:0:0:0:
283,133,79070,1,8,0:0:0:0:
283,133,79151,2,0,L|315:138,3,30.3749990730286,10|8|8|8,0:0|0:0|0:0|0:0,0:0:0:0:
348,132,79476,5,2,1:2:0:0:
426,67,79638,2,0,P|446:103|438:164,1,91.1249972190858,6|0,3:2|0:0,0:0:0:0:
434,184,79962,6,0,L|453:317,1,135,6|0,3:2|3:2,0:0:0:0:
390,368,80449,2,0,P|356:374|323:381,1,67.5,8|0,0:0|3:2,0:0:0:0:
243,355,80773,2,0,P|209:348|176:341,1,67.5,8|0,0:0|3:2,0:0:0:0:
97,384,81097,2,0,P|92:353|81:308,1,67.5,8|0,0:0|3:2,0:0:0:0:
132,243,81422,2,0,P|137:212|148:167,1,67.5,8|0,0:0|3:2,0:0:0:0:
83,112,81746,5,10,0:0:0:0:
83,112,81908,1,0,3:2:0:0:
139,51,82070,2,0,L|207:40,1,67.5,10|0,0:0|3:2,0:0:0:0:
294,0,82395,2,0,L|271:126,1,101.25,10|0,0:0|0:0,0:0:0:0:
271,131,82719,6,0,B|312:101|353:100|353:100|363:122|388:140,1,135,14|8,0:0|0:0,0:0:0:0:
468,161,83205,1,8,0:0:0:0:
472,256,83368,5,8,0:0:0:0:
472,256,83530,1,8,0:0:0:0:
402,314,83692,1,8,0:0:0:0:
402,314,83854,1,10,3:2:0:0:
430,184,85314,6,0,P|500:159|499:101,1,135,6|8,3:2|0:0,0:0:0:0:
447,31,85800,1,2,0:0:0:0:
353,53,85962,2,0,P|291:40|218:28,1,135,2|8,3:2|0:0,0:0:0:0:
146,91,86449,1,2,0:0:0:0:
214,159,86611,6,0,P|289:174|351:187,1,135,2|10,3:2|0:0,0:0:0:0:
413,268,87097,1,0,0:0:0:0:
413,268,87259,2,0,P|423:312|402:349,1,67.5,2|0,3:2|3:2,0:0:0:0:
336,351,87584,2,0,P|317:308|323:277,1,67.5,10|0,0:0|0:0,0:0:0:0:
226,253,87908,6,0,B|197:252|171:247|171:247|150:260|150:260|131:251|86:252,1,135,2|8,3:2|0:0,0:0:0:0:
20,208,88395,1,2,3:2:0:0:
86,142,88557,2,0,P|78:100|62:9,1,135,2|8,0:0|0:0,0:0:0:0:
288,16,89205,6,0,B|320:38|320:38|338:86|293:134,1,135,0|8,3:2|0:0,0:0:0:0:
212,141,89692,1,2,0:0:0:0:
254,220,89854,1,2,0:0:0:0:
254,220,90016,1,2,3:2:0:0:
185,271,90178,2,0,P|152:268|109:259,1,67.5,10|2,0:0|0:0,0:0:0:0:
38,359,90503,6,0,P|113:376|175:384,1,135,6|8,3:2|0:0,0:0:0:0:
257,384,90989,1,2,0:0:0:0:
311,316,91151,2,0,P|373:319|422:380,1,135,2|8,3:2|0:0,0:0:0:0:
499,370,91638,1,2,0:0:0:0:
483,286,91800,6,0,P|473:229|464:168,1,101.25,2|0,3:2|0:0,0:0:0:0:
484,168,92124,1,10,0:0:0:0:
444,93,92286,5,6,3:2:0:0:
316,186,92611,1,6,3:2:0:0:
208,40,92935,6,0,B|141:21|154:68|67:55,1,135,6|0,3:2|3:2,0:0:0:0:
6,20,93422,2,0,P|12:50|30:152,1,135,8|0,0:0|3:2,0:0:0:0:
30,152,93908,1,0,3:2:0:0:
0,241,94070,1,10,0:0:0:0:
27,324,94232,1,2,0:0:0:0:
109,362,94395,6,0,P|155:368|244:377,1,135,6|10,3:2|0:0,0:0:0:0:
255,288,94881,1,8,0:0:0:0:
255,288,94962,1,8,0:0:0:0:
255,288,95043,2,0,P|246:250|242:207,1,67.5,2|8,3:2|0:0,0:0:0:0:
188,151,95368,2,0,L|198:102,3,33.75,2|8|8|8,3:2|0:0|0:0|0:0,0:0:0:0:
215,79,95692,6,0,P|258:106|333:77,1,135,6|8,3:2|0:0,0:0:0:0:
413,45,96178,1,10,0:0:0:0:
413,45,96259,1,8,0:0:0:0:
413,45,96340,2,0,P|425:110|440:197,1,135,2|8,3:2|0:0,0:0:0:0:
501,243,96827,1,10,0:0:0:0:
474,322,96989,6,0,B|392:327|425:359|333:374,1,135,2|10,3:2|0:0,0:0:0:0:
180,384,97638,2,0,P|190:342|198:316,1,67.5,2|0,3:2|3:2,0:0:0:0:
116,293,97962,2,0,P|105:333|97:360,1,67.5,10|0,0:0|0:0,0:0:0:0:
32,300,98286,5,2,3:2:0:0:
32,300,98449,1,0,3:2:0:0:
0,228,98611,2,0,P|7:176|62:149,1,101.25,12|0,0:0|0:0,0:0:0:0:
44,150,98935,5,10,0:0:0:0:
55,70,99097,1,10,0:0:0:0:
138,79,99259,1,10,0:0:0:0:
196,172,99422,6,0,P|262:180|284:246,1,135,6|2,3:2|3:2,0:0:0:0:
316,315,99908,1,8,0:0:0:0:
394,226,100070,2,0,B|432:195|423:140|423:140|406:133|383:123,1,135,6|2,3:2|3:2,0:0:0:0:
311,94,100557,1,8,0:0:0:0:
394,16,100719,6,0,P|460:0|522:50,1,135,6|0,3:2|3:2,0:0:0:0:
512,118,101205,2,0,L|498:253,1,135,8|0,0:0|3:2,0:0:0:0:
512,333,101692,1,0,0:0:0:0:
448,384,101854,2,0,P|422:379|380:371,1,67.5,10|8,0:2|0:0,0:0:0:0:
346,300,102178,6,0,P|287:314|217:366,1,135,2|10,3:2|0:0,0:0:0:0:
146,333,102665,2,0,P|139:302|155:264,1,67.5,2|0,3:2|0:0,0:0:0:0:
241,248,102989,1,2,3:2:0:0:
241,248,103070,1,0,0:0:0:0:
241,248,103151,1,8,0:0:0:0:
170,152,103314,6,0,B|95:147|131:198|37:193,1,135,6|0,3:2|3:2,0:0:0:0:
0,126,103800,2,0,P|3:60|67:28,1,135,8|0,0:0|3:2,0:0:0:0:
124,68,104286,1,0,3:2:0:0:
202,31,104449,2,0,L|246:40,3,33.75,10|8|8|8,0:0|0:0|0:0|0:0,0:0:0:0:
277,34,104773,5,6,3:2:0:0:
123,53,107368,6,0,P|63:40|-13:87,2,135,2|10|8,3:2|0:0|0:0,0:0:0:0:
174,128,108178,1,8,0:0:0:0:
174,128,108259,1,8,0:0:0:0:
174,128,108341,2,0,P|182:175|187:200,1,67.5,8|0,0:0|3:2,0:0:0:0:
0,384,109962,6,0,P|53:346|134:364,1,135,10|10,0:0|0:0,0:0:0:0:
193,305,110449,1,2,3:2:0:0:
256,369,110611,2,0,L|343:365,1,67.5,8|8,0:0|0:0,0:0:0:0:
346,374,110854,1,8,0:0:0:0:
346,374,110935,1,8,0:0:0:0:
441,323,111097,6,0,P|455:247|473:176,1,135,4|0,3:2|3:2,0:0:0:0:
408,130,111584,1,8,0:0:0:0:
334,169,111746,1,0,3:2:0:0:
197,41,112070,6,0,P|122:37|86:91,1,135,6|8,3:2|0:0,0:0:0:0:
85,102,112476,1,8,0:0:0:0:
85,102,112557,2,0,L|93:209,1,101.25,6|8,3:2|0:0,0:0:0:0:
103,222,112881,1,8,3:2:0:0:
52,306,113043,2,0,L|13:300,2,33.75,8|8|8,0:0|0:0|3:2,0:0:0:0:
98,384,113368,2,0,L|141:375,2,33.75,8|8|8,0:0|0:0|3:2,0:0:0:0:
214,341,113692,6,0,L|365:366,1,135,6|8,3:2|0:0,0:0:0:0:
407,307,114178,1,10,3:2:0:0:
328,273,114341,5,8,0:0:0:0:
328,273,114422,1,8,0:0:0:0:
328,273,114503,2,0,L|326:239,3,33.75,10|8|8|8,3:2|0:0|0:0|0:0,0:0:0:0:
342,215,114827,2,0,L|344:181,3,33.75,0|8|8|8,3:2|0:0|0:0|0:0,0:0:0:0:
372,153,115151,6,0,P|401:146|438:179,2,67.5,14|2|2,3:2|3:2|3:2,0:0:0:0:
290,79,115638,2,0,P|235:95|145:111,1,135,12|0,3:2|3:2,0:0:0:0:
51,122,116124,2,0,P|66:164|65:230,1,101.25,14|0,3:2|0:0,0:0:0:0:
66,220,116449,1,2,3:2:0:0:
2,319,116611,5,14,3:2:0:0:
2,319,116773,1,10,3:2:0:0:
100,363,116935,1,10,3:2:0:0:
100,363,117097,1,14,3:2:0:0:
256,191,117746,5,10,0:2:0:0:
256,191,117827,1,10,0:2:0:0:
256,191,117908,1,14,3:2:0:0:
256,192,117989,12,0,121151,0:0:0:0:
