osu file format v14

[General]
AudioFilename: audio.mp3
AudioLeadIn: 0
PreviewTime: 139210
Countdown: 1
SampleSet: None
StackLeniency: 0.7
Mode: 0
LetterboxInBreaks: 0
WidescreenStoryboard: 0

[Editor]
Bookmarks: 232479
DistanceSpacing: 0.8
BeatDivisor: 1
GridSize: 32
TimelineZoom: 2.1

[Metadata]
Title:Umikaze no Brave
TitleUnicode:Umikaze no Brave
Artist:Fumika
ArtistUnicode:Fumika
Creator:Veridian
Version:Insane
Source:
Tags:
BeatmapID:1875415
BeatmapSetID:897706

[Difficulty]
HPDrainRate:6
CircleSize:3.9
OverallDifficulty:7
ApproachRate:7.6
SliderMultiplier:1.8
SliderTickRate:2

[Events]
//Background and Video events
0,0,"721371.jpg",0,0
//Break Periods
2,168056,175487
//Storyboard Layer 0 (Background)
//Storyboard Layer 1 (Fail)
//Storyboard Layer 2 (Pass)
//Storyboard Layer 3 (Foreground)
//Storyboard Sound Samples

[TimingPoints]
1903,384.615384615385,4,3,0,70,1,0
55749,-100,4,3,0,70,0,1
83441,-100,4,3,0,70,0,0
140364,-100,4,3,0,70,0,1
164979,-100,4,3,0,70,0,0
180364,-133.333333333333,4,3,0,70,0,0
189595,-100,4,3,0,70,0,1
195749,-100,4,3,0,70,0,0
200172,-100,4,3,0,70,0,1
223441,-100,4,3,0,70,0,0

[Colours]
Combo1 : 108,188,247
Combo2 : 39,239,159
Combo3 : 255,83,83
Combo4 : 239,186,63
Combo5 : 95,140,167
Combo6 : 86,175,102
Combo7 : 255,128,128
Combo8 : 193,254,103

[HitObjects]
200,140,1903,5,0,0:0:0:0:
332,192,2095,1,0,0:0:0:0:
220,272,2287,1,0,0:0:0:0:
416,152,2479,2,0,B|428:194|428:194|412:248,1,90
336,96,2864,1,0,0:0:0:0:
492,296,3056,2,0,P|436:264|328:300,1,180
256,376,3633,1,0,0:0:0:0:
168,208,3826,1,0,0:0:0:0:
124,324,4018,5,0,0:0:0:0:
139,321,4114,1,0,0:0:0:0:
155,318,4210,1,0,0:0:0:0:
292,136,4403,2,0,B|208:168|208:92|112:140,1,180
8,192,4979,5,0,0:0:0:0:
256,368,6518,1,0,0:0:0:0:
504,192,8056,1,0,0:0:0:0:
200,36,9595,5,0,0:0:0:0:
348,104,9787,1,0,0:0:0:0:
204,176,9979,1,0,0:0:0:0:
372,124,10172,2,0,L|466:140,1,90
182,163,10556,2,0,L|91:147,1,90
95,291,10941,5,0,0:0:0:0:
95,291,11037,1,0,0:0:0:0:
95,291,11133,2,0,P|143:259|271:315,2,180
176,356,12095,1,0,0:0:0:0:
328,224,12287,1,0,0:0:0:0:
472,320,12479,6,0,L|353:299,1,90
308,208,12864,1,0,0:0:0:0:
464,132,13056,1,0,0:0:0:0:
344,48,13249,1,0,0:0:0:0:
347,64,13345,1,0,0:0:0:0:
350,79,13441,1,0,0:0:0:0:
392,288,13633,1,0,0:0:0:0:
256,140,13826,1,0,0:0:0:0:
120,288,14018,1,0,0:0:0:0:
188,368,14210,6,0,P|223:288|186:209,1,180
121,129,14787,2,0,P|83:208|119:287,1,180
186,209,15364,1,0,0:0:0:0:
202,206,15460,1,0,0:0:0:0:
217,203,15556,1,0,0:0:0:0:
404,176,15749,5,0,0:0:0:0:
320,84,15941,1,0,0:0:0:0:
404,280,16133,1,0,0:0:0:0:
496,132,16326,2,0,B|508:174|508:174|494:218,1,90
308,328,16710,2,0,B|294:283|294:283|306:241,1,90
512,352,17095,5,0,0:0:0:0:
497,355,17191,1,0,0:0:0:0:
480,360,17287,2,0,L|369:379,1,90
136,364,17672,6,0,L|246:344,1,90
212,164,18056,1,0,0:0:0:0:
172,248,18249,2,0,P|215:258|258:246,1,90
256,80,18633,2,0,P|212:69|169:81,1,90
72,216,19018,2,0,B|116:128|48:128|80:40,2,180
0,164,19979,1,0,0:0:0:0:
68,348,20172,1,0,0:0:0:0:
200,208,20364,5,0,0:0:0:0:
160,284,20556,1,0,0:0:0:0:
240,328,20749,1,0,0:0:0:0:
280,248,20941,1,0,0:0:0:0:
192,184,21133,1,0,0:0:0:0:
336,104,21326,5,0,0:0:0:0:
100,184,21518,1,0,0:0:0:0:
260,248,21710,1,0,0:0:0:0:
48,104,21903,2,0,P|16:152|64:276,1,180
108,336,22479,1,0,0:0:0:0:
256,44,22864,1,0,0:0:0:0:
356,268,23249,5,0,0:0:0:0:
372,265,23345,1,0,0:0:0:0:
392,260,23441,2,0,L|486:243,1,90
268,224,23826,6,0,B|256:266|256:266|269:310,1,90
348,176,24210,1,0,0:0:0:0:
180,100,24403,1,0,0:0:0:0:
348,32,24595,1,0,0:0:0:0:
96,144,24787,2,0,L|292:109,1,180
244,220,25364,2,0,L|141:238,1,90
76,132,25749,1,0,0:0:0:0:
16,276,25941,5,0,0:0:0:0:
184,140,26133,1,0,0:0:0:0:
40,48,26326,1,0,0:0:0:0:
56,45,26422,1,0,0:0:0:0:
71,42,26518,5,0,0:0:0:0:
272,104,26710,1,0,0:0:0:0:
92,180,26903,1,0,0:0:0:0:
268,192,27095,1,0,0:0:0:0:
168,232,27287,5,0,0:0:0:0:
348,308,27480,1,0,0:0:0:0:
172,320,27672,1,0,0:0:0:0:
268,368,27864,1,0,0:0:0:0:
448,172,28056,5,0,0:0:0:0:
268,248,28249,1,0,0:0:0:0:
444,260,28441,1,0,0:0:0:0:
348,308,28633,1,0,0:0:0:0:
264,88,28826,5,0,0:0:0:0:
368,216,29018,1,0,0:0:0:0:
184,120,29210,1,0,0:0:0:0:
176,104,29306,1,0,0:0:0:0:
174,88,29403,1,0,0:0:0:0:
176,72,29499,1,0,0:0:0:0:
184,56,29595,1,0,0:0:0:0:
264,88,29787,1,0,0:0:0:0:
216,316,29979,6,0,L|195:196,1,90
312,352,30364,1,0,0:0:0:0:
104,176,30556,2,0,P|140:204|264:176,1,180
360,80,31133,2,0,L|143:118,1,180
324,232,31710,2,0,L|426:213,1,90
456,64,32095,5,0,0:0:0:0:
452,80,32191,1,0,0:0:0:0:
456,96,32287,1,0,0:0:0:0:
496,232,32479,1,0,0:0:0:0:
500,216,32575,1,0,0:0:0:0:
496,200,32671,1,0,0:0:0:0:
440,300,32864,1,0,0:0:0:0:
308,372,33056,6,0,B|396:340|396:404|488:372,1,180
396,232,33633,2,0,B|308:200|308:264|216:232,1,180
264,152,34210,2,0,L|227:356,1,180
128,208,34787,2,0,L|146:105,1,90
148,104,35076,1,0,0:0:0:0:
151,88,35172,1,0,0:0:0:0:
154,72,35268,1,0,0:0:0:0:
157,57,35364,1,0,0:0:0:0:
256,0,35556,1,0,0:0:0:0:
356,140,35749,6,0,B|370:96|370:96|358:54,1,90
300,228,36133,2,0,B|286:272|286:272|298:314,1,90
268,148,36518,2,0,L|157:167,1,90
376,276,36903,2,0,L|486:256,1,90
352,376,37287,6,0,P|276:340|180:392,1,180
108,248,37864,2,0,B|120:290|120:290|106:334,1,90
24,184,38249,2,0,B|10:140|10:140|22:98,2,90
244,52,38826,5,0,0:0:0:0:
104,128,39018,1,0,0:0:0:0:
336,120,39210,1,0,0:0:0:0:
136,32,39403,1,0,0:0:0:0:
268,200,39595,1,0,0:0:0:0:
404,56,39787,1,0,0:0:0:0:
200,120,39979,1,0,0:0:0:0:
404,196,40172,6,0,P|432:268|388:376,1,180
312,272,40749,1,0,0:0:0:0:
208,372,40941,1,0,0:0:0:0:
224,369,41037,1,0,0:0:0:0:
239,366,41133,1,0,0:0:0:0:
352,188,41326,5,0,0:0:0:0:
220,268,41518,1,0,0:0:0:0:
372,340,41710,1,0,0:0:0:0:
312,272,41903,1,0,0:0:0:0:
84,348,42287,6,0,L|65:245,1,90
152,104,42672,1,0,0:0:0:0:
200,180,42864,2,0,B|112:212|112:148|20:180,1,180
162,20,43441,2,0,P|229:75|216:160,1,180
296,312,44018,2,0,P|283:269|293:225,1,90
448,256,44403,5,0,0:0:0:0:
432,258,44499,1,0,0:0:0:0:
416,261,44595,1,0,0:0:0:0:
400,264,44691,1,0,0:0:0:0:
384,267,44787,1,0,0:0:0:0:
368,180,44979,1,0,0:0:0:0:
104,360,45364,6,0,L|293:326,1,180
176,176,45941,2,0,P|166:219|178:262,1,90
272,216,46326,1,0,0:0:0:0:
256,108,46518,2,0,P|180:144|84:92,1,180
176,44,47095,1,0,0:0:0:0:
16,140,47287,5,0,0:0:0:0:
8,124,47383,1,0,0:0:0:0:
6,108,47480,1,0,0:0:0:0:
8,92,47576,1,0,0:0:0:0:
16,76,47672,1,0,0:0:0:0:
176,44,47864,1,0,0:0:0:0:
132,240,48056,6,0,L|250:219,1,90
384,112,48441,2,0,L|265:132,1,90
308,320,48826,2,0,L|327:209,1,90
408,288,49210,1,0,0:0:0:0:
220,368,49403,2,0,P|210:310|228:267,1,90
308,128,49787,2,0,P|262:164|216:171,1,90
56,172,50172,2,0,P|110:192|139:229,1,90
48,268,50556,5,0,0:0:0:0:
144,116,50749,1,0,0:0:0:0:
15,36,50941,2,0,B|103:72|103:0|195:36,1,180
324,116,51518,2,0,B|282:128|282:128|232:117,1,90
376,36,51903,2,0,B|418:24|418:24|468:35,1,90
420,212,52287,6,0,P|409:168|420:125,1,90
496,268,52672,2,0,L|302:233,1,180
312,152,53249,1,0,0:0:0:0:
256,340,53633,1,0,0:0:0:0:
200,152,54018,1,0,0:0:0:0:
200,152,54595,5,0,0:0:0:0:
160,128,54691,1,0,0:0:0:0:
116,128,54787,1,0,0:0:0:0:
76,148,54883,1,0,0:0:0:0:
52,184,54979,1,0,0:0:0:0:
52,228,55076,1,0,0:0:0:0:
76,268,55172,1,0,0:0:0:0:
116,288,55268,1,0,0:0:0:0:
160,284,55364,1,0,0:0:0:0:
200,264,55460,1,0,0:0:0:0:
244,256,55556,1,0,0:0:0:0:
288,264,55653,1,0,0:0:0:0:
328,288,55749,6,0,B|352:304|360:344|360:344|364:280|428:240,1,180
464,340,56326,1,0,0:0:0:0:
375,160,56518,2,0,B|391:160|415:148|415:148|435:160|467:160,1,90
336,68,56903,2,0,B|320:68|296:80|296:80|276:68|244:68,1,90
236,80,57191,1,0,0:0:0:0:
220,92,57287,6,0,B|200:144|232:180|232:180|244:224|216:264,1,180
52,192,57864,2,0,B|75:196|75:196|113:186|149:217,1,90
260,344,58249,2,0,B|236:339|236:339|198:349|162:318,1,90
272,200,58633,6,0,B|319:184|358:215|358:215|406:199|441:229,1,180
404,380,59210,2,0,B|401:364|385:342|385:342|393:320|388:289,1,90
496,155,59595,1,0,0:0:0:0:
304,276,59787,5,0,0:0:0:0:
480,324,59979,1,0,0:0:0:0:
240,168,60172,2,0,B|235:193|243:215|243:215|227:236|224:252,2,90
144,196,60749,1,0,0:0:0:0:
357,70,60941,2,0,B|309:54|270:85|270:85|223:69|188:100,1,180
332,160,61518,2,0,B|357:164|379:156|379:156|400:172|416:175,1,90
456,292,61903,6,0,B|404:312|368:280|368:280|324:268|284:296,1,180
172,328,62479,2,0,B|176:304|176:304|166:266|197:230,1,90
260,104,62864,1,0,0:0:0:0:
260,104,62960,1,0,0:0:0:0:
260,104,63056,2,0,B|265:127|265:127|255:165|286:201,1,90
140,20,63441,6,0,B|192:40|228:8|228:8|272:-4|312:24,1,180
452,92,64018,2,0,B|427:96|405:88|405:88|384:104|368:107,1,90
168,256,64403,2,0,B|193:260|215:252|215:252|236:268|252:271,1,90
172,168,64787,1,0,0:0:0:0:
156,164,64883,1,0,0:0:0:0:
140,160,64979,5,0,0:0:0:0:
200,344,65172,1,0,0:0:0:0:
284,184,65364,1,0,0:0:0:0:
372,64,65749,5,0,0:0:0:0:
336,286,65942,1,0,0:0:0:0:
230,84,66134,1,0,0:0:0:0:
464,192,66518,5,0,0:0:0:0:
228,288,66710,1,0,0:0:0:0:
392,352,66903,1,0,0:0:0:0:
124,248,67095,2,0,B|129:271|129:271|119:309|141:334,1,90
320,240,67479,2,0,B|334:157|334:157|319:105|359:60,1,180
456,92,67960,1,0,0:0:0:0:
470,97,68056,6,0,B|456:120|416:128|416:128|480:132|512:184,1,180
420,232,68633,1,0,0:0:0:0:
476,316,68826,2,0,B|460:319|439:335|439:335|417:327|392:331,1,90
228,240,69210,2,0,B|244:243|265:259|265:259|287:251|312:255,1,90
140,188,69595,6,0,B|171:136|235:132|235:132|195:124|179:100,1,180
124,24,70172,2,0,B|147:3|168:3|168:3|223:13,1,90
84,112,70556,2,0,B|44:118|44:118|23:118|0:98,1,90
172,264,70941,6,0,B|120:284|84:252|84:252|40:240|2:266,1,180
280,288,71518,2,0,B|276:263|284:241|284:241|268:220|265:204,2,90
208,360,72095,5,0,0:0:0:0:
380,272,72287,1,0,0:0:0:0:
148,132,72479,2,0,B|200:152|236:120|236:120|280:108|317:134,1,180
152,236,73056,1,0,0:0:0:0:
180,52,73249,1,0,0:0:0:0:
4,124,73441,1,0,0:0:0:0:
116,140,73633,1,0,0:0:0:0:
12,368,73826,5,0,0:0:0:0:
44,336,73922,1,0,0:0:0:0:
56,292,74018,1,0,0:0:0:0:
44,248,74114,1,0,0:0:0:0:
8,220,74210,5,0,0:0:0:0:
228,292,74403,1,0,0:0:0:0:
140,368,74595,1,0,0:0:0:0:
228,188,74787,1,0,0:0:0:0:
316,368,74979,1,0,0:0:0:0:
116,244,75172,1,0,0:0:0:0:
336,248,75364,1,0,0:0:0:0:
172,96,75556,5,0,0:0:0:0:
228,272,75749,1,0,0:0:0:0:
312,152,75941,1,0,0:0:0:0:
68,156,76133,1,0,0:0:0:0:
280,64,76326,5,0,0:0:0:0:
64,4,76518,1,0,0:0:0:0:
140,220,76710,1,0,0:0:0:0:
216,8,76903,1,0,0:0:0:0:
136,100,77095,1,0,0:0:0:0:
444,196,77287,5,0,0:0:0:0:
304,324,77479,1,0,0:0:0:0:
256,136,77672,1,0,0:0:0:0:
364,232,77864,2,0,B|324:238|324:238|303:238|280:218,1,90
204,60,78249,2,0,B|227:39|248:39|248:39|287:46,1,90
122,10,78633,6,0,B|96:48|108:92|108:92|140:128|120:180,1,180
88,212,79114,5,0,0:0:0:0:
76,256,79210,1,0,0:0:0:0:
88,300,79306,1,0,0:0:0:0:
120,332,79403,1,0,0:0:0:0:
172,256,79595,1,0,0:0:0:0:
24,148,79787,1,0,0:0:0:0:
256,372,80364,5,0,0:0:0:0:
256,12,81903,5,0,0:0:0:0:
308,96,82095,1,0,0:0:0:0:
352,12,82287,1,0,0:0:0:0:
180,100,82479,1,0,0:0:0:0:
191,97,82576,1,0,0:0:0:0:
199,96,82672,1,0,0:0:0:0:
207,95,82768,1,0,0:0:0:0:
215,93,82864,1,0,0:0:0:0:
352,176,83056,1,0,0:0:0:0:
136,252,83441,5,0,0:0:0:0:
348,324,83633,1,0,0:0:0:0:
232,252,83826,1,0,0:0:0:0:
440,96,84018,2,0,B|476:180|476:180|432:272,1,180
216,88,84595,5,0,0:0:0:0:
352,176,84787,1,0,0:0:0:0:
328,0,84979,1,0,0:0:0:0:
128,136,85172,2,0,B|116:92|116:92|136:28,1,90
224,184,85556,5,0,0:0:0:0:
24,92,85749,1,0,0:0:0:0:
224,0,85941,1,0,0:0:0:0:
128,224,86133,2,0,L|234:205,1,90
312,304,86518,5,0,0:0:0:0:
348,176,86710,1,0,0:0:0:0:
208,344,86903,1,0,0:0:0:0:
436,368,87095,2,0,L|420:279,2,90
384,92,87672,5,0,0:0:0:0:
256,212,87864,1,0,0:0:0:0:
496,88,88056,5,0,0:0:0:0:
256,4,88249,1,0,0:0:0:0:
256,4,88826,5,0,0:0:0:0:
468,92,89019,1,0,0:0:0:0:
280,192,89211,1,0,0:0:0:0:
412,268,89403,1,0,0:0:0:0:
360,344,89595,5,0,0:0:0:0:
256,48,91133,1,0,0:0:0:0:
152,344,92672,1,0,0:0:0:0:
312,36,94210,5,0,0:0:0:0:
164,104,94402,1,0,0:0:0:0:
308,176,94594,1,0,0:0:0:0:
140,124,94787,2,0,L|46:140,1,90
330,163,95171,2,0,L|421:147,1,90
417,291,95556,5,0,0:0:0:0:
417,291,95652,1,0,0:0:0:0:
417,291,95748,2,0,P|369:259|241:315,2,180
336,356,96710,1,0,0:0:0:0:
184,224,96902,1,0,0:0:0:0:
40,320,97094,6,0,P|84:332|148:292,1,90
204,208,97479,1,0,0:0:0:0:
48,132,97671,1,0,0:0:0:0:
168,48,97864,1,0,0:0:0:0:
165,64,97960,1,0,0:0:0:0:
162,79,98056,1,0,0:0:0:0:
120,288,98248,5,0,0:0:0:0:
256,140,98441,1,0,0:0:0:0:
392,288,98633,1,0,0:0:0:0:
324,368,98825,2,0,P|289:288|326:209,1,180
391,129,99402,2,0,P|429:208|393:287,1,180
326,209,99979,1,0,0:0:0:0:
310,206,100075,1,0,0:0:0:0:
295,203,100171,1,0,0:0:0:0:
108,176,100364,5,0,0:0:0:0:
192,84,100556,1,0,0:0:0:0:
108,280,100748,1,0,0:0:0:0:
16,132,100941,2,0,B|4:174|4:174|18:218,1,90
204,328,101325,2,0,B|218:283|218:283|206:241,1,90
0,352,101710,5,0,0:0:0:0:
15,355,101806,1,0,0:0:0:0:
32,360,101902,2,0,L|143:379,1,90
376,364,102287,6,0,L|266:344,1,90
300,164,102671,1,0,0:0:0:0:
340,248,102864,2,0,P|297:258|254:246,1,90
256,80,103248,2,0,P|300:69|343:81,1,90
452,240,103633,2,0,B|416:164|416:164|456:60,2,180
512,160,104594,1,0,0:0:0:0:
452,348,104787,1,0,0:0:0:0:
312,208,104979,5,0,0:0:0:0:
352,284,105171,1,0,0:0:0:0:
272,328,105364,1,0,0:0:0:0:
232,248,105556,1,0,0:0:0:0:
320,184,105748,1,0,0:0:0:0:
176,104,105941,5,0,0:0:0:0:
412,184,106133,1,0,0:0:0:0:
252,248,106325,1,0,0:0:0:0:
464,104,106518,2,0,P|496:152|448:276,1,180
404,336,107094,1,0,0:0:0:0:
256,44,107479,1,0,0:0:0:0:
156,268,107864,5,0,0:0:0:0:
140,265,107960,1,0,0:0:0:0:
120,260,108056,2,0,L|26:243,1,90
244,224,108441,6,0,B|268:272|236:328,1,90
164,176,108825,1,0,0:0:0:0:
332,100,109018,1,0,0:0:0:0:
164,32,109210,1,0,0:0:0:0:
416,144,109402,2,0,L|220:109,1,180
268,220,109979,2,0,L|371:238,1,90
436,132,110364,1,0,0:0:0:0:
496,276,110556,5,0,0:0:0:0:
328,140,110748,1,0,0:0:0:0:
456,52,110941,1,0,0:0:0:0:
436,48,111037,1,0,0:0:0:0:
420,52,111133,5,0,0:0:0:0:
240,104,111325,1,0,0:0:0:0:
420,180,111518,1,0,0:0:0:0:
244,192,111710,1,0,0:0:0:0:
344,232,111902,5,0,0:0:0:0:
164,308,112095,1,0,0:0:0:0:
340,320,112287,1,0,0:0:0:0:
244,368,112479,1,0,0:0:0:0:
64,172,112671,5,0,0:0:0:0:
244,248,112864,1,0,0:0:0:0:
68,260,113056,1,0,0:0:0:0:
164,308,113248,1,0,0:0:0:0:
248,88,113441,5,0,0:0:0:0:
144,216,113633,1,0,0:0:0:0:
328,120,113825,5,0,0:0:0:0:
336,104,113921,1,0,0:0:0:0:
338,88,114018,1,0,0:0:0:0:
336,72,114114,1,0,0:0:0:0:
328,56,114210,1,0,0:0:0:0:
248,88,114402,1,0,0:0:0:0:
324,320,114594,6,0,P|331:275|312:208,1,90
216,368,114979,1,0,0:0:0:0:
404,176,115171,2,0,P|368:204|244:176,1,180
148,80,115748,2,0,L|365:118,1,180
188,232,116325,2,0,L|86:213,1,90
142,49,116710,5,0,0:0:0:0:
145,65,116806,1,0,0:0:0:0:
148,80,116902,1,0,0:0:0:0:
0,204,117095,1,0,0:0:0:0:
3,188,117191,1,0,0:0:0:0:
6,173,117287,1,0,0:0:0:0:
72,300,117479,1,0,0:0:0:0:
204,372,117671,6,0,B|116:340|116:404|24:372,1,180
116,232,118248,2,0,B|204:200|204:264|296:232,1,180
248,152,118825,2,0,L|285:356,1,180
384,208,119402,2,0,L|366:105,1,90
364,104,119691,1,0,0:0:0:0:
361,88,119787,1,0,0:0:0:0:
358,72,119883,1,0,0:0:0:0:
355,57,119979,1,0,0:0:0:0:
256,0,120171,1,0,0:0:0:0:
156,140,120364,6,0,B|142:96|142:96|154:54,1,90
212,228,120748,2,0,B|226:272|226:272|214:314,1,90
244,148,121133,2,0,L|355:167,1,90
136,276,121518,2,0,L|26:256,1,90
160,376,121902,6,0,P|236:340|332:392,1,180
392,232,122479,2,0,B|410:334,1,90
488,184,122864,2,0,B|502:140|502:140|490:98,2,90
268,52,123441,5,0,0:0:0:0:
408,128,123633,1,0,0:0:0:0:
176,120,123825,1,0,0:0:0:0:
376,32,124018,1,0,0:0:0:0:
244,200,124210,1,0,0:0:0:0:
108,56,124402,1,0,0:0:0:0:
312,120,124594,1,0,0:0:0:0:
108,196,124787,6,0,P|80:268|124:376,1,180
200,272,125364,1,0,0:0:0:0:
304,372,125556,1,0,0:0:0:0:
288,369,125652,1,0,0:0:0:0:
273,366,125748,1,0,0:0:0:0:
160,188,125941,5,0,0:0:0:0:
292,268,126133,1,0,0:0:0:0:
140,340,126325,1,0,0:0:0:0:
200,272,126518,1,0,0:0:0:0:
444,344,126902,6,0,B|452:300|452:300|440:240,1,90
360,104,127287,1,0,0:0:0:0:
312,180,127479,2,0,B|400:212|400:148|492:180,1,180
350,20,128056,2,0,P|283:75|296:160,1,180
216,312,128633,2,0,P|229:269|219:225,1,90
64,256,129018,5,0,0:0:0:0:
80,258,129114,1,0,0:0:0:0:
96,261,129210,1,0,0:0:0:0:
112,264,129306,1,0,0:0:0:0:
128,267,129402,1,0,0:0:0:0:
144,180,129594,1,0,0:0:0:0:
408,360,129979,6,0,L|219:326,1,180
324,164,130556,2,0,L|341:262,1,90
240,216,130941,1,0,0:0:0:0:
256,108,131133,6,0,P|332:144|428:92,1,180
336,44,131710,1,0,0:0:0:0:
496,140,131902,1,0,0:0:0:0:
504,124,131998,1,0,0:0:0:0:
506,108,132095,1,0,0:0:0:0:
504,92,132191,1,0,0:0:0:0:
496,76,132287,1,0,0:0:0:0:
336,44,132479,1,0,0:0:0:0:
380,240,132671,6,0,L|262:219,1,90
128,112,133056,2,0,L|247:132,1,90
204,320,133441,2,0,L|185:209,1,90
104,288,133825,1,0,0:0:0:0:
292,368,134018,6,0,P|302:310|284:267,1,90
204,128,134402,2,0,P|250:164|296:171,1,90
456,172,134787,2,0,P|402:192|373:229,1,90
464,268,135171,1,0,0:0:0:0:
364,116,135364,1,0,0:0:0:0:
497,36,135556,6,0,B|409:72|409:0|317:36,1,180
188,140,136133,2,0,B|278:125,1,90
120,32,136518,2,0,B|29:46,1,90
92,212,136902,2,0,P|103:168|92:125,1,90
28,280,137287,5,0,0:0:0:0:
64,304,137383,1,0,0:0:0:0:
108,304,137479,1,0,0:0:0:0:
148,280,137576,1,0,0:0:0:0:
188,264,137672,1,0,0:0:0:0:
232,264,137768,1,0,0:0:0:0:
272,284,137864,2,0,L|360:284,3,45
224,360,138249,2,0,L|156:360,3,45
252,384,138633,1,0,0:0:0:0:
344,200,138826,5,0,0:0:0:0:
412,336,139018,1,0,0:0:0:0:
392,108,139210,1,0,0:0:0:0:
348,96,139306,1,0,0:0:0:0:
304,104,139403,1,0,0:0:0:0:
268,132,139499,1,0,0:0:0:0:
244,168,139595,1,0,0:0:0:0:
244,208,139691,1,0,0:0:0:0:
268,252,139787,1,0,0:0:0:0:
292,212,139883,1,0,0:0:0:0:
292,168,139979,1,0,0:0:0:0:
268,132,140075,1,0,0:0:0:0:
232,104,140171,1,0,0:0:0:0:
188,96,140268,1,0,0:0:0:0:
144,108,140364,6,0,B|104:132|60:132|60:132|104:132|144:164,1,180
72,316,140941,2,0,B|67:292|48:275|48:275|54:241|77:229,1,90
168,264,141326,1,0,0:0:0:0:
264,316,141518,2,0,B|268:292|287:275|287:275|281:241|258:229,1,90
404,368,141903,6,0,B|424:316|392:280|392:280|380:236|408:196,1,180
352,112,142479,2,0,B|368:109|390:93|390:93|412:101|443:96,1,90
269,237,142864,2,0,B|253:234|231:218|231:218|209:226|178:221,1,90
192,128,143249,1,0,0:0:0:0:
220,324,143441,2,0,B|172:308|133:339|133:339|86:323|51:354,2,180
40,140,144403,5,0,0:0:0:0:
120,252,144595,1,0,0:0:0:0:
164,124,144787,1,0,0:0:0:0:
12,236,144979,1,0,0:0:0:0:
96,56,145172,2,0,B|72:51|72:51|34:61|-2:30,1,90
224,192,145556,2,0,B|307:178|307:178|359:193|404:153,1,180
340,8,146133,2,0,B|351:12|357:45|357:45|338:62|334:86,1,90
492,196,146518,6,0,B|512:144|480:108|480:108|468:64|496:24,1,180
396,160,147095,1,0,0:0:0:0:
416,292,147287,2,0,B|440:296|462:288|462:288|484:304|500:307,1,90
312,244,147672,2,0,B|287:248|265:240|265:240|243:256|227:259,1,90
219,265,147960,1,0,0:0:0:0:
212,272,148056,6,0,B|188:288|180:328|180:328|176:264|112:224,1,180
208,168,148633,1,0,0:0:0:0:
80,324,148826,1,0,0:0:0:0:
152,112,149018,1,0,0:0:0:0:
188,88,149114,1,0,0:0:0:0:
232,88,149210,1,0,0:0:0:0:
268,112,149306,1,0,0:0:0:0:
308,136,149403,1,0,0:0:0:0:
352,136,149499,1,0,0:0:0:0:
388,112,149595,5,0,0:0:0:0:
344,240,149787,1,0,0:0:0:0:
320,48,149979,1,0,0:0:0:0:
452,288,150364,5,0,0:0:0:0:
252,236,150556,1,0,0:0:0:0:
488,160,150749,1,0,0:0:0:0:
256,336,151133,5,0,0:0:0:0:
196,152,151326,1,0,0:0:0:0:
344,272,151518,1,0,0:0:0:0:
168,272,151710,2,0,B|144:267|144:267|106:277|70:246,1,90
320,152,152095,2,0,B|403:138|403:138|455:153|500:113,1,180
428,48,152576,1,0,0:0:0:0:
420,64,152672,6,0,B|400:116|432:152|432:152|444:196|416:236,1,180
510,331,153249,2,0,B|484:331|464:319|464:319|440:331|424:332,1,90
340,184,153633,1,0,0:0:0:0:
232,300,153826,2,0,B|257:299|277:287|277:287|302:299|318:300,1,90
164,116,154210,6,0,B|215:147|219:211|219:211|227:171|251:155,1,180
116,204,154787,2,0,B|100:200|77:184|77:184|56:192|31:189,1,90
108,40,155172,2,0,B|123:36|146:20|146:20|167:28|192:25,1,90
344,132,155556,1,0,0:0:0:0:
240,244,155749,2,0,B|224:196|255:157|255:157|239:110|270:75,2,180
152,136,156710,5,0,0:0:0:0:
336,220,156903,1,0,0:0:0:0:
152,340,157095,1,0,0:0:0:0:
64,108,157287,2,0,B|44:160|76:196|76:196|88:240|60:280,1,180
152,340,157864,1,0,0:0:0:0:
240,228,158056,2,0,B|229:232|223:265|223:265|242:282|246:306,1,90
160,164,158441,1,0,0:0:0:0:
196,136,158537,1,0,0:0:0:0:
240,124,158633,1,0,0:0:0:0:
284,136,158729,1,0,0:0:0:0:
320,164,158826,5,0,0:0:0:0:
408,88,159018,1,0,0:0:0:0:
320,296,159210,1,0,0:0:0:0:
432,228,159403,5,0,0:0:0:0:
192,228,159595,1,0,0:0:0:0:
320,384,159787,1,0,0:0:0:0:
256,160,159979,1,0,0:0:0:0:
192,316,160172,5,0,0:0:0:0:
144,96,160364,1,0,0:0:0:0:
308,236,160556,1,0,0:0:0:0:
76,160,160749,1,0,0:0:0:0:
312,92,160941,5,0,0:0:0:0:
192,228,161133,1,0,0:0:0:0:
256,0,161326,1,0,0:0:0:0:
368,168,161518,1,0,0:0:0:0:
424,92,161710,1,0,0:0:0:0:
508,352,161903,5,0,0:0:0:0:
356,296,162095,1,0,0:0:0:0:
480,208,162287,1,0,0:0:0:0:
388,384,162479,2,0,B|348:390|348:390|327:390|304:370,1,90
256,176,162864,2,0,B|281:207|281:207|291:225|285:255,1,90
140,384,163249,2,0,B|154:346|154:346|165:328|194:318,1,90
336,116,163633,5,0,0:0:0:0:
300,144,163729,1,0,0:0:0:0:
256,152,163826,1,0,0:0:0:0:
212,144,163922,1,0,0:0:0:0:
176,116,164018,1,0,0:0:0:0:
256,48,164210,1,0,0:0:0:0:
172,248,164403,2,0,B|211:223|255:247|255:247|299:223|343:247,1,180
256,344,164979,5,0,0:0:0:0:
256,40,166518,5,0,0:0:0:0:
176,76,166710,1,0,0:0:0:0:
320,104,166903,1,0,0:0:0:0:
244,168,167095,1,0,0:0:0:0:
241,157,167192,1,0,0:0:0:0:
240,149,167288,1,0,0:0:0:0:
239,141,167384,1,0,0:0:0:0:
237,133,167480,1,0,0:0:0:0:
260,264,167672,1,0,0:0:0:0:
132,64,177287,5,0,0:0:0:0:
440,196,177672,1,0,0:0:0:0:
132,320,178056,5,0,0:0:0:0:
180,212,178249,1,0,0:0:0:0:
240,360,178441,1,0,0:0:0:0:
56,212,178633,1,0,0:0:0:0:
264,48,178826,5,0,0:0:0:0:
240,140,179018,1,0,0:0:0:0:
164,24,179210,1,0,0:0:0:0:
140,116,179402,1,0,0:0:0:0:
324,264,179787,1,0,0:0:0:0:
401,307,179979,2,0,P|413:257|381:199,1,90
308,136,180364,6,0,B|351:143|351:143|383:124|383:124|453:137,2,135.000005149842
188,52,181326,2,0,L|274:67,1,67.5000025749208
224,268,181710,2,0,B|196:180|196:180|232:128,1,135.000005149842
296,192,182287,1,0,0:0:0:0:
224,352,182672,1,0,0:0:0:0:
84,324,183056,2,0,L|150:312,1,67.5000025749208
303,313,183441,6,0,B|346:321|346:321|378:302|378:302|432:312,2,135.000005149842
257,216,184403,2,0,L|324:228,1,67.5000025749208
188,288,184787,2,0,B|160:200|160:200|196:148,1,135.000005149842
272,128,185364,5,0,0:0:0:0:
284,130,185460,1,0,0:0:0:0:
296,133,185556,2,0,L|337:140,1,33.7500012874604
392,84,185749,1,0,0:0:0:0:
424,236,185941,1,0,0:0:0:0:
512,172,186133,1,0,0:0:0:0:
500,170,186229,1,0,0:0:0:0:
488,168,186326,1,0,0:0:0:0:
356,296,186518,6,0,B|399:304|399:304|431:285|431:285|485:295,2,135.000005149842
217,340,187479,2,0,L|284:352,1,67.5000025749208
160,264,187864,2,0,L|93:252,1,67.5000025749208
17,308,188249,1,0,0:0:0:0:
8,192,188441,1,0,0:0:0:0:
10,204,188538,1,0,0:0:0:0:
12,216,188634,1,0,0:0:0:0:
92,144,188826,5,0,0:0:0:0:
94,156,188923,1,0,0:0:0:0:
96,168,189019,1,0,0:0:0:0:
8,84,189210,1,0,0:0:0:0:
10,96,189307,1,0,0:0:0:0:
12,108,189403,1,0,0:0:0:0:
84,20,189595,6,0,L|150:31,3,45
192,112,189979,2,0,L|236:104,3,45
304,12,190364,2,0,L|370:23,3,45
412,104,190748,2,0,L|456:96,3,45
508,172,191133,5,0,0:0:0:0:
506,184,191230,1,0,0:0:0:0:
504,196,191326,1,0,0:0:0:0:
400,208,191518,1,0,0:0:0:0:
402,223,191615,1,0,0:0:0:0:
405,239,191711,1,0,0:0:0:0:
300,140,191903,5,0,0:0:0:0:
295,163,192000,1,0,0:0:0:0:
291,187,192096,1,0,0:0:0:0:
172,128,192287,1,0,0:0:0:0:
179,171,192383,1,0,0:0:0:0:
187,214,192479,1,0,0:0:0:0:
194,257,192576,1,0,0:0:0:0:
202,301,192672,6,0,L|216:364,3,45
336,344,193056,2,0,L|345:300,3,45
364,296,193441,1,0,0:0:0:0:
387,291,193538,1,0,0:0:0:0:
411,287,193634,1,0,0:0:0:0:
500,196,193826,1,0,0:0:0:0:
457,189,193922,1,0,0:0:0:0:
414,181,194018,1,0,0:0:0:0:
256,160,194210,5,0,0:0:0:0:
352,48,194403,1,0,0:0:0:0:
256,288,194595,1,0,0:0:0:0:
152,48,194787,1,0,0:0:0:0:
109,56,194883,1,0,0:0:0:0:
66,63,194979,1,0,0:0:0:0:
24,184,195172,5,0,0:0:0:0:
67,177,195268,1,0,0:0:0:0:
110,169,195364,1,0,0:0:0:0:
153,162,195461,1,0,0:0:0:0:
197,154,195557,2,0,L|260:140,1,45
344,124,195749,5,0,0:0:0:0:
308,208,195941,1,0,0:0:0:0:
272,60,196133,5,0,0:0:0:0:
300,40,196229,1,0,0:0:0:0:
336,28,196326,1,0,0:0:0:0:
372,32,196422,1,0,0:0:0:0:
400,52,196518,1,0,0:0:0:0:
420,80,196614,1,0,0:0:0:0:
428,116,196710,1,0,0:0:0:0:
420,152,196806,1,0,0:0:0:0:
404,180,196903,5,0,0:0:0:0:
380,204,196999,1,0,0:0:0:0:
356,232,197095,1,0,0:0:0:0:
344,268,197191,1,0,0:0:0:0:
356,300,197287,5,0,0:0:0:0:
392,308,197383,1,0,0:0:0:0:
416,280,197479,1,0,0:0:0:0:
412,244,197576,1,0,0:0:0:0:
384,220,197672,5,0,0:0:0:0:
348,208,197768,1,0,0:0:0:0:
316,212,197864,1,0,0:0:0:0:
284,232,197960,1,0,0:0:0:0:
256,252,198056,1,0,0:0:0:0:
220,264,198153,1,0,0:0:0:0:
184,256,198249,1,0,0:0:0:0:
152,240,198345,1,0,0:0:0:0:
132,212,198441,6,0,L|136:184,8,22.5
4,60,199595,5,0,0:0:0:0:
63,70,199691,1,0,0:0:0:0:
122,80,199787,1,0,0:0:0:0:
181,91,199883,1,0,0:0:0:0:
240,101,199979,1,0,0:0:0:0:
299,112,200076,1,0,0:0:0:0:
356,124,200172,6,0,B|380:140|388:180|388:180|392:116|456:76,1,180
284,200,200749,1,0,0:0:0:0:
452,264,200941,1,0,0:0:0:0:
452,264,201037,1,0,0:0:0:0:
452,264,201133,2,0,B|436:267|415:283|415:283|393:275|368:279,1,90
208,336,201518,2,0,B|224:339|245:355|245:355|267:347|292:351,1,90
248,164,201903,6,0,B|270:188|260:226|260:226|264:250,1,90
160,208,202287,1,0,0:0:0:0:
344,124,202479,1,0,0:0:0:0:
344,124,202576,1,0,0:0:0:0:
344,124,202672,1,0,0:0:0:0:
248,64,202864,5,0,0:0:0:0:
372,212,203056,1,0,0:0:0:0:
388,24,203249,1,0,0:0:0:0:
464,168,203441,6,0,B|468:144|468:144|458:106|480:81,2,90
396,320,204018,2,0,B|392:296|392:296|402:258|379:233,1,90
376,224,204306,1,0,0:0:0:0:
372,212,204403,1,0,0:0:0:0:
156,280,204595,1,0,0:0:0:0:
188,312,204691,1,0,0:0:0:0:
232,324,204787,1,0,0:0:0:0:
276,312,204883,1,0,0:0:0:0:
304,280,204979,5,0,0:0:0:0:
168,92,205172,1,0,0:0:0:0:
228,236,205364,1,0,0:0:0:0:
368,128,205556,1,0,0:0:0:0:
368,128,205653,1,0,0:0:0:0:
368,128,205749,2,0,B|342:128|322:116|322:116|298:128|282:129,1,90
72,72,206133,2,0,B|98:72|118:84|118:84|142:72|158:71,1,90
264,20,206518,5,0,0:0:0:0:
200,248,206710,2,0,B|178:224|188:186|188:186|184:162,2,90
124,296,207287,1,0,0:0:0:0:
156,328,207383,1,0,0:0:0:0:
200,340,207479,1,0,0:0:0:0:
244,328,207576,1,0,0:0:0:0:
276,296,207672,1,0,0:0:0:0:
304,276,207768,1,0,0:0:0:0:
340,268,207864,1,0,0:0:0:0:
376,276,207960,1,0,0:0:0:0:
404,300,208056,5,0,0:0:0:0:
512,232,208249,1,0,0:0:0:0:
324,176,208441,1,0,0:0:0:0:
480,360,208826,5,0,0:0:0:0:
408,120,209018,1,0,0:0:0:0:
332,360,209210,1,0,0:0:0:0:
488,48,209595,5,0,0:0:0:0:
332,260,209787,1,0,0:0:0:0:
208,48,209979,1,0,0:0:0:0:
240,160,210172,1,0,0:0:0:0:
204,153,210268,1,0,0:0:0:0:
169,147,210364,1,0,0:0:0:0:
56,264,210556,2,0,B|108:284|144:252|144:252|188:240|228:268,1,180
292,312,211037,1,0,0:0:0:0:
304,320,211133,6,0,B|328:336|336:376|336:376|340:312|404:272,1,180
308,136,211710,1,0,0:0:0:0:
308,136,211806,1,0,0:0:0:0:
308,136,211903,2,0,B|296:139|290:173|290:173|309:190|313:214,1,90
416,136,212287,2,0,B|420:112|439:95|439:95|433:61|421:58,1,90
201,136,212672,6,0,B|181:178|201:219|201:219|239:249|228:304,1,180
144,384,213249,1,0,0:0:0:0:
144,384,213345,1,0,0:0:0:0:
144,384,213441,1,0,0:0:0:0:
52,304,213633,2,0,B|68:301|89:285|89:285|111:293|136:289,1,90
256,376,214018,1,0,0:0:0:0:
460,304,214210,6,0,B|444:301|423:285|423:285|401:293|376:289,2,90
412,384,214787,1,0,0:0:0:0:
412,384,214883,1,0,0:0:0:0:
412,384,214979,1,0,0:0:0:0:
388,200,215172,5,0,0:0:0:0:
236,300,215364,1,0,0:0:0:0:
496,200,215556,1,0,0:0:0:0:
336,128,215749,2,0,B|371:97|418:113|418:113|457:82|505:98,1,180
244,172,216326,5,0,0:0:0:0:
244,172,216422,1,0,0:0:0:0:
244,172,216518,2,0,B|222:148|232:110|232:110|228:86,1,90
320,224,216903,1,0,0:0:0:0:
292,256,216999,1,0,0:0:0:0:
248,268,217095,1,0,0:0:0:0:
204,256,217191,1,0,0:0:0:0:
172,224,217287,5,0,0:0:0:0:
100,344,217479,1,0,0:0:0:0:
88,100,217672,1,0,0:0:0:0:
244,172,217864,5,0,0:0:0:0:
24,252,218056,1,0,0:0:0:0:
56,20,218249,1,0,0:0:0:0:
120,176,218441,1,0,0:0:0:0:
176,20,218633,5,0,0:0:0:0:
120,260,218826,1,0,0:0:0:0:
28,144,219018,1,0,0:0:0:0:
292,148,219210,1,0,0:0:0:0:
176,40,219403,5,0,0:0:0:0:
292,252,219595,1,0,0:0:0:0:
404,44,219787,1,0,0:0:0:0:
180,152,219979,1,0,0:0:0:0:
404,288,220172,5,0,0:0:0:0:
272,48,220364,1,0,0:0:0:0:
504,136,220556,1,0,0:0:0:0:
184,272,220749,1,0,0:0:0:0:
396,132,220941,2,0,B|404:92|404:92|411:72|437:57,1,90
74,57,221326,2,0,B|100:72|107:92|107:92|116:132,1,90
256,308,221710,6,0,B|276:255|244:219|244:219|231:175|258:137,1,180
284,112,222191,1,0,0:0:0:0:
276,76,222287,1,0,0:0:0:0:
240,76,222383,1,0,0:0:0:0:
228,108,222479,1,0,0:0:0:0:
368,192,222672,1,0,0:0:0:0:
144,192,222864,1,0,0:0:0:0:
256,384,223441,5,0,0:0:0:0:
256,0,224979,5,0,0:0:0:0:
308,96,225172,1,0,0:0:0:0:
352,12,225364,1,0,0:0:0:0:
180,100,225556,1,0,0:0:0:0:
191,97,225653,1,0,0:0:0:0:
199,96,225749,1,0,0:0:0:0:
207,95,225845,1,0,0:0:0:0:
215,93,225941,1,0,0:0:0:0:
352,176,226133,1,0,0:0:0:0:
256,372,226518,5,0,0:0:0:0:
176,224,226710,1,0,0:0:0:0:
380,320,226903,1,0,0:0:0:0:
100,352,227095,2,0,B|140:268|60:268|100:180,1,180
252,92,227672,6,0,P|263:140|245:188,1,90
168,20,228056,1,0,0:0:0:0:
372,124,228249,2,0,L|474:105,1,90
340,20,228633,1,0,0:0:0:0:
440,208,228826,5,0,0:0:0:0:
504,32,229018,1,0,0:0:0:0:
320,208,229210,1,0,0:0:0:0:
492,316,229403,1,0,0:0:0:0:
232,168,229595,6,0,B|192:256|272:256|232:340,1,180
136,304,230172,1,0,0:0:0:0:
320,208,230364,1,0,0:0:0:0:
144,96,230556,1,0,0:0:0:0:
0,185,230749,6,0,B|44:197|44:197|100:181,1,90
144,96,231133,1,0,0:0:0:0:
301,9,231326,2,0,B|257:-3|257:-3|201:13,1,90
368,96,231710,1,0,0:0:0:0:
316,252,231903,5,0,0:0:0:0:
256,92,232095,1,0,0:0:0:0:
488,56,232287,5,0,0:0:0:0:
412,328,232479,1,0,0:0:0:0:
