osu file format v14

[General]
AudioFilename: long.mp3
AudioLeadIn: 0
PreviewTime: 64402
Countdown: 0
SampleSet: Normal
StackLeniency: 0.7
Mode: 1
LetterboxInBreaks: 0
WidescreenStoryboard: 0

[Editor]
DistanceSpacing: 1
BeatDivisor: 4
GridSize: 8
TimelineZoom: 1.8

[Metadata]
Title:Kuon no Yoru
TitleUnicode:久遠の夜
Artist:Fukuyama Saori
ArtistUnicode:福山沙織
Creator:Tomoka Rin
Version:Oni
Source:太鼓の達人
Tags:Taiko no Tatsujin Chiho Hashimoto 橋本千歩 中川弾 Nakagawa Dan
BeatmapID:1175619
BeatmapSetID:555457

[Difficulty]
HPDrainRate:5
CircleSize:5
OverallDifficulty:5
ApproachRate:5
SliderMultiplier:1.4
SliderTickRate:1

[Events]
//Background and Video events
0,0,"054.jpg",0,0
//Break Periods
//Storyboard Layer 0 (Background)
//Storyboard Layer 1 (Fail)
//Storyboard Layer 2 (Pass)
//Storyboard Layer 3 (Foreground)
//Storyboard Sound Samples

[TimingPoints]
9592,324.324324324324,4,1,0,80,1,0
21267,-100,4,1,0,40,0,0
29051,-100,4,1,0,80,0,0
31646,-100,4,1,0,40,0,0
39105,-100,4,1,0,50,0,0
42024,-100,4,1,0,40,0,0
47213,-100,4,1,0,50,0,0
52402,-100,4,1,0,60,0,0
65375,-100,4,1,0,80,0,1
90024,-100,4,1,0,80,0,0

[HitObjects]
184,128,9592,5,2,0:0:0:0:
192,136,9916,1,2,0:0:0:0:
184,128,10240,5,2,0:0:0:0:
184,128,10402,1,2,0:0:0:0:
184,128,10483,1,2,0:0:0:0:
184,128,10564,1,0,0:0:0:0:
184,128,10646,1,0,0:0:0:0:
184,128,10727,1,2,0:0:0:0:
160,168,11051,5,0,0:0:0:0:
144,168,11213,1,2,0:0:0:0:
144,168,11537,1,0,0:0:0:0:
144,168,11700,1,0,0:0:0:0:
144,168,11862,1,2,0:0:0:0:
88,64,12024,1,0,0:0:0:0:
216,136,12348,1,0,0:0:0:0:
216,136,12429,1,0,0:0:0:0:
216,136,12510,1,2,0:0:0:0:
216,136,12673,1,0,0:0:0:0:
184,128,12835,1,0,0:0:0:0:
184,128,12997,1,2,0:0:0:0:
184,184,13159,1,2,0:0:0:0:
184,184,13321,1,0,0:0:0:0:
192,88,13646,5,0,0:0:0:0:
216,136,13808,1,2,0:0:0:0:
216,136,13970,1,0,0:0:0:0:
216,136,14132,1,0,0:0:0:0:
216,136,14213,1,0,0:0:0:0:
216,136,14294,1,2,0:0:0:0:
216,136,14456,1,2,0:0:0:0:
216,136,14619,1,0,0:0:0:0:
192,88,14700,1,0,0:0:0:0:
160,88,14781,1,0,0:0:0:0:
200,176,14943,1,0,0:0:0:0:
200,176,15105,1,2,0:0:0:0:
192,88,15429,1,0,0:0:0:0:
192,88,15510,1,0,0:0:0:0:
192,88,15592,1,0,0:0:0:0:
216,136,15754,1,2,0:0:0:0:
200,176,15916,1,0,0:0:0:0:
200,160,16078,5,0,0:0:0:0:
216,136,16240,1,0,0:0:0:0:
200,176,16402,1,2,0:0:0:0:
216,136,16727,1,0,0:0:0:0:
216,136,16808,1,0,0:0:0:0:
216,136,16889,1,0,0:0:0:0:
200,176,17051,1,2,0:0:0:0:
200,176,17213,1,0,0:0:0:0:
200,176,17537,1,0,0:0:0:0:
200,176,17700,1,2,0:0:0:0:
200,176,18024,1,0,0:0:0:0:
200,176,18186,1,2,0:0:0:0:
200,176,18348,1,2,0:0:0:0:
200,176,18429,1,2,0:0:0:0:
200,176,18510,1,0,0:0:0:0:
256,192,18673,12,0,19970,0:0:0:0:
168,160,20213,5,2,0:0:0:0:
168,160,20294,1,0,0:0:0:0:
168,160,20456,1,2,0:0:0:0:
168,160,20619,1,0,0:0:0:0:
168,160,20700,1,0,0:0:0:0:
168,160,20781,1,2,0:0:0:0:
168,160,20943,1,2,0:0:0:0:
136,208,21105,1,2,0:0:0:0:
128,224,21267,5,0,0:0:0:0:
128,224,21592,1,0,0:0:0:0:
128,224,21916,1,0,0:0:0:0:
128,224,22240,1,0,0:0:0:0:
128,224,22564,1,0,0:0:0:0:
128,224,22889,1,0,0:0:0:0:
128,224,23213,1,2,0:0:0:0:
128,224,23375,1,0,0:0:0:0:
128,224,23537,1,0,0:0:0:0:
128,224,23700,1,0,0:0:0:0:
128,224,23862,5,2,0:0:0:0:
128,224,24186,1,0,0:0:0:0:
128,224,24510,1,0,0:0:0:0:
128,224,24835,1,0,0:0:0:0:
128,224,25159,1,0,0:0:0:0:
128,224,25321,1,0,0:0:0:0:
184,200,25483,1,2,0:0:0:0:
208,160,25808,5,0,0:0:0:0:
184,200,25970,1,2,0:0:0:0:
184,200,26132,1,2,0:0:0:0:
184,200,26294,1,2,0:0:0:0:
128,224,26456,1,0,0:0:0:0:
128,224,26781,1,0,0:0:0:0:
128,224,27105,1,0,0:0:0:0:
128,224,27429,1,0,0:0:0:0:
128,224,27754,1,0,0:0:0:0:
128,224,28078,1,2,0:0:0:0:
128,224,28240,1,0,0:0:0:0:
112,152,28402,1,2,0:0:0:0:
128,224,28564,1,0,0:0:0:0:
128,224,28727,1,2,0:0:0:0:
128,224,28889,1,2,0:0:0:0:
168,168,28970,1,2,0:0:0:0:
128,224,29051,1,2,0:0:0:0:
128,224,29375,5,4,0:0:0:0:
128,224,29699,1,2,0:0:0:0:
128,224,30024,1,4,0:0:0:0:
176,96,30348,1,2,0:0:0:0:
176,96,30673,1,4,0:0:0:0:
176,96,30997,1,2,0:0:0:0:
176,96,31321,1,4,0:0:0:0:
128,224,31646,5,0,0:0:0:0:
128,224,31970,1,0,0:0:0:0:
128,224,32295,1,0,0:0:0:0:
128,224,32619,1,0,0:0:0:0:
128,224,32781,1,0,0:0:0:0:
128,224,32943,1,2,0:0:0:0:
128,224,33267,1,0,0:0:0:0:
128,224,33429,1,0,0:0:0:0:
128,224,33591,1,2,0:0:0:0:
128,224,33754,1,0,0:0:0:0:
128,224,33835,1,0,0:0:0:0:
128,224,33916,1,2,0:0:0:0:
128,224,33997,1,0,0:0:0:0:
128,224,34078,1,0,0:0:0:0:
128,224,34240,5,0,0:0:0:0:
128,224,34564,1,0,0:0:0:0:
128,224,34889,1,0,0:0:0:0:
184,200,35213,1,0,0:0:0:0:
208,160,35375,1,0,0:0:0:0:
184,200,35537,1,2,0:0:0:0:
184,200,35862,1,2,0:0:0:0:
184,200,36024,1,2,0:0:0:0:
120,144,36105,1,2,0:0:0:0:
120,144,36186,1,0,0:0:0:0:
184,104,36348,1,2,0:0:0:0:
184,104,36510,1,2,0:0:0:0:
184,104,36673,1,0,0:0:0:0:
256,216,36835,5,0,0:0:0:0:
184,200,37159,1,0,0:0:0:0:
184,200,37483,1,0,0:0:0:0:
184,232,37808,1,0,0:0:0:0:
184,232,37970,1,2,0:0:0:0:
184,232,38051,1,2,0:0:0:0:
184,232,38132,1,2,0:0:0:0:
184,232,38294,1,0,0:0:0:0:
184,232,38456,1,0,0:0:0:0:
184,232,38619,1,2,0:0:0:0:
184,232,38781,1,0,0:0:0:0:
184,232,38943,1,0,0:0:0:0:
184,232,39105,1,2,0:0:0:0:
184,232,39267,1,0,0:0:0:0:
152,216,39348,1,0,0:0:0:0:
168,224,39429,1,2,0:0:0:0:
192,176,40889,5,0,0:0:0:0:
192,176,41051,1,0,0:0:0:0:
192,176,41132,1,0,0:0:0:0:
192,176,41213,1,2,0:0:0:0:
192,176,41375,1,2,0:0:0:0:
176,176,41537,1,0,0:0:0:0:
176,176,41700,1,0,0:0:0:0:
176,176,41862,1,0,0:0:0:0:
192,176,42024,1,2,0:0:0:0:
144,208,42186,1,0,0:0:0:0:
144,208,42348,1,2,0:0:0:0:
144,208,42510,1,0,0:0:0:0:
144,208,42592,1,0,0:0:0:0:
144,208,42673,1,2,0:0:0:0:
144,208,42835,1,0,0:0:0:0:
144,208,42997,1,2,0:0:0:0:
192,176,43321,5,2,0:0:0:0:
144,208,43483,1,0,0:0:0:0:
144,208,43645,1,2,0:0:0:0:
144,208,43808,1,2,0:0:0:0:
144,208,43889,1,2,0:0:0:0:
144,208,43970,1,0,0:0:0:0:
144,208,44132,1,0,0:0:0:0:
144,208,44294,1,2,0:0:0:0:
192,176,44619,5,2,0:0:0:0:
144,208,44781,1,0,0:0:0:0:
144,208,44943,1,2,0:0:0:0:
144,208,45105,1,0,0:0:0:0:
144,208,45187,1,0,0:0:0:0:
144,208,45268,1,2,0:0:0:0:
144,208,45430,1,0,0:0:0:0:
112,208,45592,1,2,0:0:0:0:
192,176,45916,5,0,0:0:0:0:
168,120,46159,1,0,0:0:0:0:
168,120,46240,1,2,0:0:0:0:
168,120,46402,1,2,0:0:0:0:
168,120,46564,1,0,0:0:0:0:
192,176,46727,1,0,0:0:0:0:
192,176,46808,1,0,0:0:0:0:
192,176,46889,1,2,0:0:0:0:
192,176,47213,5,2,0:0:0:0:
144,208,47375,1,0,0:0:0:0:
144,208,47537,1,2,0:0:0:0:
144,208,47699,1,0,0:0:0:0:
144,208,47781,1,0,0:0:0:0:
144,208,47862,1,2,0:0:0:0:
144,208,48024,1,0,0:0:0:0:
144,208,48186,1,2,0:0:0:0:
192,176,48510,5,2,0:0:0:0:
144,208,48672,1,0,0:0:0:0:
144,208,48834,1,2,0:0:0:0:
144,208,48996,1,2,0:0:0:0:
144,208,49078,1,2,0:0:0:0:
144,208,49159,1,0,0:0:0:0:
144,208,49321,1,0,0:0:0:0:
144,208,49483,1,2,0:0:0:0:
192,176,49808,5,2,0:0:0:0:
144,208,49970,1,0,0:0:0:0:
144,208,50132,1,2,0:0:0:0:
144,208,50294,1,0,0:0:0:0:
144,208,50376,1,0,0:0:0:0:
144,208,50457,1,2,0:0:0:0:
144,208,50619,1,0,0:0:0:0:
112,208,50781,1,2,0:0:0:0:
192,176,51105,5,0,0:0:0:0:
176,168,51267,1,0,0:0:0:0:
168,120,51429,1,2,0:0:0:0:
168,120,51591,1,2,0:0:0:0:
168,120,51753,1,0,0:0:0:0:
192,176,51916,1,2,0:0:0:0:
192,176,51997,1,2,0:0:0:0:
192,176,52078,1,0,0:0:0:0:
144,168,52240,1,2,0:0:0:0:
192,176,52402,5,0,0:0:0:0:
144,208,52564,1,0,0:0:0:0:
144,208,52726,1,2,0:0:0:0:
144,208,52888,1,0,0:0:0:0:
144,208,52970,1,0,0:0:0:0:
144,208,53051,1,0,0:0:0:0:
144,208,53213,1,0,0:0:0:0:
144,208,53375,1,2,0:0:0:0:
112,208,53537,1,2,0:0:0:0:
192,176,53699,1,0,0:0:0:0:
144,208,53861,1,0,0:0:0:0:
144,208,54023,1,2,0:0:0:0:
144,208,54185,1,0,0:0:0:0:
144,208,54267,1,0,0:0:0:0:
144,208,54348,1,2,0:0:0:0:
144,208,54510,1,0,0:0:0:0:
144,208,54672,1,2,0:0:0:0:
192,176,54997,5,0,0:0:0:0:
144,208,55159,1,2,0:0:0:0:
144,208,55321,1,2,0:0:0:0:
144,208,55483,1,2,0:0:0:0:
144,208,55565,1,2,0:0:0:0:
144,208,55646,1,0,0:0:0:0:
144,208,55808,1,0,0:0:0:0:
112,208,55970,1,2,0:0:0:0:
128,176,56132,1,0,0:0:0:0:
144,208,56294,1,0,0:0:0:0:
168,160,56456,1,0,0:0:0:0:
168,160,56537,1,0,0:0:0:0:
168,160,56619,1,2,0:0:0:0:
168,128,56781,1,0,0:0:0:0:
168,128,56943,1,2,0:0:0:0:
168,160,57024,1,0,0:0:0:0:
168,128,57105,1,0,0:0:0:0:
168,160,57186,1,0,0:0:0:0:
168,128,57267,1,2,0:0:0:0:
240,160,57592,5,0,0:0:0:0:
168,160,57754,1,0,0:0:0:0:
168,160,57916,1,0,0:0:0:0:
168,160,58078,1,0,0:0:0:0:
168,160,58240,1,0,0:0:0:0:
168,160,58402,1,0,0:0:0:0:
168,160,58564,1,0,0:0:0:0:
168,160,58727,1,0,0:0:0:0:
168,160,58889,1,0,0:0:0:0:
168,160,59051,1,0,0:0:0:0:
168,160,59213,1,2,0:0:0:0:
168,160,59294,1,2,0:0:0:0:
168,160,59375,1,0,0:0:0:0:
160,152,59456,1,0,0:0:0:0:
168,160,59537,1,2,0:0:0:0:
168,160,59700,1,2,0:0:0:0:
168,160,59862,1,2,0:0:0:0:
168,160,59943,1,2,0:0:0:0:
168,160,60024,1,0,0:0:0:0:
136,136,60186,1,4,0:0:0:0:
168,24,60673,1,4,0:0:0:0:
168,152,61321,1,4,0:0:0:0:
216,216,61646,5,2,0:0:0:0:
216,216,61808,1,0,0:0:0:0:
216,216,61970,1,0,0:0:0:0:
216,216,62132,1,2,0:0:0:0:
200,176,62294,1,0,0:0:0:0:
200,176,62456,1,2,0:0:0:0:
200,176,62619,1,2,0:0:0:0:
200,176,62700,1,2,0:0:0:0:
160,192,62781,1,0,0:0:0:0:
160,192,63105,1,2,0:0:0:0:
160,192,63267,1,0,0:0:0:0:
160,192,63592,1,2,0:0:0:0:
160,200,63673,1,2,0:0:0:0:
160,192,63754,1,2,0:0:0:0:
144,240,63916,1,4,0:0:0:0:
160,168,65375,5,0,0:0:0:0:
160,168,65537,1,0,0:0:0:0:
160,168,65700,1,2,0:0:0:0:
144,200,65862,1,0,0:0:0:0:
144,200,65943,1,0,0:0:0:0:
144,200,66024,1,0,0:0:0:0:
144,200,66186,1,0,0:0:0:0:
144,200,66348,1,2,0:0:0:0:
160,168,66673,1,0,0:0:0:0:
160,168,66835,1,0,0:0:0:0:
160,168,66997,1,2,0:0:0:0:
160,168,67159,1,0,0:0:0:0:
160,168,67240,1,0,0:0:0:0:
160,168,67321,1,0,0:0:0:0:
160,168,67483,1,2,0:0:0:0:
160,168,67646,1,2,0:0:0:0:
160,168,67970,5,0,0:0:0:0:
160,168,68132,1,0,0:0:0:0:
160,168,68294,1,2,0:0:0:0:
168,136,68456,1,0,0:0:0:0:
160,168,68619,1,0,0:0:0:0:
168,136,68781,1,0,0:0:0:0:
168,136,68943,1,2,0:0:0:0:
168,136,69105,1,0,0:0:0:0:
168,136,69186,1,0,0:0:0:0:
168,136,69267,1,2,0:0:0:0:
168,136,69429,1,0,0:0:0:0:
160,168,69591,1,2,0:0:0:0:
160,168,69754,1,0,0:0:0:0:
168,160,70078,5,0,0:0:0:0:
168,136,70240,1,2,0:0:0:0:
168,136,70402,1,2,0:0:0:0:
160,168,70564,1,0,0:0:0:0:
160,168,70726,1,0,0:0:0:0:
160,168,70889,1,2,0:0:0:0:
144,200,71051,1,0,0:0:0:0:
144,200,71132,1,0,0:0:0:0:
144,200,71213,1,0,0:0:0:0:
144,200,71375,1,0,0:0:0:0:
144,200,71456,1,0,0:0:0:0:
144,200,71537,1,2,0:0:0:0:
160,168,71862,5,0,0:0:0:0:
160,168,72024,1,0,0:0:0:0:
160,168,72187,1,2,0:0:0:0:
144,200,72349,1,0,0:0:0:0:
144,200,72430,1,0,0:0:0:0:
144,200,72511,1,0,0:0:0:0:
144,200,72673,1,2,0:0:0:0:
144,200,72754,1,0,0:0:0:0:
144,200,72835,1,0,0:0:0:0:
144,200,72997,1,0,0:0:0:0:
216,184,73159,2,0,L|360:184,4,140
168,128,74781,1,2,0:0:0:0:
168,128,74943,1,0,0:0:0:0:
168,128,75267,5,2,0:0:0:0:
160,192,75429,1,0,0:0:0:0:
160,192,75591,1,2,0:0:0:0:
160,192,75673,1,2,0:0:0:0:
160,192,75754,1,0,0:0:0:0:
160,192,75916,1,0,0:0:0:0:
160,192,76078,1,2,0:0:0:0:
160,192,76240,1,0,0:0:0:0:
160,224,76321,1,0,0:0:0:0:
160,224,76402,1,0,0:0:0:0:
160,192,76564,1,0,0:0:0:0:
160,192,76727,1,2,0:0:0:0:
160,192,77051,5,2,0:0:0:0:
160,192,77213,1,0,0:0:0:0:
160,192,77294,1,0,0:0:0:0:
160,192,77375,1,2,0:0:0:0:
160,192,77537,1,0,0:0:0:0:
160,192,77700,1,2,0:0:0:0:
160,224,77862,1,2,0:0:0:0:
160,192,78024,1,0,0:0:0:0:
168,200,78186,1,0,0:0:0:0:
184,168,78348,1,2,0:0:0:0:
160,192,78510,1,0,0:0:0:0:
160,192,78673,1,2,0:0:0:0:
160,192,78835,1,2,0:0:0:0:
160,192,78916,1,2,0:0:0:0:
160,192,78997,1,0,0:0:0:0:
160,192,79159,1,0,0:0:0:0:
160,192,79321,1,2,0:0:0:0:
160,192,79646,5,0,0:0:0:0:
184,168,79808,1,2,0:0:0:0:
184,168,79889,1,2,0:0:0:0:
160,192,79970,1,0,0:0:0:0:
160,192,80132,1,0,0:0:0:0:
160,192,80294,1,2,0:0:0:0:
160,192,80456,1,2,0:0:0:0:
160,192,80619,1,0,0:0:0:0:
160,192,80781,1,2,0:0:0:0:
160,192,80862,1,2,0:0:0:0:
160,192,80943,1,0,0:0:0:0:
160,192,81105,1,0,0:0:0:0:
160,192,81186,1,0,0:0:0:0:
160,192,81267,1,2,0:0:0:0:
160,192,81429,1,0,0:0:0:0:
160,192,81591,1,2,0:0:0:0:
160,192,81754,1,0,0:0:0:0:
160,192,81835,1,0,0:0:0:0:
160,192,81916,1,2,0:0:0:0:
160,192,82240,5,0,0:0:0:0:
160,192,82402,1,0,0:0:0:0:
160,192,82564,1,2,0:0:0:0:
160,192,82726,1,2,0:0:0:0:
160,192,82807,1,2,0:0:0:0:
160,192,82888,1,0,0:0:0:0:
160,192,83051,1,0,0:0:0:0:
160,192,83132,1,0,0:0:0:0:
160,192,83213,1,2,0:0:0:0:
160,192,83375,1,0,0:0:0:0:
160,192,83537,1,0,0:0:0:0:
160,192,83700,1,0,0:0:0:0:
160,192,83781,1,0,0:0:0:0:
160,192,83862,1,2,0:0:0:0:
160,192,84024,1,2,0:0:0:0:
160,192,84105,1,2,0:0:0:0:
160,192,84186,1,0,0:0:0:0:
160,192,84348,1,0,0:0:0:0:
160,192,84511,1,2,0:0:0:0:
160,192,84835,5,2,0:0:0:0:
184,160,84997,1,2,0:0:0:0:
160,192,85159,1,0,0:0:0:0:
160,192,85321,1,2,0:0:0:0:
192,192,85483,1,0,0:0:0:0:
160,192,85564,1,0,0:0:0:0:
160,192,85646,1,0,0:0:0:0:
160,192,85808,1,2,0:0:0:0:
160,192,85889,1,2,0:0:0:0:
160,192,85970,1,0,0:0:0:0:
184,224,86132,1,4,0:0:0:0:
184,224,86294,1,4,0:0:0:0:
184,224,86456,1,6,0:0:0:0:
184,224,86619,1,6,0:0:0:0:
160,192,86943,1,2,0:0:0:0:
160,192,87024,1,2,0:0:0:0:
160,192,87105,1,0,0:0:0:0:
144,224,87429,1,4,0:0:0:0:
144,224,87591,1,4,0:0:0:0:
144,224,87754,1,6,0:0:0:0:
144,224,87916,1,6,0:0:0:0:
144,224,88240,5,0,0:0:0:0:
144,224,88321,1,0,0:0:0:0:
144,224,88402,1,2,0:0:0:0:
256,184,88564,1,0,0:0:0:0:
280,64,88727,1,2,0:0:0:0:
392,64,88889,1,0,0:0:0:0:
448,224,89051,1,2,0:0:0:0:
280,64,89213,1,0,0:0:0:0:
288,152,89294,1,0,0:0:0:0:
392,64,89375,1,2,0:0:0:0:
448,224,89537,1,2,0:0:0:0:
48,176,89619,1,2,0:0:0:0:
232,120,89700,1,0,0:0:0:0:
368,144,89781,1,0,0:0:0:0:
304,160,89862,1,0,0:0:0:0:
296,144,90024,1,6,0:0:0:0:
