osu file format v14

[General]
AudioFilename: long.mp3
AudioLeadIn: 0
PreviewTime: 64402
Countdown: 0
SampleSet: Normal
StackLeniency: 0.7
Mode: 1
LetterboxInBreaks: 0
WidescreenStoryboard: 0

[Editor]
DistanceSpacing: 0.8
BeatDivisor: 4
GridSize: 8
TimelineZoom: 1.6

[Metadata]
Title:Kuon no Yoru
TitleUnicode:久遠の夜
Artist:Fukuyama Saori
ArtistUnicode:福山沙織
Creator:Tomoka Rin
Version:Muzukashii
Source:太鼓の達人
Tags:Taiko no Tatsujin Chiho Hashimoto 橋本千歩 中川弾 Nakagawa Dan
BeatmapID:1175618
BeatmapSetID:555457

[Difficulty]
HPDrainRate:6
CircleSize:4
OverallDifficulty:4
ApproachRate:5
SliderMultiplier:1.4
SliderTickRate:1

[Events]
//Background and Video events
0,0,"054.jpg",0,0
//Break Periods
//Storyboard Layer 0 (Background)
//Storyboard Layer 1 (Fail)
//Storyboard Layer 2 (Pass)
//Storyboard Layer 3 (Foreground)
//Storyboard Sound Samples

[TimingPoints]
9592,324.324324324324,4,1,0,80,1,0
21267,-100,4,1,0,40,0,0
29051,-100,4,1,0,80,0,0
31646,-100,4,1,0,40,0,0
39105,-100,4,1,0,50,0,0
42024,-100,4,1,0,40,0,0
47213,-100,4,1,0,50,0,0
52402,-100,4,1,0,60,0,0
65375,-100,4,1,0,80,0,1
90024,-100,4,1,0,80,0,0

[HitObjects]
248,168,9592,5,2,0:0:0:0:
248,168,9916,1,2,0:0:0:0:
248,168,10240,1,2,0:0:0:0:
248,168,10402,1,2,0:0:0:0:
248,168,10564,1,2,0:0:0:0:
248,168,10727,1,0,0:0:0:0:
248,168,11213,1,2,0:0:0:0:
248,168,11537,1,0,0:0:0:0:
248,168,11700,1,0,0:0:0:0:
248,168,12024,1,2,0:0:0:0:
248,168,12510,1,2,0:0:0:0:
248,168,12835,1,0,0:0:0:0:
248,168,13159,1,0,0:0:0:0:
248,168,13321,1,0,0:0:0:0:
248,168,13808,5,2,0:0:0:0:
248,168,14132,1,2,0:0:0:0:
248,168,14294,1,0,0:0:0:0:
256,168,14456,1,0,0:0:0:0:
248,168,14619,1,2,0:0:0:0:
248,168,14943,1,0,0:0:0:0:
248,168,15105,1,2,0:0:0:0:
248,168,15429,1,0,0:0:0:0:
248,168,15754,1,2,0:0:0:0:
248,168,15916,1,0,0:0:0:0:
248,168,16402,5,2,0:0:0:0:
248,168,16727,1,0,0:0:0:0:
248,168,17051,1,2,0:0:0:0:
248,168,17213,1,0,0:0:0:0:
248,168,17700,1,2,0:0:0:0:
248,168,18024,1,0,0:0:0:0:
248,168,18186,1,0,0:0:0:0:
248,168,18348,1,2,0:0:0:0:
256,192,18673,8,0,19970,0:0:0:0:
248,168,20294,5,0,0:0:0:0:
248,168,20456,1,0,0:0:0:0:
248,168,20619,1,2,0:0:0:0:
248,168,20700,1,2,0:0:0:0:
248,168,20781,1,2,0:0:0:0:
248,168,20943,1,2,0:0:0:0:
248,168,21105,1,2,0:0:0:0:
248,168,21267,5,0,0:0:0:0:
248,168,21591,1,0,0:0:0:0:
248,168,21916,1,0,0:0:0:0:
248,168,22240,1,2,0:0:0:0:
248,168,22564,1,0,0:0:0:0:
248,168,22889,1,0,0:0:0:0:
248,168,23213,1,0,0:0:0:0:
248,168,23537,1,2,0:0:0:0:
248,168,23862,5,0,0:0:0:0:
248,168,24510,1,0,0:0:0:0:
248,168,24835,1,2,0:0:0:0:
248,168,25159,1,0,0:0:0:0:
248,168,25483,1,0,0:0:0:0:
248,168,25808,1,2,0:0:0:0:
248,168,26132,1,2,0:0:0:0:
248,168,26456,5,0,0:0:0:0:
248,168,27105,1,2,0:0:0:0:
248,168,27429,1,0,0:0:0:0:
256,168,27753,1,2,0:0:0:0:
248,168,28078,1,2,0:0:0:0:
248,168,28402,1,0,0:0:0:0:
256,160,28727,1,2,0:0:0:0:
256,168,29051,5,4,0:0:0:0:
264,168,29375,1,2,0:0:0:0:
256,168,29700,1,4,0:0:0:0:
256,168,30024,1,2,0:0:0:0:
248,168,30348,1,4,0:0:0:0:
256,160,30673,1,2,0:0:0:0:
248,168,30997,1,4,0:0:0:0:
248,168,31321,1,6,0:0:0:0:
256,168,31646,5,0,0:0:0:0:
256,168,31970,1,0,0:0:0:0:
256,168,32295,1,0,0:0:0:0:
256,168,32619,1,2,0:0:0:0:
256,168,32943,1,0,0:0:0:0:
256,168,33268,1,0,0:0:0:0:
256,168,33592,1,2,0:0:0:0:
264,176,33754,1,0,0:0:0:0:
256,168,33916,1,2,0:0:0:0:
256,176,34078,1,0,0:0:0:0:
256,168,34241,5,0,0:0:0:0:
256,176,34889,1,0,0:0:0:0:
264,176,35213,1,2,0:0:0:0:
256,176,35537,1,0,0:0:0:0:
256,176,35862,1,0,0:0:0:0:
256,176,36187,1,0,0:0:0:0:
256,176,36348,1,0,0:0:0:0:
256,176,36511,1,2,0:0:0:0:
256,176,36835,5,0,0:0:0:0:
256,176,37483,1,2,0:0:0:0:
256,176,37808,1,0,0:0:0:0:
256,176,38132,1,2,0:0:0:0:
256,176,38294,1,2,0:0:0:0:
256,176,38456,1,0,0:0:0:0:
256,176,38619,1,0,0:0:0:0:
256,176,38781,1,2,0:0:0:0:
256,176,39105,1,2,0:0:0:0:
256,176,39267,1,0,0:0:0:0:
256,176,39348,1,0,0:0:0:0:
256,176,39429,1,0,0:0:0:0:
256,176,40889,5,0,0:0:0:0:
256,176,41051,1,2,0:0:0:0:
256,176,41132,1,2,0:0:0:0:
256,176,41213,1,2,0:0:0:0:
256,176,41375,1,4,0:0:0:0:
256,176,42024,5,0,0:0:0:0:
256,176,42348,1,2,0:0:0:0:
256,176,42510,1,0,0:0:0:0:
256,176,42835,1,0,0:0:0:0:
256,176,42997,1,2,0:0:0:0:
256,176,43321,1,0,0:0:0:0:
256,176,43646,1,2,0:0:0:0:
256,176,43970,1,0,0:0:0:0:
256,176,44132,1,0,0:0:0:0:
256,176,44294,1,2,0:0:0:0:
256,176,44619,1,0,0:0:0:0:
256,176,44943,1,2,0:0:0:0:
256,176,45105,1,0,0:0:0:0:
256,176,45429,1,0,0:0:0:0:
256,176,45591,1,2,0:0:0:0:
256,176,45916,1,0,0:0:0:0:
256,176,46240,1,2,0:0:0:0:
256,176,46402,1,2,0:0:0:0:
256,176,46564,1,0,0:0:0:0:
256,176,46727,1,0,0:0:0:0:
256,176,46889,1,2,0:0:0:0:
256,176,47213,5,0,0:0:0:0:
256,176,47537,1,2,0:0:0:0:
256,176,47699,1,0,0:0:0:0:
256,176,48024,1,0,0:0:0:0:
256,176,48186,1,2,0:0:0:0:
256,176,48510,1,0,0:0:0:0:
256,176,48835,1,2,0:0:0:0:
256,176,49159,1,0,0:0:0:0:
256,176,49321,1,0,0:0:0:0:
256,176,49483,1,2,0:0:0:0:
256,176,49808,1,0,0:0:0:0:
256,176,50132,1,2,0:0:0:0:
256,176,50294,1,0,0:0:0:0:
256,176,50618,1,0,0:0:0:0:
256,176,50780,1,2,0:0:0:0:
256,176,51105,1,0,0:0:0:0:
256,176,51429,1,2,0:0:0:0:
256,176,51591,1,2,0:0:0:0:
256,176,51753,1,0,0:0:0:0:
256,176,51916,1,0,0:0:0:0:
256,176,52078,1,0,0:0:0:0:
256,176,52402,5,0,0:0:0:0:
256,176,52727,1,2,0:0:0:0:
256,176,52889,1,0,0:0:0:0:
256,176,53051,1,0,0:0:0:0:
256,176,53213,1,0,0:0:0:0:
256,176,53375,1,2,0:0:0:0:
256,176,53700,5,0,0:0:0:0:
256,176,54024,1,2,0:0:0:0:
256,176,54186,1,0,0:0:0:0:
256,176,54348,1,2,0:0:0:0:
256,176,54673,1,0,0:0:0:0:
256,176,54835,1,2,0:0:0:0:
256,176,54997,5,0,0:0:0:0:
256,176,55321,1,2,0:0:0:0:
256,176,55483,1,0,0:0:0:0:
256,176,55646,1,0,0:0:0:0:
256,176,55808,1,2,0:0:0:0:
256,176,55970,1,0,0:0:0:0:
256,176,56294,1,2,0:0:0:0:
256,176,56619,1,2,0:0:0:0:
256,176,56781,1,0,0:0:0:0:
256,176,56943,1,0,0:0:0:0:
256,176,57105,1,2,0:0:0:0:
256,176,57267,1,2,0:0:0:0:
256,176,57591,5,4,0:0:0:0:
256,176,58240,1,6,0:0:0:0:
256,176,58889,1,4,0:0:0:0:
256,176,59537,1,6,0:0:0:0:
192,232,60186,2,0,L|344:232,4,140
256,176,61808,1,2,0:0:0:0:
256,176,62132,1,2,0:0:0:0:
256,176,62456,1,2,0:0:0:0:
256,176,62619,1,0,0:0:0:0:
256,176,62700,1,0,0:0:0:0:
256,176,62781,1,0,0:0:0:0:
256,176,63105,1,2,0:0:0:0:
256,176,63267,1,0,0:0:0:0:
256,176,63591,1,2,0:0:0:0:
256,176,63754,1,2,0:0:0:0:
256,176,63916,1,4,0:0:0:0:
248,96,65375,5,0,0:0:0:0:
248,96,65700,1,2,0:0:0:0:
248,96,65862,1,0,0:0:0:0:
248,96,65943,1,0,0:0:0:0:
248,96,66024,1,0,0:0:0:0:
248,96,66186,1,0,0:0:0:0:
248,96,66348,1,2,0:0:0:0:
248,96,66673,5,0,0:0:0:0:
248,96,66997,1,2,0:0:0:0:
248,96,67159,1,0,0:0:0:0:
248,96,67321,1,0,0:0:0:0:
248,96,67483,1,2,0:0:0:0:
248,96,67646,1,2,0:0:0:0:
248,96,67970,5,0,0:0:0:0:
248,96,68294,1,2,0:0:0:0:
248,96,68456,1,2,0:0:0:0:
248,96,68537,1,2,0:0:0:0:
248,96,68619,1,2,0:0:0:0:
248,96,68781,1,0,0:0:0:0:
248,96,68943,1,2,0:0:0:0:
248,96,69267,1,2,0:0:0:0:
248,88,69429,1,0,0:0:0:0:
248,96,69591,1,2,0:0:0:0:
248,96,69754,1,2,0:0:0:0:
248,96,70078,1,0,0:0:0:0:
248,96,70240,1,2,0:0:0:0:
248,96,70564,5,0,0:0:0:0:
248,96,70889,1,2,0:0:0:0:
248,96,71051,1,0,0:0:0:0:
248,96,71132,1,0,0:0:0:0:
248,96,71213,1,0,0:0:0:0:
248,96,71375,1,0,0:0:0:0:
248,96,71537,1,2,0:0:0:0:
248,96,71862,5,0,0:0:0:0:
248,96,72186,1,2,0:0:0:0:
248,96,72348,1,2,0:0:0:0:
248,96,72429,1,2,0:0:0:0:
248,96,72510,1,2,0:0:0:0:
248,96,72673,1,0,0:0:0:0:
248,96,72835,1,2,0:0:0:0:
160,232,73159,6,0,L|320:232,4,140
256,104,74781,1,2,0:0:0:0:
256,104,74943,1,6,0:0:0:0:
256,104,75267,5,2,0:0:0:0:
256,104,75429,1,0,0:0:0:0:
256,104,75591,1,0,0:0:0:0:
256,104,75673,1,0,0:0:0:0:
256,104,75754,1,0,0:0:0:0:
256,104,76078,1,2,0:0:0:0:
256,104,76240,1,0,0:0:0:0:
256,104,76564,1,0,0:0:0:0:
256,104,76727,1,2,0:0:0:0:
256,104,76889,1,2,0:0:0:0:
256,104,77051,1,0,0:0:0:0:
256,104,77375,1,2,0:0:0:0:
256,104,77537,1,0,0:0:0:0:
256,104,77700,1,0,0:0:0:0:
256,104,77862,1,2,0:0:0:0:
256,104,78024,1,2,0:0:0:0:
256,104,78186,1,0,0:0:0:0:
256,104,78267,1,0,0:0:0:0:
256,104,78348,1,0,0:0:0:0:
256,104,78673,5,2,0:0:0:0:
256,104,78835,1,0,0:0:0:0:
256,104,78997,1,0,0:0:0:0:
256,104,79159,1,0,0:0:0:0:
256,104,79321,1,2,0:0:0:0:
256,104,79483,1,0,0:0:0:0:
256,104,79646,1,0,0:0:0:0:
256,104,79970,1,2,0:0:0:0:
256,104,80132,1,0,0:0:0:0:
256,104,80294,1,0,0:0:0:0:
256,104,80456,1,2,0:0:0:0:
256,104,80619,1,2,0:0:0:0:
256,104,80781,1,2,0:0:0:0:
256,104,80943,1,0,0:0:0:0:
256,104,81267,5,2,0:0:0:0:
256,104,81429,1,0,0:0:0:0:
256,104,81510,1,0,0:0:0:0:
256,104,81591,1,0,0:0:0:0:
256,104,81754,1,0,0:0:0:0:
256,104,81916,1,2,0:0:0:0:
256,104,82240,5,0,0:0:0:0:
256,104,82564,1,2,0:0:0:0:
248,104,82727,1,2,0:0:0:0:
248,104,82889,1,0,0:0:0:0:
256,104,83051,1,0,0:0:0:0:
256,104,83213,1,2,0:0:0:0:
256,104,83537,5,0,0:0:0:0:
248,104,83862,1,2,0:0:0:0:
256,104,84024,1,0,0:0:0:0:
256,104,84105,1,0,0:0:0:0:
256,104,84186,1,0,0:0:0:0:
256,104,84348,1,0,0:0:0:0:
264,104,84510,1,2,0:0:0:0:
264,104,84835,5,0,0:0:0:0:
264,104,84997,1,2,0:0:0:0:
256,104,85159,1,0,0:0:0:0:
256,104,85321,1,2,0:0:0:0:
264,104,85646,1,0,0:0:0:0:
264,104,85808,1,2,0:0:0:0:
256,104,85970,1,2,0:0:0:0:
264,104,86132,1,0,0:0:0:0:
256,104,86456,1,0,0:0:0:0:
264,104,86619,1,2,0:0:0:0:
264,104,86943,1,2,0:0:0:0:
264,104,87105,1,2,0:0:0:0:
264,104,87429,1,0,0:0:0:0:
264,104,87591,1,0,0:0:0:0:
264,104,87754,1,0,0:0:0:0:
264,104,87916,1,2,0:0:0:0:
264,104,88240,1,2,0:0:0:0:
264,104,88402,1,2,0:0:0:0:
136,256,88727,2,0,L|296:256,3,140
256,192,90024,5,4,0:0:0:0:
