osu file format v14

[General]
AudioFilename: long.mp3
AudioLeadIn: 0
PreviewTime: 64402
Countdown: 0
SampleSet: Normal
StackLeniency: 0.7
Mode: 1
LetterboxInBreaks: 0
WidescreenStoryboard: 0

[Editor]
Bookmarks: 21267,29051,31646,39105
DistanceSpacing: 0.8
BeatDivisor: 1
GridSize: 8
TimelineZoom: 2

[Metadata]
Title:Kuon no Yoru
TitleUnicode:久遠の夜
Artist:Fukuyama Saori
ArtistUnicode:福山沙織
Creator:Tomoka Rin
Version:Inner Oni
Source:太鼓の達人
Tags:Taiko no Tatsujin Chiho Hashimoto 橋本千歩 中川弾 Nakagawa Dan
BeatmapID:1175616
BeatmapSetID:555457

[Difficulty]
HPDrainRate:6
CircleSize:5
OverallDifficulty:6
ApproachRate:5
SliderMultiplier:1.4
SliderTickRate:1

[Events]
//Background and Video events
0,0,"054.jpg",0,0
//Break Periods
//Storyboard Layer 0 (Background)
//Storyboard Layer 1 (Fail)
//Storyboard Layer 2 (Pass)
//Storyboard Layer 3 (Foreground)
//Storyboard Sound Samples

[TimingPoints]
9592,324.324324324324,4,1,0,80,1,0
21267,-100,4,1,0,40,0,0
29051,-100,4,1,0,80,0,0
31646,-100,4,1,0,40,0,0
39105,-100,4,1,0,50,0,0
42024,-100,4,1,0,40,0,0
47213,-100,4,1,0,50,0,0
52402,-100,4,1,0,60,0,0
65375,-100,4,1,0,80,0,1
90024,-100,4,1,0,80,0,0

[HitObjects]
256,152,9592,5,8,0:0:0:0:
256,152,9916,1,8,0:0:0:0:
256,152,10240,1,8,0:0:0:0:
256,152,10321,1,8,0:0:0:0:
256,152,10402,1,0,0:0:0:0:
256,152,10483,1,0,0:0:0:0:
256,152,10564,1,0,0:0:0:0:
256,152,10646,1,0,0:0:0:0:
256,152,10727,1,8,0:0:0:0:
256,152,11051,5,0,0:0:0:0:
256,152,11213,1,8,0:0:0:0:
256,152,11375,1,0,0:0:0:0:
256,152,11456,1,0,0:0:0:0:
256,152,11536,1,8,0:0:0:0:
256,152,11700,1,0,0:0:0:0:
256,152,11861,1,0,0:0:0:0:
256,152,12024,1,8,0:0:0:0:
96,128,12348,5,0,0:0:0:0:
96,128,12509,1,8,0:0:0:0:
96,128,12673,1,0,0:0:0:0:
96,128,12835,1,0,0:0:0:0:
96,128,12916,1,0,0:0:0:0:
96,128,12996,1,8,0:0:0:0:
96,128,13158,1,8,0:0:0:0:
96,128,13321,1,8,0:0:0:0:
96,128,13402,5,8,0:0:0:0:
96,128,13483,1,0,0:0:0:0:
96,128,13807,1,8,0:0:0:0:
96,128,13970,1,0,0:0:0:0:
96,128,14131,1,0,0:0:0:0:
96,128,14212,1,0,0:0:0:0:
96,128,14294,1,0,0:0:0:0:
96,128,14455,1,0,0:0:0:0:
96,128,14618,1,8,0:0:0:0:
96,128,14942,5,8,0:0:0:0:
96,128,15105,1,0,0:0:0:0:
96,128,15429,1,0,0:0:0:0:
96,128,15511,1,0,0:0:0:0:
96,128,15591,1,0,0:0:0:0:
96,128,15754,1,8,0:0:0:0:
96,128,15916,1,8,0:0:0:0:
256,128,16240,5,8,0:0:0:0:
256,128,16402,1,0,0:0:0:0:
256,128,16483,1,0,0:0:0:0:
256,128,16564,1,8,0:0:0:0:
248,128,16727,1,0,0:0:0:0:
256,128,16889,1,0,0:0:0:0:
256,128,17051,1,8,0:0:0:0:
256,128,17213,1,0,0:0:0:0:
264,128,17537,1,0,0:0:0:0:
272,152,17700,1,8,0:0:0:0:
272,128,18024,1,0,0:0:0:0:
272,128,18186,1,0,0:0:0:0:
272,128,18348,1,8,0:0:0:0:
264,128,18510,1,8,0:0:0:0:
272,128,18591,1,8,0:0:0:0:
272,128,18673,1,0,0:0:0:0:
280,128,18997,5,8,0:0:0:0:
280,128,19321,1,0,0:0:0:0:
280,128,19483,1,0,0:0:0:0:
280,128,19646,1,8,0:0:0:0:
280,128,19808,1,8,0:0:0:0:
280,128,19889,1,8,0:0:0:0:
280,128,19970,5,0,0:0:0:0:
280,128,20132,1,0,0:0:0:0:
280,128,20294,1,0,0:0:0:0:
280,128,20456,1,8,0:0:0:0:
280,128,20537,1,8,0:0:0:0:
280,128,20619,1,0,0:0:0:0:
280,128,20700,1,0,0:0:0:0:
280,128,20781,1,0,0:0:0:0:
280,128,20862,1,0,0:0:0:0:
280,128,20943,1,8,0:0:0:0:
280,128,21105,1,0,0:0:0:0:
144,144,21267,5,0,0:0:0:0:
144,144,21429,1,0,0:0:0:0:
144,144,21591,1,8,0:0:0:0:
136,136,21754,1,0,0:0:0:0:
136,136,21835,1,0,0:0:0:0:
144,144,21916,1,8,0:0:0:0:
144,144,22078,1,0,0:0:0:0:
144,144,22240,1,8,0:0:0:0:
128,144,22402,1,8,0:0:0:0:
136,144,22483,1,8,0:0:0:0:
144,144,22564,1,0,0:0:0:0:
144,144,22727,1,0,0:0:0:0:
144,144,22889,1,8,0:0:0:0:
144,144,23051,1,0,0:0:0:0:
136,144,23132,1,0,0:0:0:0:
136,144,23213,1,0,0:0:0:0:
144,144,23375,1,0,0:0:0:0:
144,144,23456,1,0,0:0:0:0:
144,144,23537,1,8,0:0:0:0:
144,144,23700,1,0,0:0:0:0:
144,144,23862,5,0,0:0:0:0:
120,144,24024,1,0,0:0:0:0:
144,144,24186,1,8,0:0:0:0:
120,144,24348,1,0,0:0:0:0:
120,144,24429,1,0,0:0:0:0:
144,144,24510,1,8,0:0:0:0:
144,144,24673,1,0,0:0:0:0:
144,144,24835,1,8,0:0:0:0:
120,144,24997,1,0,0:0:0:0:
120,144,25078,1,0,0:0:0:0:
144,144,25159,1,8,0:0:0:0:
144,144,25321,1,8,0:0:0:0:
144,144,25483,1,0,0:0:0:0:
120,136,25646,1,8,0:0:0:0:
136,144,25808,1,0,0:0:0:0:
152,136,25970,1,8,0:0:0:0:
144,144,26051,1,8,0:0:0:0:
144,144,26132,1,0,0:0:0:0:
144,136,26294,1,8,0:0:0:0:
144,144,26456,5,0,0:0:0:0:
144,144,26619,1,0,0:0:0:0:
144,144,26781,1,8,0:0:0:0:
144,136,26943,1,8,0:0:0:0:
144,128,27024,1,8,0:0:0:0:
144,144,27105,1,0,0:0:0:0:
144,144,27267,1,0,0:0:0:0:
144,144,27429,1,8,0:0:0:0:
144,128,27591,1,0,0:0:0:0:
144,128,27673,1,0,0:0:0:0:
144,144,27754,1,8,0:0:0:0:
144,144,27915,1,0,0:0:0:0:
144,144,28077,1,8,0:0:0:0:
144,144,28240,1,8,0:0:0:0:
144,128,28321,1,8,0:0:0:0:
144,128,28402,1,0,0:0:0:0:
152,136,28564,1,0,0:0:0:0:
144,144,28727,1,8,0:0:0:0:
144,128,28889,1,0,0:0:0:0:
256,168,29051,5,4,0:0:0:0:
256,168,29375,1,0,0:0:0:0:
256,168,29700,1,12,0:0:0:0:
256,168,30024,1,8,0:0:0:0:
256,168,30348,1,4,0:0:0:0:
256,168,30673,1,0,0:0:0:0:
224,152,30997,1,12,0:0:0:0:
256,176,31321,1,8,0:0:0:0:
192,128,31646,5,0,0:0:0:0:
192,128,31808,1,0,0:0:0:0:
192,128,31970,1,8,0:0:0:0:
192,128,32132,1,8,0:0:0:0:
192,128,32213,1,8,0:0:0:0:
192,128,32294,1,0,0:0:0:0:
192,128,32456,1,0,0:0:0:0:
192,128,32619,1,8,0:0:0:0:
192,128,32781,1,0,0:0:0:0:
200,144,32862,1,0,0:0:0:0:
192,128,32943,5,8,0:0:0:0:
192,128,33105,1,0,0:0:0:0:
192,128,33267,1,8,0:0:0:0:
192,128,33429,1,8,0:0:0:0:
192,128,33510,1,8,0:0:0:0:
192,128,33591,1,0,0:0:0:0:
192,128,33753,1,8,0:0:0:0:
192,128,33916,1,0,0:0:0:0:
192,128,34078,5,8,0:0:0:0:
192,128,34159,1,8,0:0:0:0:
192,128,34240,1,0,0:0:0:0:
192,128,34402,5,0,0:0:0:0:
192,128,34564,1,8,0:0:0:0:
192,128,34726,1,8,0:0:0:0:
192,128,34889,1,8,0:0:0:0:
192,128,34970,1,8,0:0:0:0:
192,128,35051,1,0,0:0:0:0:
192,128,35213,1,8,0:0:0:0:
192,128,35375,1,0,0:0:0:0:
192,128,35537,1,0,0:0:0:0:
192,128,35700,1,0,0:0:0:0:
184,128,35781,1,0,0:0:0:0:
192,128,35862,1,8,0:0:0:0:
192,128,36024,1,0,0:0:0:0:
192,128,36186,1,0,0:0:0:0:
192,128,36348,1,8,0:0:0:0:
192,128,36429,1,0,0:0:0:0:
192,128,36510,1,8,0:0:0:0:
192,128,36673,1,8,0:0:0:0:
192,128,36835,5,0,0:0:0:0:
192,128,36997,1,0,0:0:0:0:
192,128,37159,1,8,0:0:0:0:
192,128,37321,1,8,0:0:0:0:
192,128,37402,1,8,0:0:0:0:
192,128,37483,1,0,0:0:0:0:
192,128,37645,1,0,0:0:0:0:
192,128,37808,1,8,0:0:0:0:
192,128,37970,1,0,0:0:0:0:
256,128,38051,1,0,0:0:0:0:
256,128,38132,1,0,0:0:0:0:
256,128,38294,5,0,0:0:0:0:
256,128,38456,1,8,0:0:0:0:
256,128,38618,1,0,0:0:0:0:
256,128,38781,1,8,0:0:0:0:
256,128,38943,1,0,0:0:0:0:
256,128,39105,1,0,0:0:0:0:
256,128,39186,1,0,0:0:0:0:
256,128,39267,1,8,0:0:0:0:
256,128,39348,1,8,0:0:0:0:
256,128,39429,1,0,0:0:0:0:
256,192,39754,12,0,40564,0:0:0:0:
256,160,40889,5,0,0:0:0:0:
256,160,41051,1,8,0:0:0:0:
256,160,41213,1,8,0:0:0:0:
256,160,41294,1,8,0:0:0:0:
264,160,41375,1,0,0:0:0:0:
264,160,41537,1,0,0:0:0:0:
264,160,41618,1,0,0:0:0:0:
264,160,41700,1,8,0:0:0:0:
264,160,41862,1,8,0:0:0:0:
264,160,42024,5,4,0:0:0:0:
264,160,42348,1,0,0:0:0:0:
264,160,42673,1,0,0:0:0:0:
264,160,42835,1,8,0:0:0:0:
264,160,42997,1,0,0:0:0:0:
264,160,43321,1,0,0:0:0:0:
264,160,43483,1,0,0:0:0:0:
264,160,43646,1,8,0:0:0:0:
264,160,43808,1,0,0:0:0:0:
264,160,43889,1,0,0:0:0:0:
264,160,43970,1,8,0:0:0:0:
264,160,44132,1,0,0:0:0:0:
264,160,44294,1,8,0:0:0:0:
264,160,44375,1,8,0:0:0:0:
264,160,44456,1,0,0:0:0:0:
264,160,44619,1,8,0:0:0:0:
264,160,44862,5,0,0:0:0:0:
264,160,44943,1,8,0:0:0:0:
264,160,45105,1,0,0:0:0:0:
264,160,45267,1,0,0:0:0:0:
264,160,45429,1,8,0:0:0:0:
264,160,45591,1,0,0:0:0:0:
264,160,45673,1,0,0:0:0:0:
264,160,45754,1,8,0:0:0:0:
264,160,45916,1,0,0:0:0:0:
264,160,46159,1,8,0:0:0:0:
264,160,46240,1,0,0:0:0:0:
264,160,46402,1,0,0:0:0:0:
264,160,46483,1,0,0:0:0:0:
264,160,46564,1,8,0:0:0:0:
264,160,46646,1,0,0:0:0:0:
264,160,46727,1,8,0:0:0:0:
264,160,46889,1,0,0:0:0:0:
264,160,47051,1,8,0:0:0:0:
256,112,47213,5,0,0:0:0:0:
256,112,47537,1,8,0:0:0:0:
256,112,47862,1,0,0:0:0:0:
256,112,48025,1,0,0:0:0:0:
256,112,48187,1,8,0:0:0:0:
248,112,48510,1,0,0:0:0:0:
248,112,48673,1,0,0:0:0:0:
248,112,48835,1,8,0:0:0:0:
248,112,48997,1,0,0:0:0:0:
264,160,49078,1,0,0:0:0:0:
248,112,49159,1,8,0:0:0:0:
248,112,49321,1,0,0:0:0:0:
248,112,49483,1,8,0:0:0:0:
248,112,49646,1,8,0:0:0:0:
248,112,49727,1,0,0:0:0:0:
248,112,49808,1,0,0:0:0:0:
248,112,50051,5,0,0:0:0:0:
248,112,50132,1,8,0:0:0:0:
248,112,50294,1,0,0:0:0:0:
248,112,50457,1,0,0:0:0:0:
248,112,50619,1,8,0:0:0:0:
248,112,50700,1,0,0:0:0:0:
248,112,50781,1,0,0:0:0:0:
248,112,50943,1,8,0:0:0:0:
248,112,51105,1,0,0:0:0:0:
248,112,51267,1,0,0:0:0:0:
248,112,51348,1,0,0:0:0:0:
248,112,51429,1,8,0:0:0:0:
248,112,51591,1,0,0:0:0:0:
248,112,51673,1,0,0:0:0:0:
248,112,51754,1,8,0:0:0:0:
248,112,51835,1,0,0:0:0:0:
248,112,51916,1,0,0:0:0:0:
248,112,51997,1,8,0:0:0:0:
248,112,52078,1,0,0:0:0:0:
248,112,52159,1,0,0:0:0:0:
248,112,52240,1,8,0:0:0:0:
248,112,52321,1,8,0:0:0:0:
248,112,52402,1,0,0:0:0:0:
248,112,52727,5,8,0:0:0:0:
248,128,52889,1,8,0:0:0:0:
256,128,52970,1,0,0:0:0:0:
248,112,53051,1,0,0:0:0:0:
248,112,53213,1,0,0:0:0:0:
248,112,53375,1,8,0:0:0:0:
248,112,53537,1,0,0:0:0:0:
248,112,53619,1,0,0:0:0:0:
248,120,53700,1,0,0:0:0:0:
248,120,53862,1,0,0:0:0:0:
248,120,54024,1,8,0:0:0:0:
248,120,54186,1,8,0:0:0:0:
240,120,54267,1,0,0:0:0:0:
248,120,54348,1,0,0:0:0:0:
248,120,54510,1,8,0:0:0:0:
248,120,54673,1,0,0:0:0:0:
248,120,54835,1,0,0:0:0:0:
248,120,54916,1,0,0:0:0:0:
248,120,54997,1,8,0:0:0:0:
248,120,55321,5,0,0:0:0:0:
248,120,55483,1,0,0:0:0:0:
248,120,55646,1,0,0:0:0:0:
248,120,55727,1,0,0:0:0:0:
248,120,55808,1,8,0:0:0:0:
248,120,55970,1,8,0:0:0:0:
248,120,56132,1,8,0:0:0:0:
256,128,56213,1,0,0:0:0:0:
248,120,56294,1,0,0:0:0:0:
248,120,56456,1,0,0:0:0:0:
248,120,56619,1,8,0:0:0:0:
248,120,56781,1,0,0:0:0:0:
248,120,56862,1,0,0:0:0:0:
248,120,56943,1,8,0:0:0:0:
248,120,57105,1,8,0:0:0:0:
248,120,57267,1,0,0:0:0:0:
256,120,57348,1,0,0:0:0:0:
248,120,57429,1,0,0:0:0:0:
248,120,57510,1,0,0:0:0:0:
248,120,57591,1,8,0:0:0:0:
248,120,57916,5,8,0:0:0:0:
240,128,58078,1,8,0:0:0:0:
248,120,58240,1,8,0:0:0:0:
248,120,58321,1,8,0:0:0:0:
248,120,58402,1,0,0:0:0:0:
80,256,58564,1,8,0:0:0:0:
248,120,58727,1,0,0:0:0:0:
248,120,58889,1,8,0:0:0:0:
248,120,58970,1,8,0:0:0:0:
248,120,59051,1,0,0:0:0:0:
248,120,59213,1,8,0:0:0:0:
248,120,59294,1,8,0:0:0:0:
248,120,59375,1,0,0:0:0:0:
248,120,59456,1,8,0:0:0:0:
248,120,59537,1,8,0:0:0:0:
248,120,59619,1,0,0:0:0:0:
248,120,59700,1,0,0:0:0:0:
248,120,59781,1,0,0:0:0:0:
248,120,59862,1,8,0:0:0:0:
248,120,60024,5,0,0:0:0:0:
248,120,60186,1,12,0:0:0:0:
248,120,60510,1,0,0:0:0:0:
248,120,60672,1,12,0:0:0:0:
248,120,60997,1,0,0:0:0:0:
248,120,61321,1,12,0:0:0:0:
248,120,61646,1,0,0:0:0:0:
248,120,61808,1,8,0:0:0:0:
248,120,61970,1,8,0:0:0:0:
248,120,62051,1,8,0:0:0:0:
248,120,62132,1,0,0:0:0:0:
248,120,62294,1,8,0:0:0:0:
248,120,62456,1,0,0:0:0:0:
248,120,62619,1,0,0:0:0:0:
248,120,62700,1,0,0:0:0:0:
248,120,62781,1,8,0:0:0:0:
248,120,63105,1,0,0:0:0:0:
248,120,63267,1,8,0:0:0:0:
248,120,63591,1,8,0:0:0:0:
248,120,63673,1,8,0:0:0:0:
248,120,63754,1,0,0:0:0:0:
248,120,63835,1,0,0:0:0:0:
248,120,63916,1,8,0:0:0:0:
184,200,64402,2,0,L|272:200,5,70
256,104,65375,5,0,0:0:0:0:
256,104,65537,1,0,0:0:0:0:
256,104,65619,1,0,0:0:0:0:
256,104,65700,1,8,0:0:0:0:
256,104,65862,1,0,0:0:0:0:
256,104,66024,1,8,0:0:0:0:
256,104,66105,1,0,0:0:0:0:
256,104,66186,1,0,0:0:0:0:
256,104,66348,1,8,0:0:0:0:
256,104,66510,1,0,0:0:0:0:
256,104,66591,1,0,0:0:0:0:
256,104,66673,1,8,0:0:0:0:
256,104,66835,1,0,0:0:0:0:
256,104,66997,1,8,0:0:0:0:
256,104,67159,1,0,0:0:0:0:
256,104,67321,1,0,0:0:0:0:
256,96,67402,1,0,0:0:0:0:
256,96,67483,1,8,0:0:0:0:
256,104,67646,1,8,0:0:0:0:
256,104,67808,1,8,0:0:0:0:
256,104,67889,1,8,0:0:0:0:
256,104,67970,5,0,0:0:0:0:
256,104,68132,1,0,0:0:0:0:
256,104,68294,1,8,0:0:0:0:
256,104,68456,1,0,0:0:0:0:
256,104,68537,1,0,0:0:0:0:
256,104,68619,1,0,0:0:0:0:
256,104,68781,1,8,0:0:0:0:
256,104,68943,1,8,0:0:0:0:
256,104,69105,1,0,0:0:0:0:
256,104,69186,1,0,0:0:0:0:
256,104,69268,1,8,0:0:0:0:
256,104,69429,1,0,0:0:0:0:
256,104,69591,1,0,0:0:0:0:
256,104,69754,1,8,0:0:0:0:
256,104,69916,1,0,0:0:0:0:
256,104,70078,1,8,0:0:0:0:
256,104,70159,1,8,0:0:0:0:
256,104,70241,1,8,0:0:0:0:
256,104,70564,5,0,0:0:0:0:
256,104,70727,1,0,0:0:0:0:
256,104,70889,1,8,0:0:0:0:
256,104,71051,1,0,0:0:0:0:
264,104,71132,1,0,0:0:0:0:
256,104,71213,1,0,0:0:0:0:
256,104,71375,1,0,0:0:0:0:
256,104,71537,1,8,0:0:0:0:
256,104,71700,1,0,0:0:0:0:
248,104,71781,1,0,0:0:0:0:
256,104,71862,1,8,0:0:0:0:
256,104,72024,1,0,0:0:0:0:
256,104,72186,1,8,0:0:0:0:
256,104,72348,1,0,0:0:0:0:
256,104,72429,1,0,0:0:0:0:
256,104,72510,1,0,0:0:0:0:
256,104,72673,1,8,0:0:0:0:
256,104,72835,1,8,0:0:0:0:
256,104,72997,1,8,0:0:0:0:
240,96,73078,1,8,0:0:0:0:
256,104,73159,1,0,0:0:0:0:
256,104,73483,5,8,0:0:0:0:
256,104,73646,1,0,0:0:0:0:
256,104,73970,1,0,0:0:0:0:
256,104,74132,1,8,0:0:0:0:
256,104,74213,1,8,0:0:0:0:
256,104,74294,1,8,0:0:0:0:
256,104,74456,1,12,0:0:0:0:
256,104,74781,1,8,0:0:0:0:
256,104,74943,1,0,0:0:0:0:
256,104,75267,5,0,0:0:0:0:
256,104,75429,1,0,0:0:0:0:
256,104,75591,1,8,0:0:0:0:
256,104,75673,1,8,0:0:0:0:
256,104,75754,1,0,0:0:0:0:
256,104,75916,1,0,0:0:0:0:
256,104,76078,1,8,0:0:0:0:
256,104,76240,1,0,0:0:0:0:
248,104,76321,1,0,0:0:0:0:
256,104,76402,1,8,0:0:0:0:
256,104,76564,1,0,0:0:0:0:
256,104,76727,1,8,0:0:0:0:
256,104,76889,1,8,0:0:0:0:
256,104,76970,1,8,0:0:0:0:
256,104,77051,1,0,0:0:0:0:
256,104,77213,1,0,0:0:0:0:
256,104,77375,1,8,0:0:0:0:
256,104,77537,1,0,0:0:0:0:
256,104,77619,1,0,0:0:0:0:
256,104,77699,1,8,0:0:0:0:
256,104,77861,1,0,0:0:0:0:
256,104,78024,1,8,0:0:0:0:
256,104,78186,1,8,0:0:0:0:
256,104,78267,1,8,0:0:0:0:
256,104,78348,1,8,0:0:0:0:
256,104,78673,5,0,0:0:0:0:
256,104,78835,1,8,0:0:0:0:
256,104,78997,1,0,0:0:0:0:
256,104,79159,1,0,0:0:0:0:
256,104,79240,1,0,0:0:0:0:
256,104,79321,1,8,0:0:0:0:
256,104,79483,1,8,0:0:0:0:
256,104,79646,1,0,0:0:0:0:
256,104,79970,5,8,0:0:0:0:
256,104,80132,1,0,0:0:0:0:
256,104,80294,1,8,0:0:0:0:
256,104,80456,1,8,0:0:0:0:
256,104,80537,1,8,0:0:0:0:
256,104,80619,1,0,0:0:0:0:
256,104,80781,1,0,0:0:0:0:
256,104,80943,1,8,0:0:0:0:
224,136,81105,1,0,0:0:0:0:
256,144,81186,1,0,0:0:0:0:
256,104,81267,1,8,0:0:0:0:
256,104,81429,1,0,0:0:0:0:
256,104,81510,1,0,0:0:0:0:
256,104,81591,1,0,0:0:0:0:
256,104,81753,1,0,0:0:0:0:
256,104,81916,1,8,0:0:0:0:
256,104,81997,1,8,0:0:0:0:
256,104,82078,1,0,0:0:0:0:
256,104,82240,5,0,0:0:0:0:
256,104,82402,1,0,0:0:0:0:
256,104,82483,1,0,0:0:0:0:
256,104,82564,1,8,0:0:0:0:
248,136,82727,1,0,0:0:0:0:
256,104,82808,1,0,0:0:0:0:
256,104,82889,1,8,0:0:0:0:
256,104,83051,1,0,0:0:0:0:
256,104,83132,1,0,0:0:0:0:
256,104,83213,1,8,0:0:0:0:
256,104,83294,1,8,0:0:0:0:
256,104,83375,1,8,0:0:0:0:
256,104,83456,1,8,0:0:0:0:
256,104,83537,1,0,0:0:0:0:
256,104,83700,1,8,0:0:0:0:
256,104,83862,1,8,0:0:0:0:
248,104,84024,1,0,0:0:0:0:
256,104,84105,1,0,0:0:0:0:
256,104,84186,1,8,0:0:0:0:
256,104,84348,1,0,0:0:0:0:
256,104,84510,1,8,0:0:0:0:
256,104,84673,1,0,0:0:0:0:
256,104,84754,1,8,0:0:0:0:
256,104,84835,5,8,0:0:0:0:
256,104,84997,1,8,0:0:0:0:
256,104,85159,1,8,0:0:0:0:
256,104,85321,1,0,0:0:0:0:
256,104,85402,1,0,0:0:0:0:
256,104,85483,1,8,0:0:0:0:
256,104,85645,1,0,0:0:0:0:
256,104,85808,1,8,0:0:0:0:
256,104,85889,1,8,0:0:0:0:
256,104,85970,1,8,0:0:0:0:
256,104,86132,1,12,0:0:0:0:
256,104,86294,1,12,0:0:0:0:
256,104,86456,1,12,0:0:0:0:
256,104,86619,1,4,0:0:0:0:
256,104,86943,1,0,0:0:0:0:
256,104,87024,1,0,0:0:0:0:
256,104,87105,1,8,0:0:0:0:
256,104,87429,5,12,0:0:0:0:
256,104,87591,1,12,0:0:0:0:
256,104,87753,1,12,0:0:0:0:
256,104,87916,1,4,0:0:0:0:
256,104,88240,1,0,0:0:0:0:
256,104,88321,1,0,0:0:0:0:
256,104,88402,1,8,0:0:0:0:
200,200,88483,1,0,0:0:0:0:
200,200,88564,1,0,0:0:0:0:
200,200,88727,5,0,0:0:0:0:
200,200,88889,1,8,0:0:0:0:
192,200,88970,1,8,0:0:0:0:
200,200,89051,1,0,0:0:0:0:
192,208,89213,1,0,0:0:0:0:
192,208,89375,1,8,0:0:0:0:
192,208,89456,1,8,0:0:0:0:
192,208,89537,1,0,0:0:0:0:
200,200,89700,1,0,0:0:0:0:
200,200,89781,1,0,0:0:0:0:
200,200,89862,1,0,0:0:0:0:
200,200,89943,1,0,0:0:0:0:
200,200,90024,1,8,0:0:0:0:
