osu file format v14

[General]
AudioFilename: long.mp3
AudioLeadIn: 0
PreviewTime: 64402
Countdown: 0
SampleSet: Normal
StackLeniency: 0.7
Mode: 1
LetterboxInBreaks: 0
WidescreenStoryboard: 0

[Editor]
DistanceSpacing: 0.8
BeatDivisor: 2
GridSize: 8
TimelineZoom: 1

[Metadata]
Title:Kuon no Yoru
TitleUnicode:久遠の夜
Artist:Fukuyama Saori
ArtistUnicode:福山沙織
Creator:Tomoka Rin
Version:Futsuu
Source:太鼓の達人
Tags:Taiko no Tatsujin Chiho Hashimoto 橋本千歩 中川弾 Nakagawa Dan
BeatmapID:1175615
BeatmapSetID:555457

[Difficulty]
HPDrainRate:7
CircleSize:5
OverallDifficulty:3
ApproachRate:5
SliderMultiplier:1.4
SliderTickRate:1

[Events]
//Background and Video events
0,0,"054.jpg",0,0
//Break Periods
//Storyboard Layer 0 (Background)
//Storyboard Layer 1 (Fail)
//Storyboard Layer 2 (Pass)
//Storyboard Layer 3 (Foreground)
//Storyboard Sound Samples

[TimingPoints]
9592,324.324324324324,4,1,0,80,1,0
21267,-100,4,1,0,40,0,0
29051,-100,4,1,0,80,0,0
31646,-100,4,1,0,40,0,0
39105,-100,4,1,0,50,0,0
42024,-100,4,1,0,40,0,0
47213,-100,4,1,0,50,0,0
52402,-100,4,1,0,60,0,0
65375,-100,4,1,0,80,0,1
90024,-100,4,1,0,80,0,0

[HitObjects]
250,162,10727,5,4,0:0:0:0:
250,162,11213,1,0,0:0:0:0:
249,162,11862,1,0,0:0:0:0:
249,162,12024,1,2,0:0:0:0:
249,162,12510,1,0,0:0:0:0:
248,163,13159,1,0,0:0:0:0:
248,163,13321,1,2,0:0:0:0:
248,163,13808,1,0,0:0:0:0:
246,163,14456,1,0,0:0:0:0:
246,163,14619,1,2,0:0:0:0:
246,163,15105,1,0,0:0:0:0:
246,163,15754,1,0,0:0:0:0:
246,163,15916,1,0,0:0:0:0:
246,163,16402,1,0,0:0:0:0:
246,163,17051,1,0,0:0:0:0:
246,163,17213,1,2,0:0:0:0:
246,163,17700,1,0,0:0:0:0:
246,163,18024,1,0,0:0:0:0:
256,192,18673,8,0,20294,0:0:0:0:
304,152,21267,5,0,0:0:0:0:
256,152,21591,1,2,0:0:0:0:
256,152,22240,1,0,0:0:0:0:
256,152,22889,1,0,0:0:0:0:
256,152,23537,1,2,0:0:0:0:
248,152,23862,1,0,0:0:0:0:
256,152,24186,1,0,0:0:0:0:
256,152,24835,1,0,0:0:0:0:
256,152,25483,1,0,0:0:0:0:
256,152,26132,1,2,0:0:0:0:
256,152,26781,5,0,0:0:0:0:
256,152,27429,1,0,0:0:0:0:
256,152,28078,1,0,0:0:0:0:
240,144,28402,1,0,0:0:0:0:
256,152,28727,1,2,0:0:0:0:
256,152,29375,1,4,0:0:0:0:
256,152,29700,1,2,0:0:0:0:
256,152,30024,1,4,0:0:0:0:
256,152,30673,1,4,0:0:0:0:
256,152,30997,1,2,0:0:0:0:
256,152,31321,1,4,0:0:0:0:
256,152,31970,5,0,0:0:0:0:
256,152,32619,1,0,0:0:0:0:
256,152,33267,1,0,0:0:0:0:
256,152,33916,1,2,0:0:0:0:
192,304,34240,1,0,0:0:0:0:
256,152,34564,1,0,0:0:0:0:
256,152,35213,1,0,0:0:0:0:
256,152,35862,1,0,0:0:0:0:
256,152,36510,1,2,0:0:0:0:
264,152,36835,1,0,0:0:0:0:
256,152,37159,1,0,0:0:0:0:
256,152,37808,1,0,0:0:0:0:
256,152,38456,1,0,0:0:0:0:
256,152,39105,1,0,0:0:0:0:
256,152,39267,1,0,0:0:0:0:
256,152,39429,1,4,0:0:0:0:
256,152,40889,5,0,0:0:0:0:
256,152,41375,1,4,0:0:0:0:
256,152,42024,5,0,0:0:0:0:
256,152,42348,1,0,0:0:0:0:
256,152,42510,1,2,0:0:0:0:
256,152,42835,1,0,0:0:0:0:
256,152,43159,1,0,0:0:0:0:
256,152,43646,1,0,0:0:0:0:
256,152,43970,1,2,0:0:0:0:
256,152,44294,1,0,0:0:0:0:
256,152,44619,1,0,0:0:0:0:
256,152,44943,1,0,0:0:0:0:
256,152,45105,1,2,0:0:0:0:
256,152,45916,1,0,0:0:0:0:
256,152,46240,1,2,0:0:0:0:
264,152,46402,1,0,0:0:0:0:
256,152,46564,1,0,0:0:0:0:
256,152,47213,5,0,0:0:0:0:
256,152,47537,1,0,0:0:0:0:
256,152,47700,1,2,0:0:0:0:
256,152,48024,1,0,0:0:0:0:
256,152,48348,1,0,0:0:0:0:
256,152,48835,1,0,0:0:0:0:
256,152,49159,1,2,0:0:0:0:
256,160,49483,1,0,0:0:0:0:
256,152,49808,1,0,0:0:0:0:
256,152,50456,1,0,0:0:0:0:
256,152,51105,1,0,0:0:0:0:
256,160,51754,1,0,0:0:0:0:
256,152,52402,5,0,0:0:0:0:
256,152,52727,1,0,0:0:0:0:
256,152,53051,1,0,0:0:0:0:
256,152,53213,1,0,0:0:0:0:
256,152,53375,1,2,0:0:0:0:
256,152,53700,1,0,0:0:0:0:
256,152,54024,1,2,0:0:0:0:
256,152,54673,5,2,0:0:0:0:
256,152,54997,1,0,0:0:0:0:
256,152,55321,1,2,0:0:0:0:
256,152,55483,1,0,0:0:0:0:
256,152,55808,1,0,0:0:0:0:
256,152,55970,1,2,0:0:0:0:
256,152,56294,1,0,0:0:0:0:
248,168,56619,1,2,0:0:0:0:
256,152,57267,5,0,0:0:0:0:
256,152,57591,1,4,0:0:0:0:
256,152,58240,1,4,0:0:0:0:
256,152,58889,1,4,0:0:0:0:
256,152,59537,1,4,0:0:0:0:
128,256,60186,2,0,L|288:256,4,140
184,176,62132,1,6,0:0:0:0:
256,144,62781,1,4,0:0:0:0:
256,144,63267,1,6,0:0:0:0:
256,144,63916,1,6,0:0:0:0:
256,144,65375,1,0,0:0:0:0:
256,144,65700,1,0,0:0:0:0:
256,144,66024,1,2,0:0:0:0:
217,142,66186,1,0,0:0:0:0:
256,144,66348,1,0,0:0:0:0:
256,144,66673,1,0,0:0:0:0:
256,144,66997,1,2,0:0:0:0:
256,144,67321,1,0,0:0:0:0:
256,144,67970,5,0,0:0:0:0:
256,144,68294,1,2,0:0:0:0:
256,144,68619,1,0,0:0:0:0:
220,160,68781,1,0,0:0:0:0:
256,144,68943,1,2,0:0:0:0:
256,144,69267,1,0,0:0:0:0:
256,144,69591,1,2,0:0:0:0:
256,144,69916,1,2,0:0:0:0:
256,144,70564,5,0,0:0:0:0:
256,144,71213,1,0,0:0:0:0:
256,144,71375,1,0,0:0:0:0:
256,144,71537,1,0,0:0:0:0:
256,144,71862,1,0,0:0:0:0:
256,144,72510,1,0,0:0:0:0:
256,144,72673,1,0,0:0:0:0:
256,144,72835,1,2,0:0:0:0:
136,248,73159,2,0,L|288:248,4,140
256,136,75754,5,0,0:0:0:0:
256,136,76078,1,2,0:0:0:0:
256,136,76402,1,0,0:0:0:0:
211,133,76564,1,0,0:0:0:0:
256,136,76727,1,2,0:0:0:0:
256,136,77051,1,0,0:0:0:0:
256,136,77375,1,2,0:0:0:0:
256,136,77700,1,0,0:0:0:0:
256,136,78348,5,0,0:0:0:0:
256,136,78673,1,2,0:0:0:0:
256,136,78997,1,0,0:0:0:0:
256,136,79159,1,0,0:0:0:0:
256,136,79321,1,0,0:0:0:0:
256,136,79646,1,2,0:0:0:0:
256,136,79970,1,0,0:0:0:0:
256,136,80294,1,2,0:0:0:0:
256,136,80943,5,0,0:0:0:0:
256,136,81267,1,0,0:0:0:0:
256,136,81591,1,0,0:0:0:0:
256,136,81916,1,2,0:0:0:0:
256,136,82240,1,0,0:0:0:0:
256,136,82564,1,2,0:0:0:0:
256,136,82889,1,0,0:0:0:0:
256,136,83051,1,2,0:0:0:0:
256,136,83213,1,2,0:0:0:0:
256,136,83537,5,0,0:0:0:0:
256,136,84186,1,0,0:0:0:0:
256,136,84510,1,2,0:0:0:0:
256,136,84835,1,0,0:0:0:0:
256,136,84997,1,0,0:0:0:0:
256,136,85159,1,2,0:0:0:0:
256,136,85321,1,0,0:0:0:0:
256,136,85646,1,0,0:0:0:0:
256,136,85808,1,2,0:0:0:0:
256,136,86132,5,4,0:0:0:0:
256,136,86619,1,4,0:0:0:0:
256,136,87429,1,6,0:0:0:0:
256,136,87916,1,6,0:0:0:0:
160,264,88727,2,0,L|240:264,5,70
256,144,90024,5,4,0:0:0:0:
