osu file format v14

[General]
AudioFilename: audio.mp3
AudioLeadIn: 0
PreviewTime: 14660
Countdown: 0
SampleSet: Soft
StackLeniency: 0.4
Mode: 0
LetterboxInBreaks: 0
WidescreenStoryboard: 1

[Editor]
Bookmarks: 130394,131358,157229,157780
DistanceSpacing: 1.4
BeatDivisor: 4
GridSize: 32
TimelineZoom: 1.3

[Metadata]
Title:Utakata no Yoru
TitleUnicode:泡沫の夜
Artist:Fukunaga Yoru
ArtistUnicode:ふくなが よる
Creator:Fushimi Rio
Version:papapa's Hard
Source:
Tags:japanese rock papapa213 buki irotuk 西坂恭平 Nishizaka Kyohei
BeatmapID:2185568
BeatmapSetID:898030

[Difficulty]
HPDrainRate:6
CircleSize:4
OverallDifficulty:6
ApproachRate:7.2
SliderMultiplier:2.2
SliderTickRate:1

[Events]
//Background and Video events
0,0,"test.jpg",0,0
//Break Periods
//Storyboard Layer 0 (Background)
//Storyboard Layer 1 (Fail)
//Storyboard Layer 2 (Pass)
//Storyboard Layer 3 (Foreground)
//Storyboard Layer 4 (Overlay)
//Storyboard Sound Samples

[TimingPoints]
1735,550.45871559633,3,2,50,40,1,0
1735,-133.333333333333,3,2,50,40,0,0
40542,-117.647058823529,3,2,50,50,0,0
41368,-100,3,2,50,80,0,1
41643,-100,3,2,50,80,0,1
42193,-100,3,2,50,80,0,0
43019,-100,3,2,50,80,0,0
43844,-100,3,2,50,80,0,0
44120,-100,3,2,1,80,0,0
44670,-100,3,2,50,80,0,0
45495,-100,3,2,50,80,0,0
46322,-100,3,2,50,80,0,0
46459,-100,3,2,50,80,0,0
46734,-100,3,2,50,80,0,0
47560,-100,3,2,50,80,0,0
47973,-100,3,2,50,80,0,0
48798,-100,3,2,50,80,0,0
49624,-100,3,2,50,80,0,0
50449,-100,3,2,50,80,0,0
50725,-100,3,2,1,80,0,0
51275,-100,3,2,50,80,0,0
51276,-100,3,2,50,80,0,0
51551,-100,3,2,50,80,0,0
51826,-100,3,2,50,80,0,0
52101,-83.3333333333333,3,2,50,80,0,0
52377,-100,3,2,50,80,0,0
52652,-100,3,2,50,80,0,0
53753,-125,3,2,50,60,0,0
54579,-111.111111111111,3,2,50,60,0,0
64487,-100,3,2,50,60,0,0
67790,-111.111111111111,3,2,0,60,0,0
93386,-100,3,2,50,50,0,0
94212,-100,3,2,50,50,0,0
94487,-125,3,2,50,50,0,0
102468,-100,3,2,50,60,0,0
103019,-100,3,2,50,60,0,0
103569,-100,3,2,50,60,0,0
103845,-100,3,2,50,70,0,0
105771,-100,3,2,50,80,0,1
115679,-100,3,2,50,80,0,1
116505,-100,3,2,50,80,0,1
118982,-100,3,2,50,80,0,1
125588,-100,3,2,50,80,0,1
132193,-142.857142857143,3,2,50,80,0,0
132881,-142.857142857143,3,2,50,10,0,0
133019,550.45871559633,3,2,50,80,1,1
133019,-111.111111111111,3,2,50,80,0,1
133294,-111.111111111111,3,2,50,70,0,0
136321,-111.111111111111,3,2,50,70,0,0
137147,-111.111111111111,3,2,50,70,0,0
146230,-111.111111111111,3,2,50,70,0,0
148707,-111.111111111111,3,2,50,80,0,0
159441,-111.111111111111,3,2,50,50,0,0

[Colours]
Combo1 : 255,226,130
Combo2 : 192,192,192
Combo3 : 255,128,128
Combo4 : 191,128,255

[HitObjects]
85,85,14670,5,0,0:0:0:0:
85,85,14946,2,0,P|149:134|229:120,1,165.000006294251,2|0,0:0|0:0,0:0:0:0:
289,66,15771,1,0,0:0:0:0:
364,206,16322,1,0,0:0:0:0:
364,206,16597,2,0,P|304:258|225:245,1,165.000006294251,2|0,0:0|0:0,0:0:0:0:
164,189,17423,1,0,0:0:0:0:
292,8,17973,5,0,0:0:0:0:
292,8,18248,2,0,L|278:172,1,165.000006294251,0|0,0:0|0:0,0:0:0:0:
224,246,19074,1,0,0:0:0:0:
163,188,19349,2,0,P|126:173|85:176,1,82.5000031471254,2|0,0:0|0:0,0:0:0:0:
218,266,19900,2,0,P|302:233|378:249,1,165.000006294251,2|0,0:0|0:0,0:0:0:0:
404,327,20725,2,0,P|445:344|492:341,1,82.5000031471254,0|0,0:0|0:0,0:0:0:0:
510,256,21276,5,0,0:0:0:0:
510,256,21551,2,0,L|497:75,1,165.000006294251,2|0,0:0|0:0,0:0:0:0:
431,29,22377,1,0,0:0:0:0:
263,111,22927,1,0,0:0:0:0:
263,111,23202,2,0,P|345:150|421:122,1,165.000006294251,2|0,0:0|0:0,0:0:0:0:
431,49,24028,1,0,0:0:0:0:
242,25,24579,5,0,0:0:0:0:
242,25,24854,2,0,L|220:191,1,165.000006294251,0|0,0:0|0:0,0:0:0:0:
207,269,25679,1,0,0:0:0:0:
175,345,25955,2,0,P|133:360|79:355,1,82.5000031471254,2|0,0:0|0:0,0:0:0:0:
207,269,26505,2,0,L|395:298,1,165.000006294251,2|0,0:0|0:0,0:0:0:0:
451,307,27331,2,0,P|471:348|470:407,2,82.5000031471254,0|0|0,0:0|0:0|0:0,0:0:0:0:
423,228,28157,6,0,P|402:149|440:56,1,165.000006294251,4|0,0:0|0:0,0:0:0:0:
489,18,28982,1,0,1:0:0:0:
301,87,29533,1,0,0:0:0:0:
301,87,29808,2,0,P|219:92|139:52,1,165.000006294251,2|0,0:0|0:0,0:0:0:0:
83,1,30634,1,0,1:0:0:0:
1,162,31184,5,0,0:0:0:0:
1,162,31459,2,0,B|-9:253|60:318,1,165.000006294251,2|0,0:0|0:0,0:0:0:0:
139,342,32285,1,0,1:0:0:0:
189,274,32560,2,0,P|196:235|181:192,1,82.5000031471254,0|0,0:0|0:0,0:0:0:0:
221,350,33111,2,0,P|277:364|327:362,1,82.5000031471254,2|0,0:0|0:0,0:0:0:0:
326,333,33523,2,0,P|365:320|406:317,1,82.5000031471254,2|0,0:0|0:0,0:0:0:0:
434,348,33936,1,0,1:0:0:0:
495,270,34212,2,0,P|512:230|503:169,1,82.5000031471254,0|0,0:0|1:0,0:0:0:0:
469,120,34762,6,0,B|381:81|344:169|262:143|222:100,1,247.500009441376,4|0,0:0|1:0,0:0:0:0:
182,44,35863,2,0,P|133:32|88:41,1,82.5000031471254,0|0,0:0|0:0,0:0:0:0:
53,102,36413,2,0,L|65:202,1,82.5000031471254,2|0,0:0|0:0,0:0:0:0:
57,266,36964,1,2,0:0:0:0:
130,228,37239,2,0,P|207:244|244:349,1,165.000006294251,0|0,1:0|0:0,0:0:0:0:
191,379,38065,2,0,P|139:381|87:343,2,82.5000031471254,4|0|0,0:0|0:0|0:0,0:0:0:0:
260,320,38890,2,0,P|324:295|371:384,1,165.000006294251,0|0,0:0|0:0,0:0:0:0:
471,344,39716,6,0,P|505:279|509:171,1,165.000006294251,4|0,0:1|0:0,0:0:0:0:
400,257,40542,2,0,P|351:193|332:73,1,187.000003566742,2|0,0:0|1:0,0:0:0:0:
359,7,41368,6,0,P|313:36|259:35,1,110,4|0,1:0|0:0,0:0:0:0:
239,75,41780,2,0,P|193:45|139:46,1,110,0|0,1:0|0:0,0:0:0:0:
113,81,42193,1,0,1:0:0:0:
144,194,42468,1,0,1:3:0:0:
116,188,42606,1,4,0:3:0:0:
88,182,42744,1,4,0:3:0:0:
61,177,42881,1,0,0:0:0:0:
0,237,43019,6,0,P|9:305|75:351,1,110,4|0,1:0|0:0,0:0:0:0:
68,363,43432,2,0,P|118:342|171:353,1,110,0|0,1:0|0:0,0:0:0:0:
205,384,43845,1,0,1:0:0:0:
263,290,44120,2,0,L|258:230,2,36.6666666666667,0|0|0,1:0|3:3|3:3,0:0:0:0:
294,308,44395,2,0,L|325:267,2,36.6666666666667,0|0|0,3:1|3:0|3:0,0:0:0:0:
305,342,44670,6,0,P|360:357|426:318,1,110,4|0,1:0|0:0,0:0:0:0:
451,344,45083,2,0,P|479:294|459:220,1,110,0|0,1:0|0:0,0:0:0:0:
497,206,45496,1,0,1:0:0:0:
432,84,45771,1,0,1:0:0:0:
426,112,45909,1,4,0:3:0:0:
420,140,46047,1,4,0:3:0:0:
415,167,46184,1,0,0:0:0:0:
366,229,46322,6,0,P|316:251|262:244,1,110,0|0,1:0|0:0,0:0:0:0:
228,216,46734,2,0,P|174:209|124:231,1,110,4|0,1:0|0:0,0:0:0:0:
67,281,47147,2,0,L|83:153,1,110,0|0,1:0|0:0,0:0:0:0:
35,114,47560,2,0,L|144:132,1,110,0|0,1:0|0:0,0:0:0:0:
213,90,47973,6,0,P|298:78|333:43,1,110,4|0,1:0|0:0,0:0:0:0:
336,25,48386,2,0,P|421:37|456:72,1,110,0|0,1:0|0:0,0:0:0:0:
457,89,48799,1,0,1:0:0:0:
409,190,49074,1,0,1:0:0:0:
381,196,49212,1,4,0:3:0:0:
353,202,49350,1,4,0:3:0:0:
326,207,49487,1,0,0:0:0:0:
269,267,49625,6,0,P|271:321|304:364,1,110,4|0,1:0|0:0,0:0:0:0:
343,384,50037,2,0,P|375:340|378:286,1,110,4|0,1:0|0:0,0:0:0:0:
362,245,50450,1,0,1:1:0:0:
363,135,50725,2,0,L|388:81,2,36.6666666666667,0|0|0,1:0|3:0|3:0,0:0:0:0:
322,140,51001,2,0,L|323:80,2,36.6666666666667,0|0|0,3:0|3:0|3:0,0:0:0:0:
293,163,51276,6,0,P|230:136|185:146,2,110,4|4|4,1:0|0:3|0:3,0:0:0:0:
230,264,52101,6,0,B|161:271|161:271|119:317,2,131.99999597168,4|0|0,1:1|0:0|0:0,0:0:0:0:
323,333,52927,6,0,B|318:358|318:358|297:391,2,55,4|4|0,1:0|0:3|1:3,0:0:0:0:
323,256,53340,1,4,1:0:0:0:
351,252,53478,1,4,0:3:0:0:
380,248,53615,1,0,1:0:0:0:
452,215,53753,6,0,B|436:182|481:158|453:112,2,88,2|2|0,0:0|0:0|0:0,0:0:0:0:
380,140,54579,6,0,P|257:80|172:109,1,197.99999395752,4|0,0:0|0:0,0:0:0:0:
182,119,55267,1,0,0:0:0:0:
162,147,55404,2,0,P|112:174|50:166,2,98.9999969787599,0|0|0,1:0|0:0|0:0,0:0:0:0:
267,179,56230,6,0,P|299:263|287:334,1,148.49999546814,2|2,0:0|0:0,0:0:0:0:
395,384,56918,1,0,0:0:0:0:
395,384,57056,2,0,P|415:339|449:303,1,98.9999969787599,0|0,1:0|0:0,0:0:0:0:
482,293,57468,1,0,1:0:0:0:
510,177,57744,1,0,0:0:0:0:
510,177,57881,6,0,P|500:92|476:61,1,98.9999969787599,4|0,0:0|0:0,0:0:0:0:
395,15,58432,1,0,0:0:0:0:
332,116,58707,2,0,L|189:110,1,98.9999969787599,0|0,1:0|0:0,0:0:0:0:
155,17,59257,2,0,L|70:27,1,49.4999984893799,0|0,0:0|0:0,0:0:0:0:
69,40,59533,6,0,P|41:84|39:144,1,98.9999969787599,2|0,0:0|0:0,0:0:0:0:
70,153,59946,2,0,P|98:197|100:257,1,98.9999969787599,2|0,0:0|0:0,0:0:0:0:
101,319,60358,2,0,L|148:332,1,49.4999984893799,0|0,1:0|0:0,0:0:0:0:
208,280,60634,2,0,L|255:267,1,49.4999984893799,0|0,1:0|0:0,0:0:0:0:
329,289,60908,1,0,1:0:0:0:
345,276,61046,1,0,1:0:0:0:
353,261,61184,6,0,P|376:203|370:142,1,98.9999969787599,4|0,0:0|0:0,0:0:0:0:
267,119,61734,1,0,0:0:0:0:
157,94,62010,2,0,P|253:89|314:15,1,197.99999395752,0|0,1:0|0:0,0:0:0:0:
165,0,62835,6,0,P|149:56|161:105,1,98.9999969787599,2|0,0:0|0:0,0:0:0:0:
182,124,63248,2,0,P|198:180|186:229,1,98.9999969787599,2|0,0:0|0:0,0:0:0:0:
162,246,63661,2,0,L|54:236,1,98.9999969787599,0|0,1:0|0:0,0:0:0:0:
29,258,64074,1,0,1:0:0:0:
101,355,64349,1,0,0:0:0:0:
101,355,64487,6,0,L|216:346,1,110,4|0,0:0|0:0,0:0:0:0:
249,366,64900,2,0,P|299:383|368:381,1,110,0|0,0:0|0:0,0:0:0:0:
381,348,65312,1,4,0:0:0:0:
468,228,65588,1,4,1:3:0:0:
497,349,65863,1,0,1:0:0:0:
357,206,66138,6,0,L|243:229,1,110,4|0,1:0|1:0,0:0:0:0:
220,194,66551,2,0,L|93:172,1,110,0|4,1:3|1:3,0:0:0:0:
44,144,66964,1,8,1:3:0:0:
58,122,67101,1,0,1:0:0:0:
82,109,67239,1,4,1:3:0:0:
109,103,67377,1,4,0:3:0:0:
136,105,67514,2,0,P|169:105|198:90,1,55,4|0,0:3|0:0,0:0:0:0:
243,39,67790,6,0,L|394:61,1,148.49999546814,4|0,0:1|0:0,0:0:0:0:
499,188,68615,2,0,P|417:207|365:192,1,98.9999969787599,2|0,0:0|0:0,0:0:0:0:
291,161,69166,1,0,0:0:0:0:
310,175,69303,1,0,0:0:0:0:
323,195,69441,6,0,P|328:291|306:344,1,148.49999546814,0|0,0:0|0:0,0:0:0:0:
166,384,70267,2,0,P|106:355|64:307,1,98.9999969787599,2|0,0:0|0:0,0:0:0:0:
0,246,70817,1,2,0:0:0:0:
24,248,70955,1,0,0:0:0:0:
48,243,71092,6,0,P|94:220|128:167,1,98.9999969787599,0|0,0:0|0:0,0:0:0:0:
153,199,71505,2,0,P|166:149|150:88,1,98.9999969787599,0|0,0:0|0:0,0:0:0:0:
184,73,71918,2,0,L|288:91,1,98.9999969787599,2|2,0:0|3:2,0:0:0:0:
364,35,72468,1,0,0:0:0:0:
447,88,72744,6,0,P|468:144|454:193,1,98.9999969787599,0|0,0:0|0:0,0:0:0:0:
428,204,73157,2,0,P|407:260|421:309,1,98.9999969787599,0|0,0:0|0:0,0:0:0:0:
438,328,73569,2,0,L|318:318,1,98.9999969787599,2|2,0:0|0:0,0:0:0:0:
235,339,74120,1,0,0:0:0:0:
210,344,74257,1,0,0:0:0:0:
185,349,74395,6,0,P|97:326|15:337,1,148.49999546814,0|0,3:0|0:0,0:0:0:0:
8,177,75221,2,0,L|148:157,1,98.9999969787599,2|0,0:0|0:0,0:0:0:0:
177,94,75771,1,0,0:0:0:0:
162,73,75909,1,0,0:0:0:0:
139,62,76046,6,0,P|89:47|-4:104,1,148.49999546814,0|0,0:0|0:0,0:0:0:0:
225,20,76872,2,0,P|282:18|343:76,1,98.9999969787599,2|0,0:0|0:0,0:0:0:0:
371,121,77423,1,2,0:0:0:0:
372,145,77560,1,0,3:0:0:0:
365,168,77698,6,0,P|289:189|222:163,1,148.49999546814,0|0,0:0|0:0,0:0:0:0:
120,274,78386,1,0,0:0:0:0:
120,274,78523,2,0,P|177:257|229:264,1,98.9999969787599,2|0,0:0|0:0,0:0:0:0:
303,306,79074,1,0,0:0:0:0:
243,378,79349,6,0,P|312:354|408:367,1,148.49999546814,0|0,0:0|0:0,0:0:0:0:
472,237,80175,2,0,P|426:217|377:218,1,98.9999969787599,2|2,0:0|0:0,0:0:0:0:
305,329,80725,1,0,0:0:0:0:
318,308,80863,1,0,0:0:0:0:
330,285,81001,6,0,P|328:213|279:153,1,148.49999546814,4|0,0:1|3:0,0:0:0:0:
175,150,81689,1,0,0:0:0:0:
175,150,81826,2,0,P|149:212|160:266,1,98.9999969787599,0|2,0:3|0:0,0:0:0:0:
181,268,82239,2,0,P|207:330|196:384,1,98.9999969787599,2|0,0:0|3:0,0:0:0:0:
134,383,82652,5,2,0:0:0:0:
134,383,82790,2,0,L|24:385,1,98.9999969787599,0|0,0:0|3:0,0:0:0:0:
4,321,83202,2,0,P|4:293|18:256,1,49.4999984893799,0|0,0:0|0:0,0:0:0:0:
72,228,83478,2,0,P|83:179|72:131,1,98.9999969787599,2|0,0:0|0:0,0:0:0:0:
44,105,83890,1,0,0:0:0:0:
119,2,84166,5,0,3:0:0:0:
119,2,84303,2,0,L|189:0,2,49.4999984893799,2|2|0,0:0|0:0|0:0,0:0:0:0:
141,73,84716,2,0,L|253:94,1,98.9999969787599,0|0,3:0|0:0,0:0:0:0:
270,77,85129,2,0,P|363:100|389:130,1,98.9999969787599,2|0,0:0|0:0,0:0:0:0:
387,171,85542,2,0,P|368:188|343:195,1,49.4999984893799,0|0,3:0|0:0,0:0:0:0:
293,252,85817,1,0,0:0:0:0:
293,252,85955,6,0,L|310:362,1,98.9999969787599,2|0,0:0|0:0,0:0:0:0:
332,376,86368,2,0,P|380:386|455:362,1,98.9999969787599,2|0,0:0|0:0,0:0:0:0:
454,354,86780,2,0,L|463:240,1,98.9999969787599,0|0,3:0|0:0,0:0:0:0:
490,235,87193,1,0,0:0:0:0:
459,132,87468,5,0,3:0:0:0:
459,132,87606,2,0,L|473:63,2,49.4999984893799,2|2|0,0:0|0:0|0:0,0:0:0:0:
401,178,88019,2,0,P|337:175|272:131,1,98.9999969787599,0|0,3:0|0:0,0:0:0:0:
287,131,88432,2,0,P|223:134|158:178,1,98.9999969787599,0|0,0:0|0:0,0:0:0:0:
163,128,88845,2,0,L|43:109,1,98.9999969787599,2|0,0:0|3:0,0:0:0:0:
0,72,89257,5,2,0:0:0:0:
0,72,89395,1,2,0:0:0:0:
0,190,89670,2,0,P|0:243|23:292,1,98.9999969787599,0|0,3:0|0:0,0:0:0:0:
48,310,90083,2,0,L|160:303,1,98.9999969787599,2|0,0:0|0:0,0:0:0:0:
169,273,90496,2,0,P|187:227|187:178,1,98.9999969787599,0|0,0:0|3:0,0:0:0:0:
124,139,90909,6,0,L|63:151,2,49.4999984893799,2|0|0,0:0|0:0|0:0,0:0:0:0:
193,104,91322,2,0,P|274:108|325:139,1,98.9999969787599,0|0,3:0|0:0,0:0:0:0:
305,144,91734,2,0,P|386:140|437:109,1,98.9999969787599,0|0,0:0|0:0,0:0:0:0:
462,91,92147,2,0,L|445:205,1,98.9999969787599,2|0,0:0|3:0,0:0:0:0:
383,229,92560,5,2,0:0:0:0:
383,229,92698,1,2,0:0:0:0:
297,311,92973,2,0,L|194:327,1,98.9999969787599,0|0,3:0|0:0,0:0:0:0:
130,267,93386,5,4,0:0:0:0:
123,240,93523,1,0,0:0:0:0:
131,213,93661,1,2,0:0:0:0:
205,197,93799,2,0,P|225:221|231:247,2,55,2|0|0,0:0|0:0|0:0,0:0:0:0:
157,142,94212,5,4,0:1:0:0:
27,62,94624,6,0,L|3:2,2,44,0|0|0,0:0|0:0|0:0,0:0:0:0:
58,92,95037,2,0,L|48:202,1,88,2|0,0:0|0:0,0:0:0:0:
99,262,95588,6,0,L|244:256,2,132,2|2|0,0:0|0:0|0:0,0:0:0:0:
35,323,96689,1,4,0:3:0:0:
35,323,96964,6,0,P|89:362|205:326,1,176,4|0,0:1|0:0,0:0:0:0:
268,328,97790,1,2,0:0:0:0:
342,355,98065,1,0,0:0:0:0:
409,314,98340,2,0,L|529:295,2,88,0|0|0,0:0|0:0|0:0,0:0:0:0:
338,277,99166,5,2,0:0:0:0:
330,266,99303,1,2,0:0:0:0:
327,252,99441,1,4,0:3:0:0:
329,238,99579,1,4,0:3:0:0:
335,225,99716,2,0,P|371:192|440:197,1,88,4|0,0:1|0:0,0:0:0:0:
427,142,100129,2,0,P|380:127|350:65,1,88,0|0,0:0|0:0,0:0:0:0:
346,56,100542,2,0,P|336:98|305:128,1,88,2|0,0:0|0:0,0:0:0:0:
214,76,101092,6,0,P|156:42|76:52,2,132,2|2|4,0:0|0:0|0:3,0:0:0:0:
224,100,102056,1,0,0:0:0:0:
224,125,102193,2,0,P|220:153|200:180,1,44,0|0,1:0|1:0,0:0:0:0:
143,195,102468,5,4,1:0:0:0:
86,304,102744,1,4,0:3:0:0:
210,291,103019,1,4,0:3:0:0:
390,232,103294,5,4,0:3:0:0:
450,347,103570,1,4,0:3:0:0:
319,333,103845,1,4,0:3:0:0:
256,176,104120,6,0,P|257:100|301:47,1,110,4|0,1:0|1:0,0:0:0:0:
348,56,104533,1,4,1:0:0:0:
408,102,104670,1,0,0:0:0:0:
477,68,104808,1,0,1:0:0:0:
358,164,105771,6,0,L|190:152,1,165,4|0,0:0|0:0,0:0:0:0:
131,105,106322,2,0,P|115:75|114:24,1,55,4|0,0:3|0:0,0:0:0:0:
41,4,106597,2,0,P|34:30|21:54,1,55,0|0,1:0|0:0,0:0:0:0:
53,126,106872,1,0,0:0:0:0:
210,64,107147,1,0,0:0:0:0:
144,228,107423,6,0,P|140:282|177:352,1,110,4|0,1:0|0:0,0:0:0:0:
222,378,107835,2,0,L|366:385,1,110,4|0,0:3|0:0,0:0:0:0:
393,337,108248,1,0,1:0:0:0:
397,177,108523,2,0,P|379:143|358:128,1,55,0|4,0:0|1:3,0:0:0:0:
296,165,108799,2,0,P|296:192|307:217,1,55,2|4,0:0|0:3,0:0:0:0:
378,253,109074,6,0,P|432:258|490:233,1,110,4|0,0:0|0:0,0:0:0:0:
509,86,109624,1,4,0:3:0:0:
367,55,109900,2,0,P|412:24|466:24,1,110,0|0,1:0|0:0,0:0:0:0:
510,166,110450,1,0,0:0:0:0:
411,310,110725,6,0,P|336:344|255:339,1,165,4|2,0:1|0:0,0:0:0:0:
150,226,111413,1,0,0:0:0:0:
150,226,111551,2,0,L|159:152,1,55,4|0,1:2|0:0,0:0:0:0:
202,109,111826,1,4,1:3:0:0:
323,196,112101,1,4,1:3:0:0:
255,339,112377,6,0,P|271:259|323:196,1,165,4|0,0:0|0:0,0:0:0:0:
385,148,112928,2,0,P|376:111|326:78,1,55,4|0,0:3|0:0,0:0:0:0:
293,73,113202,2,0,P|284:109|234:142,1,55,0|0,1:0|0:0,0:0:0:0:
222,181,113478,1,0,0:0:0:0:
397,222,113753,1,0,0:0:0:0:
273,122,114029,6,0,P|223:157|136:147,1,110,4|0,1:0|0:0,0:0:0:0:
118,110,114441,2,0,P|68:75|-19:85,1,110,0|4,0:0|0:3,0:0:0:0:
2,145,114854,1,4,1:2:0:0:
44,293,115129,2,0,L|114:301,1,55,0|4,0:0|1:3,0:0:0:0:
158,250,115404,2,0,L|212:243,1,55,2|4,0:0|0:3,0:0:0:0:
268,297,115679,5,4,1:2:0:0:
137,379,115955,1,0,0:0:0:0:
85,219,116230,1,0,0:3:0:0:
293,189,116505,2,0,L|268:300,1,110,4|4,1:0|0:3,0:0:0:0:
341,321,116918,2,0,L|449:287,1,110,0|2,0:0|0:0,0:0:0:0:
432,214,117331,6,0,L|348:136,1,110,4|0,0:0|0:3,0:0:0:0:
278,112,117744,2,0,P|243:133|187:131,1,55,4|0,1:3|0:0,0:0:0:0:
153,122,118019,1,4,1:3:0:0:
160,101,118157,1,8,1:3:0:0:
172,83,118294,1,0,1:0:0:0:
189,69,118432,5,4,1:0:0:0:
336,24,118707,1,4,0:3:0:0:
189,69,118982,6,0,P|107:75|35:37,1,165,4|0,0:0|0:0,0:0:0:0:
6,115,119533,2,0,P|23:145|26:191,1,55,4|0,0:3|0:0,0:0:0:0:
83,225,119808,2,0,P|89:198|104:175,1,55,0|0,1:0|0:0,0:0:0:0:
185,163,120083,1,0,0:0:0:0:
337,226,120358,1,0,0:0:0:0:
196,339,120634,6,0,P|169:291|162:237,1,110,4|0,1:0|0:0,0:0:0:0:
185,163,121046,2,0,P|211:115|218:61,1,110,4|0,0:3|0:0,0:0:0:0:
170,0,121459,1,0,1:3:0:0:
59,124,121734,2,0,L|144:137,1,55,0|4,0:0|1:3,0:0:0:0:
185,163,122010,2,0,L|239:154,1,55,2|4,0:0|0:3,0:0:0:0:
303,112,122285,6,0,P|340:147|360:246,1,110,4|0,0:0|0:0,0:0:0:0:
303,343,122835,1,4,0:3:0:0:
142,287,123111,2,0,L|284:267,1,110,0|0,1:0|0:0,0:0:0:0:
361,200,123661,1,0,0:0:0:0:
271,54,123936,2,0,L|92:26,1,165,4|0,1:0|0:3,0:0:0:0:
0,143,124624,1,0,0:3:0:0:
0,143,124762,2,0,P|1:189|15:234,1,55,0|0,1:0|0:0,0:0:0:0:
70,242,125037,6,0,P|69:288|54:333,1,55,8|2,0:3|0:0,0:0:0:0:
41,370,125312,1,4,1:3:0:0:
55,379,125450,1,0,1:3:0:0:
71,380,125588,6,0,P|128:378|202:334,1,110,4|0,0:0|1:0,0:0:0:0:
233,305,126001,2,0,P|287:306|337:328,1,110,2|2,0:0|0:0,0:0:0:0:
392,382,126413,1,0,1:0:0:0:
500,271,126689,1,2,0:0:0:0:
361,203,126964,1,0,1:0:0:0:
352,188,127101,1,0,1:0:0:0:
346,172,127239,6,0,P|345:122|403:59,1,110,4|0,0:1|1:0,0:0:0:0:
412,4,127652,2,0,L|264:-2,1,110,2|2,0:0|0:0,0:0:0:0:
260,64,128065,2,0,P|231:75|193:74,1,55,4|0,1:2|0:0,0:0:0:0:
158,16,128340,1,0,1:3:0:0:
142,10,128478,1,4,1:3:0:0:
125,8,128615,2,0,P|97:10|72:20,1,55,2|2,1:2|0:0,0:0:0:0:
31,86,128890,6,0,P|23:112|23:139,1,55,4|0,1:0|0:0,0:0:0:0:
46,214,129166,2,0,P|58:238|78:257,1,55,0|0,1:0|0:0,0:0:0:0:
147,293,129441,2,0,P|173:300|200:300,1,55,0|0,1:0|0:0,0:0:0:0:
257,250,129716,6,0,P|283:256|307:270,1,55,0|0,1:0|0:0,0:0:0:0:
324,343,129991,2,0,P|305:362|281:376,1,55,0|0,1:0|0:0,0:0:0:0:
208,354,130267,2,0,P|200:327|200:300,1,55,0|0,1:0|0:0,0:0:0:0:
186,225,130542,6,0,P|319:211|425:146,1,220,4|0,1:1|1:0,0:0:0:0:
170,122,131368,6,0,P|147:138|131:161,1,55,4|0,0:0|0:0,0:0:0:0:
107,234,131644,2,0,P|102:260|107:287,1,55,0|0,1:0|0:0,0:0:0:0:
155,349,131918,1,0,1:0:0:0:
150,362,132056,1,0,1:0:0:0:
144,379,132193,6,0,P|214:324|279:385,1,192.499994125366,2|0,0:0|0:0,0:0:0:0:
352,344,133019,6,0,P|253:248|162:249,1,197.99999395752,4|0,0:0|0:0,0:0:0:0:
173,248,133707,1,0,0:0:0:0:
149,257,133844,2,0,P|93:270|35:246,2,98.9999969787599,0|0|0,1:0|0:0|0:0,0:0:0:0:
218,149,134670,6,0,P|222:75|192:9,1,148.49999546814,2|2,0:0|0:0,0:0:0:0:
45,44,135358,1,0,0:0:0:0:
45,44,135496,2,0,P|27:89|25:139,1,98.9999969787599,0|0,1:0|0:0,0:0:0:0:
40,164,135908,1,0,1:0:0:0:
144,221,136184,1,0,0:0:0:0:
144,221,136321,6,0,P|157:305|141:341,1,98.9999969787599,4|0,0:0|0:0,0:0:0:0:
53,384,136872,1,0,0:0:0:0:
153,316,137147,2,0,L|296:310,1,98.9999969787599,0|0,1:0|0:0,0:0:0:0:
364,348,137697,2,0,L|449:358,1,49.4999984893799,0|0,0:0|0:0,0:0:0:0:
448,335,137973,6,0,P|476:291|478:231,1,98.9999969787599,2|0,0:0|0:0,0:0:0:0:
450,218,138386,2,0,P|422:174|420:114,1,98.9999969787599,2|0,0:0|0:0,0:0:0:0:
438,56,138798,2,0,P|418:43|385:39,1,49.4999984893799,0|0,1:0|0:0,0:0:0:0:
329,77,139074,2,0,P|308:88|275:90,1,49.4999984893799,0|0,1:0|0:0,0:0:0:0:
219,54,139348,1,0,1:0:0:0:
204,51,139486,1,0,1:0:0:0:
189,50,139624,6,0,P|139:52|95:73,1,98.9999969787599,4|0,0:0|0:0,0:0:0:0:
29,172,140174,1,0,0:0:0:0:
130,234,140450,2,0,P|226:229|287:155,1,197.99999395752,0|0,1:0|0:0,0:0:0:0:
138,138,141275,6,0,P|122:194|134:243,1,98.9999969787599,2|0,0:0|0:0,0:0:0:0:
155,262,141688,2,0,P|171:318|159:367,1,98.9999969787599,2|0,0:0|0:0,0:0:0:0:
131,381,142101,2,0,L|23:371,1,98.9999969787599,0|0,1:0|0:0,0:0:0:0:
5,342,142514,1,0,1:0:0:0:
120,270,142789,1,0,0:0:0:0:
120,270,142927,6,0,L|229:257,1,98.9999969787599,4|4,1:0|0:3,0:0:0:0:
250,281,143340,2,0,P|298:299|370:291,1,98.9999969787599,0|0,0:0|0:0,0:0:0:0:
378,276,143752,1,4,1:2:0:0:
462,186,144028,1,4,0:3:0:0:
497,303,144303,1,4,0:3:0:0:
371,177,144578,5,4,1:0:0:0:
289,264,144854,1,0,1:0:0:0:
289,264,144991,2,0,L|184:276,1,98.9999969787599,4|0,1:0|1:0,0:0:0:0:
124,234,145404,1,4,1:0:0:0:
122,214,145541,1,0,1:0:0:0:
126,194,145679,2,0,P|134:163|148:140,1,49.4999984893799,4|4,1:3|0:3,0:0:0:0:
208,104,145955,2,0,P|200:73|186:50,1,49.4999984893799,4|0,0:3|0:0,0:0:0:0:
144,0,146230,5,4,1:2:0:0:
144,0,146368,2,0,L|288:11,1,98.9999969787599,0|0,1:0|1:0,0:0:0:0:
401,108,146918,1,0,0:0:0:0:
401,108,147056,2,0,P|362:156|354:221,1,98.9999969787599,4|0,0:0|0:0,0:0:0:0:
363,229,147468,2,0,L|264:215,1,98.9999969787599,0|4,1:0|1:2,0:0:0:0:
203,271,147881,5,0,1:0:0:0:
198,274,148019,2,0,P|203:312|254:392,1,98.9999969787599,0|0,1:0|1:0,0:0:0:0:
353,384,148569,1,0,1:0:0:0:
353,384,148707,2,0,P|387:365|443:289,2,98.9999969787599,4|0|0,1:0|1:0|1:0,0:0:0:0:
316,254,149533,6,0,L|521:286,1,197.99999395752,4|0,0:0|0:0,0:0:0:0:
437,190,150358,2,0,P|428:136|439:73,1,98.9999969787599,0|0,1:0|0:0,0:0:0:0:
501,24,150909,1,0,0:0:0:0:
483,8,151046,1,0,0:0:0:0:
464,0,151184,6,0,P|397:1|350:47,1,98.9999969787599,2|0,0:0|0:0,0:0:0:0:
348,49,151597,2,0,P|304:70|255:66,1,98.9999969787599,2|0,0:0|0:0,0:0:0:0:
177,37,152010,2,0,L|169:112,1,49.4999984893799,4|0,1:0|0:0,0:0:0:0:
233,137,152285,2,0,L|241:212,1,49.4999984893799,4|4,1:3|0:3,0:0:0:0:
203,255,152560,1,0,1:0:0:0:
200,274,152698,1,0,1:0:0:0:
199,293,152836,6,0,P|229:346|292:378,1,98.9999969787599,4|0,0:0|0:0,0:0:0:0:
389,350,153386,1,0,0:0:0:0:
356,213,153662,2,0,P|260:218|199:292,1,197.99999395752,0|0,1:0|0:0,0:0:0:0:
118,377,154487,6,0,P|69:384|22:368,1,98.9999969787599,2|0,0:0|0:0,0:0:0:0:
0,337,154900,2,0,P|-7:288|8:241,1,98.9999969787599,2|0,0:0|0:0,0:0:0:0:
37,215,155313,2,0,L|176:202,1,98.9999969787599,0|0,1:0|0:0,0:0:0:0:
164,232,155726,1,0,1:0:0:0:
253,154,156001,1,0,0:0:0:0:
253,154,156138,5,4,1:0:0:0:
300,283,156413,1,4,0:3:0:0:
387,171,156689,1,4,0:3:0:0:
475,121,156964,5,4,1:2:0:0:
460,291,157240,1,4,0:3:0:0:
313,205,157515,1,4,0:3:0:0:
142,258,157790,5,4,1:0:0:0:
208,379,158064,1,0,1:0:0:0:
208,379,158203,2,0,P|233:335|243:258,1,98.9999969787599,4|4,0:0|1:0,0:0:0:0:
210,224,158616,5,0,1:0:0:0:
201,206,158753,1,0,1:0:0:0:
197,186,158891,1,4,1:3:0:0:
200,166,159029,1,4,0:3:0:0:
206,147,159166,2,0,P|232:117|262:99,1,49.4999984893799,4|0,0:3|0:0,0:0:0:0:
256,192,159441,12,0,166184,3:0:0:0:
