osu file format v14

[General]
AudioFilename: audio.mp3
AudioLeadIn: 0
PreviewTime: 14660
Countdown: 0
SampleSet: Soft
StackLeniency: 0.2
Mode: 0
LetterboxInBreaks: 0
WidescreenStoryboard: 1

[Editor]
Bookmarks: 46322,46734,47010,47147,47423,47560,47835,47973,130394,131358,157229,157780
DistanceSpacing: 3.2
BeatDivisor: 12
GridSize: 4
TimelineZoom: 2.5

[Metadata]
Title:Utakata no Yoru
TitleUnicode:泡沫の夜
Artist:Fukunaga Yoru
ArtistUnicode:ふくなが よる
Creator:Fushimi Rio
Version:irotuk's Extra
Source:
Tags:japanese rock papapa213 buki irotuk 西坂恭平 Nishizaka Kyohei
BeatmapID:2178010
BeatmapSetID:898030

[Difficulty]
HPDrainRate:7
CircleSize:4
OverallDifficulty:8.5
ApproachRate:9.4
SliderMultiplier:2.4
SliderTickRate:1

[Events]
//Background and Video events
0,0,"test.jpg",0,0
//Break Periods
2,94412,96149
//Storyboard Layer 0 (Background)
//Storyboard Layer 1 (Fail)
//Storyboard Layer 2 (Pass)
//Storyboard Layer 3 (Foreground)
//Storyboard Layer 4 (Overlay)
//Storyboard Sound Samples

[TimingPoints]
1735,550.45871559633,3,2,1,55,1,0
14670,-166.666666666667,3,2,0,30,0,0
28157,-166.666666666667,3,2,1,40,0,0
28982,-250.000000000001,3,2,1,30,0,0
29395,-250.000000000001,3,2,1,40,0,0
29808,-125,3,2,1,40,0,0
30358,-250,3,2,1,40,0,0
30634,-125,3,2,1,40,0,0
32285,-250,3,2,1,30,0,0
32698,-250,3,2,1,40,0,0
33111,-125,3,2,1,40,0,0
35588,-250,3,2,1,30,0,0
36001,-250,3,2,1,40,0,0
36413,-125,3,2,1,40,0,0
36964,-250,3,2,1,40,0,0
37239,-125,3,2,1,40,0,0
39716,-250,3,2,1,40,0,0
40542,-500,3,2,1,40,0,0
41368,-83.3333333333333,3,2,1,50,0,0
41780,-62.5,3,2,1,50,0,0
42193,-83.3333333333333,3,2,1,50,0,0
43432,-62.5,3,2,1,50,0,0
43845,-83.3333333333333,3,2,1,50,0,0
44120,-100,3,2,1,50,0,0
44670,-83.3333333333333,3,2,1,50,0,0
45083,-62.5,3,2,1,50,0,0
45496,-83.3333333333333,3,2,1,50,0,0
46734,-62.5,3,2,1,50,0,0
47147,-83.3333333333333,3,2,1,50,0,0
48386,-62.5,3,2,1,50,0,0
48799,-83.3333333333333,3,2,1,50,0,0
50037,-62.5,3,2,1,50,0,0
50450,-83.3333333333333,3,2,1,50,0,0
51551,-100,3,2,1,40,0,0
51826,-125,3,2,1,30,0,0
52377,-83.3333333333333,3,2,1,40,0,0
52652,-62.5,3,2,1,60,0,0
53753,-250,3,2,1,50,0,0
54579,-83.3333333333333,3,2,1,50,0,0
67790,-125,3,2,1,40,0,0
81001,-83.3333333333333,3,2,1,50,0,0
84303,-125,3,2,1,50,0,0
87606,-83.3333333333333,3,2,1,50,0,0
96689,-166.666666666667,3,2,1,30,0,0
102468,-83.3333333333333,3,2,1,50,0,0
102744,-100,3,2,1,40,0,0
103019,-125,3,2,1,30,0,0
103569,-83.3333333333333,3,2,1,40,0,0
103845,-62.5,3,2,1,60,0,0
105771,-100,3,2,1,70,0,1
106597,-55.5555555555556,3,2,1,70,0,1
107147,-100,3,2,1,70,0,1
107423,-100,3,2,1,70,0,1
108248,-55.5555555555556,3,2,1,70,0,1
108799,-100,3,2,1,70,0,1
109074,-100,3,2,1,70,0,1
109900,-55.5555555555556,3,2,1,70,0,1
110450,-100,3,2,1,70,0,1
112377,-100,3,2,1,70,0,1
113202,-55.5555555555556,3,2,1,70,0,1
113753,-100,3,2,1,70,0,1
119808,-55.5555555555556,3,2,1,70,0,1
120358,-100,3,2,1,70,0,1
122973,-55.5555555555556,3,2,1,70,0,1
123661,-100,3,2,1,70,0,1
125588,-55.5555555555556,3,2,1,70,0,1
132193,-500,3,2,1,50,0,0
132881,-500,3,2,1,10,0,0
133019,550.45871559633,3,2,1,50,1,0
133019,-83.3333333333333,3,2,1,60,0,0
148707,-62.5,3,2,1,60,0,0
148982,-83.3333333333333,3,2,1,60,0,0
149257,-125,3,2,1,60,0,0
149533,-83.3333333333333,3,2,1,60,0,0

[Colours]
Combo1 : 255,226,130
Combo2 : 192,192,192
Combo3 : 236,130,255
Combo4 : 130,183,255

[HitObjects]
125,323,14670,6,0,L|220:304,2,71.9999978027344
60,271,15496,1,0,0:0:0:0:
116,338,15771,1,2,0:0:0:0:
273,353,16322,5,0,0:0:0:0:
341,300,16597,2,0,L|444:315,1,71.9999978027344
127,202,17147,5,0,0:0:0:0:
195,255,17422,2,0,L|298:240,1,71.9999978027344,2|0,0:0|0:0,0:0:0:0:
446,74,17973,5,0,0:0:0:0:
446,74,18248,2,0,P|309:43|142:46,1,287.999991210938
252,155,19624,1,0,0:0:0:0:
252,155,19900,2,0,P|272:222|268:252,2,71.9999978027344,2|0|0,0:0|0:0|0:0,0:0:0:0:
139,287,20725,2,0,L|47:267,2,71.9999978027344,2|0|0,0:0|0:0|0:0,0:0:0:0:
312,351,21551,6,0,L|395:334,1,71.9999978027344
419,264,22101,1,0,0:0:0:0:
395,349,22377,1,2,0:0:0:0:
370,155,22927,5,0,0:0:0:0:
302,204,23202,2,0,P|252:192|219:168,1,71.9999978027344
47,356,23753,5,0,0:0:0:0:
96,288,24028,2,0,P|128:272|164:266,1,71.9999978027344,2|0,0:0|0:0,0:0:0:0:
409,337,24579,5,0,0:0:0:0:
409,337,24854,2,0,P|405:229|326:116,1,215.999993408203
291,269,25955,2,0,P|252:239|199:231,1,71.9999978027344,2|0,0:0|0:0,0:0:0:0:
83,311,26505,5,0,0:0:0:0:
213,236,26780,1,0,0:0:0:0:
105,144,27056,5,0,0:0:0:0:
121,226,27331,1,0,0:0:0:0:
291,313,27606,5,0,0:0:0:0:
299,282,27881,1,0,0:0:0:0:
219,190,28157,5,4,0:0:0:0:
219,190,28707,5,0,0:0:0:0:
305,89,28982,2,0,L|290:13,1,71.9999978027344,2|0,1:0|0:0,0:0:0:0:
291,18,29533,1,0,0:0:0:0:
385,133,29808,6,0,P|446:99|498:114,1,96,4|0,3:0|0:0,0:0:0:0:
448,217,30221,5,4,3:0:0:0:
448,217,30358,2,0,L|442:254,1,24,4|0,3:0|0:0,0:0:0:0:
351,302,30634,6,0,B|306:307|306:307|293:298|293:298|230:305,1,96,8|0,0:0|0:0,0:0:0:0:
243,304,31046,2,0,B|174:311|174:311|134:346,1,96,8|0,0:0|0:0,0:0:0:0:
123,187,31459,2,0,P|64:196|42:261,2,96,4|0|0,3:0|0:0|0:0,0:0:0:0:
204,139,32285,6,0,L|219:63,1,71.9999978027344,2|0,1:0|0:0,0:0:0:0:
217,68,32835,1,0,0:0:0:0:
273,196,33111,2,0,L|283:257,1,48,4|0,3:0|0:0,0:0:0:0:
341,307,33386,1,0,0:0:0:0:
341,307,33523,2,0,L|331:368,1,48,4|0,3:0|0:0,0:0:0:0:
193,308,33799,5,4,3:0:0:0:
181,299,33936,2,0,B|141:308|141:308|135:319|135:319|81:332,1,96,8|0,0:0|0:0,0:0:0:0:
23,268,34349,1,4,3:0:0:0:
15,255,34487,2,0,L|24:183,1,48,8|4,0:0|3:0,0:0:0:0:
78,146,34762,5,4,0:0:0:0:
406,34,35588,2,0,L|326:22,1,72,2|0,1:0|0:0,0:0:0:0:
334,23,36138,1,0,0:0:0:0:
217,95,36413,2,0,L|274:84,1,48,4|0,3:0|0:0,0:0:0:0:
210,109,36689,2,0,L|267:98,1,48
445,226,36964,2,0,L|401:216,1,24,4|0,3:0|0:0,0:0:0:0:
334,142,37239,6,0,B|341:188|341:188|336:196|336:196|346:269,1,96,8|0,0:0|0:0,0:0:0:0:
345,252,37652,2,0,B|354:317|354:317|321:365,1,96,8|0,0:0|0:0,0:0:0:0:
198,288,38065,6,0,P|161:258|114:261,2,96,4|0|4,3:0|0:0|3:0,0:0:0:0:
331,184,38890,2,0,B|376:170|376:170|416:198,2,96,8|0|4,0:0|0:0|3:0,0:0:0:0:
185,32,39716,6,0,L|205:170,1,120,4|0,3:0|0:0,0:0:0:0:
261,211,40542,2,0,L|254:263,1,48,4|0,3:0|0:0,0:0:0:0:
21,263,41368,6,0,P|120:211|187:250,1,143.999995605469,4|0,3:0|0:0,0:0:0:0:
18,280,41780,2,0,P|6:212|109:249,1,192,12|0,0:0|0:0,0:0:0:0:
236,352,42193,2,0,B|205:332|205:332|131:352,1,71.9999978027344,4|0,3:0|0:0,0:0:0:0:
86,336,42468,5,8,0:0:0:0:
260,234,42606,1,4,3:0:0:0:
384,357,42744,5,4,3:0:0:0:
312,309,42881,1,4,3:0:0:0:
401,346,43019,6,0,L|414:177,1,143.999995605469,4|0,3:0|0:0,0:0:0:0:
407,370,43432,2,0,B|448:276|344:271|424:151,1,192,12|0,0:0|0:0,0:0:0:0:
386,36,43845,2,0,B|389:64|389:64|401:71|401:71|405:100,1,71.9999978027344,4|0,3:0|0:0,0:0:0:0:
211,343,44120,5,8,0:0:0:0:
193,309,44211,1,8,0:0:0:0:
214,278,44303,1,4,3:0:0:0:
252,283,44395,1,4,3:0:0:0:
264,319,44486,1,4,3:0:0:0:
238,346,44578,1,4,3:0:0:0:
123,351,44670,6,0,P|24:299|-43:338,1,143.999995605469,4|0,3:0|0:0,0:0:0:0:
126,368,45083,2,0,P|138:300|35:337,1,192,12|0,0:0|0:0,0:0:0:0:
1,145,45496,6,0,B|4:177|4:177|-4:188|-4:188|1:231,1,71.9999978027344,4|0,3:0|0:0,0:0:0:0:
108,109,45771,2,0,L|60:95,2,35.9999989013672,8|4|4,0:0|3:0|3:0,0:0:0:0:
229,143,46046,1,4,3:0:0:0:
218,140,46184,1,4,3:0:0:0:
207,137,46322,6,0,L|220:306,1,143.999995605469,4|0,3:0|0:0,0:0:0:0:
213,114,46735,2,0,B|254:207|150:212|230:332,1,192,12|0,0:0|0:0,0:0:0:0:
359,351,47147,6,0,B|330:329|330:329|252:346,1,71.9999978027344,8|0,0:0|0:0,0:0:0:0:
384,180,47423,1,4,3:0:0:0:
462,179,47560,2,0,L|362:196,1,71.9999978027344,8|0,0:0|0:0,0:0:0:0:
142,203,47835,5,8,0:0:0:0:
173,287,47973,2,0,B|180:217|180:217|191:210|191:210|198:138,1,143.999995605469,4|0,3:0|0:0,0:0:0:0:
391,324,48386,2,0,P|321:235|243:318,1,192,12|0,0:0|0:0,0:0:0:0:
292,329,48799,2,0,B|300:356|300:356|323:294,1,71.9999978027344,4|0,3:0|0:0,0:0:0:0:
318,45,49074,5,8,0:0:0:0:
227,94,49212,1,8,0:0:0:0:
136,50,49349,1,4,3:0:0:0:
265,220,49487,5,4,3:0:0:0:
145,266,49624,2,0,P|226:201|280:253,1,143.999995605469,4|0,3:0|0:0,0:0:0:0:
426,277,50037,2,0,B|339:293|339:293|335:305|335:305|202:328,1,192,12|0,0:0|0:0,0:0:0:0:
108,164,50450,2,0,L|121:83,1,71.9999978027344,4|0,3:0|0:0,0:0:0:0:
383,97,50725,5,8,0:0:0:0:
344,101,50816,1,8,0:0:0:0:
323,70,50908,1,4,3:0:0:0:
341,37,51000,1,4,3:0:0:0:
379,38,51091,1,4,3:0:0:0:
395,72,51183,1,4,3:0:0:0:
452,153,51276,6,0,P|451:211|420:274,1,71.9999978027344,4|0,3:0|0:0,0:0:0:0:
370,259,51551,2,0,P|328:299|286:306,1,60,4|0,3:0|0:0,0:0:0:0:
246,286,51826,2,0,P|189:300|162:290,1,48,4|0,3:0|0:0,0:0:0:0:
10,124,52101,6,0,P|66:109|93:119,1,48,8|0,0:0|0:0,0:0:0:0:
159,65,52377,2,0,P|208:94|224:155,1,71.9999978027344,8|0,0:0|0:0,0:0:0:0:
364,137,52652,2,0,P|378:193|323:267,1,96,8|0,0:0|0:0,0:0:0:0:
41,363,52927,5,12,0:0:0:0:
111,170,53065,1,4,3:0:0:0:
165,249,53202,1,4,3:0:0:0:
7,269,53340,5,12,0:0:0:0:
180,259,53478,1,4,3:0:0:0:
351,249,53615,1,12,0:0:0:0:
68,137,54579,6,0,P|171:95|94:204,1,287.999991210938,12|0,0:0|0:0,0:0:0:0:
17,348,55267,1,0,0:0:0:0:
7,337,55404,2,0,L|107:322,1,71.9999978027344,8|0,0:0|0:0,0:0:0:0:
194,291,55679,2,0,L|294:306,1,71.9999978027344
360,339,55955,2,0,B|363:384|363:384|330:349,1,71.9999978027344,4|0,3:0|0:0,0:0:0:0:
340,244,56230,6,0,B|404:234|404:234|416:239|416:239|504:224,1,143.999995605469,12|0,0:0|0:0,0:0:0:0:
409,127,56643,2,0,B|447:120|447:120|489:161,1,71.9999978027344,4|0,3:0|0:0,0:0:0:0:
208,151,56918,5,4,3:0:0:0:
255,82,57056,2,0,L|239:3,2,71.9999978027344,8|0|0,0:0|0:0|0:0,0:0:0:0:
204,239,57468,2,0,L|220:160,1,71.9999978027344,8|0,0:0|0:0,0:0:0:0:
257,315,57744,5,4,3:0:0:0:
512,151,57881,2,0,B|423:112|392:215|292:151,1,215.999993408203,12|0,0:0|0:0,0:0:0:0:
283,80,58432,2,0,P|315:49|363:47,1,71.9999978027344,4|0,3:0|0:0,0:0:0:0:
398,289,58707,2,0,P|351:230|471:251,1,287.999991210938,12|0,0:0|0:0,0:0:0:0:
471,254,59395,5,0,0:0:0:0:
462,266,59533,2,0,P|441:325|451:369,2,71.9999978027344,4|0|0,3:0|0:0|0:0,0:0:0:0:
146,233,59946,2,0,L|44:213,2,71.9999978027344,4|0|0,3:0|0:0|0:0,0:0:0:0:
253,328,60358,6,0,B|288:337|288:337|335:307,1,71.9999978027344,8|0,0:0|0:0,0:0:0:0:
272,154,60634,2,0,B|237:145|237:145|190:175,1,71.9999978027344,4|0,3:0|0:0,0:0:0:0:
349,230,60909,1,8,0:0:0:0:
421,187,61046,1,8,0:0:0:0:
344,246,61184,6,0,B|219:303|202:169|62:238,1,287.999991210938,12|4,0:0|3:0,0:0:0:0:
125,320,61872,5,0,0:0:0:0:
137,308,62010,2,0,P|125:351|121:386,1,71.9999978027344,8|0,0:0|0:0,0:0:0:0:
37,158,62285,2,0,P|49:201|53:236,1,71.9999978027344
143,50,62560,6,0,B|117:74|117:74|181:70,1,71.9999978027344,4|0,3:0|0:0,0:0:0:0:
227,29,62835,2,0,B|291:39|291:39|303:34|303:34|388:45,1,143.999995605469,12|0,0:0|0:0,0:0:0:0:
432,223,63248,2,0,B|468:231|468:231|512:182,1,71.9999978027344,4|0,3:0|0:0,0:0:0:0:
238,277,63523,5,4,3:0:0:0:
237,356,63661,2,0,L|216:263,2,71.9999978027344,8|0|0,0:0|0:0|0:0,0:0:0:0:
267,121,64074,5,4,3:0:0:0:
230,194,64212,1,0,0:0:0:0:
258,106,64349,1,0,2:0:0:0:
318,238,64487,2,0,P|424:228|468:147,1,143.999995605469,12|0,0:0|0:0,0:0:0:0:
478,132,64900,1,4,3:0:0:0:
478,132,65175,5,4,3:0:0:0:
295,27,65312,2,0,B|360:37|360:37|367:45|367:45|459:60,2,143.999995605469,12|4|4,0:0|3:0|3:0,0:0:0:0:
20,10,66138,6,0,P|47:58|44:129,1,71.9999978027344,12|0,0:0|0:0,0:0:0:0:
103,227,66413,1,4,3:0:0:0:
132,140,66551,2,0,P|105:188|108:259,1,71.9999978027344,8|0,0:0|0:0,0:0:0:0:
2,243,66826,5,8,0:0:0:0:
9,234,66895,1,8,0:0:0:0:
19,231,66964,1,8,0:0:0:0:
45,375,67101,5,8,0:0:0:0:
98,275,67239,1,4,3:0:0:0:
45,375,67377,1,4,3:0:0:0:
196,311,67514,5,4,3:0:0:0:
215,377,67652,1,4,3:0:0:0:
311,311,67790,6,0,P|357:308|396:335,1,96,4|0,0:0|0:0,0:0:0:0:
466,221,68202,2,0,L|519:232,2,48,4|0|0,3:0|0:0|0:0,0:0:0:0:
385,202,68615,5,8,0:0:0:0:
385,202,68890,2,0,L|338:192,1,48
148,245,69166,1,8,0:0:0:0:
244,274,69303,1,8,0:0:0:0:
160,256,69441,6,0,L|282:231,1,96,4|0,3:0|0:0,0:0:0:0:
435,293,69854,2,0,L|422:362,2,48,4|0|0,3:0|0:0|0:0,0:0:0:0:
452,211,70267,5,8,0:0:0:0:
452,211,70542,2,0,L|460:163,1,48
280,0,70817,5,8,0:0:0:0:
344,64,70955,1,8,0:0:0:0:
344,64,71092,2,0,P|286:86|216:66,1,96,4|0,3:0|0:0,0:0:0:0:
168,112,71505,2,0,P|142:92|132:68,2,48,4|0|0,3:0|0:0|0:0,0:0:0:0:
242,161,71918,5,8,0:0:0:0:
242,161,72193,2,0,L|233:225,1,48
331,284,72468,2,0,L|340:348,1,48,8|0,0:0|0:0,0:0:0:0:
131,293,72744,6,0,L|50:308,1,48,4|0,3:0|0:0,0:0:0:0:
60,307,73019,1,0,0:0:0:0:
12,234,73157,1,4,3:0:0:0:
12,234,73294,2,0,L|26:170,1,48
197,17,73569,6,0,L|211:81,1,48,8|0,0:0|0:0,0:0:0:0:
214,87,73845,1,0,0:0:0:0:
155,154,73982,1,0,0:0:0:0:
155,154,74120,2,0,L|141:218,1,48,8|0,0:0|0:0,0:0:0:0:
265,328,74395,6,0,L|383:308,1,96,4|0,3:0|0:0,0:0:0:0:
445,301,74808,2,0,L|473:356,2,48,4|0|4,3:0|0:0|3:0,0:0:0:0:
405,226,75221,1,8,0:0:0:0:
405,226,75496,6,0,L|420:145,1,48
309,48,75771,1,8,0:0:0:0:
276,124,75909,1,8,0:0:0:0:
296,39,76046,2,0,L|318:179,1,96,4|0,3:0|0:0,0:0:0:0:
243,204,76459,2,0,L|160:191,2,48,4|0|0,3:0|0:0|0:0,0:0:0:0:
329,216,76872,5,8,0:0:0:0:
329,216,77147,2,0,L|344:304,1,48
192,248,77423,1,8,0:0:0:0:
205,334,77560,1,8,0:0:0:0:
205,334,77698,6,0,P|155:326|111:261,1,96,4|0,3:0|0:0,0:0:0:0:
48,246,78111,2,0,P|48:206|62:181,2,48,4|0|0,3:0|0:0|0:0,0:0:0:0:
175,181,78523,2,0,P|157:165|136:156,1,48,8|0,0:0|0:0,0:0:0:0:
122,295,78799,2,0,P|144:288|164:274,1,48
295,207,79074,5,8,0:0:0:0:
294,122,79212,1,8,0:0:0:0:
294,122,79349,2,0,P|346:139|382:201,1,96,4|0,3:0|0:0,0:0:0:0:
323,240,79762,2,0,P|327:280|309:316,2,48,4|0|0,3:0|0:0|0:0,0:0:0:0:
207,312,80175,2,0,P|223:328|245:339,1,48,8|0,0:0|0:0,0:0:0:0:
245,196,80450,2,0,P|221:202|201:215,1,48
82,343,80725,2,0,L|74:287,1,48,8|0,0:0|0:0,0:0:0:0:
4,109,81001,6,0,B|69:121|69:121|81:131|81:131|155:146,1,143.999995605469,12|0,0:0|0:0,0:0:0:0:
280,70,81413,2,0,P|306:41|307:3,1,71.9999978027344,8|0,0:0|0:0,0:0:0:0:
408,192,81689,5,4,3:0:0:0:
374,108,81826,1,8,0:0:0:0:
55,340,82101,5,4,3:0:0:0:
106,216,82238,1,4,3:0:0:0:
462,283,82514,5,8,0:0:0:0:
390,337,82652,1,4,3:0:0:0:
390,337,82790,2,0,L|289:322,1,71.9999978027344,4|0,3:0|0:0,0:0:0:0:
106,216,83065,2,0,L|207:201,1,71.9999978027344,8|0,0:0|0:0,0:0:0:0:
384,20,83340,5,4,3:0:0:0:
418,106,83478,1,8,0:0:0:0:
103,195,83753,5,4,3:0:0:0:
64,323,83890,1,4,3:0:0:0:
20,62,84166,5,8,0:0:0:0:
118,48,84303,1,4,3:0:0:0:
118,48,84441,2,0,L|103:124,1,48,4|0,3:0|0:0,0:0:0:0:
25,77,84716,5,8,0:0:0:0:
213,33,85129,1,4,3:0:0:0:
32,93,85542,5,8,0:0:0:0:
222,48,85817,5,4,3:0:0:0:
317,85,85955,1,4,3:0:0:0:
317,85,86092,2,0,L|327:168,1,48,4|0,3:0|0:0,0:0:0:0:
222,48,86368,2,0,B|210:88|210:88|218:105|218:105|207:146,1,96,8|0,0:0|0:0,0:0:0:0:
340,214,86780,1,8,0:0:0:0:
406,157,87193,1,4,3:0:0:0:
139,244,87468,5,8,0:0:0:0:
162,150,87606,2,0,B|168:214|168:214|178:222|178:222|188:318|188:318,1,144,4|0,3:0|0:0,0:0:0:0:
331,342,88019,2,0,B|302:320|302:320|235:336,1,71.9999978027344,8|0,0:0|0:0,0:0:0:0:
379,189,88294,1,0,0:0:0:0:
462,192,88432,2,0,L|385:206,2,71.9999978027344,8|0|0,0:0|0:0|0:0,0:0:0:0:
511,125,88845,1,4,3:0:0:0:
511,125,89120,5,8,0:0:0:0:
382,47,89257,2,0,B|377:106|377:106|384:116|384:116|377:214,1,143.999995605469,4|0,3:0|0:0,0:0:0:0:
249,329,89670,2,0,P|241:294|221:265,1,71.9999978027344,8|0,0:0|0:0,0:0:0:0:
29,350,89946,1,4,3:0:0:0:
29,350,90083,2,0,P|128:334|143:267,1,143.999995605469,8|0,0:0|0:0,0:0:0:0:
66,279,90496,1,4,3:0:0:0:
83,86,90771,5,8,0:0:0:0:
10,146,90908,2,0,B|101:115|101:115|152:152,1,143.999995605469,4|0,3:0|0:0,0:0:0:0:
296,70,91322,2,0,B|290:37|290:37|294:28|294:28|289:-11,1,71.9999978027344,8|0,0:0|0:0,0:0:0:0:
309,164,91597,1,4,3:0:0:0:
309,164,91734,2,0,L|324:265,2,71.9999978027344,8|0|0,0:0|0:0|0:0,0:0:0:0:
298,84,92147,1,4,3:0:0:0:
298,84,92423,5,8,0:0:0:0:
431,205,92560,2,0,P|352:202|326:281,1,143.999995605469,4|0,3:0|0:0,0:0:0:0:
381,329,92973,2,0,B|421:330|421:330|452:296,1,71.9999978027344,8|0,0:0|0:0,0:0:0:0:
441,219,93248,5,4,3:0:0:0:
296,346,93386,1,12,0:0:0:0:
193,268,93523,1,4,3:0:0:0:
110,324,93661,1,8,0:0:0:0:
202,279,93799,5,8,0:0:0:0:
118,336,93936,1,4,3:0:0:0:
33,281,94074,1,4,3:0:0:0:
62,181,94212,5,12,2:0:0:0:
331,110,96689,6,0,L|322:169,1,35.9999989013672,4|0,3:0|0:0,0:0:0:0:
310,226,96964,1,4,0:0:0:0:
165,146,98065,1,4,3:0:0:0:
165,146,98340,1,4,3:0:0:0:
165,146,99166,6,0,L|212:134,1,35.9999989013672,4|0,3:0|0:0,0:0:0:0:
266,74,99441,2,0,L|313:86,1,35.9999989013672,4|0,3:0|0:0,0:0:0:0:
366,160,99716,1,12,0:0:0:0:
366,160,99991,5,0,0:0:0:0:
412,263,100129,2,0,L|423:222,2,35.9999989013672,8|0|0,0:0|0:0|0:0,0:0:0:0:
341,316,100542,5,8,0:0:0:0:
341,316,100817,2,0,L|352:357,2,35.9999989013672,0|0|8,0:0|0:0|0:0,0:0:0:0:
337,304,101505,1,8,0:0:0:0:
333,292,101918,5,8,0:0:0:0:
242,351,102056,1,4,3:0:0:0:
160,280,102193,1,8,0:0:0:0:
72,361,102331,5,8,0:0:0:0:
72,361,102468,2,0,P|56:299|24:270,1,71.9999978027344,12|0,0:0|0:0,0:0:0:0:
102,223,102744,2,0,P|46:190|21:192,1,60,4|0,3:0|0:0,0:0:0:0:
47,105,103019,2,0,P|3:113|-32:140,1,48,4|0,3:0|0:0,0:0:0:0:
106,201,103294,6,0,P|129:199|152:191,1,48,8|0,0:0|0:0,0:0:0:0:
249,217,103569,2,0,P|273:204|305:163,1,71.9999978027344,8|0,0:0|0:0,0:0:0:0:
417,137,103845,2,0,P|425:111|416:38,1,96,8|0,0:0|0:0,0:0:0:0:
165,31,104120,5,12,0:0:0:0:
238,204,104258,1,4,3:0:0:0:
282,119,104395,1,4,3:0:0:0:
100,138,104533,5,12,0:0:0:0:
271,107,104671,1,4,3:0:0:0:
439,76,104808,1,12,0:0:0:0:
31,199,105771,6,0,P|105:131|188:187,1,180,12|0,0:0|0:0,0:0:0:0:
176,165,106322,2,0,L|258:153,1,60,4|0,3:0|0:0,0:0:0:0:
491,311,106597,6,0,B|414:361|325:302|363:281|274:229|183:278,1,323.999990112305,12|0,0:0|0:0,0:0:0:0:
114,309,107147,2,0,L|38:297,1,60,4|0,3:0|0:0,0:0:0:0:
196,291,107423,2,0,P|239:208|198:161,1,120,4|0,3:0|0:0,0:0:0:0:
227,181,107835,1,4,3:0:0:0:
218,172,108111,1,4,3:0:0:0:
370,90,108248,5,8,0:0:0:0:
393,100,108386,1,4,3:0:0:0:
280,101,108523,5,8,0:0:0:0:
256,91,108661,1,4,3:0:0:0:
317,18,108799,5,8,0:0:0:0:
334,162,108936,1,8,0:0:0:0:
343,253,109074,2,0,B|259:243|259:243|252:232|252:232|150:219,1,180,4|0,3:0|0:0,0:0:0:0:
162,231,109624,2,0,L|178:301,1,60,4|0,3:0|0:0,0:0:0:0:
81,35,109900,6,0,B|157:104|82:200|64:158|0:245|73:324,1,323.999990112305,12|0,0:0|0:0,0:0:0:0:
141,377,110450,2,0,L|238:359,1,60,4|0,3:0|0:0,0:0:0:0:
296,312,110725,6,0,B|351:320|351:320|357:328|357:328|432:339,1,120,4|0,3:0|0:0,0:0:0:0:
422,338,111138,1,4,3:0:0:0:
433,339,111413,1,4,3:0:0:0:
358,179,111551,5,8,0:0:0:0:
368,157,111689,1,4,3:0:0:0:
258,127,111826,5,8,0:0:0:0:
299,247,111964,1,4,3:0:0:0:
114,201,112101,5,8,0:0:0:0:
153,119,112239,1,8,0:0:0:0:
134,211,112377,6,0,B|151:281|151:281|140:310|140:310|162:404,1,180,4|0,3:0|0:0,0:0:0:0:
230,317,112927,2,0,L|302:332,1,60,4|0,3:0|0:0,0:0:0:0:
498,45,113202,6,0,P|413:8|377:183,1,323.999990112305,12|0,0:0|0:0,0:0:0:0:
447,146,113753,2,0,L|526:135,1,60,4|0,3:0|0:0,0:0:0:0:
286,276,114028,6,0,B|231:268|231:268|225:260|225:260|150:249,1,120,4|0,3:0|0:0,0:0:0:0:
174,263,114441,1,4,3:0:0:0:
176,274,114716,5,4,3:0:0:0:
48,202,114854,1,8,0:0:0:0:
56,179,114991,1,4,3:0:0:0:
120,126,115129,5,8,0:0:0:0:
113,102,115267,1,4,3:0:0:0:
36,19,115404,1,8,0:0:0:0:
182,40,115542,1,8,0:0:0:0:
282,60,115679,6,0,B|337:68|337:68|343:76|343:76|396:83,1,120,4|0,3:0|0:0,0:0:0:0:
284,71,116092,5,4,3:0:0:0:
287,82,116368,1,4,3:0:0:0:
456,240,116505,6,0,P|418:242|354:268,1,60,8|0,0:0|0:0,0:0:0:0:
272,180,116780,2,0,P|292:211|347:254,1,60,4|0,3:0|0:0,0:0:0:0:
311,368,117056,2,0,P|328:334|337:265,1,60,4|0,3:0|0:0,0:0:0:0:
458,229,117331,6,0,P|420:231|356:257,1,60,8|0,0:0|0:0,0:0:0:0:
185,368,117606,1,4,3:0:0:0:
41,240,117744,1,8,0:0:0:0:
138,148,117881,2,0,L|122:241,1,60,4|8,3:0|0:0,0:0:0:0:
132,218,118088,1,8,0:0:0:0:
136,229,118157,5,8,0:0:0:0:
207,198,118294,1,8,0:0:0:0:
276,254,118431,1,8,0:0:0:0:
347,181,118569,1,8,0:0:0:0:
402,287,118707,1,8,0:0:0:0:
460,107,118845,5,8,0:0:0:0:
391,53,118982,2,0,L|195:79,1,180,12|0,0:0|0:0,0:0:0:0:
205,67,119533,2,0,L|218:6,1,60,4|0,3:0|0:0,0:0:0:0:
12,201,119808,6,0,B|89:153|178:210|140:231|229:283|320:234,1,323.999990112305,12|0,0:0|0:0,0:0:0:0:
394,274,120358,2,0,L|413:366,1,60,4|0,3:0|0:0,0:0:0:0:
485,153,120634,2,0,P|399:196|350:150,1,120,4|0,3:0|0:0,0:0:0:0:
376,182,121046,1,4,3:0:0:0:
371,170,121322,1,4,3:0:0:0:
314,44,121459,5,8,0:0:0:0:
306,66,121597,1,4,3:0:0:0:
222,149,121734,5,8,0:0:0:0:
196,55,121872,1,4,3:0:0:0:
298,86,122010,5,8,0:0:0:0:
129,121,122147,1,8,0:0:0:0:
27,145,122285,2,0,B|40:227|40:227|52:235|52:235|74:358,1,180,4|0,3:0|0:0,0:0:0:0:
55,305,122835,2,0,L|50:379,1,60,4|0,3:0|0:0,0:0:0:0:
446,231,123111,6,0,B|367:185|280:245|319:265|231:320|139:274,1,323.999990112305,12|0,0:0|0:0,0:0:0:0:
125,201,123661,6,0,P|148:163|180:149,1,60,4|0,3:0|0:0,0:0:0:0:
343,260,123936,2,0,P|408:266|452:205,1,120,4|0,3:0|0:0,0:0:0:0:
447,219,124349,1,4,3:0:0:0:
444,207,124624,1,4,3:0:0:0:
275,150,124762,5,8,0:0:0:0:
252,158,124900,1,4,3:0:0:0:
123,223,125037,5,8,0:0:0:0:
100,215,125175,1,4,3:0:0:0:
166,110,125312,5,8,0:0:0:0:
205,259,125450,1,8,0:0:0:0:
230,352,125588,6,0,P|318:266|397:341,1,215.999993408203,12|0,0:0|0:0,0:0:0:0:
315,351,126001,1,8,0:0:0:0:
486,235,126138,2,0,P|440:192|387:245,1,107.999996704102,0|4,0:0|3:0,0:0:0:0:
199,7,126413,2,0,B|203:50|203:50|214:59|214:59|225:146,1,107.999996704102,0|0,2:0|2:0,2:0:0:0:
154,268,126689,5,4,3:0:0:0:
222,124,126826,1,4,3:0:0:0:
246,255,126964,5,8,0:0:0:0:
120,155,127101,1,8,2:0:0:0:
255,240,127239,2,0,B|369:195|359:308|499:230,1,215.999993408203,12|0,0:0|0:0,0:0:0:0:
368,159,127652,2,0,P|434:141|453:180,1,107.999996704102,8|0,0:0|0:0,0:0:0:0:
306,322,127927,1,4,3:0:0:0:
195,133,128065,2,0,L|216:17,1,107.999996704102,8|0,0:0|0:0,0:0:0:0:
104,229,128340,5,8,0:0:0:0:
110,254,128478,1,8,0:0:0:0:
239,211,128615,5,8,0:0:0:0:
213,317,128753,1,8,0:0:0:0:
114,276,128890,5,8,0:0:0:0:
395,183,129028,1,0,0:0:0:0:
176,180,129166,5,8,0:0:0:0:
343,267,129303,1,0,0:0:0:0:
75,197,129441,2,0,P|62:138|109:72,1,107.999996704102,8|0,0:0|0:0,0:0:0:0:
437,187,129716,2,0,P|450:246|403:312,1,107.999996704102,8|0,0:0|0:0,0:0:0:0:
246,81,129991,5,8,0:0:0:0:
284,5,130129,1,0,0:0:0:0:
302,143,130267,1,8,0:0:0:0:
198,279,130404,5,0,0:0:0:0:
192,288,130473,1,0,0:0:0:0:
186,297,130542,2,0,L|112:319,3,53.9999983520508,8|0|0|0,0:0|0:0|0:0|0:0,0:0:0:0:
368,255,130817,6,0,L|443:233,3,53.9999983520508,8|0|0|0,0:0|0:0|0:0|0:0,0:0:0:0:
235,198,131092,6,0,L|166:175,3,53.9999983520508,8|0|0|0,0:0|0:0|0:0|0:0,0:0:0:0:
302,143,131368,5,4,0:0:0:0:
302,143,131643,5,8,0:0:0:0:
276,60,131780,1,0,0:0:0:0:
173,197,131918,5,8,0:0:0:0:
147,280,132055,1,0,0:0:0:0:
288,351,132193,2,0,L|351:341,1,60
444,249,133019,6,0,P|478:361|365:327,1,287.999991210938,12|0,0:0|0:0,0:0:0:0:
410,139,133707,1,0,0:0:0:0:
400,150,133844,2,0,L|500:165,1,71.9999978027344,8|0,0:0|0:0,0:0:0:0:
259,103,134119,2,0,L|330:92,1,71.9999978027344
184,203,134395,2,0,B|191:158|191:158|215:200,1,71.9999978027344,4|0,3:0|0:0,0:0:0:0:
215,286,134670,6,0,B|151:296|151:296|139:291|139:291|51:306,1,143.999995605469,12|0,0:0|0:0,0:0:0:0:
5,200,135083,2,0,B|33:177|33:177|71:182,1,71.9999978027344,4|0,3:0|0:0,0:0:0:0:
304,233,135358,5,4,3:0:0:0:
257,302,135496,2,0,L|273:381,2,71.9999978027344,8|0|0,0:0|0:0|0:0,0:0:0:0:
308,145,135908,2,0,L|292:224,1,71.9999978027344,8|0,0:0|0:0,0:0:0:0:
255,69,136184,5,4,3:0:0:0:
0,232,136321,2,0,B|89:271|120:168|220:232,1,215.999993408203,12|0,0:0|0:0,0:0:0:0:
229,304,136872,2,0,P|197:335|149:337,1,71.9999978027344,4|0,3:0|0:0,0:0:0:0:
113,94,137147,2,0,P|160:153|40:132,1,287.999991210938,12|4,0:0|3:0,0:0:0:0:
41,130,137835,5,0,0:0:0:0:
50,118,137973,2,0,P|71:59|61:15,2,71.9999978027344,4|0|0,3:0|0:0|0:0,0:0:0:0:
366,151,138386,2,0,L|468:171,2,71.9999978027344,4|0|0,3:0|0:0|0:0,0:0:0:0:
259,56,138798,6,0,B|224:47|224:47|177:77,1,71.9999978027344,8|0,0:0|0:0,0:0:0:0:
240,230,139074,2,0,B|275:239|275:239|322:209,1,71.9999978027344,4|0,3:0|0:0,0:0:0:0:
163,154,139349,1,8,0:0:0:0:
91,197,139486,1,8,0:0:0:0:
168,138,139624,6,0,B|293:81|310:215|450:146,1,287.999991210938,12|4,0:0|3:0,0:0:0:0:
368,22,140312,5,0,0:0:0:0:
356,10,140450,2,0,P|368:53|372:88,1,71.9999978027344,8|0,0:0|0:0,0:0:0:0:
452,164,140725,2,0,P|440:207|436:242,1,71.9999978027344
268,263,141000,6,0,B|264:227|264:227|309:273,1,71.9999978027344,4|0,3:0|0:0,0:0:0:0:
364,350,141275,2,0,B|299:342|299:342|287:347|287:347|202:336,1,143.999995605469,12|0,0:0|0:0,0:0:0:0:
20,179,141688,2,0,B|44:153|44:153|80:161,1,71.9999978027344,4|0,3:0|0:0,0:0:0:0:
261,15,141963,5,4,3:0:0:0:
262,95,142101,2,0,L|283:2,2,71.9999978027344,8|0|0,0:0|0:0|0:0,0:0:0:0:
244,262,142514,5,4,3:0:0:0:
282,190,142652,1,0,0:0:0:0:
254,278,142789,1,4,3:0:0:0:
194,146,142927,2,0,P|88:156|44:237,1,143.999995605469,12|0,0:0|0:0,0:0:0:0:
34,252,143340,1,4,3:0:0:0:
34,252,143615,5,4,3:0:0:0:
217,357,143752,2,0,B|152:347|152:347|145:339|145:339|53:324,2,143.999995605469,12|4|4,0:0|3:0|3:0,0:0:0:0:
421,329,144578,6,0,P|394:307|360:294,1,71.9999978027344,8|0,0:0|0:0,0:0:0:0:
194,206,144854,1,4,3:0:0:0:
275,175,144991,2,0,P|247:197|213:210,1,71.9999978027344,8|0,0:0|0:0,0:0:0:0:
72,104,145266,5,8,0:0:0:0:
77,94,145335,1,8,0:0:0:0:
87,89,145404,1,8,0:0:0:0:
146,162,145542,5,8,0:0:0:0:
18,193,145679,1,4,3:0:0:0:
146,162,145817,1,4,3:0:0:0:
78,254,145955,5,4,3:0:0:0:
142,317,146092,1,4,3:0:0:0:
87,372,146230,1,4,3:0:0:0:
87,372,146368,1,4,3:0:0:0:
220,261,146643,5,4,3:0:0:0:
284,313,146918,1,4,3:0:0:0:
282,320,146987,1,4,3:0:0:0:
280,327,147056,2,0,L|382:314,1,71.9999978027344,12|0,0:0|0:0,0:0:0:0:
427,217,147331,5,4,3:0:0:0:
365,332,147468,1,12,0:0:0:0:
368,139,147606,5,4,3:0:0:0:
414,232,147744,1,8,0:0:0:0:
424,69,147881,5,4,3:0:0:0:
424,69,148019,1,4,3:0:0:0:
286,181,148294,5,4,3:0:0:0:
224,124,148569,1,4,3:0:0:0:
228,118,148638,1,4,3:0:0:0:
232,112,148707,2,0,P|194:88|118:104,1,96,12|0,0:0|0:0,0:0:0:0:
367,220,148982,2,0,P|398:202|433:201,1,71.9999978027344,12|0,0:0|0:0,0:0:0:0:
259,348,149257,2,0,L|253:300,1,48,8|0,0:0|0:0,0:0:0:0:
78,181,149533,6,0,B|180:141|179:253|302:187,1,215.999993408203,12|0,0:0|0:0,0:0:0:0:
251,64,150083,2,0,B|224:85|224:85|232:122,1,71.9999978027344,4|0,3:0|0:0,0:0:0:0:
448,230,150358,2,0,P|490:135|367:179,1,287.999991210938,12|4,0:0|3:0,0:0:0:0:
365,174,151046,1,0,0:0:0:0:
369,187,151184,2,0,L|268:213,2,71.9999978027344,4|0|0,3:0|0:0|0:0,0:0:0:0:
429,326,151597,2,0,B|464:329|464:329|524:284,2,71.9999978027344,4|0|0,3:0|0:0|0:0,0:0:0:0:
219,239,152010,6,0,P|197:267|190:302,1,71.9999978027344,8|0,0:0|0:0,0:0:0:0:
394,374,152285,2,0,P|419:332|412:271,1,71.9999978027344,4|0,3:0|0:0,0:0:0:0:
368,92,152560,5,8,0:0:0:0:
309,188,152698,1,8,0:0:0:0:
432,184,152835,6,0,B|312:116|283:248|150:167,1,287.999991210938,12|4,0:0|3:0,0:0:0:0:
78,241,153523,5,0,0:0:0:0:
89,230,153661,2,0,P|109:267|113:321,1,71.9999978027344,8|0,0:0|0:0,0:0:0:0:
251,381,153936,2,0,P|271:344|275:290,1,71.9999978027344
258,65,154212,2,0,B|244:102|244:102|293:70,1,71.9999978027344,4|0,3:0|0:0,0:0:0:0:
347,38,154487,2,0,B|412:46|412:46|424:41|424:41|509:52,1,143.999995605469,12|0,0:0|0:0,0:0:0:0:
401,202,154900,6,0,B|430:180|430:180|477:195,1,71.9999978027344,4|0,0:0|0:0,0:0:0:0:
316,355,155175,1,0,0:0:0:0:
251,307,155312,2,0,L|232:231,2,71.9999978027344,8|0|0,0:0|0:0|0:0,0:0:0:0:
83,308,155725,2,0,L|152:290,1,71.9999978027344,4|0,3:0|0:0,0:0:0:0:
73,321,156001,5,4,3:0:0:0:
30,134,156138,2,0,B|94:145|94:145|104:153|104:153|188:167,1,143.999995605469,12|0,0:0|0:0,0:0:0:0:
230,221,156551,1,4,3:0:0:0:
230,221,156826,5,4,3:0:0:0:
370,134,156964,2,0,P|363:98|346:67,1,71.9999978027344,12|0,0:0|0:0,0:0:0:0:
212,304,157239,2,0,P|218:268|235:237,1,71.9999978027344,4|0,3:0|0:0,0:0:0:0:
338,80,157514,2,0,P|355:111|362:147,1,71.9999978027344,4|0,3:0|0:0,0:0:0:0:
98,208,157790,6,0,B|130:185|130:185|181:195,1,71.9999978027344,12|0,0:0|0:0,0:0:0:0:
385,279,158065,1,4,3:0:0:0:
304,300,158202,2,0,L|399:285,1,71.9999978027344,8|0,0:0|0:0,0:0:0:0:
483,269,158478,5,8,0:0:0:0:
481,279,158546,1,8,0:0:0:0:
480,289,158615,1,8,0:0:0:0:
391,147,158753,5,8,0:0:0:0:
512,191,158890,1,4,3:0:0:0:
391,147,159028,1,4,3:0:0:0:
512,102,159166,1,4,3:0:0:0:
468,34,159303,1,4,3:0:0:0:
510,2,159441,1,12,0:0:0:0:
256,192,159579,12,0,166184,0:0:0:0:
