osu file format v14

[General]
AudioFilename: audio.mp3
AudioLeadIn: 0
PreviewTime: 14660
Countdown: 0
SampleSet: Soft
StackLeniency: 0.4
Mode: 0
LetterboxInBreaks: 0
WidescreenStoryboard: 1

[Editor]
Bookmarks: 130394,131358,157229,157780
DistanceSpacing: 1.1
BeatDivisor: 4
GridSize: 32
TimelineZoom: 1.3

[Metadata]
Title:Utakata no Yoru
TitleUnicode:泡沫の夜
Artist:Fukunaga Yoru
ArtistUnicode:ふくなが よる
Creator:Fushimi Rio
Version:Normal
Source:
Tags:japanese rock papapa213 buki irotuk 西坂恭平 Nishizaka Kyohei
BeatmapID:2355373
BeatmapSetID:898030

[Difficulty]
HPDrainRate:4
CircleSize:3
OverallDifficulty:4
ApproachRate:5.5
SliderMultiplier:1.6
SliderTickRate:1

[Events]
//Background and Video events
0,0,"test.jpg",0,0
//Break Periods
2,94412,95564
2,97165,98041
2,99916,100793
//Storyboard Layer 0 (Background)
//Storyboard Layer 1 (Fail)
//Storyboard Layer 2 (Pass)
//Storyboard Layer 3 (Foreground)
//Storyboard Layer 4 (Overlay)
//Storyboard Sound Samples

[TimingPoints]
1735,550.45871559633,3,2,50,40,1,0
1735,-100,3,2,50,40,0,0
40542,-100,3,2,50,50,0,0
41368,-100,3,2,50,80,0,1
41643,-100,3,2,50,80,0,1
42193,-100,3,2,50,80,0,0
43019,-100,3,2,50,80,0,0
43844,-100,3,2,50,80,0,0
44120,-100,3,2,1,80,0,0
44670,-100,3,2,50,80,0,0
45495,-100,3,2,50,80,0,0
46322,-100,3,2,50,80,0,0
46459,-100,3,2,50,80,0,0
46734,-100,3,2,50,80,0,0
47560,-100,3,2,50,80,0,0
47973,-100,3,2,50,80,0,0
48798,-100,3,2,50,80,0,0
49624,-100,3,2,50,80,0,0
50449,-100,3,2,50,80,0,0
50725,-100,3,2,1,80,0,0
51276,-100,3,2,50,80,0,0
51551,-100,3,2,50,80,0,0
51826,-100,3,2,50,80,0,0
52101,-100,3,2,50,80,0,0
52377,-100,3,2,50,80,0,0
52652,-100,3,2,50,80,0,0
53753,-100,3,2,50,70,0,0
54579,-100,3,2,50,70,0,0
64487,-100,3,2,50,70,0,0
67790,-100,3,2,0,60,0,0
93386,-100,3,2,50,60,0,0
94212,-100,3,2,50,50,0,0
94487,-100,3,2,50,50,0,0
102468,-100,3,2,50,60,0,0
103019,-100,3,2,50,60,0,0
103569,-100,3,2,50,60,0,0
103845,-100,3,2,50,70,0,0
105771,-100,3,2,50,80,0,1
115679,-100,3,2,50,80,0,1
116505,-100,3,2,50,80,0,1
118982,-100,3,2,50,80,0,1
125588,-100,3,2,50,80,0,1
132193,-100,3,2,50,80,0,0
133019,550.45871559633,3,2,50,80,1,1
133019,-100,3,2,50,80,0,1
133294,-100,3,2,50,70,0,0
136322,-100,3,2,50,70,0,0
137147,-100,3,2,50,70,0,0
139624,-100,3,2,50,70,0,0
140450,-100,3,2,50,70,0,0
143202,-100,3,2,50,70,0,0
143477,-100,3,2,50,70,0,0
143752,-100,3,2,50,70,0,0
144028,-100,3,2,50,70,0,0
144303,-100,3,2,50,70,0,0
146230,-100,3,2,50,70,0,0
148707,-100,3,2,50,80,0,0
148982,-100,3,2,50,80,0,0
149257,-100,3,2,50,80,0,0
149533,-100,3,2,50,60,0,0
152835,-100,3,2,50,60,0,0
153386,-100,3,2,50,60,0,0
156138,-100,3,2,50,60,0,0
156413,-100,3,2,50,60,0,0
156689,-100,3,2,50,60,0,0
156963,-100,3,2,50,60,0,0
157239,-100,3,2,50,60,0,0
157514,-100,3,2,50,60,0,0
159441,-100,3,2,50,50,0,0

[Colours]
Combo1 : 255,226,130
Combo2 : 192,192,192
Combo3 : 255,128,128
Combo4 : 191,128,255

[HitObjects]
148,135,14670,5,0,0:0:0:0:
114,53,14946,6,0,B|199:31|194:91|280:70,1,160,2|0,0:0|0:0,0:0:0:0:
345,28,15771,2,0,P|353:90|281:157,1,160,0|0,0:0|0:0,0:0:0:0:
326,235,16597,6,0,P|388:227|455:299,1,160,2|0,0:0|0:0,0:0:0:0:
421,373,17423,2,0,B|341:409|335:349|254:385,1,160,0|0,0:0|0:0,0:0:0:0:
209,312,18248,6,0,P|121:324|117:198,1,240,0|0,0:0|0:0,0:0:0:0:
193,167,19349,1,2,0:0:0:0:
249,234,19624,1,0,0:0:0:0:
333,259,19900,2,0,L|416:259,2,80,2|0|0,0:0|0:0|0:0,0:0:0:0:
346,172,20725,2,0,L|429:172,2,80,0|0|0,0:0|0:0|0:0,0:0:0:0:
292,101,21551,6,0,B|207:79|212:139|126:118,1,160,2|0,0:0|0:0,0:0:0:0:
61,76,22376,2,0,P|53:138|125:205,1,160,0|0,0:0|0:0,0:0:0:0:
204,213,23202,6,0,P|201:290|260:340,1,160,2|0,0:0|0:0,0:0:0:0:
341,305,24028,2,0,B|377:226|317:220|353:139,1,160,0|0,0:0|0:0,0:0:0:0:
399,76,24854,6,0,P|506:79|496:186,1,240,0|0,0:0|0:0,0:0:0:0:
425,238,25955,1,2,0:0:0:0:
374,166,26230,1,0,0:0:0:0:
289,141,26506,2,0,L|209:141,2,80,2|0|0,0:0|0:0|0:0,0:0:0:0:
307,226,27331,2,0,L|227:226,2,80,0|0|0,0:0|0:0|0:0,0:0:0:0:
338,308,28157,5,4,0:0:0:0:
426,155,28707,1,0,0:0:0:0:
470,231,28982,1,0,1:0:0:0:
294,231,29533,5,0,0:0:0:0:
338,155,29808,1,2,0:0:0:0:
426,308,30358,1,0,0:0:0:0:
338,308,30633,1,0,1:0:0:0:
250,155,31184,5,0,0:0:0:0:
188,217,31459,2,0,P|80:213|90:106,1,240,2|0,0:0|1:0,0:0:0:0:
173,72,32560,1,0,0:0:0:0:
229,139,32835,1,0,0:0:0:0:
296,81,33111,6,0,P|376:60|417:71,2,120,2|2|0,0:0|0:0|1:0,0:0:0:0:
229,139,34212,1,0,0:0:0:0:
238,226,34487,1,0,1:0:0:0:
291,295,34762,5,4,0:0:0:0:
118,327,35312,1,0,0:0:0:0:
37,291,35588,1,0,1:0:0:0:
73,210,35863,6,0,L|73:118,2,80,0|0|2,0:0|0:0|0:0,0:0:0:0:
242,260,36964,1,2,0:0:0:0:
320,219,37240,2,0,B|361:193|361:193|361:104,2,120,0|0|4,1:0|1:0|0:0,0:0:0:0:
256,192,38340,12,2,40542,0:0:0:0:
405,64,41368,5,4,1:0:0:0:
443,190,41780,1,0,1:0:0:0:
314,159,42193,1,0,1:0:0:0:
266,233,42468,2,0,L|266:288,2,40,0|4|4,1:3|0:3|0:3,0:0:0:0:
181,206,43019,5,4,1:0:0:0:
52,237,43432,1,0,1:0:0:0:
90,111,43844,1,0,1:0:0:0:
118,27,44120,2,0,L|208:27,1,80,0|0,1:0|3:1,0:0:0:0:
250,96,44670,5,4,1:0:0:0:
340,192,45082,1,0,1:0:0:0:
378,65,45495,1,0,1:0:0:0:
466,60,45771,2,0,L|513:87,2,40,0|4|4,1:0|0:3|0:3,0:0:0:0:
428,139,46322,6,0,B|468:162|468:162|468:253,1,120,0|4,1:0|1:0,0:0:0:0:
372,327,47147,2,0,B|332:304|332:304|332:213,1,120,0|0,1:0|1:0,0:0:0:0:
218,162,47973,5,4,1:0:0:0:
127,257,48385,1,0,1:0:0:0:
90,130,48798,1,0,1:0:0:0:
166,87,49074,2,0,L|176:37,2,40,0|4|4,1:0|0:3|0:3,0:0:0:0:
218,162,49624,5,4,1:0:0:0:
347,131,50037,1,4,1:0:0:0:
309,257,50449,1,0,1:1:0:0:
365,324,50725,2,0,L|455:324,1,80,0|0,1:0|3:0,0:0:0:0:
484,245,51276,5,4,1:0:0:0:
438,168,51551,1,4,0:3:0:0:
363,212,51826,1,4,0:3:0:0:
289,260,52101,1,4,1:1:0:0:
212,303,52376,1,0,0:0:0:0:
168,227,52651,1,0,0:0:0:0:
124,151,52927,6,0,L|56:113,2,40,4|4|0,1:0|0:3|1:3,0:0:0:0:
157,122,53340,2,0,P|233:87|277:86,1,120,4|2,1:0|0:0,0:0:0:0:
452,274,54579,6,0,P|382:239|372:158,1,160,4|0,0:0|0:0,0:0:0:0:
371,76,55404,2,0,P|412:89|443:116,2,80,0|0|0,1:0|0:0|0:0,0:0:0:0:
292,116,56230,2,0,B|217:134|222:74|137:96,1,160,2|0,0:0|0:0,0:0:0:0:
86,168,57056,2,0,P|61:137|49:98,2,80,0|0|0,1:0|0:0|0:0,0:0:0:0:
67,253,57881,6,0,L|239:234,1,160,4|0,0:0|0:0,0:0:0:0:
284,301,58707,2,0,L|393:288,1,80,0|0,1:0|0:0,0:0:0:0:
450,282,59257,1,0,0:0:0:0:
416,200,59533,2,0,P|423:111|455:73,2,120,2|2|0,0:0|0:0|1:0,0:0:0:0:
450,282,60634,1,0,1:0:0:0:
408,359,60909,1,0,1:0:0:0:
320,348,61184,6,0,B|245:329|250:389|165:367,1,160,4|0,0:0|0:0,0:0:0:0:
114,296,62010,2,0,P|89:326|77:365,2,80,0|0|0,1:0|0:0|0:0,0:0:0:0:
201,284,62835,6,0,P|205:205|140:156,1,160,2|0,0:0|0:0,0:0:0:0:
69,115,63661,2,0,P|59:153|65:192,2,80,0|0|0,1:0|0:0|0:0,0:0:0:0:
145,71,64487,6,0,B|120:38|120:38|35:28,2,120,4|0|4,0:0|0:0|0:0,0:0:0:0:
214,16,65588,1,4,1:3:0:0:
265,87,65863,1,0,1:0:0:0:
314,159,66138,6,0,B|339:192|339:192|424:202,2,120,4|0|8,1:0|1:3|1:3,0:0:0:0:
246,215,67239,1,4,1:3:0:0:
175,266,67514,1,4,0:3:0:0:
101,316,67790,6,0,P|26:299|0:227,1,160,4|0,0:1|0:0,0:0:0:0:
25,142,68615,1,2,0:0:0:0:
161,226,69166,1,0,0:0:0:0:
245,255,69442,2,0,P|315:242|333:131,1,160,0|0,0:0|0:0,0:0:0:0:
321,82,70267,1,2,0:0:0:0:
183,191,70817,1,2,0:0:0:0:
158,106,71092,2,0,P|184:34|259:17,1,160,0|0,0:0|0:0,0:0:0:0:
343,47,71918,2,0,P|383:47|420:34,2,80,2|2|0,0:0|3:2|0:0,0:0:0:0:
331,134,72744,6,0,P|350:213|385:245,1,120,0|0,0:0|0:0,0:0:0:0:
448,348,73569,2,0,P|467:313|509:288,2,80,2|2|0,0:0|0:0|0:0,0:0:0:0:
362,325,74395,6,0,B|287:306|292:366|207:344,1,160,0|0,3:0|0:0,0:0:0:0:
139,288,75221,1,2,0:0:0:0:
95,117,75771,1,0,0:0:0:0:
164,170,76046,2,0,B|238:188|233:128|318:150,1,160,0|0,0:0|0:0,0:0:0:0:
387,207,76872,1,2,0:0:0:0:
460,46,77423,1,2,0:0:0:0:
372,55,77698,2,0,P|412:121|493:128,1,160,0|0,0:0|0:0,0:0:0:0:
512,215,78523,2,0,P|509:254|488:288,2,80,2|0|0,0:0|0:0|0:0,0:0:0:0:
423,219,79349,6,0,P|395:294|411:345,1,120,0|0,0:0|0:0,0:0:0:0:
276,293,80175,2,0,P|279:354|270:377,2,80,2|2|0,0:0|0:0|0:0,0:0:0:0:
212,231,81001,5,4,0:1:0:0:
124,384,81551,1,2,0:0:0:0:
80,307,81826,1,0,3:3:0:0:
256,308,82377,5,0,0:0:0:0:
212,384,82652,1,2,0:0:0:0:
124,231,83202,1,0,0:0:0:0:
212,231,83477,1,2,0:0:0:0:
300,78,84028,5,0,0:0:0:0:
341,156,84303,2,0,P|448:152|438:45,1,240,2|2,0:0|0:0,0:0:0:0:
356,11,85404,1,0,0:0:0:0:
300,78,85679,1,0,0:0:0:0:
212,90,85955,6,0,P|140:48|118:10,2,120,2|2|0,0:0|0:0|3:0,0:0:0:0:
300,78,87056,1,0,0:0:0:0:
353,147,87331,1,0,0:0:0:0:
362,234,87606,6,0,B|387:267|387:267|472:277,2,120,2|0|0,0:0|3:0|0:0,0:0:0:0:
293,289,88707,1,0,0:0:0:0:
242,218,88982,1,0,0:0:0:0:
193,146,89257,6,0,B|168:113|168:113|83:103,2,120,2|0|2,0:0|3:0|0:0,0:0:0:0:
122,199,90358,1,0,0:0:0:0:
51,250,90633,1,0,0:0:0:0:
107,318,90909,6,0,B|132:351|132:351|217:361,2,120,2|0|0,0:0|3:0|0:0,0:0:0:0:
51,250,92010,1,0,0:0:0:0:
0,179,92285,1,0,0:0:0:0:
81,144,92560,6,0,P|128:83|111:7,1,160,2|0,0:0|0:0,0:0:0:0:
207,8,93386,1,4,0:0:0:0:
295,8,93661,1,2,0:0:0:0:
383,8,93936,1,0,0:0:0:0:
471,8,94212,5,4,0:1:0:0:
109,384,96689,5,4,0:3:0:0:
21,384,96965,1,4,0:1:0:0:
21,40,99166,6,0,L|21:0,2,40,2|2|4,0:0|0:0|0:3,0:0:0:0:
21,127,99716,1,4,0:1:0:0:
491,257,101918,5,4,0:3:0:0:
491,344,102193,2,0,L|491:384,2,40,0|0|4,1:0|1:0|1:0,0:0:0:0:
414,300,102744,5,4,0:3:0:0:
368,377,103019,1,4,0:3:0:0:
293,333,103294,1,4,0:3:0:0:
219,285,103569,1,4,0:3:0:0:
142,242,103844,1,4,0:3:0:0:
98,318,104120,6,0,B|75:358|75:358|1:358,1,120,4|4,1:0|1:0,0:0:0:0:
23,272,104808,1,0,1:0:0:0:
221,36,105771,6,0,P|151:71|141:152,1,160,4|4,0:0|0:3,0:0:0:0:
201,208,106597,1,0,1:0:0:0:
281,172,106872,2,0,P|255:139|222:122,1,80,0|0,0:0|0:0,0:0:0:0:
300,66,107423,6,0,P|375:78|409:148,1,160,4|0,1:0|0:0,0:0:0:0:
375,229,108248,2,0,P|338:245|298:246,2,80,0|0|2,1:0|0:0|0:0,0:0:0:0:
462,216,109073,6,0,B|491:251|491:251|479:375,1,160,4|4,0:0|0:3,0:0:0:0:
393,349,109900,2,0,L|283:336,1,80,0|0,1:0|0:0,0:0:0:0:
225,325,110450,1,0,0:0:0:0:
179,251,110725,6,0,P|144:298|146:358,2,120,4|2|4,0:1|0:0|1:2,0:0:0:0:
267,251,111826,1,4,1:3:0:0:
354,251,112101,1,4,1:3:0:0:
439,273,112376,6,0,B|457:198|397:203|419:118,1,160,4|4,0:0|0:3,0:0:0:0:
429,31,113202,1,0,1:0:0:0:
349,71,113478,2,0,P|324:40|312:1,1,80,0|0,0:0|0:0,0:0:0:0:
237,60,114028,6,0,P|158:64|109:0,1,160,4|0,1:0|0:0,0:0:0:0:
43,74,114854,1,4,1:2:0:0:
147,154,115267,1,4,1:3:0:0:
25,204,115679,6,0,B|-11:242|-11:242|-11:312,2,120,4|0|4,1:2|0:0|1:0,0:0:0:0:
113,204,116780,1,4,0:3:0:0:
200,204,117055,1,2,0:0:0:0:
244,127,117331,5,4,0:0:0:0:
287,204,117606,2,0,L|287:251,2,40,0|4|0,0:3|1:3|0:0,0:0:0:0:
331,127,118157,1,8,1:3:0:0:
418,127,118432,1,4,1:0:0:0:
505,127,118707,1,4,0:3:0:0:
512,215,118982,6,0,P|477:285|396:295,1,160,4|4,0:0|0:3,0:0:0:0:
340,235,119808,1,0,1:0:0:0:
376,155,120083,2,0,P|409:181|426:214,1,80,0|0,0:0|0:0,0:0:0:0:
483,137,120634,6,0,P|471:62|401:28,1,160,4|0,1:0|0:0,0:0:0:0:
327,78,121459,2,0,P|291:96|251:95,1,80,0|0,1:3|0:0,0:0:0:0:
271,10,122010,1,2,0:0:0:0:
186,32,122284,6,0,B|157:67|157:67|168:190,1,160,4|4,0:0|0:3,0:0:0:0:
84,213,123111,2,0,L|74:102,2,80,0|0|0,1:0|0:0|0:0,0:0:0:0:
155,264,123936,6,0,P|106:297|46:293,2,120,4|0|0,1:0|0:3|1:0,0:0:0:0:
180,179,125037,1,8,0:3:0:0:
262,209,125312,1,4,1:3:0:0:
347,187,125588,6,0,P|404:140|405:48,1,160,4|0,0:0|0:0,0:0:0:0:
335,12,126413,2,0,P|289:18|263:37,1,80,0|2,1:0|0:0,0:0:0:0:
249,125,126964,1,0,1:0:0:0:
178,75,127239,6,0,P|114:36|27:66,1,160,4|0,0:1|0:0,0:0:0:0:
14,145,128064,2,0,P|35:184|65:204,1,80,4|0,1:2|1:3,0:0:0:0:
150,189,128615,1,2,1:2:0:0:
226,233,128890,5,4,1:0:0:0:
304,277,129166,1,0,1:0:0:0:
347,201,129440,1,0,1:0:0:0:
387,123,129715,1,0,1:0:0:0:
432,47,129990,1,0,1:0:0:0:
508,91,130267,1,0,1:0:0:0:
463,166,130542,5,4,1:1:0:0:
256,192,130817,12,2,132193,0:0:0:0:
63,159,133019,6,0,P|133:194|143:275,1,160,4|0,0:0|0:0,0:0:0:0:
144,357,133844,2,0,P|103:344|72:317,2,80,0|0|0,1:0|0:0|0:0,0:0:0:0:
223,317,134670,2,0,B|298:299|293:359|378:337,1,160,2|0,0:0|0:0,0:0:0:0:
348,253,135496,2,0,P|340:214|350:173,2,80,0|0|0,1:0|0:0|0:0,0:0:0:0:
429,214,136321,6,0,B|469:170|469:170|457:70,1,160,4|0,0:0|0:0,0:0:0:0:
370,79,137147,2,0,L|357:-30,1,80,0|0,1:0|0:0,0:0:0:0:
280,53,137697,1,0,0:0:0:0:
198,87,137973,2,0,P|109:80|71:48,2,120,2|2|0,0:0|0:0|1:0,0:0:0:0:
246,13,139074,1,0,1:0:0:0:
331,33,139349,1,0,1:0:0:0:
343,121,139624,6,0,B|344:198|400:178|401:265,1,160,4|0,0:0|0:0,0:0:0:0:
470,320,140450,2,0,P|486:284|487:243,2,80,0|0|0,1:0|0:0|0:0,0:0:0:0:
387,351,141275,2,0,P|308:355|259:290,1,160,2|0,0:0|0:0,0:0:0:0:
218,219,142101,2,0,P|256:209|295:215,2,80,0|0|0,1:0|0:0|0:0,0:0:0:0:
176,296,142927,5,4,1:0:0:0:
100,251,143202,1,4,0:3:0:0:
143,175,143477,1,4,0:3:0:0:
66,132,143752,1,4,1:2:0:0:
110,57,144028,1,4,0:3:0:0:
187,99,144303,1,4,0:3:0:0:
258,48,144578,2,0,B|295:22|295:22|386:40,2,120,4|4|4,1:0|1:0|1:0,0:0:0:0:
314,116,145679,1,4,1:3:0:0:
314,203,145954,1,4,0:3:0:0:
314,291,146230,6,0,L|314:335,1,40,4|0,1:2|1:0,0:0:0:0:
426,141,147055,2,0,B|452:178|452:178|434:269,1,120,4|0,0:0|1:0,0:0:0:0:
314,203,147881,6,0,L|314:247,1,40,0|0,1:0|1:0,0:0:0:0:
202,53,148707,1,4,1:0:0:0:
125,99,148982,1,0,1:0:0:0:
169,174,149257,1,0,1:0:0:0:
217,248,149532,6,0,L|389:229,1,160,4|0,0:0|0:0,0:0:0:0:
370,318,150358,2,0,L|479:305,1,80,0|0,1:0|0:0,0:0:0:0:
462,221,150908,1,0,0:0:0:0:
434,137,151184,2,0,P|463:52|504:24,2,120,2|2|4,0:0|0:0|1:0,0:0:0:0:
454,222,152285,1,4,1:3:0:0:
379,267,152560,1,0,1:0:0:0:
309,213,152835,6,0,B|253:159|227:213|165:151,1,160,4|0,0:0|0:0,0:0:0:0:
237,97,153661,2,0,P|240:58|227:19,2,80,0|0|0,1:0|0:0|0:0,0:0:0:0:
152,71,154486,2,0,P|90:120|97:201,1,160,2|0,0:0|0:0,0:0:0:0:
164,249,155312,2,0,P|133:274|94:284,2,80,0|0|0,1:0|0:0|0:0,0:0:0:0:
211,174,156138,6,0,B|244:199|244:199|254:284,2,120,4|0|4,1:0|0:0|1:2,0:0:0:0:
262,101,157239,1,4,0:3:0:0:
193,54,157514,1,4,0:3:0:0:
138,123,157789,2,0,B|105:98|105:98|95:13,2,120,4|4|0,1:0|0:0|1:0,0:0:0:0:
210,174,158890,1,4,1:3:0:0:
261,101,159165,1,4,0:3:0:0:
312,28,159441,5,4,0:0:0:0:
420,269,160266,1,0,1:0:0:0:
157,241,161092,2,0,B|117:218|117:218|117:127,1,120,4|0,0:3|0:0,0:0:0:0:
210,49,161918,2,0,B|250:72|250:72|250:163,1,120,0|0,1:0|1:0,0:0:0:0:
117,144,162743,5,4,0:3:0:0:
358,36,163569,1,0,1:0:0:0:
330,299,164394,2,0,B|307:339|307:339|216:339,1,120,4|0,0:3|0:0,0:0:0:0:
148,237,165220,2,0,L|148:191,2,40,0|4|4,1:0|1:3|0:3,0:0:0:0:
148,325,165771,5,0,1:0:0:0:
