osu file format v14

[General]
AudioFilename: audio.mp3
AudioLeadIn: 0
PreviewTime: 14660
Countdown: 0
SampleSet: Soft
StackLeniency: 0.2
Mode: 0
LetterboxInBreaks: 0
WidescreenStoryboard: 0

[Editor]
Bookmarks: 130394,131358,157229,157780
DistanceSpacing: 0.5
BeatDivisor: 4
GridSize: 4
TimelineZoom: 1.3

[Metadata]
Title:Utakata no Yoru
TitleUnicode:泡沫の夜
Artist:Fukunaga Yoru
ArtistUnicode:ふくなが よる
Creator:Fushimi Rio
Version:Melted
Source:
Tags:japanese rock papapa213 buki irotuk 西坂恭平 Nishizaka Kyohei
BeatmapID:1876060
BeatmapSetID:898030

[Difficulty]
HPDrainRate:7.2
CircleSize:4.5
OverallDifficulty:9
ApproachRate:9.4
SliderMultiplier:2.4
SliderTickRate:1

[Events]
//Background and Video events
0,0,"test.jpg",0,0
//Break Periods
//Storyboard Layer 0 (Background)
//Storyboard Layer 1 (Fail)
//Storyboard Layer 2 (Pass)
//Storyboard Layer 3 (Foreground)
//Storyboard Layer 4 (Overlay)
//Storyboard Sound Samples

[TimingPoints]
1735,550.45871559633,3,2,50,40,1,0
1735,-133.333333333333,3,2,50,40,0,0
41368,-133.333333333333,3,2,50,80,0,1
41643,-133.333333333333,3,2,50,80,0,0
42193,-100,3,2,50,80,0,0
43019,-133.333333333333,3,2,50,80,0,0
43844,-100,3,2,50,80,0,0
44120,-100,3,2,1,80,0,0
44670,-133.333333333333,3,2,50,80,0,0
45495,-100,3,2,50,80,0,0
46322,-133.333333333333,3,2,50,80,0,0
46459,-66.6666666666667,3,2,50,80,0,0
46734,-133.333333333333,3,2,50,80,0,0
47560,-100,3,2,50,80,0,0
47973,-133.333333333333,3,2,50,80,0,0
48798,-100,3,2,50,80,0,0
49624,-133.333333333333,3,2,50,80,0,0
50449,-100,3,2,50,80,0,0
50725,-100,3,2,1,80,0,0
51276,-100,3,2,50,80,0,0
51551,-90.9090909090909,3,2,50,80,0,0
51826,-83.3333333333333,3,2,50,80,0,0
52101,-76.9230769230769,3,2,50,80,0,0
52377,-71.4285714285714,3,2,50,80,0,0
52652,-66.6666666666667,3,2,50,80,0,0
53753,-200,3,2,50,70,0,0
54579,-133.333333333333,3,2,50,70,0,0
64487,-100,3,2,50,70,0,0
67790,-133.333333333333,3,2,0,60,0,0
93386,-100,3,2,50,60,0,0
94212,-200,3,2,50,50,0,0
102468,-133.333333333333,3,2,50,60,0,0
103019,-100,3,2,50,60,0,0
103569,-80,3,2,50,60,0,0
103845,-66.6666666666667,3,2,50,70,0,0
105771,-100,3,2,50,80,0,1
115679,-80,3,2,50,80,0,1
116505,-66.6666666666667,3,2,50,80,0,1
118982,-100,3,2,50,80,0,1
125588,-66.6666666666667,3,2,50,80,0,1
132193,-250,3,2,50,80,0,0
133019,550.45871559633,3,2,50,80,1,1
133019,-133.333333333333,3,2,50,80,0,1
133294,-100,3,2,50,70,0,0
136322,-133.333333333333,3,2,50,70,0,0
137147,-100,3,2,50,70,0,0
139624,-133.333333333333,3,2,50,70,0,0
140450,-100,3,2,50,70,0,0
143202,-90.9090909090909,3,2,50,70,0,0
143477,-83.3333333333333,3,2,50,70,0,0
143752,-76.9230769230769,3,2,50,70,0,0
144028,-71.4285714285714,3,2,50,70,0,0
144303,-66.6666666666667,3,2,50,70,0,0
146230,-133.333333333333,3,2,50,70,0,0
148707,-100,3,2,50,80,0,0
148982,-80,3,2,50,80,0,0
149257,-66.6666666666667,3,2,50,80,0,0
149533,-100,3,2,50,60,0,0
152835,-133.333333333333,3,2,50,60,0,0
153386,-100,3,2,50,60,0,0
156138,-100,3,2,50,60,0,0
156413,-80,3,2,50,60,0,0
156689,-66.6666666666667,3,2,50,60,0,0
156963,-50,3,2,50,60,0,0
157239,-40,3,2,50,60,0,0
157514,-33.3333333333333,3,2,50,60,0,0
159441,-133.333333333333,3,2,50,50,0,0

[Colours]
Combo1 : 255,226,130
Combo2 : 192,192,192
Combo3 : 255,128,128
Combo4 : 191,128,255

[HitObjects]
316,309,14670,5,0,0:0:0:0:
232,274,14946,6,0,B|163:271|137:341|68:338,1,180.000006866455,2|0,0:0|0:0,0:0:0:0:
45,310,15771,2,0,B|124:312|153:233|231:236,1,180.000006866455
358,269,16597,2,0,P|406:235|362:115,1,180.000006866455,2|0,0:0|0:0,0:0:0:0:
413,96,17423,2,0,P|458:215|369:307,1,180.000006866455
260,279,18248,6,0,P|220:157|313:70,1,270.000010299683
412,85,19349,1,2,0:0:0:0:
314,70,19624,1,0,0:0:0:0:
216,55,19900,2,0,B|162:50|133:129|54:126,1,180.000006866455,2|0,0:0|0:0,0:0:0:0:
77,155,20725,2,0,B|146:157|171:88|240:90,1,180.000006866455
355,146,21551,6,0,P|361:68|435:120,1,180.000006866455,2|0,0:0|0:0,0:0:0:0:
450,119,22377,2,0,P|365:45|340:151,1,180.000006866455
272,195,23202,2,0,L|92:171,1,180.000006866455,2|0,0:0|0:0,0:0:0:0:
83,201,24028,2,0,L|261:224,1,180.000006866455
370,302,24854,6,0,B|433:223|353:125|421:45,1,270.000010299683
512,130,25955,1,2,0:0:0:0:
426,165,26230,1,0,0:0:0:0:
340,200,26505,2,0,P|275:155|357:117,1,180.000006866455,2|0,0:0|0:0,0:0:0:0:
364,104,27331,2,0,P|258:140|337:215,1,180.000006866455
189,231,28157,6,0,L|44:250,1,135.000005149841,4|0,0:0|0:0,0:0:0:0:
55,248,28707,1,0,0:0:0:0:
213,313,28982,2,0,B|254:292|254:292|274:254,1,90.0000034332277,0|0,1:0|0:0,0:0:0:0:
366,157,29533,1,0,0:0:0:0:
366,157,29670,1,0,0:0:0:0:
413,259,29808,2,0,B|479:176|479:176|451:171,2,135.000005149841,2|2|0,0:0|0:0|1:0,0:0:0:0:
295,105,31046,1,0,1:0:0:0:
238,259,31459,6,0,L|157:152,1,135.000005149841,2|0,0:0|0:0,0:0:0:0:
156,152,32010,1,0,0:0:0:0:
9,268,32285,2,0,B|54:258|54:258|83:226,1,90.0000034332277,0|0,1:0|0:0,0:0:0:0:
156,152,32835,1,0,0:0:0:0:
242,67,33111,2,0,L|85:47,2,135.000005149841,2|2|0,0:0|0:0|1:0,0:0:0:0:
242,67,34212,1,0,0:0:0:0:
330,79,34349,1,0,0:0:0:0:
444,22,34487,2,0,B|403:42|403:42,1,45.0000017166138,0|0,1:0|0:0,0:0:0:0:
359,164,34762,6,0,B|344:171|479:102,1,135.000005149841,4|0,0:0|0:0,0:0:0:0:
476,103,35312,1,0,0:0:0:0:
469,277,35588,2,0,P|425:269|392:241,2,90.0000034332277,0|0|0,1:0|0:0|0:0,0:0:0:0:
224,316,36413,6,0,P|190:235|102:213,1,180.000006866455,2|2,0:0|0:0,0:0:0:0:
231,83,37239,2,0,L|201:234,2,135.000005149841,0|0|4,1:0|1:0|0:0,0:0:0:0:
256,192,38202,12,0,39579,3:0:0:0:
416,151,39716,6,0,P|471:166|490:276,1,180.000006866455,4|0,0:1|0:0,0:0:0:0:
332,145,40542,2,0,P|353:95|402:69,1,112.500004291535,2|0,0:0|3:0,0:0:0:0:
402,69,40955,5,2,0:0:0:0:
334,163,41092,1,0,1:0:0:0:
284,40,41230,1,0,1:0:0:0:
162,87,41368,6,0,L|183:0,1,90.0000034332277,4|0,1:0|0:0,0:0:0:0:
115,155,41780,2,0,L|139:57,1,90.0000034332277,0|0,1:0|0:0,0:0:0:0:
68,223,42193,2,0,L|92:125,1,90.0000034332277,0|0,1:0|3:0,0:0:0:0:
171,279,42468,5,0,1:3:0:0:
192,191,42605,1,4,0:3:0:0:
213,104,42743,1,4,0:3:0:0:
235,16,42880,1,0,0:0:0:0:
336,177,43019,6,0,L|312:79,1,90.0000034332277,4|0,1:0|0:0,0:0:0:0:
383,245,43431,2,0,L|359:147,1,90.0000034332277,0|0,1:0|0:0,0:0:0:0:
430,313,43844,2,0,L|406:215,1,90.0000034332277,0|0,1:0|3:0,0:0:0:0:
311,368,44120,5,0,1:0:0:0:
298,315,44211,1,0,3:3:0:0:
285,263,44303,1,0,3:3:0:0:
272,210,44395,1,0,3:1:0:0:
259,158,44486,1,0,3:0:0:0:
246,105,44578,1,0,3:0:0:0:
187,175,44670,6,0,L|211:77,1,90.0000034332277,4|0,1:0|0:0,0:0:0:0:
140,243,45082,2,0,L|164:145,1,90.0000034332277,0|0,1:0|0:0,0:0:0:0:
93,311,45495,2,0,L|117:213,1,90.0000034332277,0|0,1:0|3:0,0:0:0:0:
193,365,45770,5,0,1:0:0:0:
214,277,45909,1,4,0:3:0:0:
235,190,46045,1,4,0:3:0:0:
257,102,46184,1,0,0:0:0:0:
376,256,46322,5,0,1:0:0:0:
355,156,46459,2,0,L|331:58,1,90.0000034332277,4|0,0:1|0:0,0:0:0:0:
402,224,46734,6,0,L|378:126,1,90.0000034332277,4|0,1:0|0:0,0:0:0:0:
449,292,47147,6,0,L|425:194,1,90.0000034332277,0|0,1:0|0:0,0:0:0:0:
279,244,47560,2,0,L|303:146,1,90.0000034332277,0|0,1:0|3:0,0:0:0:0:
405,175,47835,1,0,0:0:0:0:
405,175,47973,6,0,L|381:77,1,90.0000034332277,4|0,1:0|0:0,0:0:0:0:
452,243,48385,2,0,L|428:145,1,90.0000034332277,0|0,1:0|0:0,0:0:0:0:
499,311,48799,2,0,L|475:213,1,90.0000034332277,0|0,1:0|3:0,0:0:0:0:
360,367,49073,5,0,1:0:0:0:
339,279,49212,1,4,0:3:0:0:
318,192,49348,1,4,0:3:0:0:
296,104,49487,1,0,0:0:0:0:
184,243,49624,6,0,L|208:145,1,90.0000034332277,4|0,1:0|0:0,0:0:0:0:
137,311,50036,2,0,L|161:213,1,90.0000034332277,4|0,1:0|0:0,0:0:0:0:
90,379,50450,2,0,L|114:281,1,90,0|0,1:1|3:0,0:0:0:0:
261,328,50725,5,0,1:0:0:0:
274,275,50816,1,0,3:0:0:0:
287,223,50908,1,0,3:0:0:0:
300,170,51000,1,0,3:0:0:0:
313,118,51091,1,0,3:0:0:0:
326,65,51183,1,0,3:0:0:0:
386,138,51276,6,0,L|364:37,1,90,4|0,1:0|3:0,0:0:0:0:
435,204,51551,6,0,L|406:86,1,99.0000030212403,4|0,0:3|3:0,0:0:0:0:
483,271,51826,6,0,L|454:153,1,107.999996704102,4|0,0:3|3:0,0:0:0:0:
282,248,52101,6,0,L|310:129,1,116.999994644165,4|0,1:1|3:0,0:0:0:0:
235,316,52377,6,0,L|268:180,1,125.999996154785,0|0,0:0|3:0,0:0:0:0:
188,384,52652,6,0,L|224:233,1,135.000005149841,0|0,0:0|3:0,0:0:0:0:
343,319,52927,5,4,1:0:0:0:
231,89,53065,1,4,0:3:0:0:
179,279,53202,1,0,1:3:0:0:
18,70,53341,5,4,1:0:0:0:
101,283,53478,1,4,0:3:0:0:
173,9,53616,1,0,1:0:0:0:
319,333,53753,6,0,P|353:345|387:345,2,60,2|2|0,0:0|0:0|0:0,0:0:0:0:
322,185,54579,6,0,P|408:186|453:260,1,180.000006866455,4|0,0:0|0:0,0:0:0:0:
453,260,55267,1,0,0:0:0:0:
506,44,55404,2,0,P|479:79|438:97,2,90.0000034332277,0|0|0,1:0|0:0|0:0,0:0:0:0:
320,183,56230,6,0,P|255:190|202:151,1,135.000005149841,2|2,0:0|0:0,0:0:0:0:
202,151,56918,5,0,0:0:0:0:
65,91,57056,2,0,P|78:108|96:122,1,45.0000017166138,0|0,1:0|0:0,0:0:0:0:
185,3,57331,5,0,0:0:0:0:
202,151,57468,2,0,P|210:130|213:107,1,45.0000017166138,0|0,1:0|0:0,0:0:0:0:
65,91,57744,5,0,0:0:0:0:
282,36,57881,2,0,P|366:51|397:132,1,180.000006866455,4|0,0:0|0:0,0:0:0:0:
401,300,58707,2,0,P|376:263|371:219,2,90.0000034332277,0|0|0,1:0|0:0|0:0,0:0:0:0:
401,300,59395,1,0,0:0:0:0:
275,230,59533,6,0,P|209:223|156:262,1,135.000005149841,2|2,0:0|0:0,0:0:0:0:
156,262,60221,5,0,0:0:0:0:
299,238,60358,1,0,1:0:0:0:
356,97,60496,5,0,0:0:0:0:
384,268,60634,2,0,P|396:304|405:316,1,45.0000017166138,0|0,1:0|0:0,0:0:0:0:
479,41,60909,5,0,1:0:0:0:
279,75,61046,1,0,1:0:0:0:
367,245,61184,6,0,P|449:221|474:138,1,180.000006866455,4|0,0:0|0:0,0:0:0:0:
474,138,61872,1,0,0:0:0:0:
237,257,62010,2,0,P|277:274|305:308,2,90.0000034332277,0|0|0,1:0|0:0|0:0,0:0:0:0:
49,281,62835,6,0,P|132:256|158:176,1,135.000005149841,2|2,0:0|0:0,0:0:0:0:
155,218,63523,5,0,0:0:0:0:
342,174,63661,2,0,P|352:194|355:215,1,45.0000017166138,0|0,1:0|0:0,0:0:0:0:
191,140,63936,5,0,0:0:0:0:
349,251,64074,2,0,P|369:259|392:260,1,45.0000017166138,0|0,1:0|0:0,0:0:0:0:
274,120,64349,5,0,0:0:0:0:
235,338,64487,2,0,P|229:280|266:233,1,120,4|0,0:0|0:0,0:0:0:0:
265,234,64900,1,0,0:0:0:0:
417,360,65037,2,0,P|437:369|473:376,1,60,4|0,1:3|0:0,0:0:0:0:
424,172,65312,6,0,P|398:209|390:253,1,90,4|0,0:0|3:0,0:0:0:0:
368,104,65588,6,0,P|363:148|378:190,1,90,4|0,1:3|3:0,0:0:0:0:
283,73,65863,6,0,P|301:113|335:142,1,90,0|0,1:0|3:0,0:0:0:0:
451,137,66138,5,4,1:0:0:0:
264,59,66276,1,4,0:3:0:0:
302,213,66413,1,0,1:0:0:0:
349,7,66551,5,0,1:3:0:0:
274,308,66689,1,4,0:3:0:0:
106,108,66826,1,4,1:3:0:0:
106,108,66895,1,0,1:0:0:0:
106,108,66964,1,8,1:3:0:0:
184,79,67101,5,0,1:0:0:0:
170,161,67239,5,4,1:3:0:0:
92,190,67377,5,4,0:3:0:0:
28,137,67514,5,4,0:3:0:0:
42,55,67652,5,0,0:0:0:0:
120,26,67790,6,0,P|186:57|254:50,1,135.000005149841,4|0,0:1|0:0,0:0:0:0:
372,204,68615,2,0,P|329:190|285:192,1,90.0000034332277,2|0,0:0|0:0,0:0:0:0:
47,295,69166,1,0,0:0:0:0:
119,318,69303,1,0,0:0:0:0:
192,338,69441,6,0,P|264:331|320:291,1,135.000005149841
457,161,70267,2,0,P|413:152|377:127,1,90.0000034332277,2|0,0:0|0:0,0:0:0:0:
353,96,70817,1,2,0:0:0:0:
310,159,70955,1,0,0:0:0:0:
237,183,71092,6,0,P|164:176|108:136,1,135.000005149841
52,330,71918,1,2,0:0:0:0:
80,309,72193,1,2,3:2:0:0:
124,371,72331,1,0,0:0:0:0:
186,327,72468,2,0,P|222:316|246:317,1,45.0000017166138
305,327,72744,6,0,P|352:271|362:203,1,135.000005149841
341,17,73432,1,0,0:0:0:0:
341,17,73569,2,0,P|339:71|359:127,2,90.0000034332277,2|2|0,0:0|0:0|0:0,0:0:0:0:
319,90,74257,1,0,0:0:0:0:
277,154,74395,6,0,P|210:184|141:177,1,135.000005149841,0|0,3:0|0:0,0:0:0:0:
44,45,75221,2,0,P|87:31|131:33,1,90.0000034332277,2|0,0:0|0:0,0:0:0:0:
248,205,75771,1,0,0:0:0:0:
283,273,75909,1,0,0:0:0:0:
325,336,76046,6,0,P|388:355|454:343,1,135.000005149841
201,354,76872,2,0,P|159:378|118:381,1,90.0000034332277,2|0,0:0|0:0,0:0:0:0:
44,209,77423,1,2,0:0:0:0:
123,238,77560,1,0,3:0:0:0:
123,238,77629,1,0,3:0:0:0:
123,238,77698,6,0,P|190:208|259:215,1,135.000005149841
433,122,78523,2,0,P|468:148|512:155,2,90.0000034332277,2|0|0,0:0|0:0|0:0,0:0:0:0:
384,55,79212,1,0,0:0:0:0:
314,14,79349,6,0,P|247:11|186:39,1,135.000005149841
75,216,80175,5,2,0:0:0:0:
273,128,80450,5,2,0:0:0:0:
97,0,80725,5,0,0:0:0:0:
307,140,81001,6,0,P|334:102|343:42,1,90.0000034332277,4|0,0:1|0:0,0:0:0:0:
343,60,81413,1,0,3:0:0:0:
384,204,81551,2,0,P|393:183|407:163,1,45.0000017166138,2|0,0:0|0:0,0:0:0:0:
478,128,81826,5,0,0:3:0:0:
486,153,82102,1,2,0:0:0:0:
490,165,82239,1,2,0:0:0:0:
495,177,82377,1,0,0:0:0:0:
474,254,82514,1,0,3:0:0:0:
403,293,82652,5,2,0:0:0:0:
324,273,82790,2,0,P|262:281|233:297,1,90.0000034332277,0|0,0:0|3:0,0:0:0:0:
238,293,83202,1,0,0:0:0:0:
78,177,83478,6,0,P|119:195|164:198,1,90.0000034332277,2|0,0:0|0:0,0:0:0:0:
239,168,83890,1,0,0:0:0:0:
288,103,84028,1,0,0:0:0:0:
290,21,84166,1,0,3:0:0:0:
351,179,84303,5,2,0:0:0:0:
355,191,84441,2,0,P|371:213|387:226,1,45.0000017166138,2|0,0:0|0:0,0:0:0:0:
496,180,84716,2,0,P|494:135|471:98,1,90.0000034332277,0|0,3:0|0:0,0:0:0:0:
392,77,85129,5,2,0:0:0:0:
375,98,85404,1,0,0:0:0:0:
308,145,85542,2,0,P|256:153|215:142,1,90.0000034332277,0|0,3:0|0:0,0:0:0:0:
233,224,85955,6,0,P|213:174|183:144,1,90.0000034332277,2|0,0:0|0:0,0:0:0:0:
239,94,86368,2,0,P|197:126|156:137,1,90.0000034332277,2|0,0:0|0:0,0:0:0:0:
207,184,86780,6,0,P|165:151|124:140,1,90.0000034332277,0|0,3:0|0:0,0:0:0:0:
49,150,87193,1,0,0:0:0:0:
120,111,87331,1,0,0:0:0:0:
155,38,87468,1,0,3:0:0:0:
217,206,87606,5,2,0:0:0:0:
220,216,87744,2,0,P|222:239|220:262,1,45.0000017166138,2|0,0:0|0:0,0:0:0:0:
232,242,88019,2,0,P|286:273|342:273,1,90.0000034332277,0|0,3:0|0:0,0:0:0:0:
391,258,88432,1,0,0:0:0:0:
410,239,88707,1,0,0:0:0:0:
474,188,88845,2,0,P|495:183|518:183,1,45.0000017166138,2|0,0:0|0:0,0:0:0:0:
400,154,89120,1,0,3:0:0:0:
356,86,89257,5,2,0:0:0:0:
350,73,89395,2,0,P|348:50|350:27,1,45.0000017166138,2|0,0:0|0:0,0:0:0:0:
339,48,89670,2,0,P|270:20|218:26,1,90.0000034332277,0|0,3:0|0:0,0:0:0:0:
255,19,90083,2,0,P|186:47|134:41,1,90.0000034332277,2|0,0:0|0:0,0:0:0:0:
62,119,90496,2,0,P|131:147|183:141,1,90.0000034332277,0|0,0:0|3:0,0:0:0:0:
222,122,90909,5,2,0:0:0:0:
300,102,91046,1,0,0:0:0:0:
376,128,91184,1,0,0:0:0:0:
421,195,91322,2,0,P|425:239|415:282,1,90.0000034332277,0|0,3:0|0:0,0:0:0:0:
368,348,91734,1,0,0:0:0:0:
235,254,92010,1,0,0:0:0:0:
221,254,92147,2,0,P|193:260|177:267,1,45.0000017166138,2|0,0:0|0:0,0:0:0:0:
126,330,92423,1,0,3:0:0:0:
95,255,92560,5,2,0:0:0:0:
90,242,92698,2,0,P|76:224|59:209,1,45.0000017166138,2|0,0:0|0:0,0:0:0:0:
82,215,92973,2,0,P|126:208|165:186,1,90.0000034332277,0|0,3:0|0:0,0:0:0:0:
290,169,93386,6,0,P|261:158|238:140,1,60,4|0,0:0|0:0,0:0:0:0:
263,22,93661,5,2,0:0:0:0:
381,43,93799,5,2,0:0:0:0:
315,173,93936,5,0,0:0:0:0:
323,293,94074,5,0,0:0:0:0:
360,382,94212,5,4,0:1:0:0:
438,337,94487,1,0,0:0:0:0:
414,298,94624,1,0,0:0:0:0:
393,259,94762,1,0,0:0:0:0:
354,282,94900,1,0,0:0:0:0:
315,304,95037,1,2,0:0:0:0:
232,317,95312,1,0,0:0:0:0:
156,291,95588,2,0,P|112:290|67:300,2,90,2|2|0,0:0|0:0|0:0,0:0:0:0:
232,317,96689,1,4,0:3:0:0:
262,101,96964,5,4,0:1:0:0:
184,146,97239,1,0,0:0:0:0:
205,184,97377,1,0,0:0:0:0:
229,224,97514,1,0,0:0:0:0:
269,201,97652,1,0,0:0:0:0:
307,179,97789,1,2,0:0:0:0:
390,166,98064,1,0,0:0:0:0:
465,185,98340,5,0,0:0:0:0:
510,107,98615,1,0,0:0:0:0:
432,62,98890,1,0,0:0:0:0:
387,139,99165,1,2,0:0:0:0:
321,192,99303,1,2,0:0:0:0:
247,213,99441,1,4,0:3:0:0:
174,216,99579,1,4,0:3:0:0:
109,204,99716,5,4,0:1:0:0:
31,158,99991,1,0,0:0:0:0:
53,118,100129,1,0,0:0:0:0:
76,80,100266,1,0,0:0:0:0:
115,102,100404,1,0,0:0:0:0:
153,125,100542,1,2,0:0:0:0:
236,138,100817,1,0,0:0:0:0:
311,113,101092,2,0,P|355:111|399:131,2,90,2|2|4,0:0|0:0|0:3,0:0:0:0:
236,138,102193,5,0,1:0:0:0:
306,30,102331,1,0,1:0:0:0:
356,256,102468,6,0,L|341:190,1,67.5000025749207,4|0,1:0|3:0,0:0:0:0:
395,320,102744,6,0,L|380:254,1,67.5000025749207,4|0,0:3|3:0,0:0:0:0:
226,299,103019,6,0,L|245:211,1,90,4|0,0:3|3:0,0:0:0:0:
174,384,103295,6,0,L|193:296,1,90,4|0,0:3|3:0,0:0:0:0:
351,349,103569,6,0,L|325:235,1,112.5,4|0,0:3|3:0,0:0:0:0:
81,298,103845,6,0,L|110:166,1,135.000005149841,4|0,0:3|3:0,0:0:0:0:
165,342,104120,5,4,1:0:0:0:
44,115,104258,1,0,0:0:0:0:
0,308,104395,1,0,1:0:0:0:
166,98,104533,5,4,1:0:0:0:
267,303,104671,1,0,0:0:0:0:
333,14,104808,1,0,1:0:0:0:
274,262,105771,6,0,P|222:302|111:306,1,180,4|0,0:0|0:0,0:0:0:0:
308,341,106322,2,0,P|338:355|363:358,1,60,4|0,0:3|0:0,0:0:0:0:
274,262,106597,6,0,P|280:306|308:341,1,90,0|0,1:0|3:0,0:0:0:0:
359,273,106872,2,0,P|318:257|274:262,1,90,0|0,0:0|3:0,0:0:0:0:
192,225,107147,2,0,P|218:188|223:144,1,90,0|0,0:0|3:0,0:0:0:0:
204,17,107423,6,0,P|236:58|360:80,2,180,4|4|0,1:0|0:3|1:0,0:0:0:0:
141,77,108386,1,2,0:0:0:0:
137,75,108455,1,0,0:0:0:0:
133,73,108523,1,0,0:0:0:0:
54,39,108661,1,4,1:3:0:0:
99,151,108799,1,2,0:0:0:0:
250,95,108936,1,4,0:3:0:0:
175,217,109074,6,0,P|191:300|275:313,1,180,4|0,0:0|0:0,0:0:0:0:
275,313,109624,2,0,P|313:309|346:317,1,60,4|0,0:3|0:0,0:0:0:0:
84,349,109900,6,0,P|118:320|162:311,1,90,0|0,1:0|3:0,0:0:0:0:
275,313,110175,2,0,P|318:303|352:274,1,90,0|0,0:0|3:0,0:0:0:0:
260,169,110450,2,0,P|227:198|212:241,1,90,0|0,0:0|3:0,0:0:0:0:
409,202,110725,5,4,0:1:0:0:
351,111,110863,1,2,0:0:0:0:
260,169,111001,1,0,0:0:0:0:
106,91,111138,5,2,0:0:0:0:
164,0,111276,1,0,0:0:0:0:
255,58,111414,1,0,0:0:0:0:
87,174,111551,6,0,B|35:143|35:143|22:84,1,120,4|4,1:2|1:3,0:0:0:0:
107,186,111964,5,0,0:3:0:0:
190,118,112101,5,4,1:3:0:0:
300,89,112239,5,0,1:0:0:0:
417,115,112377,6,0,P|465:87|385:28,1,180,4|0,0:0|0:0,0:0:0:0:
361,133,112927,2,0,P|387:119|417:115,1,60,4|0,0:3|0:0,0:0:0:0:
370,250,113202,6,0,P|320:208|275:208,1,90,0|0,1:0|3:0,0:0:0:0:
259,325,113478,2,0,P|323:336|362:313,1,90,0|0,0:0|3:0,0:0:0:0:
488,267,113753,2,0,P|434:304|422:347,1,90,0|0,0:0|3:0,0:0:0:0:
369,182,114028,6,0,B|340:138|340:138|304:259,1,180,4|0,1:0|0:3,0:0:0:0:
460,183,114579,1,0,0:0:0:0:
379,199,114716,1,0,0:0:0:0:
434,262,114854,5,4,1:2:0:0:
452,106,114991,1,8,0:3:0:0:
452,106,115060,1,0,0:0:0:0:
452,106,115129,1,0,0:0:0:0:
369,182,115267,5,4,1:3:0:0:
313,51,115404,1,2,0:0:0:0:
313,51,115473,1,0,0:0:0:0:
313,51,115542,1,4,0:3:0:0:
259,238,115679,6,0,B|160:229|157:315|51:306,1,225,4|0,1:2|0:0,0:0:0:0:
29,149,116230,2,0,P|60:171|77:203,1,75,0|0,0:3|0:0,0:0:0:0:
183,35,116505,6,0,P|151:93|171:156,1,135.000005149841,4|0,1:0|3:0,0:0:0:0:
303,51,116780,2,0,P|222:18|155:70,1,135.000005149841,4|0,0:3|3:0,0:0:0:0:
246,186,117056,1,2,0:0:0:0:
308,130,117193,1,2,0:0:0:0:
397,264,117331,6,0,L|496:241,1,90.0000034332277,4|0,0:0|0:3,0:0:0:0:
484,243,117537,1,0,0:0:0:0:
484,243,117606,5,0,0:3:0:0:
305,292,117744,1,4,1:3:0:0:
169,237,117881,1,0,0:0:0:0:
76,378,118019,5,4,1:3:0:0:
86,369,118088,1,0,1:0:0:0:
96,360,118157,1,8,1:3:0:0:
182,383,118294,5,0,1:0:0:0:
246,319,118433,5,4,1:0:0:0:
223,232,118570,5,4,0:3:0:0:
135,209,118708,5,4,0:3:0:0:
71,273,118845,5,0,0:3:0:0:
158,295,118982,6,0,B|237:301|239:233|324:240,1,180,4|0,0:0|0:0,0:0:0:0:
368,323,119533,2,0,P|339:333|310:332,1,60,4|0,0:3|0:0,0:0:0:0:
429,165,119808,6,0,P|412:207|420:251,1,90,0|0,1:0|3:0,0:0:0:0:
468,122,120083,2,0,P|427:139|401:175,1,90,0|0,0:0|3:0,0:0:0:0:
279,56,120358,2,0,P|296:96|332:122,1,90,0|0,0:0|3:0,0:0:0:0:
289,6,120634,6,0,P|248:23|211:143,2,180,4|4|0,1:0|0:3|1:3,0:3:0:0:
305,107,121597,1,2,0:0:0:0:
309,115,121666,1,0,0:0:0:0:
313,123,121734,1,0,0:0:0:0:
130,55,121872,1,4,1:3:0:0:
143,240,122010,1,2,0:0:0:0:
239,180,122148,1,4,0:3:0:0:
335,383,122285,6,0,P|324:301|242:295,1,180,4|0,0:0|0:0,0:0:0:0:
184,305,122835,2,0,P|214:305|242:294,1,60,4|0,0:3|0:0,0:0:0:0:
375,146,123111,6,0,L|395:234,1,90,0|0,1:0|3:0,0:0:0:0:
189,120,123386,2,0,L|208:207,1,90,0|0,0:0|3:0,0:0:0:0:
266,44,123661,2,0,L|285:131,1,90,0|0,0:0|3:0,0:0:0:0:
118,216,123936,6,0,P|40:185|47:79,1,180,4|0,1:0|0:3,0:0:0:0:
162,289,124487,1,4,0:3:0:0:
206,213,124624,1,0,0:3:0:0:
304,315,124762,2,0,P|264:302|247:290,1,60,0|0,1:0|0:0,0:0:0:0:
251,306,124968,1,0,0:0:0:0:
249,320,125037,1,8,0:3:0:0:
138,368,125175,5,2,0:0:0:0:
53,284,125312,5,4,1:3:0:0:
24,168,125450,5,0,1:3:0:0:
44,58,125588,6,0,P|141:72|173:160,1,180.000006866455,4|0,0:0|1:0,0:0:0:0:
25,218,126001,2,0,P|-11:126|49:55,1,180.000006866455,2|2,0:0|0:0,0:0:0:0:
80,323,126413,6,0,P|113:293|130:252,1,90.0000034332277,0|0,1:0|0:0,0:0:0:0:
80,143,126689,1,2,0:0:0:0:
146,243,126826,1,0,0:0:0:0:
228,186,126964,1,0,1:0:0:0:
228,186,127101,1,0,1:0:0:0:
361,249,127239,6,0,P|417:182|405:96,1,180.000006866455,4|0,0:1|1:0,0:0:0:0:
370,270,127652,2,0,P|398:352|479:384,1,180.000006866455,2|2,0:0|0:0,0:0:0:0:
346,267,128065,6,0,P|282:255|231:296,1,135.000005149841,4|0,1:2|0:0,0:0:0:0:
231,296,128340,1,0,1:3:0:0:
116,102,128478,1,4,1:3:0:0:
5,299,128615,1,2,1:2:0:0:
117,232,128753,1,2,0:0:0:0:
231,296,128890,6,0,P|225:348|206:389,1,90.0000034332277,4|0,1:0|0:0,0:0:0:0:
121,259,129166,6,0,P|101:308|73:343,1,90.0000034332277,0|0,1:0|0:0,0:0:0:0:
150,187,129441,6,0,P|144:239|125:280,1,90.0000034332277,0|0,1:0|0:0,0:0:0:0:
41,151,129717,6,0,P|21:200|-6:235,1,90.0000034332277,0|0,1:0|0:0,0:0:0:0:
271,86,129991,6,0,P|292:134|297:179,1,90.0000034332277,0|0,1:0|0:0,0:0:0:0:
160,110,130267,6,0,P|168:162|161:207,1,90.0000034332277,0|0,1:0|0:0,0:0:0:0:
144,229,130473,1,0,0:0:0:0:
179,221,130542,5,4,1:1:0:0:
219,226,130611,1,0,0:0:0:0:
253,248,130680,1,0,0:0:0:0:
278,280,130748,1,0,0:0:0:0:
313,300,130817,1,8,1:3:0:0:
353,304,130886,1,0,0:0:0:0:
391,292,130955,1,4,0:3:0:0:
422,266,131024,1,0,0:0:0:0:
439,229,131092,1,0,1:0:0:0:
441,189,131161,1,0,0:0:0:0:
427,152,131230,1,0,1:0:0:0:
399,123,131299,1,0,0:0:0:0:
362,107,131368,6,0,P|343:160|350:213,1,90.0000034332277,4|0,0:0|0:0,0:0:0:0:
480,49,131643,2,0,P|490:104|522:146,1,90.0000034332277,0|0,1:0|0:0,0:0:0:0:
289,38,131918,5,0,1:0:0:0:
242,212,132056,1,0,1:0:0:0:
90,0,132193,6,0,P|109:53|102:106,1,96,2|0,0:0|3:0,0:0:0:0:
97,114,133019,6,0,P|153:93|252:150,1,180.000006866455,4|0,0:0|0:0,0:0:0:0:
251,149,133707,1,0,0:0:0:0:
384,0,133845,2,0,P|338:33|321:93,2,120,0|0|0,1:0|0:0|0:0,0:0:0:0:
467,278,134670,6,0,P|425:201|341:180,1,180,2|2,0:0|0:0,0:0:0:0:
341,180,135358,5,0,0:0:0:0:
165,62,135496,2,0,P|170:91|184:118,1,60,0|0,1:0|0:0,0:0:0:0:
323,15,135771,5,0,0:0:0:0:
239,209,135909,2,0,P|211:221|182:226,1,60,0|0,1:0|0:0,0:0:0:0:
57,0,136184,5,0,0:0:0:0:
97,171,136322,2,0,P|81:249|1:309,1,180,4|0,0:0|0:0,0:0:0:0:
189,260,137147,2,0,P|213:294|329:329,1,120,0|0,1:0|0:0,0:0:0:0:
442,222,137698,1,0,0:0:0:0:
392,311,137835,1,0,0:0:0:0:
321,118,137973,6,0,P|256:80|187:89,1,120,2|0,0:0|0:0,0:0:0:0:
363,152,138386,2,0,P|325:86|261:59,1,120,2|0,0:0|0:0,0:0:0:0:
98,85,138799,6,0,P|70:72|47:54,1,60,0|0,1:0|0:0,0:0:0:0:
217,32,139074,2,0,P|198:55|174:73,1,60,0|0,1:0|0:0,0:0:0:0:
110,243,139349,1,0,1:0:0:0:
147,148,139487,1,0,1:0:0:0:
175,320,139624,6,0,B|254:326|256:258|341:265,1,180,4|0,0:0|0:0,0:0:0:0:
341,265,140312,1,0,0:0:0:0:
187,231,140450,2,0,P|144:185|143:126,2,120,0|0|0,1:0|0:0|0:0,0:0:0:0:
372,354,141276,6,0,P|416:318|406:197,1,180,2|2,0:0|0:0,0:0:0:0:
411,203,141964,1,0,0:0:0:0:
304,92,142101,6,0,P|309:121|323:148,1,60,0|0,1:0|0:0,0:0:0:0:
411,203,142377,1,0,0:0:0:0:
448,106,142514,2,0,P|443:77|429:50,1,60,0|0,1:0|0:0,0:0:0:0:
322,242,142790,5,0,0:0:0:0:
227,109,142927,6,0,L|205:8,1,90,4|0,1:0|3:0,0:0:0:0:
276,174,143202,6,0,L|247:56,1,99.0000030212403,4|0,0:3|3:0,0:0:0:0:
322,242,143477,6,0,L|295:131,1,107.999996704102,4|0,0:3|3:0,0:0:0:0:
446,236,143752,6,0,L|474:117,1,116.999994644165,4|0,1:2|3:0,0:0:0:0:
399,304,144028,6,0,L|432:168,1,125.999996154785,4|0,0:3|3:0,0:0:0:0:
352,372,144303,6,4,L|388:221,1,135.000005149841,4|0,0:3|3:3,0:3:0:0:
333,148,144578,5,4,1:0:0:0:
146,225,144716,1,0,0:0:0:0:
184,71,144853,1,0,1:0:0:0:
343,237,144991,5,4,1:0:0:0:
127,13,145129,1,0,0:0:0:0:
82,271,145266,1,0,1:0:0:0:
82,271,145336,1,0,1:0:0:0:
82,271,145404,1,4,1:0:0:0:
110,192,145541,5,0,1:0:0:0:
28,207,145679,5,4,1:3:0:0:
0,285,145817,5,4,0:3:0:0:
52,348,145954,5,4,0:3:0:0:
134,334,146092,5,0,0:0:0:0:
164,256,146230,5,4,1:2:0:0:
164,256,146367,1,0,1:0:0:0:
164,256,146642,5,0,1:0:0:0:
164,256,146918,1,0,0:0:0:0:
396,320,147055,6,0,P|437:292|456:249,1,90.0000034332277,4|0,0:0|0:0,0:0:0:0:
338,177,147468,2,0,P|347:209|366:237,1,67.5000025749207,0|0,1:0|3:0,0:0:0:0:
367,238,147743,1,4,1:2:0:0:
432,176,147881,5,0,1:0:0:0:
432,176,148019,1,0,1:0:0:0:
431,175,148294,5,0,1:0:0:0:
431,175,148569,1,0,1:0:0:0:
414,190,148638,1,0,1:0:0:0:
394,197,148707,6,0,L|305:183,1,90,4|0,1:0|3:0,0:0:0:0:
101,150,148982,6,0,L|212:132,1,112.5,0|0,1:0|3:0,0:0:0:0:
431,101,149257,6,0,L|285:78,1,135.000005149841,0|0,1:0|3:0,0:0:0:0:
219,222,149533,5,4,0:0:0:0:
219,222,149808,1,2,0:0:0:0:
212,132,149946,1,0,0:0:0:0:
128,270,150083,2,0,P|79:271|52:258,1,60
152,259,150358,6,0,P|219:254|272:334,2,120,0|0|0,1:0|0:0|0:0,0:0:0:0:
152,259,151046,1,0,0:0:0:0:
289,114,151184,6,0,P|315:196|399:216,1,180,2|2,0:0|0:0,0:0:0:0:
399,216,151872,5,0,0:0:0:0:
221,259,152010,1,4,1:0:0:0:
249,62,152147,5,0,0:0:0:0:
284,205,152285,1,4,1:3:0:0:
157,40,152423,5,4,0:3:0:0:
338,0,152560,1,0,1:0:0:0:
278,234,152698,1,0,1:0:0:0:
156,138,152836,6,0,P|125:127|-4:189,1,180.000006866455,4|0,0:0|0:0,0:0:0:0:
0,183,153523,1,0,0:0:0:0:
164,318,153661,2,0,P|195:268|196:208,2,120,0|0|0,1:0|0:0|0:0,0:0:0:0:
281,179,154487,6,0,P|311:168|441:230,1,180,2|2,0:0|0:0,0:0:0:0:
437,223,155175,5,0,0:0:0:0:
222,297,155312,2,0,P|216:267|221:238,1,60,0|0,1:0|0:0,0:0:0:0:
70,106,155588,5,0,0:0:0:0:
281,179,155725,2,0,P|286:149|281:120,1,60,0|0,1:0|0:0,0:0:0:0:
225,53,156001,5,0,0:0:0:0:
125,297,156138,6,0,P|126:247|141:202,1,90,4|0,1:0|3:0,0:0:0:0:
148,305,156413,6,0,P|148:256|176:190,1,112.5,4|0,0:3|3:0,0:0:0:0:
171,316,156689,6,0,P|174:251|211:188,1,135.000005149841,4|0,0:3|3:0,0:0:0:0:
197,329,156963,6,0,P|208:239|280:177,1,180,4|0,1:2|3:0,0:0:0:0:
225,341,157239,6,0,P|221:283|347:199,1,225,4|0,0:3|3:0,0:0:0:0:
258,357,157514,6,0,P|290:237|404:332,1,270.000010299683,4|0,0:3|3:0,0:0:0:0:
399,276,157790,5,4,1:0:0:0:
220,157,157927,1,0,0:0:0:0:
452,116,158065,5,0,1:0:0:0:
325,311,158202,1,4,0:0:0:0:
298,59,158340,5,0,0:0:0:0:
512,203,158478,1,4,1:0:0:0:
495,206,158546,1,0,1:0:0:0:
477,209,158615,5,0,1:0:0:0:
382,193,158752,1,0,1:0:0:0:
287,209,158890,5,4,1:3:0:0:
191,192,159028,1,4,0:3:0:0:
97,209,159166,5,4,0:3:0:0:
2,193,159303,1,0,0:0:0:0:
33,34,159441,6,0,P|138:39|123:132,1,225.000008583069,4|0,0:0|3:0,0:0:0:0:
131,142,160267,6,0,P|142:23|23:24,1,180.000006866455,0|0,1:0|3:0,0:0:0:0:
411,149,161092,6,0,P|305:154|321:247,1,225.000008583069,4|0,0:3|3:0,0:0:0:0:
439,206,161918,6,0,P|425:141|368:108,1,135.000005149841,0|0,1:0|1:0,0:0:0:0:
59,351,162744,6,0,P|164:345|149:253,1,225.000008583069,4|0,0:3|3:0,0:0:0:0:
161,243,163570,6,0,P|172:361|53:360,1,180.000006866455,0|0,1:0|3:0,0:0:0:0:
407,238,164395,6,0,P|301:232|317:140,1,225.000008583069,4|0,0:3|3:0,0:0:0:0:
462,287,165221,1,0,1:0:0:0:
440,173,165358,1,4,1:3:0:0:
440,173,165496,1,4,0:3:0:0:
440,173,165771,6,0,P|426:237|369:270,1,135.000005149841,0|0,1:0|3:0,0:0:0:0:
