osu file format v14

[General]
AudioFilename: audio.mp3
AudioLeadIn: 0
PreviewTime: 14660
Countdown: 0
SampleSet: Soft
StackLeniency: 0.6
Mode: 0
LetterboxInBreaks: 0
WidescreenStoryboard: 1

[Editor]
Bookmarks: 130394,131358,157229,157780
DistanceSpacing: 2.1
BeatDivisor: 8
GridSize: 4
TimelineZoom: 1.3

[Metadata]
Title:Utakata no Yoru
TitleUnicode:泡沫の夜
Artist:Fukunaga Yoru
ArtistUnicode:ふくなが よる
Creator:Fushimi Rio
Version:Insane
Source:
Tags:japanese rock papapa213 buki irotuk 西坂恭平 Nishizaka Kyohei
BeatmapID:2183360
BeatmapSetID:898030

[Difficulty]
HPDrainRate:7
CircleSize:4
OverallDifficulty:8
ApproachRate:8.5
SliderMultiplier:2.4
SliderTickRate:1

[Events]
//Background and Video events
0,0,"test.jpg",0,0
//Break Periods
//Storyboard Layer 0 (Background)
//Storyboard Layer 1 (Fail)
//Storyboard Layer 2 (Pass)
//Storyboard Layer 3 (Foreground)
//Storyboard Layer 4 (Overlay)
//Storyboard Sound Samples

[TimingPoints]
1735,550.45871559633,3,2,50,40,1,0
1735,-133.333333333333,3,2,50,40,0,0
41368,-100,3,2,50,80,0,1
41643,-100,3,2,50,80,0,0
42193,-100,3,2,50,80,0,0
43019,-100,3,2,50,80,0,0
43844,-100,3,2,50,80,0,0
44120,-100,3,2,1,80,0,0
44670,-100,3,2,50,80,0,0
45495,-100,3,2,50,80,0,0
46322,-100,3,2,50,80,0,0
46459,-100,3,2,50,80,0,0
46734,-100,3,2,50,80,0,0
47560,-100,3,2,50,80,0,0
47973,-100,3,2,50,80,0,0
48798,-100,3,2,50,80,0,0
49624,-100,3,2,50,80,0,0
50449,-100,3,2,50,80,0,0
50725,-100,3,2,1,80,0,0
51276,-133.333333333333,3,2,50,80,0,0
51551,-111.111111111111,3,2,50,80,0,0
51826,-95.2380952380952,3,2,50,80,0,0
52101,-83.3333333333333,3,2,50,80,0,0
52377,-74.0740740740741,3,2,50,80,0,0
52652,-66.6666666666667,3,2,50,80,0,0
53753,-133.333333333333,3,2,50,70,0,0
54579,-133.333333333333,3,2,50,70,0,0
64762,-111.111111111111,3,2,50,70,0,0
65037,-95.2380952380952,3,2,50,70,0,0
65312,-83.3333333333333,3,2,50,70,0,0
65588,-74.0740740740741,3,2,50,70,0,0
65863,-66.6666666666667,3,2,50,70,0,0
67790,-133.333333333333,3,2,0,60,0,0
93386,-133.333333333333,3,2,50,60,0,0
94212,-133.333333333333,3,2,50,50,0,0
102468,-133.333333333333,3,2,50,60,0,0
103019,-100,3,2,50,60,0,0
103569,-80,3,2,50,60,0,0
103845,-80,3,2,50,70,0,0
105771,-133.333333333333,3,2,50,80,0,1
115679,-133.333333333333,3,2,50,80,0,1
116505,-100,3,2,50,80,0,1
117331,-80,3,2,50,80,0,1
118982,-133.333333333333,3,2,50,80,0,1
125588,-100,3,2,50,80,0,1
132193,-133.333333333333,3,2,50,80,0,0
132881,-133.333333333333,3,2,50,10,0,0
133019,550.45871559633,3,2,50,80,1,1
133019,-133.333333333333,3,2,50,80,0,1
133294,-133.333333333333,3,2,50,70,0,0
136321,-133.333333333333,3,2,50,70,0,0
137147,-133.333333333333,3,2,50,70,0,0
139624,-133.333333333333,3,2,50,70,0,0
140450,-133.333333333333,3,2,50,70,0,0
143202,-111.111111111111,3,2,50,70,0,0
143477,-95.2380952380952,3,2,50,70,0,0
143752,-83.3333333333333,3,2,50,70,0,0
144028,-74.0740740740741,3,2,50,70,0,0
144303,-66.6666666666667,3,2,50,70,0,0
146230,-133.333333333333,3,2,50,70,0,0
148707,-100,3,2,50,80,0,0
148982,-100,3,2,50,80,0,0
149257,-100,3,2,50,80,0,0
149532,-133.333333333333,3,2,50,80,0,0
149533,-133.333333333333,3,2,50,60,0,0
152835,-133.333333333333,3,2,50,60,0,0
153386,-133.333333333333,3,2,50,60,0,0
156138,-133.333333333333,3,2,50,60,0,0
156413,-111.111111111111,3,2,50,60,0,0
156688,-95.2380952380952,3,2,50,60,0,0
156963,-83.3333333333333,3,2,50,60,0,0
157239,-74.0740740740741,3,2,50,60,0,0
157514,-66.6666666666667,3,2,50,60,0,0
159441,-133.333333333333,3,2,50,50,0,0
165771,-200,3,2,50,50,0,0

[Colours]
Combo1 : 255,226,130
Combo2 : 192,192,192
Combo3 : 255,128,128
Combo4 : 191,128,255

[HitObjects]
56,336,14670,5,0,0:0:0:0:
56,336,14946,6,0,P|129:338|211:272,1,180.000006866455,2|0,0:0|0:0,0:0:0:0:
313,250,15771,2,0,P|240:252|158:186,1,180.000006866455,0|0,0:0|0:0,0:0:0:0:
202,52,16597,6,0,P|282:52|271:131,1,180.000006866455,2|0,0:0|0:0,0:0:0:0:
28,98,17423,2,0,P|41:20|117:44,1,180.000006866455,0|0,0:0|0:0,0:0:0:0:
152,127,18248,6,0,B|284:216|350:56|497:151,1,360.000013732911,0|2,0:0|0:0,0:0:0:0:
495,149,19624,1,0,0:0:0:0:
413,325,19900,2,0,L|400:237,2,90.0000034332277,2|0|0,0:0|0:0|0:0,0:0:0:0:
309,326,20725,2,0,L|295:237,2,90.0000034332277,0|0|0,0:0|0:0|0:0,0:0:0:0:
200,326,21551,6,0,P|183:254|98:192,1,180.000006866455,2|0,0:0|0:0,0:0:0:0:
0,188,22377,2,0,P|69:167|173:205,1,180.000006866455,0|0,0:0|0:0,0:0:0:0:
293,53,23202,6,0,P|213:53|224:131,1,180.000006866455,2|0,0:0|0:0,0:0:0:0:
466,98,24028,2,0,P|452:19|376:44,1,180.000006866455,0|0,0:0|0:0,0:0:0:0:
343,127,24854,6,0,B|211:216|145:56|-2:151,1,360.000013732911,0|2,0:0|0:0,0:0:0:0:
57,231,26230,1,0,0:0:0:0:
56,230,26505,2,0,P|77:270|80:315,2,90.0000034332277,2|0|0,0:0|0:0|0:0,0:0:0:0:
179,299,27331,2,0,P|162:375|134:405,2,90.0000034332277,0|0|0,0:0|0:0|0:0,0:0:0:0:
258,240,28157,6,0,P|290:298|353:319,1,135.000005149841,4|0,0:0|0:0,0:0:0:0:
353,318,28707,1,0,0:0:0:0:
243,223,28982,2,0,L|154:239,1,90.0000034332277,0|0,1:0|0:0,0:0:0:0:
251,206,29533,5,0,0:0:0:0:
282,211,29670,1,0,0:0:0:0:
312,216,29808,2,0,P|361:174|367:108,1,135.000005149841,2|2,0:0|0:0,0:0:0:0:
366,107,30358,1,0,0:0:0:0:
316,231,30634,2,0,L|410:249,1,90.0000034332277,0|0,1:0|0:0,0:0:0:0:
228,214,31046,2,0,L|322:232,1,90.0000034332277,0|0,1:0|0:0,0:0:0:0:
147,182,31459,6,0,P|88:191|49:255,1,135.000005149841,2|0,0:0|0:0,0:0:0:0:
49,250,32010,1,0,0:0:0:0:
59,76,32285,2,0,L|75:164,1,90.0000034332277,0|0,1:0|0:0,0:0:0:0:
77,82,32835,5,0,0:0:0:0:
71,51,32973,1,0,0:0:0:0:
66,21,33111,2,0,P|109:-2|156:0,1,90.0000034332277,2|0,0:0|0:0,0:0:0:0:
184,21,33523,2,0,P|229:20|269:0,1,90.0000034332277,2|0,0:0|0:0,0:0:0:0:
173,65,33936,6,0,P|173:109|195:148,1,90.0000034332277,0|0,1:0|0:0,0:0:0:0:
225,167,34487,1,0,1:0:0:0:
303,123,34624,1,0,0:0:0:0:
392,114,34762,6,0,P|444:139|489:208,1,135.000005149841,4|0,0:0|0:0,0:0:0:0:
487,201,35312,1,0,0:0:0:0:
413,315,35588,2,0,P|380:285|362:245,2,90.0000034332277,0|0|0,1:0|0:0|0:0,0:0:0:0:
271,275,36413,6,0,B|188:274|208:356|123:361,1,180.000006866455,2|2,0:0|0:0,0:0:0:0:
37,236,37239,2,0,P|98:223|124:280,2,135.000005149841,0|0|4,1:0|1:0|0:0,0:0:0:0:
256,192,38202,12,4,39716,0:1:0:0:
256,192,39785,12,0,41230,1:0:0:0:
52,236,41368,6,0,L|191:210,1,120,4|0,1:0|0:0,0:0:0:0:
332,109,41780,6,0,L|234:211,1,120,0|0,1:0|0:0,0:0:0:0:
186,347,42193,6,0,L|201:231,1,60,0|0,1:0|0:0,0:0:0:0:
171,46,42468,5,0,1:3:0:0:
210,121,42606,1,4,0:3:0:0:
249,196,42744,1,4,0:3:0:0:
288,271,42881,1,0,0:0:0:0:
387,95,43019,6,0,L|319:219,1,120,4|0,1:0|0:0,0:0:0:0:
179,322,43432,6,0,L|306:261,1,120,0|0,1:0|0:0,0:0:0:0:
451,256,43845,6,0,L|336:234,1,60,0|0,1:0|0:0,0:0:0:0:
147,200,44120,5,0,1:0:0:0:
137,198,44212,1,0,3:3:0:0:
127,196,44303,1,0,3:3:0:0:
117,194,44395,1,0,3:1:0:0:
107,192,44487,1,0,3:0:0:0:
97,190,44579,1,0,3:0:0:0:
88,188,44670,6,0,L|215:127,1,120,4|0,1:0|0:0,0:0:0:0:
389,126,45083,6,0,L|249:99,1,120,0|0,1:0|0:0,0:0:0:0:
131,19,45496,6,0,L|211:104,1,60,0|0,1:0|0:0,0:0:0:0:
295,271,45771,5,0,1:0:0:0:
283,187,45909,1,4,0:3:0:0:
270,104,46046,1,4,0:3:0:0:
258,20,46184,1,0,0:0:0:0:
368,185,46322,5,0,1:0:0:0:
356,101,46459,2,0,L|346:36,1,60,4|0,0:1|0:0,0:0:0:0:
204,225,46734,2,0,L|184:95,1,120,4|0,1:0|0:0,0:0:0:0:
378,245,47147,6,0,L|368:180,2,60,0|0|0,1:0|0:0|0:0,0:0:0:0:
248,297,47560,2,0,L|228:167,1,120,0|0,1:0|0:0,0:0:0:0:
292,369,47973,6,0,L|272:239,1,120,4|0,1:0|0:0,0:0:0:0:
316,61,48386,6,0,L|252:187,1,120,0|0,1:0|0:0,0:0:0:0:
143,279,48799,6,0,L|246:225,1,60,0|0,1:0|0:0,0:0:0:0:
430,191,49074,5,0,1:0:0:0:
346,180,49212,1,4,0:3:0:0:
263,169,49349,1,4,0:3:0:0:
178,158,49487,1,0,0:0:0:0:
98,286,49624,6,0,L|223:220,1,120,4|0,1:0|0:0,0:0:0:0:
396,213,50037,6,0,L|256:191,1,120,4|0,1:0|0:0,0:0:0:0:
135,115,50450,6,0,L|218:197,1,60,0|0,1:1|0:0,0:0:0:0:
310,352,50725,5,0,1:0:0:0:
311,342,50817,1,0,3:0:0:0:
313,332,50909,1,0,3:0:0:0:
314,322,51001,1,0,3:0:0:0:
316,311,51092,1,0,3:0:0:0:
316,301,51184,1,0,3:0:0:0:
318,292,51276,6,0,L|325:225,1,67.5000025749207,4|0,1:0|3:0,0:0:0:0:
284,154,51551,6,0,L|325:225,1,80.9999975280763,4|0,0:3|3:0,0:0:0:0:
411,263,51826,6,0,L|325:225,1,94.499997116089,4|0,0:3|3:0,0:0:0:0:
219,247,52101,6,0,L|325:225,1,107.999996704102,4|0,1:1|3:0,0:0:0:0:
406,134,52377,6,0,L|325:225,1,121.500000463486,0|0,0:0|3:0,0:0:0:0:
311,359,52652,6,0,L|325:225,1,135.000005149841,0|0,0:0|3:0,0:0:0:0:
272,52,52927,5,4,1:0:0:0:
262,140,53065,1,4,0:3:0:0:
181,178,53202,1,0,1:3:0:0:
108,127,53340,1,4,1:0:0:0:
116,37,53478,1,4,0:3:0:0:
197,0,53615,1,0,1:0:0:0:
100,226,53753,6,0,P|50:202|15:204,2,90.0000034332277,2|2|0,0:0|0:0|0:0,0:0:0:0:
132,210,54579,6,0,P|190:270|281:269,1,180.000006866455,4|0,0:0|0:0,0:0:0:0:
309,292,55267,1,0,0:0:0:0:
441,191,55404,2,0,P|397:191|358:213,2,90.0000034332277,0|0|0,1:0|0:0|0:0,0:0:0:0:
343,73,56230,6,0,P|405:96|437:155,1,135.000005149841,2|2,0:0|0:0,0:0:0:0:
468,132,56918,1,0,0:0:0:0:
374,253,57056,2,0,P|352:213|351:169,1,90.0000034332277,0|0,1:0|0:0,0:0:0:0:
269,112,57468,2,0,P|267:156|246:195,1,90.0000034332277,0|0,1:0|0:0,0:0:0:0:
215,295,57881,6,0,P|157:235|66:236,1,180.000006866455,4|0,0:0|0:0,0:0:0:0:
28,241,58707,2,0,P|62:212|106:203,1,90.0000034332277,0|0,1:0|0:0,0:0:0:0:
138,188,59257,1,0,0:0:0:0:
83,115,59395,1,0,0:0:0:0:
94,25,59533,6,0,P|127:0|201:0,1,90.0000034332277,2|0,0:0|0:0,0:0:0:0:
204,102,59946,2,0,P|163:118|119:113,1,90.0000034332277,2|0,0:0|0:0,0:0:0:0:
254,32,60358,1,0,1:0:0:0:
297,164,60496,1,0,0:0:0:0:
297,164,60634,2,0,P|329:138|349:133,1,45.0000017166138,0|0,1:0|0:0,0:0:0:0:
448,89,60909,1,0,1:0:0:0:
481,191,61046,1,0,1:0:0:0:
455,295,61184,6,0,P|397:355|306:354,1,180.000006866455,4|0,0:0|0:0,0:0:0:0:
277,330,61872,1,0,0:0:0:0:
137,382,62010,2,0,P|93:382|54:360,2,90.0000034332277,0|0|0,1:0|0:0|0:0,0:0:0:0:
175,227,62835,6,0,P|84:217|33:268,1,135.000005149841,2|2,0:0|0:0,0:0:0:0:
26,213,63523,1,0,0:0:0:0:
101,164,63661,2,0,P|124:126|119:60,1,90.0000034332277,0|0,1:0|0:0,0:0:0:0:
110,48,64074,1,0,1:0:0:0:
209,148,64212,1,0,0:0:0:0:
297,135,64349,1,0,0:0:0:0:
357,68,64487,6,0,L|363:1,1,67.5000025749207,4|0,0:0|3:0,0:0:0:0:
429,121,64762,2,0,L|438:16,1,80.9999975280763,0|0,0:0|3:0,0:0:0:0:
502,178,65037,2,0,L|511:73,1,94.499997116089,4|0,1:3|3:0,0:0:0:0:
364,253,65312,6,0,L|351:116,1,107.999996704102,4|0,0:0|3:0,0:0:0:0:
470,274,65588,2,0,L|459:148,1,121.500000463486,4|0,1:3|3:0,0:0:0:0:
393,336,65863,2,0,L|380:199,1,135.000005149841,0|0,1:0|3:0,0:0:0:0:
279,254,66138,5,4,1:0:0:0:
247,344,66276,1,4,0:3:0:0:
157,311,66413,1,0,1:0:0:0:
1,265,66551,5,0,1:3:0:0:
33,355,66689,1,4,0:3:0:0:
123,322,66826,1,4,1:3:0:0:
141,317,66895,1,0,1:0:0:0:
157,311,66964,5,8,1:3:0:0:
239,275,67101,5,0,1:0:0:0:
291,212,67239,5,4,1:3:0:0:
362,219,67377,5,4,0:3:0:0:
417,247,67514,5,4,0:3:0:0:
445,293,67652,5,0,0:0:0:0:
456,336,67790,6,0,B|428:298|428:298|444:212,1,135.000005149841,4|0,0:1|0:0,0:0:0:0:
486,99,68615,2,0,L|471:188,1,90.0000034332277,2|0,0:0|0:0,0:0:0:0:
415,59,69166,1,0,0:0:0:0:
419,37,69303,1,0,0:0:0:0:
348,131,69441,6,0,P|299:93|326:37,1,135.000005149841,0|0,0:0|0:0,0:0:0:0:
357,162,70267,1,2,0:0:0:0:
348,160,70542,1,0,0:0:0:0:
339,158,70679,1,0,0:0:0:0:
330,157,70817,1,2,0:0:0:0:
321,155,70955,1,0,0:0:0:0:
312,153,71092,6,0,B|265:147|265:147|198:204,1,135.000005149841,0|0,0:0|0:0,0:0:0:0:
61,322,71918,1,2,0:0:0:0:
127,264,72193,2,0,L|93:180,1,90.0000034332277,2|0,3:2|0:0,0:0:0:0:
152,277,72744,5,0,0:0:0:0:
161,275,73019,1,0,0:0:0:0:
170,273,73157,1,0,0:0:0:0:
179,272,73294,1,0,0:0:0:0:
188,270,73432,1,0,0:0:0:0:
197,268,73569,2,0,B|213:307|213:307|195:351,1,90.0000034332277,2|2,0:0|0:0,0:0:0:0:
358,211,74120,1,0,0:0:0:0:
284,248,74257,1,0,0:0:0:0:
248,173,74395,6,0,B|210:145|210:145|124:161,1,135.000005149841,0|0,3:0|0:0,0:0:0:0:
11,203,75221,2,0,L|100:188,1,90.0000034332277,2|0,0:0|0:0,0:0:0:0:
100,64,75771,1,0,0:0:0:0:
78,68,75909,1,0,0:0:0:0:
165,125,76046,6,0,P|214:86|187:31,1,135.000005149841,0|0,0:0|0:0,0:0:0:0:
317,99,76872,1,2,0:0:0:0:
326,97,77147,1,0,0:0:0:0:
335,95,77285,1,0,0:0:0:0:
344,94,77423,1,2,0:0:0:0:
353,92,77560,1,0,3:0:0:0:
362,90,77698,6,0,B|390:127|390:127|374:214,1,135.000005149841,0|0,0:0|0:0,0:0:0:0:
274,193,78523,1,2,0:0:0:0:
353,232,78799,2,0,L|341:321,1,90.0000034332277,0|0,0:0|0:0,0:0:0:0:
374,213,79349,5,0,0:0:0:0:
383,213,79624,1,0,0:0:0:0:
392,213,79762,1,0,0:0:0:0:
401,211,79900,1,0,0:0:0:0:
411,211,80037,1,0,0:0:0:0:
420,210,80175,2,0,B|425:163|425:163,1,45.0000017166138,2|0,0:0|0:0,0:0:0:0:
506,161,80450,2,0,B|512:117,1,45.0000017166138,2|0,0:0|0:0,0:0:0:0:
434,70,80725,2,0,B|439:23|439:23,1,45.0000017166138,0|0,0:0|0:0,0:0:0:0:
403,148,81001,5,4,0:1:0:0:
408,48,81276,5,0,0:0:0:0:
403,148,81413,1,0,3:0:0:0:
333,189,81689,5,0,0:0:0:0:
403,148,81826,1,0,0:3:0:0:
362,77,81964,1,0,0:0:0:0:
292,118,82101,1,2,0:0:0:0:
283,118,82239,1,2,0:0:0:0:
274,116,82377,1,0,0:0:0:0:
234,46,82514,1,0,3:0:0:0:
205,158,82652,5,2,0:0:0:0:
105,153,82790,1,0,0:0:0:0:
93,167,83065,5,0,3:0:0:0:
82,181,83340,5,0,0:0:0:0:
223,188,83478,1,2,0:0:0:0:
214,173,83753,5,0,0:0:0:0:
169,251,83890,1,0,0:0:0:0:
230,318,84028,1,0,0:0:0:0:
312,281,84166,1,0,3:0:0:0:
401,300,84303,5,2,0:0:0:0:
473,173,84441,1,2,0:0:0:0:
482,189,84716,5,0,3:0:0:0:
491,205,84991,5,0,0:0:0:0:
437,301,85129,1,2,0:0:0:0:
428,301,85404,5,0,0:0:0:0:
419,301,85542,1,0,3:0:0:0:
410,299,85679,1,0,0:0:0:0:
400,299,85817,1,0,0:0:0:0:
401,207,85955,5,2,0:0:0:0:
390,299,86092,2,0,B|384:343,1,45.0000017166138,0|0,0:0|0:0,0:0:0:0:
309,196,86368,5,2,0:0:0:0:
401,207,86505,2,0,B|445:212,1,45.0000017166138,0|0,0:0|0:0,0:0:0:0:
309,196,86780,6,0,B|314:151,1,45.0000017166138,0|0,3:0|0:0,0:0:0:0:
298,288,87056,2,0,B|253:282,1,45.0000017166138,0|0,0:0|0:0,0:0:0:0:
177,134,87331,2,0,B|222:140,1,45.0000017166138,0|0,0:0|3:0,0:0:0:0:
161,271,87606,5,2,0:0:0:0:
24,254,87744,1,2,0:0:0:0:
45,257,88019,5,0,3:0:0:0:
65,259,88294,5,0,0:0:0:0:
77,163,88432,1,0,0:0:0:0:
79,143,88707,5,0,0:0:0:0:
62,280,88845,1,2,0:0:0:0:
139,220,88982,1,0,0:0:0:0:
2,203,89120,1,0,3:0:0:0:
159,222,89257,5,2,0:0:0:0:
255,234,89395,1,2,0:0:0:0:
276,237,89670,5,0,3:0:0:0:
296,239,89946,5,0,0:0:0:0:
363,141,90083,2,0,P|361:96|337:58,1,90.0000034332277,2|0,0:0|0:0,0:0:0:0:
413,219,90496,2,0,P|443:185|453:141,1,90.0000034332277,0|0,0:0|3:0,0:0:0:0:
373,293,90909,5,2,0:0:0:0:
469,281,91046,1,0,0:0:0:0:
477,297,91322,5,0,3:0:0:0:
484,313,91597,5,0,0:0:0:0:
369,328,91734,1,0,0:0:0:0:
358,313,92010,5,0,0:0:0:0:
311,247,92147,1,2,0:0:0:0:
233,272,92285,1,0,0:0:0:0:
233,353,92423,1,0,3:0:0:0:
162,312,92560,5,2,0:0:0:0:
245,365,92698,2,0,P|276:378|333:370,1,90.0000034332277,2|0,0:0|3:0,0:0:0:0:
161,311,93111,2,0,P|147:354|155:394,1,45.0000017166138,0|0,0:0|0:0,0:0:0:0:
230,231,93386,5,4,0:0:0:0:
203,154,93523,5,0,0:0:0:0:
132,113,93661,5,2,0:0:0:0:
52,128,93799,5,2,0:0:0:0:
0,190,93936,5,0,0:0:0:0:
0,271,94074,5,0,0:0:0:0:
52,333,94212,5,4,0:1:0:0:
28,250,94487,5,0,0:0:0:0:
28,193,94624,1,0,0:0:0:0:
65,150,94762,1,0,0:0:0:0:
121,139,94900,1,0,0:0:0:0:
170,168,95037,1,2,0:0:0:0:
274,222,95312,1,0,0:0:0:0:
390,206,95588,2,0,P|452:153|460:70,2,135.000005149841,2|2|0,0:0|0:0|0:0,0:0:0:0:
354,100,96689,1,4,0:3:0:0:
426,312,96964,5,4,0:1:0:0:
274,222,97239,1,0,0:0:0:0:
217,222,97377,1,0,0:0:0:0:
173,258,97514,1,0,0:0:0:0:
163,314,97652,1,0,0:0:0:0:
192,364,97790,1,2,0:0:0:0:
317,259,98065,1,0,0:0:0:0:
212,134,98340,5,0,0:0:0:0:
112,217,98615,1,0,0:0:0:0:
196,317,98890,1,0,0:0:0:0:
296,234,99166,5,2,0:0:0:0:
296,185,99303,1,2,0:0:0:0:
248,169,99441,1,4,0:3:0:0:
219,209,99579,1,4,0:3:0:0:
248,250,99716,1,4,0:1:0:0:
301,100,99991,5,0,0:0:0:0:
351,71,100129,1,0,0:0:0:0:
407,81,100267,1,0,0:0:0:0:
444,125,100404,1,0,0:0:0:0:
444,182,100542,1,2,0:0:0:0:
364,266,100817,1,0,0:0:0:0:
248,250,101092,2,0,P|201:182|216:115,2,135.000005149841,2|2|4,0:0|0:0|0:3,0:0:0:0:
248,250,102193,1,0,1:0:0:0:
74,225,102331,1,0,1:0:0:0:
145,325,102468,6,0,L|156:263,1,45.0000017166138,4|0,1:0|0:0,0:0:0:0:
337,202,102744,2,0,L|345:247,1,45.0000017166138,4|0,0:3|0:0,0:0:0:0:
208,176,103019,6,0,L|218:113,1,60,4|0,0:3|0:0,0:0:0:0:
372,224,103294,2,0,L|383:284,1,60,4|0,0:3|0:0,0:0:0:0:
329,35,103569,6,0,L|316:109,1,75,4|0,0:3|0:0,0:0:0:0:
482,232,103845,2,0,L|494:158,1,75,4|0,0:3|0:0,0:0:0:0:
244,303,104120,5,4,1:0:0:0:
261,207,104257,1,0,0:0:0:0:
175,161,104395,1,0,1:0:0:0:
290,220,104533,5,4,1:0:0:0:
191,64,104670,1,0,0:0:0:0:
105,229,104808,1,0,1:0:0:0:
100,301,105771,6,0,P|172:251|165:188,1,135.000005149841,4|0,0:0|0:0,0:0:0:0:
103,150,106322,1,4,0:3:0:0:
218,129,106459,1,0,0:0:0:0:
83,30,106597,6,0,P|80:53|86:76,1,45.0000017166138,0|0,1:0|0:0,0:0:0:0:
240,104,106872,2,0,P|252:85|259:63,1,45.0000017166138,0|0,0:0|0:0,0:0:0:0:
264,37,107147,2,0,P|261:59|266:82,1,45.0000017166138,0|0,0:0|0:0,0:0:0:0:
276,15,107423,5,4,1:0:0:0:
353,220,107560,2,0,P|342:177|311:145,1,90.0000034332277,0|4,0:0|0:3,0:0:0:0:
279,275,107973,2,0,P|261:261|240:253,1,45.0000017166138,0|0,0:0|0:0,0:0:0:0:
125,319,108248,6,0,P|145:310|162:296,1,45.0000017166138,0|2,1:0|0:0,0:0:0:0:
27,138,108523,1,0,0:0:0:0:
27,219,108661,1,4,1:3:0:0:
105,245,108799,1,2,0:0:0:0:
152,179,108936,1,4,0:3:0:0:
105,113,109074,6,0,B|143:141|143:141|229:125,1,135.000005149841,4|0,0:0|0:0,0:0:0:0:
323,63,109624,2,0,L|311:123,1,45.0000017166138,4|0,0:3|0:0,0:0:0:0:
441,144,109900,6,0,L|439:100,1,45.0000017166138,0|0,1:0|0:0,0:0:0:0:
295,188,110175,2,0,L|283:248,1,45.0000017166138,0|0,0:0|0:0,0:0:0:0:
446,271,110450,2,0,L|444:227,1,45.0000017166138,0|0,0:0|0:0,0:0:0:0:
373,320,110725,5,4,0:1:0:0:
358,125,110863,2,0,P|319:102|275:100,1,90.0000034332277,2|2,0:0|0:0,0:0:0:0:
214,171,111276,1,0,0:0:0:0:
193,56,111413,1,0,0:0:0:0:
296,181,111551,6,0,P|298:203|295:225,1,45.0000017166138,4|0,1:2|0:0,0:0:0:0:
132,127,111826,5,4,1:3:0:0:
275,100,111964,1,0,0:3:0:0:
75,201,112101,5,4,1:3:0:0:
42,29,112239,1,0,1:0:0:0:
42,285,112377,6,0,B|68:245|68:245|154:231,1,135.000005149841,4|0,0:0|0:0,0:0:0:0:
234,280,112927,1,4,0:3:0:0:
213,165,113065,1,0,0:0:0:0:
267,290,113202,6,0,P|290:293|313:287,1,45.0000017166138,0|0,1:0|0:0,0:0:0:0:
341,133,113478,2,0,P|322:121|300:114,1,45.0000017166138,0|0,0:0|0:0,0:0:0:0:
365,146,113753,2,0,P|387:149|410:144,1,45.0000017166138,0|0,0:0|0:0,0:0:0:0:
366,54,114028,5,4,1:0:0:0:
330,276,114166,2,0,P|319:233|288:201,1,90.0000034332277,0|0,0:3|0:0,0:0:0:0:
168,126,114579,2,0,P|186:140|207:148,1,45.0000017166138,0|4,0:0|0:3,0:0:0:0:
328,82,114854,5,4,1:2:0:0:
328,82,114923,1,0,1:0:0:0:
328,82,114991,2,0,P|307:91|290:105,1,45.0000017166138,8|0,0:3|0:0,0:0:0:0:
360,5,115267,1,4,1:3:0:0:
350,158,115404,1,2,0:0:0:0:
223,73,115542,1,4,0:3:0:0:
208,277,115679,6,0,L|211:232,1,45.0000017166138,4|0,1:2|0:0,0:0:0:0:
115,307,115955,2,0,L|106:263,1,45.0000017166138,0|0,0:0|0:0,0:0:0:0:
32,360,116230,2,0,L|12:319,1,45.0000017166138,0|0,0:3|0:0,0:0:0:0:
0,235,116505,6,0,L|26:289,1,60,4|0,1:0|0:0,0:0:0:0:
115,177,116780,2,0,L|127:236,1,60,4|0,0:3|0:0,0:0:0:0:
243,151,117056,2,0,L|239:211,1,60,2|2,0:0|0:0,0:0:0:0:
261,307,117331,6,0,L|266:232,1,75,4|0,0:0|0:3,0:0:0:0:
357,335,117606,1,0,1:3:0:0:
382,258,117744,1,0,1:3:0:0:
447,377,117881,1,4,0:3:0:0:
492,309,118019,1,4,1:3:0:0:
502,293,118088,1,0,1:0:0:0:
512,277,118157,5,8,1:3:0:0:
413,238,118294,1,0,1:0:0:0:
496,171,118432,1,4,1:0:0:0:
385,250,118569,5,4,0:3:0:0:
397,134,118707,1,4,0:3:0:0:
490,203,118845,1,0,0:3:0:0:
364,125,118982,6,0,P|414:53|477:60,1,135.000005149841,4|0,0:0|0:0,0:0:0:0:
298,198,119533,1,4,0:3:0:0:
277,83,119670,1,0,0:0:0:0:
178,218,119808,6,0,P|201:221|224:215,1,45.0000017166138,0|0,1:0|0:0,0:0:0:0:
252,61,120083,2,0,P|233:49|211:42,1,45.0000017166138,0|0,0:0|0:0,0:0:0:0:
185,37,120358,2,0,P|207:40|230:35,1,45.0000017166138,0|0,0:0|0:0,0:0:0:0:
160,30,120634,5,4,1:0:0:0:
172,217,120771,2,0,P|161:174|130:142,1,90.0000034332277,0|4,0:0|0:3,0:0:0:0:
251,261,121184,2,0,P|259:239|262:217,1,45.0000017166138,0|0,0:0|0:0,0:0:0:0:
98,272,121459,6,0,P|99:294|109:314,1,45.0000017166138,0|2,1:3|0:0,0:0:0:0:
232,284,121734,1,0,0:0:0:0:
280,350,121872,1,4,1:3:0:0:
356,324,122010,1,2,0:0:0:0:
356,243,122147,1,4,0:3:0:0:
279,218,122285,6,0,P|255:140|296:60,1,135.000005149841,4|0,0:0|0:0,0:0:0:0:
306,25,122835,2,0,P|302:47|291:67,1,45.0000017166138,4|0,0:3|0:0,0:0:0:0:
183,70,123111,6,0,P|170:51|164:30,1,45.0000017166138,0|0,1:0|0:0,0:0:0:0:
111,169,123386,2,0,P|132:163|150:150,1,45.0000017166138,0|0,0:0|0:0,0:0:0:0:
14,99,123661,2,0,P|19:120|32:138,1,45.0000017166138,0|0,0:0|0:0,0:0:0:0:
184,69,123936,5,4,1:0:0:0:
231,186,124074,2,0,P|262:154|304:142,1,90.0000034332277,0|0,0:0|0:3,0:0:0:0:
267,270,124487,2,0,P|289:266|311:270,1,45.0000017166138,4|0,0:3|0:3,0:0:0:0:
385,171,124762,6,0,P|399:188|407:210,1,45.0000017166138,0|0,1:0|0:0,0:0:0:0:
350,72,125037,1,8,0:3:0:0:
397,7,125175,1,2,0:0:0:0:
475,32,125312,1,4,1:3:0:0:
475,113,125450,1,0,1:3:0:0:
399,140,125588,6,0,P|341:126|287:150,1,120,4|0,0:0|1:0,0:0:0:0:
339,297,126001,2,0,P|395:279|430:232,1,120,2|2,0:0|0:0,0:0:0:0:
287,150,126413,2,0,P|271:175|264:204,1,60,0|0,1:0|0:0,0:0:0:0:
248,296,126689,5,2,0:0:0:0:
166,277,126826,1,0,0:0:0:0:
84,258,126964,1,0,1:0:0:0:
2,239,127101,1,0,1:0:0:0:
35,61,127239,6,0,P|92:47|146:71,1,120,4|0,0:1|1:0,0:0:0:0:
95,217,127652,2,0,P|38:199|3:152,1,120,2|2,0:0|0:0,0:0:0:0:
147,70,128065,2,0,P|162:95|169:124,1,60,4|0,1:2|0:0,0:0:0:0:
218,272,128340,5,0,1:3:0:0:
237,190,128478,1,4,1:3:0:0:
256,108,128615,1,2,1:2:0:0:
275,26,128753,1,2,0:0:0:0:
450,202,128890,6,0,L|548:181,1,60,4|0,1:0|0:0,0:0:0:0:
319,170,129166,2,0,L|417:149,1,60,0|0,1:0|0:0,0:0:0:0:
305,303,129441,2,0,L|403:282,1,60,0|0,1:0|0:0,0:0:0:0:
186,121,129716,6,0,L|284:100,1,60,0|0,1:0|0:0,0:0:0:0:
168,273,129991,2,0,L|266:252,1,60,0|0,1:0|0:0,0:0:0:0:
37,241,130267,2,0,L|135:220,1,60,0|0,1:0|0:0,0:0:0:0:
87,112,130542,5,4,1:1:0:0:
81,97,130611,1,0,0:0:0:0:
68,90,130679,1,0,0:0:0:0:
54,93,130748,1,0,0:0:0:0:
44,104,130817,1,8,1:3:0:0:
44,119,130886,1,0,0:0:0:0:
54,130,130955,1,4,0:3:0:0:
68,133,131023,1,0,0:0:0:0:
81,126,131092,6,0,L|102:28,1,60,0|0,1:0|1:0,0:0:0:0:
249,207,131368,6,0,L|153:237,1,60,4|0,0:0|0:0,0:0:0:0:
236,22,131643,6,0,L|310:89,1,60,0|0,1:0|0:0,0:0:0:0:
393,158,131918,5,0,1:0:0:0:
503,86,132056,1,0,1:0:0:0:
512,215,132193,1,2,0:0:0:0:
256,192,132262,12,0,132881,0:0:0:0:
499,193,133019,6,0,P|441:133|350:134,1,180.000006866455,4|0,0:0|0:0,0:0:0:0:
322,111,133707,1,0,0:0:0:0:
190,212,133844,2,0,P|234:212|273:190,2,90.0000034332277,0|0|0,1:0|0:0|0:0,0:0:0:0:
287,330,134670,6,0,P|225:307|193:248,1,135.000005149841,2|2,0:0|0:0,0:0:0:0:
190,212,135358,1,0,0:0:0:0:
128,149,135496,2,0,P|106:189|105:233,1,90.0000034332277,0|0,1:0|0:0,0:0:0:0:
23,290,135908,2,0,P|21:246|0:207,1,90.0000034332277,0|0,1:0|0:0,0:0:0:0:
28,115,136321,6,0,P|86:55|177:56,1,180.000006866455,4|0,0:0|0:0,0:0:0:0:
215,61,137147,2,0,P|181:32|137:23,1,90.0000034332277,0|0,1:0|0:0,0:0:0:0:
106,203,137697,1,0,0:0:0:0:
141,118,137835,1,0,0:0:0:0:
225,83,137973,6,0,P|263:99|300:163,1,90.0000034332277,2|0,0:0|0:0,0:0:0:0:
213,217,138385,2,0,P|178:189|160:148,1,90.0000034332277,2|0,0:0|0:0,0:0:0:0:
301,222,138798,2,0,L|286:290,1,45.0000017166138,0|0,1:0|0:0,0:0:0:0:
390,207,139074,2,0,L|375:275,1,45.0000017166138,0|0,1:0|0:0,0:0:0:0:
479,192,139349,2,0,L|464:260,1,45.0000017166138,0|0,1:0|1:0,0:0:0:0:
497,108,139624,6,0,P|439:48|348:49,1,180.000006866455,4|0,0:0|0:0,0:0:0:0:
319,73,140312,1,0,0:0:0:0:
253,164,140450,2,0,P|209:164|170:142,2,90.0000034332277,0|0|0,1:0|0:0|0:0,0:0:0:0:
337,227,141275,6,0,P|428:217|479:268,1,135.000005149841,2|2,0:0|0:0,0:0:0:0:
486,213,141963,1,0,0:0:0:0:
411,164,142101,2,0,P|388:126|393:60,1,90.0000034332277,0|0,1:0|0:0,0:0:0:0:
402,48,142514,1,0,1:0:0:0:
303,148,142652,1,0,0:0:0:0:
215,135,142789,1,0,0:0:0:0:
155,68,142927,6,0,L|149:1,1,67.5000025749207,4|0,1:0|3:0,0:0:0:0:
83,122,143202,2,0,L|74:17,1,80.9999975280763,4|0,0:3|3:0,0:0:0:0:
10,178,143477,2,0,L|1:73,1,94.499997116089,4|0,0:3|3:0,0:0:0:0:
148,253,143752,6,0,L|161:116,1,107.999996704102,4|0,1:2|3:0,0:0:0:0:
42,274,144028,2,0,L|53:148,1,121.500000463486,4|0,0:3|3:0,0:0:0:0:
119,336,144303,2,4,L|132:199,1,135.000005149841,4|0,0:3|3:3,0:0:0:0:
276,164,144578,5,4,1:0:0:0:
244,254,144716,1,0,0:0:0:0:
154,221,144853,1,0,1:0:0:0:
221,56,144991,5,4,1:0:0:0:
253,146,145129,1,0,0:0:0:0:
343,113,145266,1,0,1:0:0:0:
361,108,145335,1,0,1:0:0:0:
377,102,145404,5,4,1:0:0:0:
465,116,145541,5,0,1:0:0:0:
512,191,145679,5,4,1:3:0:0:
504,262,145817,5,4,0:3:0:0:
476,317,145954,5,4,0:3:0:0:
430,345,146092,5,0,0:0:0:0:
387,356,146230,5,4,1:2:0:0:
387,356,146367,1,0,1:0:0:0:
383,230,146642,5,0,1:0:0:0:
387,356,146918,5,0,0:0:0:0:
387,356,146986,1,0,0:0:0:0:
387,356,147055,2,0,B|349:328|349:328|264:344,1,90.0000034332277,4|0,0:0|0:0,0:0:0:0:
218,351,147468,2,0,B|176:360|176:360|138:332,1,90.0000034332277,0|4,1:0|1:2,0:0:0:0:
63,258,147881,5,0,1:0:0:0:
63,258,148019,1,0,1:0:0:0:
59,384,148294,5,0,1:0:0:0:
63,258,148569,5,0,1:0:0:0:
63,258,148638,1,0,1:0:0:0:
62,258,148707,2,0,B|87:276|87:276|115:271,1,60,4|0,1:0|0:0,0:0:0:0:
72,139,148982,2,0,B|43:151|43:151|34:177,1,60,0|0,1:0|0:0,0:0:0:0:
170,206,149257,2,0,B|173:175|173:175|155:153,1,60,0|0,1:0|0:0,0:0:0:0:
231,284,149532,6,0,P|289:224|380:225,1,180.000006866455,4|0,0:0|0:0,0:0:0:0:
418,230,150358,2,0,P|384:201|340:192,1,90.0000034332277,0|0,1:0|0:0,0:0:0:0:
314,199,150908,1,0,0:0:0:0:
278,115,151046,1,0,0:0:0:0:
298,25,151184,6,0,P|332:3|406:9,1,90.0000034332277,2|0,0:0|0:0,0:0:0:0:
399,113,151596,2,0,P|355:125|312:116,1,90.0000034332277,2|0,0:0|0:0,0:0:0:0:
223,137,152009,2,0,L|237:69,1,45.0000017166138,4|0,1:0|0:0,0:0:0:0:
133,151,152285,2,0,L|147:83,1,45.0000017166138,4|4,1:3|0:3,0:0:0:0:
44,167,152560,2,0,L|59:98,1,45.0000017166138,0|0,1:0|1:0,0:0:0:0:
120,237,152835,6,0,P|178:297|269:296,1,180.000006866455,4|0,0:0|0:0,0:0:0:0:
297,319,153523,1,0,0:0:0:0:
427,214,153661,2,0,P|383:214|344:236,2,90.0000034332277,0|0|0,1:0|0:0|0:0,0:0:0:0:
329,96,154486,6,0,P|391:119|423:178,1,135.000005149841,2|2,0:0|0:0,0:0:0:0:
454,155,155174,1,0,0:0:0:0:
360,276,155312,2,0,P|338:236|337:192,1,90.0000034332277,0|0,1:0|0:0,0:0:0:0:
255,135,155725,2,0,P|253:179|232:218,1,90.0000034332277,0|0,1:0|0:0,0:0:0:0:
43,84,156138,6,0,L|88:135,1,67.5000025749207,4|0,1:0|3:0,0:0:0:0:
167,153,156413,6,0,L|88:135,1,80.9999975280763,4|0,0:3|3:0,0:0:0:0:
1,171,156688,6,0,L|88:135,1,94.499997116089,4|0,0:3|3:0,0:0:0:0:
144,42,156963,6,0,L|88:135,1,107.999996704102,4|0,1:2|3:0,0:0:0:0:
98,256,157239,6,0,L|88:135,1,121.500000463486,4|0,0:3|3:0,0:0:0:0:
0,33,157514,6,0,L|88:135,1,135.000005149841,4|0,0:3|3:0,0:0:0:0:
243,92,157789,5,4,1:0:0:0:
180,157,157927,1,0,0:0:0:0:
203,243,158064,1,0,1:0:0:0:
289,266,158202,1,4,0:0:0:0:
352,203,158340,1,0,0:0:0:0:
329,117,158477,1,4,1:0:0:0:
333,112,158546,1,0,1:0:0:0:
337,109,158615,5,0,1:0:0:0:
363,206,158752,5,0,1:0:0:0:
291,277,158890,5,4,1:3:0:0:
193,252,159028,5,4,0:3:0:0:
167,153,159165,5,4,0:3:0:0:
239,81,159303,5,0,0:0:0:0:
265,180,159441,5,4,0:0:0:0:
265,180,160266,2,0,P|312:124|319:21,1,180.000006866455,0|0,1:0|3:0,0:0:0:0:
241,193,161092,5,4,0:3:0:0:
241,193,161505,1,0,0:0:0:0:
241,193,161918,2,0,P|194:137|188:38,1,135.000005149841,0|0,1:0|1:0,0:0:0:0:
271,208,162743,5,4,0:3:0:0:
271,208,163569,2,0,P|318:264|325:367,1,180.000006866455,0|0,1:0|3:0,0:0:0:0:
209,319,164395,5,4,0:3:0:0:
209,319,164807,1,0,0:0:0:0:
209,319,165220,2,0,P|234:296|266:289,2,45.0000017166138,0|4|4,1:0|1:3|0:3,0:0:0:0:
327,312,165771,6,0,P|288:291|244:292,1,90.0000034332277,0|0,1:0|3:0,0:0:0:0:
