osu file format v14

[General]
AudioFilename: audio.mp3
AudioLeadIn: 0
PreviewTime: 72625
Countdown: 0
SampleSet: Soft
StackLeniency: 0.7
Mode: 0
LetterboxInBreaks: 0
WidescreenStoryboard: 1

[Editor]
Bookmarks: 13862,52262,61862,112262
DistanceSpacing: 1
BeatDivisor: 4
GridSize: 8
TimelineZoom: 1.6

[Metadata]
Title:Hitohira no, Daisuki o,
TitleUnicode:ひとひらの、だいすきを、
Artist:Fukunaga Yoru
ArtistUnicode:ふくなが よる
Creator:Asuka_-
Version:Minorsonek's Normal
Source:はるとゆき、
Tags:Haru to Yuki, eroge visual novel op opening Minorsonek Hanazawa Kana
BeatmapID:1707083
BeatmapSetID:810607

[Difficulty]
HPDrainRate:3
CircleSize:3
OverallDifficulty:4
ApproachRate:5
SliderMultiplier:0.899999999999999
SliderTickRate:1

[Events]
//Background and Video events
0,0,"bg.jpg",0,0
//Break Periods
2,98100,99100
//Storyboard Layer 0 (Background)
//Storyboard Layer 1 (Fail)
//Storyboard Layer 2 (Pass)
//Storyboard Layer 3 (Foreground)
//Storyboard Sound Samples

[TimingPoints]
4300,300.0,4,2,1,65,1,0
13900,-100.0,4,2,1,65,0,0
33100,-100.0,4,2,1,45,0,0
42700,-100.0,4,2,1,55,0,0
52300,-100.0,4,3,1,40,0,0
61300,-100.0,4,2,1,50,0,0
61900,-100.0,4,2,1,40,0,0
66700,-100.0,4,2,1,70,0,0
72700,-100.0,4,3,1,70,0,0
73900,-100.0,4,2,1,70,0,1
87700,-90.9090909090909,4,2,1,70,0,1
88300,-100.0,4,2,1,70,0,1
93100,-100.0,4,2,1,70,0,1
97300,-100.0,4,2,1,70,0,1
97900,-100.0,4,2,1,50,0,0
100300,-100.0,4,2,1,70,0,0
102700,-100.0,4,2,1,65,0,0
112300,-111.111111111111,4,3,1,40,0,0
119500,-111.111111111111,4,2,1,40,0,0
123100,-111.111111111111,4,2,1,5,0,0

[Colours]
Combo1 : 255,128,255
Combo2 : 128,255,128

[HitObjects]
29,55,13900,6,0,L|121:66,1,89.9999999999999,6|8,0:0|0:0,0:0:0:0:
195,111,14500,2,0,L|284:100,1,89.9999999999999,2|8,0:0|0:0,0:0:0:0:
363,57,15100,2,0,B|402:154|319:144|367:244,1,180,2|2,0:0|0:0,0:0:0:0:
407,307,16000,1,8,0:0:0:0:
341,368,16300,6,0,L|249:357,1,89.9999999999999,2|8,0:0|0:0,0:0:0:0:
175,312,16900,2,0,L|85:322,1,89.9999999999999,2|8,0:0|0:0,0:0:0:0:
9,370,17500,2,0,P|-4:310|8:272,1,89.9999999999999,2|8,0:0|0:0,0:0:0:0:
49,205,18100,2,0,P|62:145|50:107,1,89.9999999999999,2|8,0:0|0:0,0:0:0:0:
15,37,18700,5,2,0:0:0:0:
104,38,19000,2,0,L|193:48,1,89.9999999999999,8|2,0:0|0:0,0:0:0:0:
272,91,19600,1,8,0:0:0:0:
341,33,19900,2,0,P|359:115|297:178,1,180,2|2,0:0|0:0,0:0:0:0:
208,159,20800,1,8,0:0:0:0:
143,221,21100,6,0,L|135:325,1,89.9999999999999,2|8,0:0|0:0,0:0:0:0:
48,329,21700,2,0,L|41:239,1,89.9999999999999,2|8,0:0|0:0,0:0:0:0:
36,149,22300,5,6,0:0:0:0:
87,74,22600,2,0,P|130:65|175:70,1,89.9999999999999,8|2,0:0|0:0,0:0:0:0:
250,119,23200,2,0,L|303:113,1,45,2|2,0:0|0:0,0:0:0:0:
339,106,23500,6,0,P|326:148|330:193,1,89.9999999999999,6|8,0:0|0:0,0:0:0:0:
360,278,24100,2,0,P|375:320|365:368,1,89.9999999999999,2|8,0:0|0:0,0:0:0:0:
286,327,24700,2,0,B|189:288|199:371|99:323,1,180,2|2,0:0|0:0,0:0:0:0:
35,281,25600,1,8,0:0:0:0:
66,196,25900,6,0,P|67:151|53:108,1,89.9999999999999,2|8,0:0|0:0,0:0:0:0:
106,35,26500,2,0,P|141:62|183:76,1,89.9999999999999,2|8,0:0|0:0,0:0:0:0:
273,65,27100,2,0,L|265:169,1,89.9999999999999,2|8,0:0|0:0,0:0:0:0:
215,228,27700,2,0,L|221:317,1,89.9999999999999,2|8,0:0|0:0,0:0:0:0:
286,381,28300,5,6,0:0:0:0:
339,308,28600,2,0,P|381:294|425:299,1,89.9999999999999,8|2,0:0|0:0,0:0:0:0:
507,337,29200,1,8,0:0:0:0:
494,247,29500,2,0,L|487:157,1,89.9999999999999,2|8,0:0|0:0,0:0:0:0:
481,67,30100,1,8,0:0:0:0:
354,195,30700,6,0,B|309:202|309:202|271:181|271:181|216:190,1,135,6|6,0:0|0:0,0:0:0:0:
144,296,31600,2,0,B|93:333|93:333|240:360|240:240|384:312,1,360,6|0,0:0|0:0,0:0:0:0:
466,296,33100,6,0,P|464:340|441:379,2,89.9999999999999,6|0|2,0:0|0:0|0:0,0:0:0:0:
413,222,34000,1,2,0:0:0:0:
413,222,34150,2,0,P|412:166|468:98,1,135,0|2,0:0|0:0,0:0:0:0:
385,48,34900,2,0,P|339:56|290:45,1,89.9999999999999,2|2,0:0|0:0,0:0:0:0:
207,57,35500,6,0,P|165:39|121:44,2,89.9999999999999,2|2|2,0:0|0:0|0:0,0:0:0:0:
153,129,36400,1,2,0:0:0:0:
107,206,36700,2,0,L|93:307,1,89.9999999999999,2|2,0:0|0:0,0:0:0:0:
150,366,37300,2,0,P|186:368|199:365,1,45,2|0,0:0|3:0,0:0:0:0:
236,348,37600,2,0,P|272:346|285:349,1,45,2|0,0:0|3:0,0:0:0:0:
318,372,37900,6,0,P|359:330|348:199,1,180,2|2,0:0|0:0,0:0:0:0:
189,152,39100,2,0,P|245:166|353:91,1,180,2|2,0:0|0:0,0:0:0:0:
173,54,40300,1,2,0:0:0:0:
101,106,40600,1,2,0:0:0:0:
101,106,40750,2,0,P|92:169|99:243,1,135,0|2,0:0|0:0,0:0:0:0:
175,350,41650,2,0,P|131:338|86:340,2,89.9999999999999,0|0|4,3:0|3:0|0:3,0:0:0:0:
215,369,42400,1,8,0:0:0:0:
294,331,42700,6,0,P|338:337|381:326,1,89.9999999999999,6|8,0:0|0:0,0:0:0:0:
420,303,43150,2,0,P|431:259|424:215,1,89.9999999999999,2|2,0:0|0:0,0:0:0:0:
408,173,43600,2,0,P|396:140|394:125,1,45,8|2,0:0|0:0,2:0:0:0:
399,85,43900,6,0,P|354:91|311:80,1,89.9999999999999,2|8,0:0|0:0,0:0:0:0:
270,60,44350,2,0,P|226:48|182:55,1,89.9999999999999,2|2,0:0|0:0,0:0:0:0:
140,73,44800,2,0,P|105:72|90:69,1,45,8|0,0:0|0:0,2:0:0:0:
54,52,45100,5,2,0:0:0:0:
6,128,45400,2,0,P|-3:186|3:221,1,89.9999999999999,8|2,0:0|0:0,0:0:0:0:
39,298,46000,1,8,0:0:0:0:
39,298,46150,2,0,P|96:294|181:321,1,135,2|8,0:0|0:0,0:0:0:0:
330,232,47200,1,8,0:0:0:0:
380,157,47500,6,0,P|329:142|259:177,1,135,6|2,0:0|0:0,0:0:0:0:
232,213,48100,2,0,P|175:246|110:233,1,135,2|2,0:0|0:0,0:0:0:0:
73,206,48700,2,0,P|94:158|92:108,1,89.9999999999999,2|8,0:0|0:0,0:0:0:0:
55,39,49300,1,2,0:0:0:0:
143,23,49600,1,8,0:0:0:0:
213,78,49900,5,2,0:0:0:0:
256,192,50050,12,0,51700,0:0:0:0:
450,70,52300,6,0,P|403:83|359:77,1,89.9999999999999,4|0,3:2|0:0,0:0:0:0:
281,38,52900,2,0,P|236:33|193:46,1,89.9999999999999,0|0,0:0|0:0,0:0:0:0:
118,94,53500,2,0,L|108:199,1,89.9999999999999,0|0,0:0|0:0,0:0:0:0:
63,260,54100,2,0,L|71:349,1,89.9999999999999,0|0,0:0|0:0,0:0:0:0:
158,325,54700,6,0,B|252:292|252:348|342:320,1,180,0|0,0:0|0:0,0:0:0:0:
416,283,55600,1,0,0:0:0:0:
464,109,56200,1,0,0:0:0:0:
395,50,56500,2,0,L|299:42,1,89.9999999999999,0|0,0:0|0:0,0:0:0:0:
220,73,57100,6,0,P|207:120|213:164,1,89.9999999999999,4|0,3:2|0:0,0:0:0:0:
252,242,57700,2,0,P|257:287|244:330,1,89.9999999999999,0|0,0:0|0:0,0:0:0:0:
167,375,58300,2,0,L|62:365,1,89.9999999999999,0|0,0:0|0:0,0:0:0:0:
65,277,58900,2,0,L|154:268,1,89.9999999999999,0|0,0:0|0:0,0:0:0:0:
208,196,59500,6,0,P|245:108|213:33,1,180,0|0,0:0|0:0,0:0:0:0:
127,56,60400,1,0,0:0:0:0:
48,217,61000,1,0,0:0:0:0:
117,276,61300,2,0,L|213:284,1,89.9999999999999,2|2,0:0|0:0,0:0:0:0:
276,340,61900,5,4,0:1:0:0:
421,233,62500,2,0,B|386:143|462:143|415:48,1,180,2|2,0:3|0:3,0:0:0:0:
241,29,63700,1,2,0:3:0:0:
89,126,64300,2,0,P|106:184|69:308,1,180,2|2,0:3|0:3,0:0:0:0:
248,352,65500,6,0,B|271:302|239:243|239:243|269:209|269:209|236:155|268:95,1,270,2|2,0:3|0:0,0:0:0:0:
329,41,66700,6,0,L|414:68,1,89.9999999999999,14|8,0:0|0:0,0:0:0:0:
464,143,67300,2,0,L|378:170,1,89.9999999999999,8|8,0:0|0:0,0:0:0:0:
342,253,67900,2,0,L|427:280,2,89.9999999999999,8|8|8,0:0|0:0|0:0,0:0:0:0:
257,221,68800,1,8,0:0:0:0:
221,303,69100,6,0,P|171:245|181:176,1,135,12|2,0:0|0:0,0:0:0:0:
192,149,69700,2,0,P|137:184|32:145,2,180,8|0|8,0:0|0:0|0:0,0:0:0:0:
254,84,71200,1,2,0:0:0:0:
324,140,71500,5,6,0:0:0:0:
256,192,71650,12,0,73300,0:0:0:0:
455,323,73900,6,0,P|414:303|370:307,1,89.9999999999999,6|0,0:0|0:0,0:0:0:0:
331,330,74350,1,2,0:0:0:0:
258,276,74650,2,0,P|213:272|173:291,1,89.9999999999999,2|2,0:0|0:0,0:0:0:0:
143,324,75100,2,0,P|185:263|140:157,1,180,2|8,0:0|0:0,0:0:0:0:
81,115,76000,1,2,0:0:0:0:
136,44,76300,6,0,P|176:63|220:59,1,89.9999999999999,2|0,0:0|0:0,0:0:0:0:
260,37,76750,1,2,0:0:0:0:
336,84,77050,2,0,P|332:128|351:168,1,89.9999999999999,8|2,0:0|0:0,0:0:0:0:
383,200,77500,2,0,P|342:218|317:255,2,89.9999999999999,2|2|10,0:0|0:0|0:0,0:0:0:0:
401,288,78400,1,2,0:0:0:0:
328,341,78700,6,0,B|240:297|240:363|144:333,1,180,6|8,0:0|0:0,0:0:0:0:
71,296,79600,1,2,0:0:0:0:
126,225,79900,2,0,L|137:126,1,89.9999999999999,2|2,0:0|0:0,0:0:0:0:
217,97,80500,2,0,L|226:186,1,89.9999999999999,8|2,0:0|0:0,0:0:0:0:
269,265,81100,6,0,P|332:274|364:257,1,89.9999999999999,2|0,0:0|0:0,0:0:0:0:
394,242,81550,1,2,0:0:0:0:
343,167,81850,2,0,P|336:106|346:71,1,89.9999999999999,8|0,0:0|0:0,0:0:0:0:
361,38,82300,2,0,P|308:68|188:35,1,180,2|8,0:0|0:0,0:0:0:0:
121,93,83200,1,10,0:0:0:0:
44,46,83500,6,0,P|31:97|44:143,1,89.9999999999999,6|0,0:0|0:0,0:0:0:0:
55,174,83950,1,2,0:0:0:0:
8,250,84250,2,0,P|59:263|105:250,1,89.9999999999999,8|2,0:0|0:0,0:0:0:0:
135,236,84700,2,0,P|221:215|307:239,1,180,2|8,0:0|0:0,0:0:0:0:
379,293,85600,1,2,0:0:0:0:
424,215,85900,6,0,P|416:171|429:128,1,89.9999999999999,2|0,0:0|0:0,0:0:0:0:
453,89,86350,1,2,0:0:0:0:
375,44,86650,2,0,P|312:49|287:68,1,89.9999999999999,8|2,0:0|0:0,0:0:0:0:
258,95,87100,2,0,P|200:67|169:71,1,89.9999999999999,2|2,0:0|0:0,0:0:0:0:
92,123,87700,6,0,L|85:189,1,49.5000015106201,12|0,0:0|0:0,0:0:0:0:
80,221,88000,2,0,L|73:287,1,49.5000015106201,12|0,0:0|0:0,0:0:0:0:
68,315,88300,6,0,P|154:294|242:347,1,180,12|8,0:0|0:0,0:0:0:0:
306,283,89200,1,2,0:0:0:0:
386,323,89500,2,0,L|483:315,1,89.9999999999999,2|2,0:0|0:0,0:0:0:0:
509,232,90100,2,0,L|412:224,1,89.9999999999999,8|2,0:0|0:0,0:0:0:0:
350,166,90700,6,0,P|334:122|345:63,1,89.9999999999999,2|0,0:0|0:0,0:0:0:0:
360,40,91150,1,2,0:0:0:0:
440,80,91450,2,0,L|445:169,1,89.9999999999999,2|0,0:0|0:0,0:0:0:0:
449,214,91900,1,2,0:0:0:0:
454,258,92050,2,0,P|399:278|314:253,1,135,12|8,0:0|0:0,0:0:0:0:
288,179,92800,1,8,0:0:0:0:
201,154,93100,6,0,L|216:301,1,135,6|0,0:0|0:0,0:0:0:0:
223,332,93700,2,0,P|276:314|364:330,1,135,6|0,0:0|0:0,0:0:0:0:
389,351,94300,1,6,0:0:0:0:
449,230,94750,1,2,0:0:0:0:
423,193,94900,2,0,L|418:139,1,45,8|0,0:0|0:0,0:0:0:0:
390,113,95200,2,0,L|385:59,1,45,4|0,0:3|0:0,0:0:0:0:
375,25,95500,6,0,P|325:35|225:21,1,135,6|0,0:0|0:0,0:0:0:0:
198,13,96100,2,0,L|180:153,1,135,6|0,0:0|0:0,0:0:0:0:
175,191,96700,1,6,0:0:0:0:
84,289,97150,1,2,0:0:0:0:
114,321,97300,2,0,P|156:336|217:316,1,89.9999999999999,8|4,0:0|0:3,0:0:0:0:
276,280,97900,5,6,0:0:0:0:
450,353,100300,6,0,L|470:254,1,89.9999999999999,6|2,0:0|0:0,0:0:0:0:
448,224,100750,2,0,L|427:136,1,89.9999999999999,6|0,0:0|0:0,0:0:0:0:
442,94,101200,1,12,0:0:0:0:
455,51,101350,1,8,0:0:0:0:
46,32,102700,6,0,L|55:124,1,89.9999999999999,6|8,0:0|0:0,0:0:0:0:
102,198,103300,2,0,L|91:287,1,89.9999999999999,2|8,0:0|0:0,0:0:0:0:
45,365,103900,2,0,B|142:404|132:321|232:369,1,180,2|2,0:0|0:0,0:0:0:0:
299,324,104800,1,8,0:0:0:0:
374,372,105100,6,0,L|385:280,1,89.9999999999999,2|8,0:0|0:0,0:0:0:0:
440,212,105700,2,0,L|430:122,1,89.9999999999999,2|8,0:0|0:0,0:0:0:0:
478,46,106300,2,0,P|418:33|380:45,1,89.9999999999999,2|8,0:0|0:0,0:0:0:0:
313,86,106900,2,0,P|253:99|215:87,1,89.9999999999999,2|8,0:0|0:0,0:0:0:0:
149,44,107500,5,6,0:0:0:0:
88,110,107800,2,0,L|78:199,1,89.9999999999999,8|2,0:0|0:0,0:0:0:0:
65,288,108400,1,8,0:0:0:0:
144,330,108700,2,0,P|227:302|311:333,1,180,2|2,0:0|0:0,0:0:0:0:
385,383,109600,1,8,0:0:0:0:
446,317,109900,6,0,L|452:227,1,89.9999999999999,2|8,0:0|0:0,0:0:0:0:
399,154,110500,2,0,L|392:64,1,89.9999999999999,2|8,0:0|0:0,0:0:0:0:
316,15,111100,5,6,0:0:0:0:
238,60,111400,1,8,0:0:0:0:
154,27,111700,2,0,P|84:37|64:52,1,89.9999999999999,0|8,0:0|0:0,0:0:0:0:
31,120,112300,6,0,P|70:128|104:149,1,80.9999975280762,4|0,0:1|0:0,0:0:0:0:
162,206,112900,2,0,P|201:197|235:176,1,80.9999975280762,2|0,0:0|0:0,0:0:0:0:
305,134,113500,2,0,B|340:223|264:214|308:306,1,161.999995056152,2|0,0:2|0:0,0:0:0:0:
338,362,114400,1,0,0:0:0:0:
409,323,114700,6,0,P|412:282|422:243,1,80.9999975280762,2|0,0:2|0:0,0:0:0:0:
456,169,115300,2,0,P|452:128|442:89,1,80.9999975280762,2|0,0:0|0:0,0:0:0:0:
376,42,115900,2,0,L|281:49,1,80.9999975280762,2|0,0:2|0:0,0:0:0:0:
227,94,116500,2,0,L|145:88,1,80.9999975280762,0|0,0:0|0:0,0:0:0:0:
74,126,117100,5,4,0:1:0:0:
18,184,117400,2,0,P|51:205|93:207,1,80.9999975280762,0|0,0:0|0:0,0:0:0:0:
167,179,118000,1,0,0:0:0:0:
236,221,118300,2,0,L|243:311,1,80.9999975280762,2|0,0:0|0:0,0:0:0:0:
279,373,118900,1,0,0:0:0:0:
424,301,119500,6,0,B|431:256|431:256|395:230|384:190,1,121.499996292114,6|12,0:2|0:2,0:0:0:0:
401,75,120400,2,0,B|273:32|266:144|142:87|142:87|97:176|178:231|178:231|81:238|69:334|69:334|129:376|194:335,1,728.999977752685,6|0,0:2|0:0,0:0:0:0:
