osu file format v14

[General]
AudioFilename: audio.mp3
AudioLeadIn: 0
PreviewTime: 72625
Countdown: 0
SampleSet: Soft
StackLeniency: 0.3
Mode: 0
LetterboxInBreaks: 0
WidescreenStoryboard: 1

[Editor]
Bookmarks: 13862,52262,61862,112262
DistanceSpacing: 0.4
BeatDivisor: 4
GridSize: 32
TimelineZoom: 1.6

[Metadata]
Title:Hitohira no, Daisuki o,
TitleUnicode:ひとひらの、だいすきを、
Artist:Fukunaga Yoru
ArtistUnicode:ふくなが よる
Creator:Asuka_-
Version:Hard
Source:はるとゆき、
Tags:Haru to Yuki, eroge visual novel op opening Minorsonek Hanazawa Kana
BeatmapID:1703027
BeatmapSetID:810607

[Difficulty]
HPDrainRate:5
CircleSize:3.8
OverallDifficulty:6
ApproachRate:7.4
SliderMultiplier:1.4
SliderTickRate:1

[Events]
//Background and Video events
0,0,"bg.jpg",0,0
//Break Periods
//Storyboard Layer 0 (Background)
//Storyboard Layer 1 (Fail)
//Storyboard Layer 2 (Pass)
//Storyboard Layer 3 (Foreground)
//Storyboard Sound Samples

[TimingPoints]
4300,300.0,4,2,1,65,1,0
31600,-111.111111111111,4,2,1,65,0,0
32800,-100.0,4,2,1,20,0,0
33100,-125.0,4,2,1,45,0,0
42700,-111.111111111111,4,2,1,55,0,0
52300,-199.999999999999,4,3,1,40,0,0
61300,-199.999999999999,4,2,1,50,0,0
61900,-142.857142857142,4,2,1,40,0,0
66700,-124.999999999999,4,2,1,70,0,0
69100,-111.11111111111,4,2,1,70,0,0
72700,-142.857142857141,4,3,1,70,0,0
73900,-100.0,4,2,1,70,0,1
97900,-142.857142857143,4,2,1,50,0,0
100300,-111.111111111111,4,2,1,70,0,0
102700,-100.0,4,2,1,65,0,0
112300,-142.857142857143,4,3,1,40,0,0
117100,-200.0,4,3,1,40,0,0
119500,-200.0,4,2,1,40,0,0

[Colours]
Combo1 : 255,128,255
Combo2 : 128,255,128

[HitObjects]
106,349,13900,6,0,L|100:264,1,70,6|0,0:0|0:0,0:0:0:0:
157,219,14200,2,0,P|93:198|27:243,2,140,8|2|8,0:0|0:0|0:0,0:0:0:0:
192,301,14950,1,0,0:0:0:0:
192,301,15100,2,0,L|342:284,1,140,2|8,0:0|0:0,0:0:0:0:
331,285,15700,6,0,L|343:196,1,70,2|2,0:0|0:0,0:0:0:0:
419,229,16000,2,0,L|427:145,1,70,8|0,0:0|0:0,0:0:0:0:
511,111,16300,2,0,L|502:195,1,70,2|0,0:0|0:0,0:0:0:0:
400,76,16600,2,0,P|449:23|529:38,2,140,8|2|8,0:0|0:0|0:0,0:0:0:0:
310,112,17350,1,0,0:0:0:0:
310,112,17500,6,0,L|166:91,1,140,2|8,0:0|0:0,0:0:0:0:
118,33,17950,1,2,0:0:0:0:
118,33,18100,2,0,P|94:62|101:119,1,70,2|2,0:0|0:0,0:0:0:0:
26,141,18400,2,0,P|54:167|89:176,1,70,8|0,0:0|0:0,0:0:0:0:
172,145,18700,6,0,L|157:237,1,70,2|0,0:0|0:0,0:0:0:0:
205,279,19000,2,0,P|140:240|74:277,2,140,8|2|8,0:0|0:0|0:0,0:0:0:0:
277,338,19750,1,0,0:0:0:0:
277,338,19900,2,0,L|301:185,1,140,2|8,0:0|0:0,0:0:0:0:
298,199,20500,6,0,L|380:221,1,70,2|2,0:0|0:0,0:0:0:0:
257,107,20800,2,0,L|350:129,1,70,8|0,0:0|0:0,0:0:0:0:
183,57,21100,2,0,L|166:125,1,70,2|0,0:0|0:0,0:0:0:0:
98,175,21400,2,0,P|163:157|222:215,2,140,8|2|8,0:0|0:0|0:0,0:0:0:0:
149,243,22150,1,0,0:0:0:0:
149,243,22300,6,0,L|138:315,1,70,6|2,0:0|0:0,0:0:0:0:
236,217,22600,1,8,0:0:0:0:
236,217,22750,2,0,L|227:299,1,70,6|2,0:0|0:0,0:0:0:0:
315,195,23050,1,8,0:0:0:0:
318,206,23125,1,8,0:0:0:0:
321,217,23200,2,0,P|351:227|418:211,1,70,2|2,0:0|0:0,0:0:0:0:
485,224,23500,6,0,L|499:148,1,70,6|0,0:0|0:0,0:0:0:0:
388,224,23800,2,0,L|419:67,2,140,8|2|8,0:0|0:0|0:0,0:0:0:0:
322,297,24550,1,0,0:0:0:0:
322,297,24700,2,0,P|269:257|194:292,1,140,2|8,0:0|0:0,0:0:0:0:
204,278,25300,6,0,L|126:274,1,70,2|0,0:0|0:0,0:0:0:0:
84,192,25600,2,0,L|163:197,1,70,8|0,0:0|0:0,0:0:0:0:
188,118,25900,2,0,L|104:112,1,70,2|0,0:0|0:0,0:0:0:0:
246,43,26200,2,0,L|87:32,2,140,8|2|8,0:0|0:0|0:0,0:0:0:0:
291,119,26950,1,0,0:0:0:0:
291,119,27100,6,0,P|335:62|310:-17,1,140,2|8,0:0|0:0,0:0:0:0:
416,107,27550,1,0,0:0:0:0:
416,107,27700,2,0,L|495:98,1,70,2|2,0:0|0:0,0:0:0:0:
365,198,28000,2,0,L|457:190,1,70,8|0,0:0|0:0,0:0:0:0:
323,284,28300,6,0,L|233:293,1,70,6|0,0:0|0:0,0:0:0:0:
194,354,28600,2,0,P|166:295|210:210,2,140,8|2|8,0:0|0:0|0:0,0:0:0:0:
253,290,29350,1,0,0:0:0:0:
284,176,29500,2,0,L|125:190,2,140,2|8|8,0:0|0:0|0:0,0:0:0:0:
348,231,30250,1,0,0:0:0:0:
348,231,30400,2,0,P|363:196|356:142,1,70,8|0,0:0|0:0,0:0:0:0:
284,283,30700,6,0,P|370:244|424:272,1,140,6|8,0:0|0:0,0:0:0:0:
478,323,31150,2,0,L|493:174,1,140,6|8,0:0|0:0,0:0:0:0:
489,83,31600,2,0,B|449:108|404:89|404:89|355:69|309:94|309:94|263:106|221:89|221:89|237:104|304:90|332:143|332:143|272:141|227:184,1,503.999984619141,6|0,0:0|0:0,0:0:0:0:
99,74,33100,6,0,L|83:202,1,112,6|0,0:0|0:0,0:0:0:0:
85,185,33700,2,0,L|157:175,1,56,2|0,0:0|0:0,0:0:0:0:
211,226,34000,1,2,0:0:0:0:
211,226,34150,2,0,L|335:209,1,112,0|0,0:0|0:0,0:0:0:0:
391,175,34600,2,0,P|402:205|393:240,1,56,2|0,0:0|0:0,0:0:0:0:
309,322,34900,2,0,L|323:197,1,112,2|2,0:0|0:0,0:0:0:0:
321,210,35500,6,0,P|283:218|241:209,1,56,2|2,0:0|0:0,0:0:0:0:
206,268,35800,2,0,P|191:242|187:197,1,56,2|0,0:0|0:0,0:0:0:0:
143,153,36100,2,0,P|176:140|211:144,1,56,2|0,0:0|0:0,0:0:0:0:
282,105,36400,2,0,L|264:230,2,112,2|2|2,0:0|0:0|0:0,0:0:0:0:
282,105,37300,2,0,L|352:103,1,56,2|0,0:0|3:0,0:0:0:0:
260,26,37600,2,0,L|197:27,1,56,2|0,0:0|3:0,0:0:0:0:
396,57,37900,6,0,P|415:98|383:162,1,112,2|2,0:0|0:0,0:0:0:0:
390,156,38500,2,0,L|401:219,1,56,2|0,0:0|0:0,0:0:0:0:
325,255,38800,2,0,L|334:320,1,56,2|0,0:0|0:0,0:0:0:0:
259,193,39100,2,0,L|245:74,1,112,2|2,0:0|0:0,0:0:0:0:
245,81,39700,2,0,L|174:75,1,56,2|0,0:0|0:0,0:0:0:0:
137,144,40000,2,0,L|63:135,1,56,2|0,0:0|0:0,0:0:0:0:
182,219,40300,6,0,L|315:233,1,112,2|2,0:0|0:0,0:0:0:0:
365,284,40750,1,0,0:0:0:0:
365,284,40900,2,0,P|383:232|362:182,1,112,2|2,0:0|0:0,0:0:0:0:
273,142,41350,1,0,0:0:0:0:
273,142,41500,2,0,L|288:64,1,56,2|0,0:0|3:0,0:0:0:0:
378,40,41800,2,0,L|363:119,1,56,2|0,0:0|3:0,0:0:0:0:
220,12,42100,1,2,0:0:0:0:
290,72,42250,1,4,0:3:0:0:
370,26,42400,1,8,0:0:0:0:
370,26,42700,6,0,P|411:97|389:147,1,125.999996154785,6|8,0:0|0:0,0:0:0:0:
461,193,43150,2,0,L|318:179,1,125.999996154785,2|2,0:0|0:0,0:0:0:0:
281,250,43600,1,8,0:0:0:0:
281,250,43750,1,2,0:0:0:0:
224,179,43900,6,0,P|189:226|212:310,1,125.999996154785,2|8,0:0|0:0,0:0:0:0:
133,343,44350,2,0,L|270:326,1,125.999996154785,2|2,0:0|0:0,0:0:0:0:
324,371,44800,2,0,P|335:347|329:301,1,62.9999980773926,8|0,0:0|0:0,0:0:0:0:
411,223,45100,6,0,L|262:240,2,125.999996154785,2|8|2,0:0|0:0|0:0,0:0:0:0:
476,167,45850,1,2,0:0:0:0:
407,210,46000,1,8,0:0:0:0:
351,149,46150,6,0,L|370:14,1,125.999996154785,2|2,0:0|0:0,0:0:0:0:
261,158,46600,2,0,L|272:80,1,62.9999980773926,8|0,0:0|0:0,0:0:0:0:
172,174,46900,1,2,0:0:0:0:
172,174,47050,1,2,0:0:0:0:
103,107,47200,2,0,L|36:104,1,62.9999980773926,8|2,0:0|0:0,0:0:0:0:
112,231,47500,6,0,P|192:256|238:225,1,125.999996154785,6|8,0:0|0:0,0:0:0:0:
320,311,47950,1,2,0:0:0:0:
320,311,48100,2,0,P|259:273|202:291,1,125.999996154785,2|8,0:0|0:0,0:0:0:0:
112,231,48550,1,2,0:0:0:0:
112,231,48700,6,0,P|192:256|238:225,1,125.999996154785,2|8,0:0|0:0,0:0:0:0:
320,311,49150,1,2,0:0:0:0:
320,311,49300,2,0,L|329:235,1,62.9999980773926,2|0,0:0|0:0,0:0:0:0:
399,352,49600,2,0,L|409:279,1,62.9999980773926,8|0,0:0|0:0,0:0:0:0:
369,174,49900,6,0,B|429:158|429:158|498:186,2,125.999996154785,2|8|2,0:0|0:0|0:0,0:0:0:0:
333,252,50650,1,2,0:0:0:0:
333,252,50800,2,0,L|268:240,1,62.9999980773926,8|2,0:0|0:0,0:0:0:0:
195,197,51100,6,0,L|177:269,2,62.9999980773926,8|2|2,0:0|0:0|0:0,0:0:0:0:
289,159,51550,2,0,L|306:85,2,62.9999980773926,8|2|2,0:3|0:0|0:0,0:0:0:0:
333,252,52000,2,0,L|320:321,1,62.9999980773926,2|2,0:3|0:3,0:0:0:0:
406,200,52300,6,0,B|430:197|430:197|456:210|456:210|488:205,3,70,4|0|0|0,3:2|0:0|0:0|0:0,0:0:0:0:
333,138,53500,2,0,B|309:135|309:135|283:148|283:148|251:143,3,70,0|0|0|0,0:0|0:0|0:0|0:0,0:0:0:0:
409,74,54700,2,0,B|433:71|433:71|459:84|459:84|491:79,3,70,0|0|0|0,0:0|0:0|0:0|0:0,0:0:0:0:
475,81,56200,5,0,0:0:0:0:
456,212,56500,1,0,0:0:0:0:
456,212,57100,6,0,B|453:235|453:235|457:258|457:258|448:292,3,70,4|0|0|0,3:2|0:0|0:0|0:0,0:0:0:0:
367,154,58300,2,0,B|364:131|364:131|368:108|368:108|359:74,3,70,0|0|0|0,0:0|0:0|0:0|0:0,0:0:0:0:
285,216,59500,2,0,B|282:239|282:239|286:262|286:262|277:296,3,70,0|0|0|0,0:0|0:0|0:0|0:0,0:0:0:0:
279,284,61000,5,0,0:0:0:0:
137,253,61300,2,0,L|130:211,1,35,2|2,0:0|0:0,0:0:0:0:
51,221,61600,2,0,L|56:266,1,35,2|2,0:0|0:0,0:0:0:0:
181,158,61900,6,0,P|141:140|79:161,1,97.9999970092774,4|0,0:1|0:0,0:0:0:0:
222,229,62350,1,0,0:0:0:0:
222,229,62500,2,0,L|339:216,1,97.9999970092774,2|0,0:3|0:0,0:0:0:0:
319,218,63100,2,0,L|310:289,2,48.9999985046387,2|0|0,0:3|0:0|0:0,0:0:0:0:
319,218,63700,2,0,L|328:150,1,48.9999985046387,2|0,0:3|0:0,0:0:0:0:
397,247,64000,2,0,L|404:183,1,48.9999985046387,0|0,0:0|0:0,0:0:0:0:
473,279,64300,6,0,L|485:167,1,97.9999970092774,2|0,0:3|0:0,0:0:0:0:
446,108,64750,1,2,0:0:0:0:
446,108,64900,2,0,P|404:91|352:108,1,97.9999970092774,2|0,0:3|0:0,0:0:0:0:
355,105,65500,6,0,L|293:93,1,48.9999985046387,2|2,0:3|0:0,0:0:0:0:
297,93,65725,1,2,0:0:0:0:
288,89,65800,2,0,L|278:154,1,48.9999985046387,6|2,0:0|0:0,0:0:0:0:
230,209,66100,2,0,P|213:208|189:200,3,24.4999992523194,8|8|8|8,0:0|0:0|0:0|0:0,0:0:0:0:
161,199,66400,2,0,P|150:196|125:197,3,24.4999992523194,2|2|2|2,0:0|0:0|0:0|0:0,0:0:0:0:
89,200,66700,6,0,P|57:246|67:300,1,112,14|8,0:0|0:0,0:0:0:0:
133,354,67150,1,0,0:0:0:0:
133,354,67300,2,0,L|206:347,1,56,8|0,0:0|0:0,0:0:0:0:
277,309,67600,2,0,L|267:384,1,56,8|0,0:0|0:0,0:0:0:0:
204,267,67900,6,0,L|220:131,1,112,8|8,0:0|0:0,0:0:0:0:
217,155,68500,2,0,P|250:168|289:163,1,56,8|2,0:0|0:0,0:0:0:0:
329,229,68800,2,0,P|347:201|353:163,1,56,8|8,0:0|0:0,0:0:0:0:
399,272,69100,6,0,L|259:286,1,125.999996154785,12|2,0:0|0:0,0:0:0:0:
187,283,69550,1,2,0:0:0:0:
187,283,69700,2,0,P|154:231|185:162,1,125.999996154785,8|2,0:0|0:0,0:0:0:0:
229,114,70150,2,0,L|95:127,1,125.999996154785,2|8,0:0|0:0,0:0:0:0:
251,32,70600,2,0,L|172:39,1,62.9999980773926,2|2,0:0|0:0,0:0:0:0:
308,96,70900,1,8,0:0:0:0:
308,96,71200,2,0,L|299:185,1,62.9999980773926,2|2,0:0|0:0,0:0:0:0:
394,67,71500,6,0,L|378:210,1,125.999996154785,6|2,0:0|0:0,0:0:0:0:
356,280,71950,1,12,0:0:0:0:
356,280,72100,2,0,P|294:300|236:255,1,125.999996154785,2|8,0:0|0:0,0:0:0:0:
179,226,72550,1,8,0:0:0:0:
179,226,72700,6,0,B|144:220|144:220|115:229|115:229|72:228,1,97.9999970092774,0|0,0:0|0:0,0:0:0:0:
82,228,73300,2,0,B|77:196|77:196|81:160|81:160|75:122,1,97.9999970092774,0|0,0:0|0:0,0:0:0:0:
76,130,73900,6,0,P|149:147|211:102,1,140,6|0,0:0|0:0,0:0:0:0:
282,143,74350,2,0,L|299:50,1,70,2|8,0:0|0:0,0:0:0:0:
384,48,74650,2,0,L|370:132,2,70,2|0|2,0:0|0:0|0:0,0:0:0:0:
477,19,75100,5,2,0:0:0:0:
477,19,75250,2,0,L|452:163,1,140,8|0,0:0|0:0,0:0:0:0:
375,207,75700,2,0,L|279:197,1,70,8|0,0:0|0:0,0:0:0:0:
416,287,76000,2,0,L|500:282,1,70,2|0,0:0|0:0,0:0:0:0:
358,352,76300,6,0,P|285:371|225:310,1,140,2|0,0:0|0:0,0:0:0:0:
151,280,76750,1,2,0:0:0:0:
151,280,76900,2,0,L|133:369,1,70,8|8,0:0|0:0,0:0:0:0:
217,199,77200,1,2,0:0:0:0:
147,127,77350,1,2,0:0:0:0:
217,199,77500,6,0,P|280:190|363:188,1,140,2|2,0:0|0:0,0:0:0:0:
356,187,78100,2,0,L|341:269,1,70,10|0,0:0|0:0,0:0:0:0:
420,133,78400,2,0,L|432:57,1,70,2|0,0:0|0:0,0:0:0:0:
491,186,78700,6,0,P|425:223|351:183,1,140,6|0,0:0|0:0,0:0:0:0:
305,134,79150,1,2,0:0:0:0:
305,134,79300,2,0,L|221:141,1,70,8|8,0:0|0:0,0:0:0:0:
194,234,79600,2,0,L|282:225,1,70,2|0,0:0|0:0,0:0:0:0:
100,266,79900,5,2,0:0:0:0:
100,266,80050,2,0,P|106:196|115:127,1,140,8|0,0:0|0:0,0:0:0:0:
63,48,80500,2,0,P|107:30|150:35,1,70,8|0,0:0|0:0,0:0:0:0:
199,99,80800,2,0,P|233:101|266:91,1,70,2|0,0:0|0:0,0:0:0:0:
362,35,81100,6,0,L|348:187,1,140,2|0,0:0|0:0,0:0:0:0:
312,276,81550,1,2,0:0:0:0:
312,276,81700,2,0,P|271:255|234:258,1,70,8|8,0:0|0:0,0:0:0:0:
400,332,82000,2,0,L|412:232,1,70,2|0,0:0|0:0,0:0:0:0:
247,254,82300,6,0,L|239:346,1,70,2|8,0:0|0:0,0:0:0:0:
172,155,82600,2,0,L|164:249,1,70,2|2,0:0|0:0,0:0:0:0:
160,70,82900,5,8,0:0:0:0:
242,96,83050,1,8,0:0:0:0:
254,178,83200,1,10,0:0:0:0:
172,155,83350,1,10,0:0:0:0:
160,70,83500,6,0,P|97:80|22:86,1,140,6|0,0:0|0:0,0:0:0:0:
242,96,83950,2,0,P|248:64|226:15,1,70,2|8,0:0|0:0,0:0:0:0:
172,155,84250,2,0,P|162:187|168:241,2,70,8|0|2,0:0|0:0|0:0,0:0:0:0:
113,299,84700,5,2,0:0:0:0:
113,299,84850,2,0,P|196:305|248:248,1,140,8|0,0:0|0:0,0:0:0:0:
330,226,85300,2,0,L|317:304,1,70,8|0,0:0|0:0,0:0:0:0:
403,348,85600,2,0,L|417:251,1,70,2|0,0:0|0:0,0:0:0:0:
400,165,85900,6,0,P|350:134|264:168,1,140,2|0,0:0|0:0,0:0:0:0:
204,32,86350,2,0,L|274:44,1,70,2|8,0:0|0:0,0:0:0:0:
137,112,86650,2,0,L|215:125,1,70,8|2,0:0|0:0,0:0:0:0:
89,22,86950,1,2,0:0:0:0:
80,191,87100,5,2,0:0:0:0:
80,191,87250,2,0,P|150:203|236:218,1,140,8|2,0:0|0:0,0:0:0:0:
290,162,87700,2,0,P|311:210|292:267,1,105,12|0,0:0|0:0,0:0:0:0:
265,302,88000,2,0,B|311:289|311:289|350:297|350:297|394:283,1,105,12|0,0:0|0:0,0:0:0:0:
399,330,88300,6,0,L|428:176,1,140,12|2,0:0|0:0,0:0:0:0:
493,134,88750,1,2,0:0:0:0:
493,134,88900,2,0,P|459:109|404:114,1,70,8|8,0:0|0:0,0:0:0:0:
340,129,89200,2,0,L|356:36,1,70,2|2,0:0|0:0,0:0:0:0:
278,185,89500,6,0,P|230:170|193:166,1,70,2|8,0:0|0:0,0:0:0:0:
145,112,89800,2,0,P|127:141|127:187,1,70,2|0,0:0|0:0,0:0:0:0:
67,70,90100,2,0,P|127:23|196:40,1,140,8|2,0:0|0:0,0:0:0:0:
185,33,90700,6,0,L|335:24,1,140,2|0,0:0|0:0,0:0:0:0:
411,20,91150,1,2,0:0:0:0:
411,20,91300,2,0,P|405:53|402:102,1,70,8|2,0:0|0:0,0:0:0:0:
456,156,91600,1,2,0:0:0:0:
456,156,91750,1,0,0:0:0:0:
481,235,91900,6,0,P|436:240|389:216,1,70,2|12,0:0|0:0,0:0:0:0:
345,178,92200,2,0,P|309:171|254:186,1,70,2|2,0:0|0:0,0:0:0:0:
196,219,92500,1,8,0:0:0:0:
266,253,92650,1,8,0:0:0:0:
276,175,92800,1,8,0:0:0:0:
206,142,92950,1,2,0:0:0:0:
196,219,93100,6,0,L|55:199,2,140,6|2|6,0:0|0:0|0:0,0:0:0:0:
196,219,94000,2,0,P|178:267|189:300,1,70,2|0,0:0|0:0,0:0:0:0:
210,359,94300,2,0,L|348:336,1,140,6|2,0:0|0:0,0:0:0:0:
429,318,94750,1,2,0:0:0:0:
429,318,94900,2,0,P|447:274|440:225,1,70,8|0,0:0|0:0,0:0:0:0:
358,186,95200,2,0,L|366:263,1,70,4|0,0:3|0:0,0:0:0:0:
295,134,95500,6,0,L|451:150,2,140,6|2|6,0:0|0:0|0:0,0:0:0:0:
295,134,96400,2,0,P|306:100|305:57,1,70,2|0,0:0|0:0,0:0:0:0:
231,18,96700,2,0,L|87:35,1,140,6|0,0:0|0:0,0:0:0:0:
29,85,97150,1,2,0:0:0:0:
29,85,97225,1,2,0:0:0:0:
29,85,97300,2,0,L|17:146,2,46.6666666666667,8|8|8,0:0|0:0|0:3,0:0:0:0:
47,166,97600,2,0,L|53:214,2,46.6666666666667,4|8|8,0:3|0:3|0:3,0:0:0:0:
59,264,97900,6,0,P|105:248|165:275,1,97.9999970092774,6|0,0:0|0:0,0:0:0:0:
150,262,98500,2,0,P|208:279|259:252,2,97.9999970092774,2|0|0,3:0|0:0|3:0,0:0:0:0:
434,229,99550,1,2,0:0:0:0:
434,229,99700,2,0,L|421:288,1,48.9999985046387,2|2,3:0|0:0,0:0:0:0:
371,173,100000,1,8,0:0:0:0:
371,173,100150,1,0,0:0:0:0:
314,228,100300,6,0,L|231:217,1,62.9999980773926,6|0,0:0|0:0,0:0:0:0:
371,173,100600,1,2,0:0:0:0:
427,115,100750,2,0,L|499:123,1,62.9999980773926,6|2,0:0|0:0,0:0:0:0:
371,173,101050,1,0,0:0:0:0:
326,42,101200,2,0,L|314:118,1,62.9999980773926,12|8,0:0|0:0,0:0:0:0:
316,104,102700,6,0,L|243:98,1,70,6|0,0:0|0:0,0:0:0:0:
186,150,103000,2,0,P|167:80|218:26,2,140,8|2|8,0:0|0:0|0:0,0:0:0:0:
245,223,103750,1,0,0:0:0:0:
245,223,103900,2,0,P|192:183|117:218,1,140,2|8,0:0|0:0,0:0:0:0:
127,204,104500,6,0,L|111:280,1,70,2|0,0:0|0:0,0:0:0:0:
50,138,104800,2,0,L|34:216,1,70,8|0,0:0|0:0,0:0:0:0:
137,108,105100,2,0,L|153:25,1,70,2|0,0:0|0:0,0:0:0:0:
217,159,105400,2,0,L|246:-2,2,140,8|2|8,0:0|0:0|0:0,0:0:0:0:
195,247,106150,1,0,0:0:0:0:
195,247,106300,6,0,P|242:250|300:184,1,140,2|8,0:0|0:0,0:0:0:0:
318,103,106750,1,0,0:0:0:0:
318,103,106900,2,0,L|397:94,1,70,2|2,0:0|0:0,0:0:0:0:
385,178,107200,2,0,L|481:169,1,70,8|0,0:0|0:0,0:0:0:0:
334,256,107500,6,0,L|238:267,1,70,6|0,0:0|0:0,0:0:0:0:
205,322,107800,2,0,P|177:263|226:193,2,140,8|2|8,0:0|0:0|0:0,0:0:0:0:
91,304,108550,1,0,0:0:0:0:
91,304,108700,2,0,L|86:154,1,140,2|8,0:0|0:0,0:0:0:0:
40,100,109150,1,0,0:0:0:0:
40,100,109300,6,0,P|74:81|120:91,1,70,2|0,0:0|0:0,0:0:0:0:
170,143,109600,2,0,P|210:147|246:127,1,70,8|0,0:0|0:0,0:0:0:0:
319,78,109900,2,0,L|329:230,2,140,2|8|2,0:0|0:0|0:0,0:0:0:0:
402,40,110650,1,0,0:0:0:0:
402,40,110800,2,0,L|412:131,1,70,8|0,0:0|0:0,0:0:0:0:
319,78,111100,6,0,L|235:71,1,70,6|0,0:0|0:0,0:0:0:0:
284,160,111400,2,0,L|188:153,1,70,8|12,0:0|0:0,0:0:0:0:
259,246,111700,1,0,0:0:0:0:
259,246,111850,2,0,L|203:243,2,35,8|8|8,0:0|0:0|0:0,0:0:0:0:
338,226,112150,1,2,0:0:0:0:
416,259,112300,6,0,P|452:213|449:160,1,97.9999970092774,4|0,0:1|0:0,0:0:0:0:
453,175,112900,2,0,P|436:132|460:73,1,97.9999970092774,2|0,0:0|0:0,0:0:0:0:
450,84,113500,1,2,0:2:0:0:
314,200,114100,1,0,0:0:0:0:
314,200,114400,1,0,0:0:0:0:
314,200,114700,6,0,P|267:224|212:207,1,97.9999970092774,2|0,0:2|0:0,0:0:0:0:
224,215,115300,2,0,P|176:199|117:217,1,97.9999970092774,2|0,0:0|0:0,0:0:0:0:
130,208,115900,2,0,L|117:101,2,97.9999970092774,2|0|0,0:2|0:0|0:0,0:0:0:0:
130,208,116800,1,0,0:0:0:0:
130,208,117100,6,0,B|105:211|105:211|83:220|83:220|54:222,3,70,4|0|0|0,0:1|0:0|0:0|0:0,0:1:0:0:
76,300,118300,2,0,B|101:297|101:297|123:288|123:288|152:286,3,70,2|0|0|2,0:0|0:0|0:0|0:0,0:0:0:0:
91,377,119500,5,6,0:2:0:0:
246,329,119950,5,12,0:2:0:0:
398,373,120400,5,6,0:2:0:0:
