osu file format v14

[General]
AudioFilename: audio.mp3
AudioLeadIn: 0
PreviewTime: 68547
Countdown: 0
SampleSet: Soft
StackLeniency: 0.6
Mode: 0
LetterboxInBreaks: 0
WidescreenStoryboard: 1

[Editor]
DistanceSpacing: 1.5
BeatDivisor: 4
GridSize: 32
TimelineZoom: 1.9

[Metadata]
Title:Hitohira no, Daisuki o,
TitleUnicode:ひとひらの、だいすきを、
Artist:Fukunaga Yoru
ArtistUnicode:ふくなが よる
Creator:Xahlt
Version:Hard,
Source:はるとゆき、
Tags:AsuKow Kuon- Haru to Yuki, eroge visual novel vn video game opening op japanese pop j-pop jpop 西坂恭平 Nishizaka Kyouhei galgame short ver version Akabei Soft3 AKABEiSOFT3
BeatmapID:3285674
BeatmapSetID:1605284

[Difficulty]
HPDrainRate:4
CircleSize:3.7
OverallDifficulty:6.5
ApproachRate:8
SliderMultiplier:1.3
SliderTickRate:1

[Events]
//Background and Video events
0,0,"bg.jpg",0,0
//Break Periods
//Storyboard Layer 0 (Background)
//Storyboard Layer 1 (Fail)
//Storyboard Layer 2 (Pass)
//Storyboard Layer 3 (Foreground)
//Storyboard Layer 4 (Overlay)
//Storyboard Sound Samples

[TimingPoints]
185,300,4,2,1,30,1,0
185,-100,4,2,1,30,0,0
9785,-99.9999999999999,4,2,1,70,0,0
28985,-125,4,2,1,40,0,0
38510,-125,4,2,1,5,0,0
38585,-100,4,2,1,60,0,0
48185,-125,4,2,1,50,0,0
57785,-142.857142857143,4,2,1,50,0,0
61535,-111.111111111111,4,2,1,50,0,0
62585,-100,4,2,1,65,0,0
69785,-90.9090909090909,4,2,1,80,0,1
83810,-90.9090909090909,4,2,1,5,0,1
83885,-90.9090909090909,4,2,1,80,0,1
84110,-90.9090909090909,4,2,1,5,0,1
84185,-90.9090909090909,4,2,1,80,0,1
86510,-90.9090909090909,4,2,1,5,0,1
86585,-90.9090909090909,4,2,1,80,0,1
88985,-111.111111111111,4,2,1,70,0,0
91310,-111.111111111111,4,2,1,5,0,0
91385,-111.111111111111,4,2,1,70,0,0
93785,-125,4,2,1,50,0,0
96110,-125,4,2,1,5,0,0
96185,-90.9090909090909,4,2,1,80,0,1
97235,-90.9090909090909,4,2,1,80,0,0
98585,-100,4,2,1,70,0,0
108185,-125,4,2,1,50,0,0
115385,-100,4,2,1,60,0,0
116435,-166.666666666667,4,2,1,45,0,0
116585,-166.666666666667,4,2,1,40,0,0
116735,-166.666666666667,4,2,1,35,0,0
116885,-166.666666666667,4,2,1,30,0,0
117035,-166.666666666667,4,2,1,25,0,0
117185,-166.666666666667,4,2,1,20,0,0
118985,-166.666666666667,4,2,1,5,0,0

[Colours]
Combo1 : 151,104,146
Combo2 : 243,196,207
Combo3 : 215,53,62

[HitObjects]
131,71,9785,6,0,B|81:29|81:29|5:66,2,130,6|10|2,3:2|0:0|3:2,0:0:0:0:
191,138,10535,1,0,3:2:0:0:
118,193,10685,2,0,P|124:224|130:256,1,65,10|0,0:0|0:0,0:0:0:0:
88,360,10985,6,0,P|161:372|213:321,1,130,2|8,3:2|0:0,0:0:0:0:
249,263,11435,1,0,3:2:0:0:
249,263,11585,2,0,P|275:267|316:278,1,65,2|0,3:2|3:2,0:0:0:0:
369,350,11885,2,0,P|395:346|436:335,1,65,10|2,0:0|0:0,0:0:0:0:
494,269,12185,6,0,P|499:237|485:208,1,65,2|0,3:2|0:0,0:0:0:0:
398,183,12485,2,0,P|392:151|406:122,1,65,10|0,0:0|0:0,0:0:0:0:
475,63,12785,1,2,3:2:0:0:
475,63,12935,1,0,3:2:0:0:
405,4,13085,1,10,0:0:0:0:
249,98,13385,6,0,P|217:90|185:82,1,65,2|0,3:2|3:2,0:0:0:0:
112,28,13685,2,0,P|104:59|96:91,1,65,10|0,0:0|3:2,0:0:0:0:
40,162,13985,2,0,P|71:169|103:177,1,65,2|0,0:0|3:2,0:0:0:0:
172,236,14285,2,0,P|189:231|221:224,3,32.5,10|2|2|2,0:0|0:0|0:0|0:0,0:0:0:0:
231,232,14585,6,0,P|248:294|268:368,2,130,6|10|2,3:2|0:0|3:2,0:0:0:0:
294,165,15335,1,0,3:2:0:0:
370,213,15485,2,0,P|400:217|455:230,1,65,10|0,0:0|0:0,0:0:0:0:
481,324,15785,6,0,P|421:311|328:292,1,130,2|10,3:2|0:0,0:0:0:0:
279,350,16235,1,0,3:2:0:0:
279,350,16385,2,0,B|246:358|246:358|208:333,1,65,2|0,0:0|3:2,0:0:0:0:
134,371,16685,1,10,0:0:0:0:
28,221,16985,6,0,P|61:212|103:203,1,65,2|0,3:2|0:0,0:0:0:0:
141,127,17285,2,0,P|172:123|203:133,1,65,10|0,0:0|0:0,0:0:0:0:
276,196,17585,1,2,3:2:0:0:
276,196,17735,1,0,3:2:0:0:
349,140,17885,2,0,P|344:107|339:75,1,65,10|0,0:0|3:2,0:0:0:0:
332,64,18110,1,0,3:2:0:0:
324,55,18185,6,0,B|281:13|281:13|252:29|212:46,1,130,6|2,3:2|3:2,0:0:0:0:
133,9,18635,1,12,0:0:0:0:
71,75,18785,2,0,P|77:94|84:117,3,32.5,10|8|8|8,0:0|0:0|0:0|0:0,0:0:0:0:
63,148,19085,2,0,P|69:167|76:190,3,32.5,8|8|4|4,2:3|2:3|2:3|2:3,0:0:0:0:
89,194,19385,6,0,P|47:250|80:311,2,130,6|10|2,3:2|0:0|3:2,0:0:0:0:
172,155,20135,1,0,3:2:0:0:
234,221,20285,2,0,P|263:214|306:200,1,65,10|0,0:0|0:0,0:0:0:0:
363,114,20585,6,0,B|421:86|421:86|475:152,1,130,2|10,3:2|0:0,0:0:0:0:
505,217,21035,1,0,0:0:0:0:
505,217,21185,2,0,P|498:248|493:280,1,65,2|0,3:2|3:2,0:0:0:0:
420,336,21485,2,0,P|388:339|358:329,1,65,8|0,0:0|0:0,0:0:0:0:
286,271,21785,6,0,P|251:278|208:292,1,65,2|0,3:2|0:0,0:0:0:0:
164,357,22085,2,0,P|129:349|86:336,1,65,10|0,0:0|0:0,0:0:0:0:
35,286,22385,1,2,3:2:0:0:
35,286,22535,1,0,3:2:0:0:
97,220,22685,1,10,0:0:0:0:
19,72,22985,6,0,P|51:64|83:56,1,65,2|0,3:2|0:0,0:0:0:0:
156,7,23285,2,0,P|164:38|172:70,1,65,10|0,0:0|0:0,0:0:0:0:
167,160,23585,2,0,P|198:152|230:144,1,65,2|0,3:2|3:2,0:0:0:0:
321,143,23885,2,0,P|316:123|311:97,3,32.5,14|2|2|2,0:0|0:0|0:0|0:0,0:0:0:0:
310,88,24185,6,0,P|355:53|436:85,1,130,6|10,3:2|0:0,0:0:0:0:
499,125,24635,1,0,0:0:0:0:
499,125,24785,2,0,P|493:159|487:200,1,65,2|0,3:2|3:2,0:0:0:0:
412,240,25085,2,0,P|406:274|400:315,1,65,10|0,0:0|3:2,0:0:0:0:
310,293,25385,6,0,P|315:261|323:216,1,65,2|0,0:0|3:2,0:0:0:0:
257,162,25685,2,0,P|224:161|194:173,1,65,10|0,0:0|3:2,0:0:0:0:
127,235,25985,1,10,0:0:0:0:
127,235,26135,1,0,3:2:0:0:
52,182,26285,1,10,2:3:0:0:
1,356,26585,6,0,P|65:361|143:369,1,130,6|0,3:2|3:2,0:0:0:0:
212,313,27035,2,0,P|276:318|354:326,1,130,6|0,3:2|3:2,0:0:0:0:
420,266,27485,1,12,0:0:0:0:
256,192,27560,12,0,28685,0:0:0:0:
496,318,28985,6,0,B|529:277|529:277|497:221,2,104,6|2|2,3:2|1:2|1:2,0:0:0:0:
350,374,29885,1,2,1:2:0:0:
350,374,30035,2,0,P|291:365|228:358,1,104,2|0,0:0|0:0,0:0:0:0:
191,305,30485,1,2,1:2:0:0:
176,309,30785,1,2,1:2:0:0:
164,313,31085,1,2,1:2:0:0:
24,243,31385,6,0,P|75:236|127:229,2,104,2|2|2,3:2|1:2|1:2,0:0:0:0:
111,113,32285,2,0,P|162:105|214:98,1,104,2|0,1:2|0:0,0:0:0:0:
252,31,32735,2,0,B|290:-2|290:-2|351:27,1,104,2|0,0:0|0:0,0:0:0:0:
410,53,33185,1,2,1:2:0:0:
400,68,33485,1,2,1:2:0:0:
473,205,33785,6,0,P|435:177|361:192,1,104,2|0,3:2|1:2,0:0:0:0:
272,292,34385,2,0,P|261:242|245:168,1,104,2|0,1:2|1:2,0:0:0:0:
129,90,34985,2,0,P|117:140|106:191,1,104,2|0,1:2|1:2,0:0:0:0:
11,314,35585,2,0,P|48:348|99:349,1,104,2|0,1:2|1:2,0:0:0:0:
255,359,36185,6,0,P|305:345|356:334,1,104,2|2,3:2|1:2,0:0:0:0:
428,363,36635,2,0,B|445:314|445:314|401:271,1,104,2|0,0:0|0:0,0:0:0:0:
333,254,37085,1,2,1:2:0:0:
460,57,37535,2,0,P|429:63|401:69,1,52,2|0,0:0|1:2,0:0:0:0:
424,143,37835,2,0,P|449:137|474:132,1,52,2|0,0:0|1:2,0:0:0:0:
341,115,38135,1,0,3:2:0:0:
341,115,38285,2,0,P|301:123|252:133,1,78,10|0,0:0|0:0,0:0:0:0:
247,116,38585,6,0,B|194:76|194:76|124:122,1,130,6|10,3:2|0:0,0:0:0:0:
46,87,39035,2,0,P|62:150|77:213,1,130,2|0,0:0|3:2,0:0:0:0:
24,296,39485,1,10,0:0:0:0:
24,296,39635,1,2,3:2:0:0:
107,347,39785,6,0,B|180:349|153:291|249:303,1,130,2|10,0:0|0:0,0:0:0:0:
305,355,40235,2,0,P|327:297|297:242,1,130,2|0,0:0|3:2,0:0:0:0:
212,190,40685,1,10,0:0:0:0:
327,32,40985,6,0,P|359:36|391:42,1,65,2|0,3:2|0:0,0:0:0:0:
486,22,41285,2,0,P|481:54|475:86,1,65,10|0,0:0|0:0,0:0:0:0:
491,182,41585,2,0,P|458:177|426:171,1,65,2|0,3:2|3:2,0:0:0:0:
344,119,41885,1,10,0:0:0:0:
261,170,42035,6,0,P|199:161|125:152,1,130,2|0,3:2|3:2,0:0:0:0:
46,106,42485,2,0,P|34:133|52:185,1,65,10|0,0:0|0:0,0:0:0:0:
102,248,42785,1,0,3:2:0:0:
102,248,42935,1,0,3:2:0:0:
35,318,43085,1,14,0:0:0:0:
219,379,43385,6,0,P|281:370|355:361,1,130,6|8,3:2|0:0,0:0:0:0:
416,291,43835,1,2,0:0:0:0:
336,234,43985,2,0,P|271:241|207:251,1,130,2|8,3:2|0:0,0:0:0:0:
128,192,44435,1,2,3:2:0:0:
185,112,44585,6,0,P|249:102|313:94,1,130,2|8,3:2|0:0,0:0:0:0:
381,24,45035,1,2,0:0:0:0:
465,72,45185,2,0,P|481:99|478:131,1,65,2|0,3:2|3:2,0:0:0:0:
440,221,45485,2,0,P|406:228|371:235,1,65,10|0,0:0|0:0,0:0:0:0:
296,300,45785,6,0,P|329:268|302:188,2,130,2|8|0,3:2|0:0|3:2,0:0:0:0:
212,351,46535,1,0,3:2:0:0:
123,313,46685,2,0,P|91:318|50:325,1,65,10|0,0:0|3:2,0:0:0:0:
46,317,46910,1,0,3:2:0:0:
32,307,46985,6,0,P|37:275|48:245,1,65,10|0,0:0|3:2,0:0:0:0:
129,191,47285,1,0,3:2:0:0:
70,113,47435,2,0,P|36:108|1:101,2,65,8|4|0,2:3|2:3|3:2,0:0:0:0:
155,64,47885,1,8,2:3:0:0:
155,64,48035,1,4,2:3:0:0:
218,132,48185,6,0,P|269:124|320:116,2,104,6|2|2,3:2|0:0|0:0,0:0:0:0:
218,132,49085,1,2,0:0:0:0:
103,238,49385,2,0,P|51:246|0:253,2,104,2|2|2,0:0|0:0|0:0,0:0:0:0:
103,238,50285,1,2,0:0:0:0:
223,336,50585,6,0,P|274:328|325:321,1,104,2|2,0:0|0:0,0:0:0:0:
325,320,51185,1,2,0:0:0:0:
463,376,51485,2,0,B|432:336|481:253|517:332|547:226|503:189,1,208,2|2,0:0|0:0,0:0:0:0:
395,91,52385,1,2,0:0:0:0:
395,91,52985,6,0,P|446:83|497:75,2,104,6|2|2,3:2|0:0|0:0,0:0:0:0:
395,91,53885,1,2,0:0:0:0:
278,194,54185,2,0,P|227:202|176:210,2,104,2|2|2,0:0|0:0|0:0,0:0:0:0:
278,194,55085,1,2,0:0:0:0:
408,279,55385,6,0,P|459:271|510:263,1,104,2|2,0:0|0:0,0:0:0:0:
510,262,55985,1,2,0:0:0:0:
397,377,56285,2,0,P|307:330|204:337,1,208,2|2,0:0|0:0,0:0:0:0:
53,379,57186,5,10,0:0:0:0:
53,379,57335,1,8,2:3:0:0:
5,317,57485,1,4,2:3:0:0:
5,317,57635,1,4,2:3:0:0:
54,257,57785,6,0,P|46:212|36:150,1,90.9999972229005,6|0,3:2|0:0,0:0:0:0:
115,154,58235,2,0,P|122:198|130:243,1,90.9999972229005,2|0,0:0|0:0,0:0:0:0:
207,232,58685,2,0,P|203:209|197:181,1,45.4999986114502,2|0,0:0|0:0,0:0:0:0:
245,109,58985,6,0,B|293:65|293:65|367:99,1,136.499995834351,2|0,1:2|0:0,0:0:0:0:
430,124,59585,1,2,1:2:0:0:
423,137,59885,1,2,0:0:0:0:
339,267,60185,6,0,P|384:270|429:274,1,90.9999972229005,2|0,3:2|0:0,0:0:0:0:
423,352,60635,2,0,P|377:347|332:344,1,90.9999972229005,2|0,0:0|0:0,0:0:0:0:
267,301,61085,2,0,P|242:299|221:297,1,45.4999986114502,2|0,0:0|0:0,0:0:0:0:
164,349,61385,1,2,1:2:0:0:
89,302,61535,5,0,3:2:0:0:
96,288,61610,1,0,3:2:0:0:
103,274,61685,1,12,0:0:0:0:
169,216,61835,1,0,3:3:0:0:
106,154,61985,2,0,P|103:137|98:115,3,29.2499991073609,8|8|8|8,0:0|0:0|0:0|0:0,0:0:0:0:
65,98,62285,2,0,P|62:81|57:59,3,29.2499991073609,10|8|4|4,2:3|2:3|2:3|2:3,0:0:0:0:
69,50,62585,6,0,P|123:16|184:33,1,130,6|10,3:2|0:0,0:0:0:0:
254,100,63035,1,2,3:2:0:0:
254,100,63185,2,0,P|288:91|336:75,1,65,8|0,0:0|3:2,0:0:0:0:
392,21,63485,2,0,P|415:47|417:88,1,65,10|0,0:0|3:2,0:0:0:0:
479,177,63785,6,0,P|415:193|335:221,1,130,10|8,0:0|0:0,0:0:0:0:
274,269,64235,1,0,3:2:0:0:
274,269,64385,2,0,P|263:238|253:207,1,65,10|0,0:0|3:2,0:0:0:0:
159,234,64685,2,0,P|168:265|179:295,1,65,10|0,0:0|3:2,0:0:0:0:
174,313,64910,1,0,3:2:0:0:
167,327,64985,6,0,B|106:354|106:354|52:295,1,130,6|0,3:2|0:0,0:0:0:0:
1,231,65435,1,2,3:2:0:0:
63,155,65585,2,0,P|126:146|197:137,1,130,10|0,0:0|3:2,0:0:0:0:
290,132,66035,6,0,P|283:165|278:197,2,65,0|8|8,3:2|0:0|0:0,0:0:0:0:
370,77,66485,1,0,3:2:0:0:
370,77,66635,1,0,3:2:0:0:
442,141,66785,1,8,0:0:0:0:
318,320,67085,1,2,0:0:0:0:
393,376,67235,1,0,3:2:0:0:
402,368,67310,1,0,3:2:0:0:
413,353,67385,6,0,P|402:288|391:224,1,130,14|0,0:0|3:2,0:0:0:0:
442,141,67835,1,14,0:0:0:0:
370,77,67985,2,0,P|333:88|287:105,1,65,6|0,3:2|3:2,0:0:0:0:
224,169,68285,1,8,0:0:0:0:
132,84,68435,1,8,0:0:0:0:
57,379,69785,6,0,P|20:321|54:262,1,143.000004364014,6|2,3:2|0:0,0:0:0:0:
142,213,70235,1,2,3:2:0:0:
225,276,70385,1,8,0:0:0:0:
225,276,70535,2,0,P|300:259|376:244,1,143.000004364014,10|0,0:0|3:2,0:0:0:0:
458,209,70985,6,0,B|472:174|490:144|490:144|422:72,1,143.000004364014,2|0,0:0|0:0,0:0:0:0:
361,33,71435,1,0,3:2:0:0:
297,110,71585,2,0,P|260:103|204:96,1,71.5000021820069,10|0,0:0|0:0,0:0:0:0:
196,3,71885,2,0,P|231:8|266:14,1,71.5000021820069,2|0,3:2|0:0,0:0:0:0:
121,74,72185,6,0,B|131:157|64:129|74:203,1,143.000004364014,6|2,3:2|0:0,0:0:0:0:
6,274,72635,1,2,3:2:0:0:
85,335,72785,1,8,0:0:0:0:
85,335,72935,2,0,P|128:350|209:288,1,143.000004364014,10|2,0:0|3:2,0:0:0:0:
198,186,73385,6,0,P|232:193|267:203,1,71.5000021820069,2|8,0:0|0:0,0:0:0:0:
319,69,73685,2,0,P|330:102|338:137,1,71.5000021820069,2|0,0:0|3:2,0:0:0:0:
481,118,73985,2,0,P|457:144|431:169,1,71.5000021820069,10|0,0:0|0:0,0:0:0:0:
508,289,74285,2,0,P|473:281|438:271,1,71.5000021820069,2|0,3:2|0:0,0:0:0:0:
363,384,74585,6,0,P|310:337|240:336,1,143.000004364014,6|0,3:2|0:0,0:0:0:0:
146,370,75035,1,0,3:2:0:0:
66,309,75185,2,0,P|52:276|63:243,1,71.5000021820069,10|8,0:0|0:0,0:0:0:0:
155,200,75485,2,0,P|168:167|157:134,1,71.5000021820069,2|0,0:0|3:2,0:0:0:0:
80,77,75785,5,2,0:0:0:0:
160,16,75935,1,10,0:0:0:0:
160,16,76085,2,0,P|196:19|253:25,1,71.5000021820069,2|0,0:0|3:2,0:0:0:0:
294,100,76385,2,0,P|330:96|387:91,1,71.5000021820069,10|0,0:0|0:0,0:0:0:0:
441,27,76685,1,2,3:2:0:0:
441,27,76835,1,8,0:0:0:0:
498,134,76985,6,0,B|516:170|531:198|531:198|477:259,1,143.000004364014,2|2,3:2|0:0,0:0:0:0:
409,316,77435,1,2,3:2:0:0:
330,254,77585,1,8,0:0:0:0:
330,254,77735,2,0,P|259:265|179:280,1,143.000004364014,10|0,0:0|3:2,0:0:0:0:
134,192,78185,6,0,P|169:185|222:174,2,71.5000021820069,2|10|2,0:0|0:0|0:0,0:0:0:0:
50,135,78635,1,2,3:2:0:0:
5,224,78785,2,0,P|15:259|26:300,1,71.5000021820069,10|10,0:0|0:0,0:0:0:0:
103,362,79085,1,10,2:3:0:0:
184,303,79235,1,6,2:3:0:0:
295,376,79385,6,0,P|365:364|435:350,1,143.000004364014,6|2,3:2|0:0,0:0:0:0:
501,274,79835,1,2,3:2:0:0:
428,205,79985,1,8,0:0:0:0:
428,205,80135,2,0,B|450:171|470:146|470:146|422:71,1,143.000004364014,10|2,0:0|3:2,0:0:0:0:
345,36,80585,6,0,P|274:50|204:62,1,143.000004364014,2|2,0:0|0:0,0:0:0:0:
114,17,81035,1,2,3:2:0:0:
49,93,81185,2,0,P|45:128|41:164,1,71.5000021820069,10|0,0:0|0:0,0:0:0:0:
125,175,81485,2,0,P|128:139|132:103,1,71.5000021820069,2|0,3:2|0:0,0:0:0:0:
73,248,81785,6,0,B|159:240|118:317|225:303,1,143.000004364014,6|2,3:2|0:0,0:0:0:0:
281,359,82235,1,2,3:2:0:0:
341,282,82385,1,8,0:0:0:0:
340,282,82535,2,0,P|366:218|324:164,1,143.000004364014,10|2,0:0|3:2,0:0:0:0:
208,151,82985,6,0,P|182:87|224:33,1,143.000004364014,2|0,0:0|0:0,0:0:0:0:
319,1,83435,1,2,3:2:0:0:
383,77,83585,2,0,B|426:52|426:52|479:85,1,107.25000327301,6|0,3:2|0:0,0:0:0:0:
483,94,83885,2,0,P|477:147|473:200,1,107.25000327301,6|0,3:2|0:0,0:0:0:0:
489,211,84185,6,0,P|483:264|475:362,1,143.000004364014,6|0,3:2|0:0,0:0:0:0:
388,303,84635,1,0,3:2:0:0:
315,371,84785,2,0,P|279:364|244:357,1,71.5000021820069,10|8,0:0|0:0,0:0:0:0:
224,259,85085,2,0,P|259:265|294:272,1,71.5000021820069,2|0,0:0|3:2,0:0:0:0:
374,211,85385,5,2,0:0:0:0:
329,127,85535,1,8,0:0:0:0:
329,127,85685,2,0,P|334:93|341:49,1,71.5000021820069,2|0,0:0|3:2,0:0:0:0:
250,9,85985,2,0,P|244:44|239:79,1,71.5000021820069,10|0,0:0|0:0,0:0:0:0:
157,138,86285,2,0,B|107:157|107:157|54:106,1,107.25000327301,2|0,3:2|0:0,0:0:0:0:
57,110,86585,6,0,P|0:144|8:211,1,143.000004364014,2|2,3:2|0:0,0:0:0:0:
85,276,87035,1,2,3:2:0:0:
173,230,87185,1,8,0:0:0:0:
173,230,87335,2,0,P|240:243|321:262,1,143.000004364014,10|0,0:0|3:2,0:0:0:0:
411,189,87785,5,0,3:2:0:0:
492,259,87935,2,0,B|537:315|537:315|483:387,1,143.000004364014,12|0,3:2|3:2,0:0:0:0:
411,324,88385,1,8,0:0:0:0:
411,324,88535,1,8,0:0:0:0:
322,370,88685,2,0,P|291:358|242:345,1,71.5000021820069,10|4,2:3|2:3,0:0:0:0:
133,370,88985,6,0,B|142:331|103:279|92:333|31:272|66:203,1,175.499994644165,6|0,3:2|0:0,0:0:0:0:
27,131,89585,2,0,B|77:126|88:75|88:75|77:126|129:165,1,175.499994644165,6|0,3:2|0:0,0:0:0:0:
157,236,90185,2,0,P|242:220|353:201,1,175.499994644165,6|2,3:2|3:2,0:0:0:0:
417,251,90785,1,10,0:0:0:0:
417,251,90935,1,0,3:2:0:0:
482,176,91085,2,0,P|491:137|461:90,1,87.7499973220826,10|0,2:3|0:0,0:0:0:0:
453,86,91385,6,0,P|366:71|280:54,1,175.499994644165,6|0,3:2|0:0,0:0:0:0:
191,9,91985,2,0,B|155:42|115:63|115:63|183:142,1,175.499994644165,6|0,3:2|0:0,0:0:0:0:
285,176,92585,2,0,B|255:205|246:273|302:243|299:312|256:363,1,175.499994644165,6|2,3:2|3:2,0:0:0:0:
178,377,93185,2,0,P|159:371|140:367,2,38.9999988098145,10|8|8,0:0|0:0|2:3,0:0:0:0:
134,289,93485,2,0,P|115:293|96:299,2,38.9999988098145,10|4|4,2:3|2:3|2:3,0:0:0:0:
143,199,93785,6,0,P|93:210|43:225,1,104,6|2,3:2|0:0,0:0:0:0:
3,74,94385,2,0,P|53:62|103:47,1,104,2|2,0:0|0:0,0:0:0:0:
258,31,94985,6,0,B|286:54|323:81|323:81|286:149,1,156,2|2,0:0|0:0,0:0:0:0:
234,209,95585,1,2,0:0:0:0:
298,269,95735,1,0,3:2:0:0:
298,269,95885,2,0,P|336:263|390:253,1,78,8|0,0:0|0:0,0:0:0:0:
385,243,96185,6,0,P|421:245|469:253,1,71.5000021820069,14|0,0:0|3:2,0:0:0:0:
505,171,96485,1,0,3:2:0:0:
474,83,96635,2,0,P|437:80|390:73,1,71.5000021820069,14|0,0:0|3:2,0:0:0:0:
330,17,96935,1,0,3:2:0:0:
317,21,97010,1,0,3:2:0:0:
304,26,97085,1,14,0:0:0:0:
218,103,97235,1,12,0:0:0:0:
36,116,98585,6,0,B|12:91|-13:69|-13:69|37:17,2,130,6|10|2,3:2|0:0|3:2,0:0:0:0:
112,165,99335,1,0,3:2:0:0:
64,242,99485,2,0,P|27:238|-12:236,1,65,10|0,0:0|0:0,0:0:0:0:
119,317,99785,6,0,P|187:319|266:322,1,130,2|8,3:2|0:0,0:0:0:0:
320,263,100235,1,0,3:2:0:0:
320,263,100385,2,0,P|347:266|385:283,1,65,2|0,0:0|3:2,0:0:0:0:
426,360,100685,2,0,P|453:357|488:330,1,65,10|0,0:0|0:0,0:0:0:0:
508,247,100985,6,0,P|499:221|485:178,1,65,2|0,3:2|0:0,0:0:0:0:
396,176,101285,2,0,P|405:150|419:107,1,65,10|0,0:0|0:0,0:0:0:0:
495,66,101585,1,2,3:2:0:0:
495,66,101735,1,0,3:2:0:0:
431,1,101885,1,10,0:0:0:0:
255,50,102185,6,0,P|218:55|173:60,1,65,2|0,3:2|3:2,0:0:0:0:
101,36,102485,2,0,P|106:72|111:118,1,65,10|0,0:0|3:2,0:0:0:0:
86,189,102785,2,0,P|122:183|168:179,1,65,2|0,0:0|3:2,0:0:0:0:
236,210,103085,2,0,P|256:207|290:202,3,32.5,10|2|2|2,0:0|0:0|0:0|0:0,0:0:0:0:
287,202,103385,6,0,P|278:268|270:342,2,130,6|10|2,3:2|0:0|3:2,0:0:0:0:
355,141,104135,1,0,3:2:0:0:
416,208,104285,2,0,P|446:205|483:197,1,65,10|0,0:0|0:0,0:0:0:0:
504,312,104585,6,0,P|440:318|377:333,1,130,2|8,3:2|0:0,0:0:0:0:
298,378,105035,1,0,3:2:0:0:
298,378,105185,2,0,P|262:378|221:358,1,65,2|0,0:0|3:2,0:0:0:0:
198,284,105485,2,0,P|162:284|121:304,1,65,10|0,0:0|0:0,0:0:0:0:
71,359,105785,6,0,P|62:330|45:283,1,65,2|0,3:2|0:0,0:0:0:0:
1,220,106085,2,0,P|10:191|27:144,1,65,10|0,0:0|0:0,0:0:0:0:
102,114,106385,1,2,3:2:0:0:
102,114,106535,1,0,3:2:0:0:
174,169,106685,2,0,P|205:162|237:154,1,65,10|0,0:0|3:2,0:0:0:0:
247,143,106910,1,0,3:2:0:0:
254,132,106985,6,0,B|279:157|301:180|301:180|366:150,1,130,14|2,0:0|3:2,0:0:0:0:
432,100,107435,1,12,0:0:0:0:
390,18,107585,2,0,P|369:21|347:26,3,32.5,10|8|8|8,0:0|0:0|0:0|0:0,0:0:0:0:
314,10,107885,2,0,P|293:13|271:18,3,32.5,8|8|4|4,2:3|2:3|2:3|2:3,0:0:0:0:
250,35,108185,6,0,P|199:43|148:50,1,104,6|2,3:2|0:0,0:0:0:0:
82,168,108785,2,0,P|133:161|184:152,1,104,2|2,0:0|0:0,0:0:0:0:
313,194,109385,6,0,B|341:236|376:278|376:278|286:366,1,208,2|2,0:0|0:0,0:0:0:0:
302,349,110285,1,2,0:0:0:0:
173,306,110585,6,0,P|121:312|70:321,2,104,2|2|2,3:2|0:0|0:0,0:0:0:0:
173,306,111485,1,2,0:0:0:0:
261,204,111785,6,0,P|312:195|363:188,2,104,2|2|2,0:0|0:0|0:0,0:0:0:0:
261,204,112685,1,2,0:0:0:0:
131,164,112985,6,0,P|108:118|126:71,1,104,6|2,3:2|0:0,0:0:0:0:
250,14,113585,2,0,P|301:7|352:-1,1,104,2|2,0:0|0:0,0:0:0:0:
471,63,114185,5,2,0:0:0:0:
466,81,114485,1,2,0:0:0:0:
364,169,114785,5,2,0:0:0:0:
369,187,115085,1,2,0:0:0:0:
489,305,115385,6,0,P|433:282|358:326,1,130,14|0,0:0|3:2,0:0:0:0:
299,373,115835,2,0,P|232:368|162:362,1,130,14|0,0:0|3:2,0:0:0:0:
97,296,116285,1,14,0:0:0:0:
256,192,116360,12,0,118985,0:0:0:0:
