osu file format v14

[General]
AudioFilename: audio.mp3
AudioLeadIn: 0
PreviewTime: 68547
Countdown: 0
SampleSet: Soft
StackLeniency: 0.4
Mode: 0
LetterboxInBreaks: 0
WidescreenStoryboard: 0

[Editor]
DistanceSpacing: 0.4
BeatDivisor: 4
GridSize: 32
TimelineZoom: 1.9

[Metadata]
Title:Hitohira no, Daisuki o,
TitleUnicode:ひとひらの、だいすきを、
Artist:Fukunaga Yoru
ArtistUnicode:ふくなが よる
Creator:Xahlt
Version:Extra,
Source:はるとゆき、
Tags:AsuKow Kuon- Haru to Yuki, eroge visual novel vn video game opening op japanese pop j-pop jpop 西坂恭平 Nishizaka Kyouhei galgame short ver version Akabei Soft3 AKABEiSOFT3
BeatmapID:3278011
BeatmapSetID:1605284

[Difficulty]
HPDrainRate:5.5
CircleSize:4.2
OverallDifficulty:8.8
ApproachRate:9.4
SliderMultiplier:1.8
SliderTickRate:1

[Events]
//Background and Video events
0,0,"bg.jpg",0,0
//Break Periods
//Storyboard Layer 0 (Background)
//Storyboard Layer 1 (Fail)
//Storyboard Layer 2 (Pass)
//Storyboard Layer 3 (Foreground)
//Storyboard Layer 4 (Overlay)
//Storyboard Sound Samples

[TimingPoints]
185,300,4,2,1,30,1,0
185,-166.666666666667,4,2,1,30,0,0
8210,-166.666666666667,4,2,1,5,0,0
8285,-166.666666666667,4,2,1,30,0,0
8735,-100,4,2,1,20,0,0
8885,-100,4,2,1,25,0,0
9035,-100,4,2,1,30,0,0
9185,-100,4,2,1,35,0,0
9335,-100,4,2,1,40,0,0
9485,-100,4,2,1,45,0,0
9635,-100,4,2,1,50,0,0
9785,-71.4285714285714,4,2,1,70,0,0
10010,-71.4285714285714,4,2,1,5,0,0
10085,-71.4285714285714,4,2,1,70,0,0
10310,-71.4285714285714,4,2,1,5,0,0
10385,-83.3333333333333,4,2,1,70,0,0
10910,-83.3333333333333,4,2,1,5,0,0
10985,-83.3333333333333,4,2,1,70,0,0
12410,-83.3333333333333,4,2,1,5,0,0
12485,-83.3333333333333,4,2,1,70,0,0
12710,-83.3333333333333,4,2,1,5,0,0
12785,-83.3333333333333,4,2,1,70,0,0
13310,-83.3333333333333,4,2,1,5,0,0
13385,-83.3333333333333,4,2,1,70,0,0
14585,-71.4285714285714,4,2,1,70,0,0
14810,-71.4285714285714,4,2,1,5,0,0
14885,-71.4285714285714,4,2,1,70,0,0
15110,-71.4285714285714,4,2,1,5,0,0
15185,-83.3333333333333,4,2,1,70,0,0
15710,-83.3333333333333,4,2,1,5,0,0
15785,-83.3333333333333,4,2,1,70,0,0
17210,-83.3333333333333,4,2,1,5,0,0
17285,-83.3333333333333,4,2,1,70,0,0
17510,-83.3333333333333,4,2,1,5,0,0
17585,-83.3333333333333,4,2,1,70,0,0
18185,-62.5,4,2,1,70,0,0
18410,-62.5,4,2,1,5,0,0
18485,-62.5,4,2,1,70,0,0
18785,-62.5,4,2,1,70,0,0
19385,-71.4285714285714,4,2,1,70,0,0
19610,-71.4285714285714,4,2,1,5,0,0
19685,-71.4285714285714,4,2,1,70,0,0
19910,-71.4285714285714,4,2,1,5,0,0
19985,-83.3333333333333,4,2,1,70,0,0
20510,-83.3333333333333,4,2,1,5,0,0
20585,-83.3333333333333,4,2,1,70,0,0
22010,-83.3333333333333,4,2,1,5,0,0
22085,-83.3333333333333,4,2,1,70,0,0
22310,-83.3333333333333,4,2,1,5,0,0
22385,-83.3333333333333,4,2,1,70,0,0
22985,-71.4285714285714,4,2,1,70,0,0
23210,-71.4285714285714,4,2,1,5,0,0
23285,-71.4285714285714,4,2,1,70,0,0
23510,-71.4285714285714,4,2,1,5,0,0
23585,-71.4285714285714,4,2,1,70,0,0
23885,-250,4,2,1,70,0,0
24110,-250,4,2,1,5,0,0
24185,-43.4782608695652,4,2,1,70,0,0
24410,-43.4782608695652,4,2,1,5,0,0
24485,-71.4285714285714,4,2,1,70,0,0
24710,-71.4285714285714,4,2,1,5,0,0
24785,-83.3333333333333,4,2,1,70,0,0
26285,-250,4,2,1,70,0,0
26510,-250,4,2,1,5,0,0
26585,-55.5555555555556,4,2,1,70,0,0
26810,-55.5555555555556,4,2,1,5,0,0
26885,-55.5555555555556,4,2,1,70,0,0
27035,-45.4545454545455,4,2,1,70,0,0
27260,-45.4545454545455,4,2,1,5,0,0
27335,-45.4545454545455,4,2,1,70,0,0
27485,-166.666666666667,4,2,1,70,0,0
27560,-166.666666666667,4,2,1,50,0,0
27635,-166.666666666667,4,2,1,45,0,0
27785,-166.666666666667,4,2,1,40,0,0
27935,-166.666666666667,4,2,1,35,0,0
28085,-166.666666666667,4,2,1,30,0,0
28235,-166.666666666667,4,2,1,25,0,0
28385,-166.666666666667,4,2,1,20,0,0
28985,-166.666666666667,4,2,1,40,0,0
38285,-333.333333333334,4,2,1,40,0,0
38510,-333.333333333334,4,2,1,5,0,0
38585,-100,4,2,1,60,0,0
38810,-100,4,2,1,5,0,0
38885,-100,4,2,1,60,0,0
43085,-200,4,2,1,60,0,0
43310,-200,4,2,1,5,0,0
43385,-100,4,2,1,60,0,0
48185,-285.714285714286,4,2,1,50,0,0
50435,-285.714285714286,4,2,1,5,0,0
50585,-222.222222222222,4,2,1,50,0,0
51335,-222.222222222222,4,2,1,5,0,0
51485,-222.222222222222,4,2,1,50,0,0
52985,-285.714285714286,4,2,1,50,0,0
55235,-285.714285714286,4,2,1,5,0,0
55385,-222.222222222222,4,2,1,50,0,0
55535,-222.222222222222,4,2,1,5,0,0
55685,-222.222222222222,4,2,1,50,0,0
55835,-222.222222222222,4,2,1,5,0,0
55985,-222.222222222222,4,2,1,50,0,0
56135,-222.222222222222,4,2,1,5,0,0
56285,-666.666666666667,4,2,1,50,0,0
56810,-666.666666666667,4,2,1,5,0,0
56885,-222.222222222222,4,2,1,50,0,0
57785,-200,4,2,1,60,0,0
62585,-100,4,2,1,65,0,0
63785,-71.4285714285714,4,2,1,65,0,0
64010,-71.4285714285714,4,2,1,5,0,0
64085,-71.4285714285714,4,2,1,65,0,0
64385,-100,4,2,1,65,0,0
64985,-125,4,2,1,65,0,0
68585,-125,4,2,1,40,0,0
68885,-125,4,2,1,45,0,0
69185,-125,4,2,1,50,0,0
69785,-62.5,4,2,1,80,0,1
70535,-71.4285714285714,4,2,1,80,0,1
71810,-71.4285714285714,4,2,1,5,0,1
71885,-71.4285714285714,4,2,1,80,0,1
72110,-71.4285714285714,4,2,1,5,0,1
72185,-71.4285714285714,4,2,1,80,0,1
73160,-71.4285714285714,4,2,1,5,0,1
73235,-71.4285714285714,4,2,1,80,0,1
74210,-71.4285714285714,4,2,1,5,0,1
74285,-250.000000000001,4,2,1,80,0,1
74510,-250.000000000001,4,2,1,5,0,1
74585,-71.4285714285714,4,2,1,80,0,1
79385,-62.5,4,2,1,80,0,1
80135,-71.4285714285714,4,2,1,80,0,1
81410,-71.4285714285714,4,2,1,5,0,1
81485,-71.4285714285714,4,2,1,80,0,1
81710,-71.4285714285714,4,2,1,5,0,1
81785,-71.4285714285714,4,2,1,80,0,1
83585,-55.5555555555556,4,2,1,80,0,1
83810,-55.5555555555556,4,2,1,5,0,1
83885,-45.4545454545455,4,2,1,80,0,1
84110,-45.4545454545455,4,2,1,5,0,1
84185,-71.4285714285714,4,2,1,80,0,1
86285,-166.666666666667,4,2,1,80,0,1
86510,-166.666666666667,4,2,1,5,0,1
86585,-71.4285714285714,4,2,1,80,0,1
88985,-83.3333333333333,4,2,1,70,0,0
89435,-83.3333333333333,4,2,1,5,0,0
89585,-100,4,2,1,70,0,0
90035,-100,4,2,1,5,0,0
90185,-100,4,2,1,70,0,0
91085,-250,4,2,1,70,0,0
91310,-250,4,2,1,5,0,0
91385,-83.3333333333333,4,2,1,70,0,0
91835,-83.3333333333333,4,2,1,5,0,0
91985,-100,4,2,1,70,0,0
92435,-100,4,2,1,5,0,0
92585,-100,4,2,1,70,0,0
93785,-71.4285714285714,4,2,1,50,0,0
94985,-166.666666666667,4,2,1,50,0,0
96110,-166.666666666667,4,2,1,5,0,0
96185,-71.4285714285714,4,2,1,80,0,1
97160,-71.4285714285714,4,2,1,5,0,1
97235,-71.4285714285714,4,2,1,80,0,0
97685,-71.4285714285714,4,2,1,40,0,0
97985,-71.4285714285714,4,2,1,45,0,0
98285,-71.4285714285714,4,2,1,50,0,0
98585,-71.4285714285714,4,2,1,70,0,0
98810,-71.4285714285714,4,2,1,5,0,0
98885,-71.4285714285714,4,2,1,70,0,0
99110,-71.4285714285714,4,2,1,5,0,0
99185,-83.3333333333333,4,2,1,70,0,0
99710,-83.3333333333333,4,2,1,5,0,0
99785,-83.3333333333333,4,2,1,70,0,0
101210,-83.3333333333333,4,2,1,5,0,0
101285,-83.3333333333333,4,2,1,70,0,0
101510,-83.3333333333333,4,2,1,5,0,0
101585,-83.3333333333333,4,2,1,70,0,0
102110,-83.3333333333333,4,2,1,5,0,0
102185,-83.3333333333333,4,2,1,70,0,0
103085,-250,4,2,1,70,0,0
103310,-250,4,2,1,5,0,0
103385,-71.4285714285714,4,2,1,70,0,0
103610,-71.4285714285714,4,2,1,5,0,0
103685,-71.4285714285714,4,2,1,70,0,0
103910,-71.4285714285714,4,2,1,5,0,0
103985,-83.3333333333333,4,2,1,70,0,0
104510,-83.3333333333333,4,2,1,5,0,0
104585,-83.3333333333333,4,2,1,70,0,0
106010,-83.3333333333333,4,2,1,5,0,0
106085,-83.3333333333333,4,2,1,70,0,0
106310,-83.3333333333333,4,2,1,5,0,0
106385,-83.3333333333333,4,2,1,70,0,0
106985,-62.5,4,2,1,70,0,0
107210,-62.5,4,2,1,5,0,0
107285,-62.5,4,2,1,70,0,0
108185,-62.5,4,2,1,50,0,0
109385,-200,4,2,1,50,0,0
112685,-500,4,2,1,50,0,0
112910,-500,4,2,1,5,0,0
112985,-500,4,2,1,50,0,0
115385,-45.4545454545455,4,2,1,70,0,0
115610,-45.4545454545455,4,2,1,5,0,0
115685,-45.4545454545455,4,2,1,70,0,0
115835,-50,4,2,1,70,0,0
116060,-50,4,2,1,5,0,0
116135,-50,4,2,1,70,0,0
116285,-166.666666666667,4,2,1,70,0,0
116360,-166.666666666667,4,2,1,50,0,0
116435,-166.666666666667,4,2,1,45,0,0
116585,-166.666666666667,4,2,1,40,0,0
116735,-166.666666666667,4,2,1,35,0,0
116885,-166.666666666667,4,2,1,30,0,0
117035,-166.666666666667,4,2,1,25,0,0
117185,-166.666666666667,4,2,1,20,0,0

[Colours]
Combo1 : 151,104,146
Combo2 : 243,196,207
Combo3 : 215,53,62

[HitObjects]
33,122,185,6,0,B|81:96|81:96|118:143,1,107.999996704102,2|0,0:0|0:0,0:0:0:0:
169,222,635,1,2,0:0:0:0:
102,268,785,2,0,P|96:240|88:203,1,53.9999983520508,2|0,0:0|0:0,0:0:0:0:
234,169,1085,5,2,0:0:0:0:
234,169,1235,2,0,P|243:222|255:274,2,107.999996704102,2|2|2,0:0|0:0|0:0,0:0:0:0:
327,126,1985,2,0,P|351:138|386:134,1,53.9999983520508,2|0,0:0|0:0,0:0:0:0:
247,63,2285,2,0,P|221:70|180:77,1,53.9999983520508,2|0,0:0|0:0,0:0:0:0:
331,0,2585,5,2,0:0:0:0:
331,0,2735,2,0,P|357:7|398:14,1,53.9999983520508,2|0,0:0|0:0,0:0:0:0:
488,70,3035,6,0,B|513:116|513:116|459:160,1,107.999996704102,2|0,0:0|0:0,0:0:0:0:
380,221,3485,2,0,P|433:224|475:255,1,107.999996704102,2|0,0:0|0:0,0:0:0:0:
303,314,3935,2,0,P|292:257|279:192,1,107.999996704102,2|0,0:0|0:0,0:0:0:0:
181,150,4385,5,2,0:0:0:0:
89,183,4535,1,2,0:0:0:0:
34,134,4685,1,2,0:0:0:0:
100,193,4835,1,2,0:0:0:0:
0,297,4985,6,0,P|52:291|99:317,1,107.999996704102,2|0,0:0|0:0,0:0:0:0:
163,379,5435,1,2,0:0:0:0:
245,283,5585,2,0,P|218:288|192:293,1,53.9999983520508,2|0,0:0|0:0,0:0:0:0:
308,370,5885,6,0,P|334:364|435:348,1,107.999996704102,2|0,0:0|0:0,0:0:0:0:
486,218,6335,2,0,P|433:228|379:237,1,107.999996704102,2|0,0:0|0:0,0:0:0:0:
420,89,6785,2,0,P|432:112|432:139,1,53.9999983520508,2|0,0:0|0:0,0:0:0:0:
309,73,7085,2,0,P|308:46|321:22,1,53.9999983520508,2|0,0:0|0:0,0:0:0:0:
296,180,7385,5,2,0:0:0:0:
296,180,7535,2,0,P|263:185|228:190,1,53.9999983520508,2|0,0:0|0:0,0:0:0:0:
100,276,7835,6,0,P|148:246|128:163,1,134.999995880127,2|0,0:0|0:0,0:0:0:0:
126,169,8285,5,2,0:0:0:0:
76,116,8435,5,2,0:0:0:0:
153,38,8585,5,2,0:0:0:0:
166,44,8735,6,0,P|178:39|190:36,26,22.5,2|0|0|0|0|0|0|0|0|0|0|0|0|0|0|0|0|0|0|0|0|0|0|0|0|0|0,0:0|0:0|0:0|0:0|0:0|0:0|0:0|0:0|0:0|0:0|0:0|0:0|0:0|0:0|0:0|0:0|0:0|0:0|0:0|0:0|0:0|0:0|0:0|0:0|0:0|0:0|0:0,0:0:0:0:
274,61,9785,6,0,B|299:54|316:39|316:39|354:62|354:62|339:124|394:155,1,188.999994232178,6|0,3:2|0:0,0:0:0:0:
508,130,10085,2,0,B|488:91|510:37|510:37|481:83|421:95,1,188.999994232178,10|0,0:0|0:0,0:0:0:0:
426,88,10385,1,2,3:2:0:0:
503,234,10535,1,0,3:2:0:0:
328,303,10685,2,0,P|260:295|136:279,1,161.999995056153,10|0,0:0|0:0,0:0:0:0:
151,286,10985,1,2,3:2:0:0:
260,216,11135,1,0,3:2:0:0:
396,353,11285,2,0,B|428:309|428:309|392:249,1,107.999996704102,8|0,0:0|3:2,0:0:0:0:
300,114,11585,6,0,P|247:124|175:137,1,107.999996704102,2|0,3:2|3:2,0:0:0:0:
98,61,11885,2,0,P|145:43|171:-8,1,107.999996704102,10|2,0:0|0:0,0:0:0:0:
131,217,12185,2,0,P|77:161|2:179,1,161.999995056153,2|0,3:2|0:0,0:0:0:0:
44,280,12485,2,0,P|119:291|234:308,1,161.999995056153,10|0,0:0|0:0,0:0:0:0:
221,292,12785,1,2,3:2:0:0:
326,373,12935,1,0,3:2:0:0:
414,211,13085,2,0,B|470:269|470:269|441:293|406:333,1,161.999995056153,10|0,0:0|0:0,0:0:0:0:
389,210,13385,5,2,3:2:0:0:
465,126,13535,1,0,3:2:0:0:
369,29,13685,1,10,0:0:0:0:
487,131,13835,1,0,3:2:0:0:
279,148,13985,1,2,0:0:0:0:
461,51,14135,1,0,3:2:0:0:
259,7,14285,5,10,0:0:0:0:
245,12,14360,5,2,0:0:0:0:
198,63,14435,5,2,0:0:0:0:
138,25,14510,5,2,0:0:0:0:
125,35,14585,6,0,B|150:140|34:99|57:200,1,188.999994232178,6|0,3:2|0:0,0:0:0:0:
113,318,14885,2,0,B|137:270|191:241|191:241|179:174|93:196,1,188.999994232178,10|0,0:0|0:0,0:0:0:0:
127,199,15185,1,2,3:2:0:0:
219,343,15335,1,0,3:2:0:0:
361,250,15485,2,0,B|391:244|469:234|469:234|445:225|405:189,1,161.999995056153,10|0,0:0|0:0,0:0:0:0:
417,193,15785,1,2,3:2:0:0:
492,323,15935,1,0,3:2:0:0:
290,211,16085,2,0,B|259:257|259:257|313:315,1,107.999996704102,10|0,0:0|3:2,0:0:0:0:
445,76,16385,6,0,P|392:87|339:98,1,107.999996704102,2|0,0:0|3:2,0:0:0:0:
158,0,16685,2,0,P|216:-1|248:49,1,107.999996704102,10|0,0:0|0:0,0:0:0:0:
94,160,16985,2,0,B|61:132|4:125|4:125|43:124|87:93,1,161.999995056153,2|0,3:2|0:0,0:0:0:0:
175,83,17285,2,0,B|179:131|225:151|225:151|219:206|158:220,1,161.999995056153,10|0,0:0|0:0,0:0:0:0:
168,217,17585,1,2,3:2:0:0:
317,339,17735,1,0,3:2:0:0:
373,188,17885,1,10,0:0:0:0:
138,355,18035,5,0,3:2:0:0:
126,357,18110,1,0,3:2:0:0:
114,360,18185,2,0,B|144:312|96:230|62:295|15:190|93:138,1,216,6|0,3:2|0:0,0:0:0:0:
79,162,18485,1,2,3:2:0:0:
218,287,18635,1,12,0:0:0:0:
194,18,18785,5,10,0:0:0:0:
241,0,18860,1,8,0:0:0:0:
290,11,18935,1,8,0:0:0:0:
318,52,19010,1,8,0:0:0:0:
306,59,19085,5,8,2:3:0:0:
316,72,19160,5,8,2:3:0:0:
278,135,19235,5,4,2:3:0:0:
333,192,19310,5,4,2:3:0:0:
326,200,19385,6,0,B|301:193|284:178|284:178|246:201|246:201|261:263|206:294,1,188.999994232178,6|0,3:2|0:0,0:0:0:0:
96,279,19685,2,0,B|122:236|89:189|89:189|122:236|186:220,1,188.999994232178,10|0,0:0|0:0,0:0:0:0:
173,212,19985,1,2,3:2:0:0:
126,377,20135,1,0,3:2:0:0:
321,312,20285,2,0,B|365:296|426:283|426:283|381:289|365:271,1,161.999995056153,10|0,0:0|0:0,0:0:0:0:
363,268,20585,1,2,3:2:0:0:
497,350,20735,1,0,3:2:0:0:
512,172,20885,2,0,P|458:161|389:146,1,107.999996704102,10|0,0:0|0:0,0:0:0:0:
254,97,21185,6,0,P|286:57|267:9,1,107.999996704102,2|0,3:2|3:2,0:0:0:0:
111,116,21485,2,0,P|92:164|124:204,1,107.999996704102,8|0,0:0|0:0,0:0:0:0:
244,282,21785,2,0,P|165:298|90:327,1,161.999995056153,2|0,3:2|0:0,0:0:0:0:
264,291,22085,2,0,B|284:262|323:241|323:241|225:157,1,161.999995056153,10|0,0:0|0:0,0:0:0:0:
244,189,22385,1,2,3:2:0:0:
344,80,22535,1,0,3:2:0:0:
213,8,22685,1,10,0:0:0:0:
329,91,22835,1,0,3:2:0:0:
480,11,22985,6,0,B|408:107|566:114|448:231,1,188.999994232178,2|0,3:2|0:0,0:0:0:0:
502,278,23285,2,0,B|452:276|427:328|427:328|452:276|405:228,1,188.999994232178,10|0,0:0|0:0,0:0:0:0:
405,224,23585,1,2,3:2:0:0:
506,363,23735,1,0,3:2:0:0:
290,271,23885,2,0,P|258:282|234:295,1,54,14|0,0:0|0:0,0:0:0:0:
138,367,24185,6,0,B|179:278|278:255|278:255|285:204|240:148|163:203,1,310.500005922318,6|0,3:2|0:0,0:0:0:0:
108,124,24485,2,0,B|73:166|93:236|93:236|83:193|31:171,1,188.999994232178,10|0,0:0|0:0,0:0:0:0:
36,178,24785,1,2,3:2:0:0:
197,96,24935,1,0,3:2:0:0:
17,33,25085,2,0,B|59:-1|59:-1|120:37,1,107.999996704102,10|0,0:0|3:2,0:0:0:0:
314,104,25385,6,0,P|261:94|182:80,1,107.999996704102,2|0,0:0|3:2,0:0:0:0:
427,2,25685,2,0,B|465:46|465:46|423:106,1,107.999996704102,10|0,0:0|3:2,0:0:0:0:
253,249,25985,5,10,0:0:0:0:
382,151,26135,1,0,3:2:0:0:
496,283,26285,2,0,P|481:264|480:230,1,54,10|0,2:3|0:0,0:0:0:0:
488,223,26585,6,0,B|436:257|330:208|434:166|321:101|226:184,1,242.999992584229,6|0,3:2|0:0,0:0:0:0:
272,164,26885,1,0,3:2:0:0:
496,126,27035,6,0,B|426:110|331:182|448:209|347:290|226:253,1,297.000009063721,6|0,3:2|0:0,0:0:0:0:
136,206,27335,5,0,3:2:0:0:
125,210,27410,1,0,3:2:0:0:
113,217,27485,2,0,P|117:234|121:253,19,26.9999991760254,12|2|2|2|2|2|2|2|2|2|2|2|2|2|2|2|2|2|2|2,0:0|0:0|0:0|0:0|0:0|0:0|0:0|0:0|0:0|0:0|0:0|0:0|0:0|0:0|0:0|0:0|0:0|0:0|0:0|0:0,0:0:0:0:
105,327,28985,6,0,B|56:304|56:304|1:352,2,107.999996704102,6|2|2,3:2|1:2|1:2,0:0:0:0:
207,368,29885,1,0,1:2:0:0:
207,368,30035,2,0,P|260:363|318:358,1,107.999996704102,2|0,0:0|0:0,0:0:0:0:
423,290,30485,6,0,B|441:313|441:313|434:350,1,53.9999983520508,2|0,1:2|0:0,0:0:0:0:
337,270,30785,2,0,P|330:240|321:195,1,53.9999983520508,2|0,1:2|0:0,0:0:0:0:
377,134,31085,1,2,1:2:0:0:
386,122,31385,6,0,B|436:145|436:145|482:108,2,107.999996704102,2|2|2,3:2|1:2|1:2,0:0:0:0:
308,46,32285,1,2,1:2:0:0:
308,46,32435,2,0,P|229:40|167:90,1,161.999995056153,2|0,0:0|1:2,0:0:0:0:
167,89,33185,6,0,P|176:118|187:152,1,53.9999983520508,2|0,1:2|0:0,0:0:0:0:
100,163,33485,2,0,P|91:137|83:111,1,53.9999983520508,2|0,1:2|0:0,0:0:0:0:
8,264,33785,6,0,B|50:232|50:232|71:244|104:259,1,107.999996704102,2|0,3:2|1:2,0:0:0:0:
221,344,34385,2,0,B|192:356|171:368|171:368|129:336,1,107.999996704102,2|0,1:2|1:2,0:0:0:0:
221,249,34985,6,0,P|247:254|343:278,1,107.999996704102,2|0,1:2|1:2,0:0:0:0:
481,210,35585,2,0,P|431:225|394:189,1,107.999996704102,2|0,1:2|1:2,0:0:0:0:
386,177,36185,6,0,P|389:150|394:123,1,53.9999983520508,2|0,3:2|3:2,0:0:0:0:
457,66,36485,1,2,1:2:0:0:
358,14,36635,6,0,B|308:-12|308:-12|259:26,1,107.999996704102,2|0,0:0|0:0,0:0:0:0:
163,10,37085,2,0,P|174:49|194:126,1,107.999996704102,2|0,1:2|1:2,0:0:0:0:
88,76,37535,6,0,P|78:101|69:126,1,53.9999983520508,2|0,0:0|1:2,0:0:0:0:
191,114,37835,2,0,P|201:143|208:167,1,53.9999983520508,2|0,0:0|1:2,0:0:0:0:
99,241,38135,1,0,3:2:0:0:
89,261,38210,1,0,3:2:0:0:
89,281,38285,6,0,P|112:287|138:296,1,40.4999987640381,10|0,0:0|0:0,0:0:0:0:
245,359,38585,6,0,P|203:316|238:249,1,135,6|0,3:2|0:0,0:0:0:0:
241,259,38885,1,10,0:0:0:0:
369,198,39035,2,0,B|332:146|334:94|334:94|334:134|293:163,1,180,2|0,0:0|3:2,0:0:0:0:
223,66,39485,5,10,0:0:0:0:
239,76,39635,1,2,3:2:0:0:
130,145,39785,6,0,P|120:97|104:33,1,90,2|0,0:0|3:2,0:0:0:0:
222,175,40085,1,10,0:0:0:0:
133,274,40235,2,0,B|93:288|80:327|80:327|14:336|-11:250,1,180,2|0,0:0|3:2,0:0:0:0:
149,259,40685,2,0,P|192:252|230:274,1,90,10|0,0:0|0:0,0:0:0:0:
365,373,40985,6,0,P|335:340|334:296,1,90,2|0,3:2|0:0,0:0:0:0:
457,200,41285,2,0,P|442:243|422:307,1,90,10|0,0:0|0:0,0:0:0:0:
330,177,41585,1,2,3:2:0:0:
345,161,41735,1,0,3:2:0:0:
447,71,41885,1,10,0:0:0:0:
300,25,42035,6,0,B|354:28|421:37|421:37|384:30|375:-6,1,180,2|0,3:2|3:2,0:0:0:0:
255,93,42485,1,10,0:0:0:0:
238,84,42785,5,0,3:2:0:0:
125,18,42935,1,0,3:2:0:0:
76,82,43085,6,0,P|62:112|69:144,1,67.5,14|0,0:0|0:0,0:0:0:0:
16,198,43385,6,0,P|104:181|196:167,1,180,6|8,3:2|0:0,0:0:0:0:
308,70,43835,1,2,0:0:0:0:
414,188,43985,6,0,B|372:283|470:251|401:380,1,180,2|8,3:2|0:0,0:0:0:0:
499,215,44435,1,2,3:2:0:0:
326,312,44585,6,0,B|271:319|208:343|208:343|247:330|253:293,1,180,2|8,3:2|0:0,0:0:0:0:
335,181,45035,1,2,0:0:0:0:
174,84,45185,6,0,P|196:45|181:5,1,90,2|0,3:2|3:2,0:0:0:0:
45,117,45485,2,0,P|29:157|51:195,1,90,10|0,0:0|0:0,0:0:0:0:
232,221,45785,2,0,P|189:234|148:253,1,90,2|0,3:2|0:0,0:0:0:0:
10,369,46085,2,0,P|45:342|47:299,1,90,8|0,0:0|0:0,0:0:0:0:
124,153,46385,5,0,3:2:0:0:
248,211,46535,1,0,3:2:0:0:
354,136,46685,1,10,0:0:0:0:
475,199,46835,1,0,3:2:0:0:
487,224,46910,1,0,3:2:0:0:
476,254,46985,5,10,0:0:0:0:
363,310,47135,1,0,3:2:0:0:
250,366,47285,1,0,3:2:0:0:
497,366,47435,5,8,2:3:0:0:
394,232,47585,5,4,2:3:0:0:
467,116,47735,5,0,3:2:0:0:
416,50,47885,5,8,2:3:0:0:
481,105,48035,5,4,2:3:0:0:
323,128,48185,6,0,B|249:116|214:43|214:43|281:180|254:236|192:282|113:212|163:154,1,472.499985580445,6|0,3:2|0:0,0:0:0:0:
36,240,50585,2,0,P|136:255|234:277,1,202.499993820191,2|0,0:0|0:0,0:0:0:0:
335,351,51485,1,2,0:0:0:0:
348,338,52085,5,2,0:0:0:0:
435,269,52235,1,2,0:0:0:0:
441,278,52310,1,2,0:0:0:0:
447,288,52385,1,2,0:0:0:0:
57,381,52985,6,0,B|-59:325|57:92|156:329|255:73|99:20,1,472.499985580445,6|0,3:2|0:0,0:0:0:0:
30,103,55385,6,0,P|49:106|69:112,1,40.4999987640381,2|0,0:0|0:0,0:0:0:0:
133,18,55685,2,0,P|139:37|144:56,1,40.4999987640381,2|0,0:0|0:0,0:0:0:0:
256,77,55985,2,0,P|242:92|228:106,1,40.4999987640381,2|0,0:0|0:0,0:0:0:0:
278,211,56285,6,0,P|252:207|232:201,1,47.2499985580445,2|0,0:0|0:0,0:0:0:0:
214,197,56885,1,2,0:0:0:0:
198,192,57185,5,10,0:0:0:0:
318,140,57335,5,8,2:3:0:0:
419,226,57485,5,4,2:3:0:0:
499,187,57635,5,4,2:3:0:0:
330,129,57785,6,0,P|320:86|309:42,1,90,6|0,3:2|0:0,0:0:0:0:
387,23,58235,2,0,P|398:66|407:110,1,90,2|0,0:0|0:0,0:0:0:0:
486,92,58685,2,0,P|480:70|475:48,1,45,2|0,0:0|0:0,0:0:0:0:
506,203,58985,6,0,P|441:196|395:242,1,135,2|0,1:2|0:0,0:0:0:0:
314,293,59585,2,0,P|308:270|298:237,1,45,2|0,1:2|0:0,0:0:0:0:
400,326,59885,2,0,P|393:347|388:369,1,45,2|0,0:0|0:0,0:0:0:0:
242,319,60185,6,0,P|231:276|214:214,1,90,2|0,3:2|0:0,0:0:0:0:
140,252,60635,2,0,P|151:295|163:339,1,90,2|0,0:0|0:0,0:0:0:0:
83,354,61085,2,0,P|79:335|73:308,1,45,2|0,0:0|0:0,0:0:0:0:
2,219,61385,5,2,1:2:0:0:
118,130,61535,5,0,3:2:0:0:
122,142,61610,1,0,3:2:0:0:
126,154,61685,1,12,0:0:0:0:
5,92,61835,1,0,3:3:0:0:
171,5,61985,5,8,0:0:0:0:
224,1,62060,1,8,0:0:0:0:
267,32,62135,1,8,0:0:0:0:
278,84,62210,1,8,0:0:0:0:
269,96,62285,5,10,2:3:0:0:
333,129,62360,5,8,2:3:0:0:
392,86,62435,5,4,2:3:0:0:
401,89,62510,5,4,2:3:0:0:
469,109,62585,6,0,B|497:146|497:146|464:195,1,90,6|0,3:2|3:2,0:0:0:0:
376,278,62885,1,10,0:0:0:0:
273,227,63035,6,0,P|319:237|378:249,1,90,2|8,3:2|0:0,0:0:0:0:
443,354,63335,1,0,3:2:0:0:
181,346,63485,6,0,B|156:309|156:309|184:272,1,90,10|0,0:0|3:2,0:0:0:0:
272,91,63785,6,0,B|209:98|150:119|150:119|183:107|195:63,1,188.999994232178,10|0,0:0|0:0,0:0:0:0:
190,60,64085,1,8,0:0:0:0:
111,201,64235,1,0,3:2:0:0:
6,50,64385,6,0,P|49:42|111:25,1,90,10|0,0:0|3:2,0:0:0:0:
230,169,64685,1,10,0:0:0:0:
31,330,64835,5,0,3:2:0:0:
14,317,64910,1,0,3:2:0:0:
10,294,64985,2,0,P|115:284|200:346,1,216,6|2,3:2|3:2,0:0:0:0:
277,317,65510,1,0,3:2:0:0:
277,317,65585,2,0,P|297:292|295:236,1,72,10|0,0:0|0:0,0:0:0:0:
215,147,65885,5,0,3:2:0:0:
336,79,66035,1,0,3:2:0:0:
406,211,66185,5,8,0:0:0:0:
316,164,66335,1,8,0:0:0:0:
470,68,66485,5,0,3:2:0:0:
505,248,66635,1,0,3:2:0:0:
466,47,66785,1,8,0:0:0:0:
212,364,67085,6,0,P|170:348|121:342,1,72,2|0,0:0|3:2,0:0:0:0:
126,347,67310,1,0,3:2:0:0:
112,358,67385,1,14,0:0:0:0:
244,231,67535,1,0,3:2:0:0:
122,90,67685,1,0,3:2:0:0:
8,276,67835,5,14,0:0:0:0:
133,232,67985,1,6,3:2:0:0:
288,319,68135,1,0,3:2:0:0:
411,260,68285,5,8,0:0:0:0:
142,215,68435,1,8,0:0:0:0:
194,140,68585,5,2,0:0:0:0:
203,128,68885,5,2,0:0:0:0:
211,117,69185,5,2,0:0:0:0:
261,96,69260,5,2,0:0:0:0:
309,119,69335,5,2,0:0:0:0:
326,170,69410,5,2,0:0:0:0:
315,180,69485,5,2,0:0:0:0:
332,231,69560,5,2,0:0:0:0:
380,254,69635,5,2,0:0:0:0:
430,233,69710,5,2,0:0:0:0:
424,221,69785,6,0,P|318:238|114:280,1,288,6|2,3:2|0:0,0:0:0:0:
0,193,70235,1,2,3:2:0:0:
157,102,70385,1,8,0:0:0:0:
18,0,70535,6,0,B|56:72|83:149|83:149|59:93|89:57,1,251.999992309571,10|0,0:0|3:2,0:0:0:0:
257,124,70985,5,2,0:0:0:0:
97,47,71135,1,10,0:0:0:0:
293,0,71285,1,2,0:0:0:0:
415,146,71435,1,0,3:2:0:0:
259,223,71585,6,0,B|282:221|302:200|302:200|347:233|347:233|328:294|396:330,1,188.999994232178,10|0,0:0|0:0,0:0:0:0:
500,293,71885,2,0,B|481:255|503:203|503:203|477:254|429:256,1,188.999994232178,2|0,3:2|0:0,0:0:0:0:
352,326,72185,6,0,P|249:343|75:387,1,251.999992309571,6|2,3:2|0:0,0:0:0:0:
240,248,72635,1,2,3:2:0:0:
36,163,72785,1,8,0:0:0:0:
153,266,72935,6,0,B|125:235|163:150|197:221|241:139|185:77,1,188.999994232178,10|0,0:0|0:0,0:0:0:0:
190,93,73235,1,2,3:2:0:0:
300,15,73385,6,0,P|351:-18|422:12,1,125.999996154785,2|8,0:0|0:0,0:0:0:0:
190,93,73685,2,0,P|123:88|48:80,1,125.999996154785,2|0,0:0|3:2,0:0:0:0:
370,219,73985,6,0,B|398:180|431:148|431:148|331:42,1,188.999994232178,10|0,0:0|0:0,0:0:0:0:
361,234,74285,6,0,P|381:248|422:253,1,54,2|0,3:2|0:0,0:0:0:0:
283,169,74585,6,0,B|187:193|112:200|112:200|163:196|190:254,1,251.999992309571,6|0,3:2|0:0,0:0:0:0:
273,314,75035,1,0,3:2:0:0:
43,253,75185,6,0,B|-1:206|-1:206|57:137,1,125.999996154785,10|8,0:0|0:0,0:0:0:0:
177,252,75485,2,0,P|167:318|157:383,1,125.999996154785,2|0,0:0|3:2,0:0:0:0:
307,240,75785,1,2,0:0:0:0:
159,107,75935,1,10,0:0:0:0:
369,12,76085,6,0,B|422:-17|422:-17|484:35,1,125.999996154785,2|0,0:0|3:2,0:0:0:0:
283,124,76385,2,0,P|220:115|158:106,1,125.999996154785,10|0,0:0|0:0,0:0:0:0:
274,30,76685,1,2,3:2:0:0:
289,40,76835,1,8,0:0:0:0:
446,118,76985,6,0,B|501:163|453:276|382:160|329:296|408:352,1,251.999992309571,2|2,3:2|0:0,0:0:0:0:
483,377,77435,1,2,3:2:0:0:
288,224,77585,1,8,0:0:0:0:
153,384,77735,6,0,B|79:362|-10:353|-10:353|52:357|77:288,1,251.999992309571,10|0,0:0|3:2,0:0:0:0:
16,140,78185,5,2,0:0:0:0:
26,161,78335,1,10,0:0:0:0:
146,249,78485,5,2,0:0:0:0:
183,172,78635,1,2,3:2:0:0:
63,20,78785,5,10,0:0:0:0:
233,66,78935,5,10,0:0:0:0:
304,161,79085,5,10,2:3:0:0:
480,200,79235,5,6,2:3:0:0:
426,9,79385,6,0,P|290:38|111:72,1,288,6|2,3:2|0:0,0:0:0:0:
0,161,79835,1,2,3:2:0:0:
162,244,79985,1,8,0:0:0:0:
12,383,80135,6,0,B|46:302|59:227|59:227|46:285|86:320,1,251.999992309571,10|2,0:0|3:2,0:0:0:0:
251,359,80585,5,2,0:0:0:0:
94,312,80735,1,10,0:0:0:0:
277,211,80885,1,2,0:0:0:0:
430,360,81035,1,2,3:2:0:0:
512,207,81185,6,0,B|481:168|433:176|433:176|431:239|360:259,1,188.999994232178,10|0,0:0|0:0,0:0:0:0:
271,136,81485,2,0,B|303:115|307:73|307:73|298:149|382:193,1,188.999994232178,2|0,3:2|0:0,0:0:0:0:
373,263,81785,6,0,P|290:243|160:350,1,251.999992309571,6|2,3:2|0:0,0:0:0:0:
30,241,82235,1,2,3:2:0:0:
165,122,82385,1,8,0:0:0:0:
17,3,82535,6,0,B|-45:53|49:166|40:47|159:149|67:249,1,251.999992309571,10|2,0:0|3:2,0:0:0:0:
14,339,82985,5,2,0:0:0:0:
38,330,83135,1,10,0:0:0:0:
204,231,83285,1,2,0:0:0:0:
343,371,83435,1,2,3:2:0:0:
490,193,83585,6,0,B|409:208|409:208|364:274|364:274|244:293,1,242.999992584229,6|0,3:2|0:0,0:0:0:0:
511,311,83885,6,0,B|403:272|403:272|369:200|369:200|253:162,1,297.000009063721,6|0,3:2|0:0,0:0:0:0:
166,1,84185,6,0,B|224:48|180:144|180:144|204:75|283:77,1,251.999992309571,6|0,3:2|0:0,0:0:0:0:
344,48,84635,1,0,3:2:0:0:
205,230,84785,6,0,B|143:245|143:245|90:176,1,125.999996154785,10|8,0:0|0:0,0:0:0:0:
292,150,85085,2,0,P|353:163|432:181,1,125.999996154785,2|0,0:0|3:2,0:0:0:0:
308,278,85385,1,2,0:0:0:0:
182,147,85535,1,8,0:0:0:0:
30,259,85685,6,0,B|-7:312|-7:312|54:379,1,125.999996154785,2|0,0:0|3:2,0:0:0:0:
105,195,85985,2,0,P|93:133|81:71,1,125.999996154785,10|0,0:0|0:0,0:0:0:0:
257,0,86285,6,0,P|282:43|258:76,1,80.9999975280763,2|0,3:2|0:0,0:0:0:0:
182,147,86585,6,0,B|239:93|347:199|231:203|302:305|414:253,1,251.999992309571,2|2,3:2|0:0,0:0:0:0:
512,159,87035,1,2,3:2:0:0:
359,79,87185,1,8,0:0:0:0:
200,232,87335,6,0,B|105:247|23:275|23:275|74:256|72:204,1,251.999992309571,10|0,0:0|3:2,0:0:0:0:
233,354,87785,1,0,3:2:0:0:
359,266,87935,6,0,P|340:148|319:12,1,251.999992309571,12|0,3:2|3:2,0:0:0:0:
457,8,88385,5,8,0:0:0:0:
248,145,88535,1,8,0:0:0:0:
494,149,88685,5,10,2:3:0:0:
232,17,88835,5,4,2:3:0:0:
15,158,88985,6,0,B|82:148|93:54|93:54|74:183|165:230,1,323.999990112305,6|0,3:2|0:0,0:0:0:0:
189,357,89585,2,0,B|104:344|32:338|32:338|-13:275|63:231,1,270,6|0,3:2|0:0,0:0:0:0:
203,371,90185,1,6,3:2:0:0:
217,359,90635,5,2,3:2:0:0:
343,287,90785,1,10,0:0:0:0:
455,376,90935,1,0,3:2:0:0:
330,275,91085,6,0,P|325:247|339:220,1,54,10|0,2:3|0:0,0:0:0:0:
481,165,91385,6,0,B|413:228|268:120|469:84|259:-27|218:95,1,323.999990112305,6|0,3:2|0:0,0:0:0:0:
90,235,91985,2,0,B|170:181|260:152|260:152|211:169|165:128,1,270,6|0,3:2|0:0,0:0:0:0:
28,26,92585,1,6,3:2:0:0:
21,44,93035,6,0,P|29:69|37:94,1,45,2|0,3:2|3:2,0:0:0:0:
1,202,93185,5,10,0:0:0:0:
80,176,93285,5,8,0:0:0:0:
148,223,93385,5,8,2:3:0:0:
223,180,93485,5,10,2:3:0:0:
239,185,93585,5,4,2:3:0:0:
299,222,93685,5,4,2:3:0:0:
307,219,93785,5,6,3:2:0:0:
212,174,94085,1,2,0:0:0:0:
142,229,94385,1,2,0:0:0:0:
69,172,94685,1,2,0:0:0:0:
6,321,94985,6,0,P|83:308|153:354,1,161.999995056153,2|2,0:0|0:0,0:0:0:0:
150,351,95585,1,2,0:0:0:0:
287,224,95735,1,0,3:2:0:0:
192,194,95885,2,0,P|200:237|212:295,1,80.9999975280763,8|0,0:0|0:0,0:0:0:0:
220,281,96185,5,14,0:0:0:0:
400,341,96335,1,0,3:2:0:0:
512,166,96485,1,0,3:2:0:0:
287,12,96635,5,14,0:0:0:0:
392,318,96785,1,0,3:2:0:0:
512,49,96935,5,0,3:2:0:0:
466,35,97010,1,0,3:2:0:0:
453,47,97085,2,0,P|420:61|386:79,1,62.9999980773926,14|0,0:0|0:0,0:0:0:0:
101,249,97235,5,12,0:0:0:0:
107,240,97685,5,2,0:0:0:0:
54,186,97985,5,2,0:0:0:0:
117,115,98285,5,2,0:0:0:0:
21,21,98585,6,0,B|46:14|63:-1|63:-1|101:22|101:22|86:84|141:115,1,188.999994232178,6|0,3:2|0:0,0:0:0:0:
254,101,98885,2,0,B|232:57|259:0|259:0|232:57|153:38,1,188.999994232178,10|0,0:0|0:0,0:0:0:0:
179,42,99185,1,2,3:2:0:0:
328,173,99335,1,0,3:2:0:0:
229,272,99485,2,0,B|165:279|118:297|118:297|149:284|165:235,1,161.999995056153,10|0,0:0|0:0,0:0:0:0:
151,250,99785,1,2,3:2:0:0:
65,366,99935,1,0,3:2:0:0:
295,354,100085,2,0,P|347:364|400:376,1,107.999996704102,8|0,0:0|3:2,0:0:0:0:
512,242,100385,6,0,P|535:195|508:151,1,107.999996704102,2|0,0:0|3:2,0:0:0:0:
344,19,100685,2,0,P|317:63|340:109,1,107.999996704102,10|0,0:0|0:0,0:0:0:0:
488,246,100985,2,0,P|408:257|330:276,1,161.999995056153,2|0,3:2|0:0,0:0:0:0:
270,354,101285,2,0,B|246:321|202:303|202:303|249:230,1,161.999995056153,10|0,0:0|0:0,0:0:0:0:
254,227,101585,1,2,3:2:0:0:
154,85,101735,1,0,3:2:0:0:
33,260,101885,2,0,B|83:240|135:242|135:242|101:234|79:190,1,161.999995056153,10|0,0:0|0:0,0:0:0:0:
73,199,102185,5,2,3:2:0:0:
235,109,102335,1,0,3:2:0:0:
68,4,102485,1,10,0:0:0:0:
237,89,102635,1,0,3:2:0:0:
11,115,102785,1,2,0:0:0:0:
176,0,102935,1,0,3:2:0:0:
327,134,103085,2,0,P|340:115|338:81,1,54,10|0,0:0|0:0,0:0:0:0:
235,109,103385,6,0,B|274:148|249:235|208:159|171:259|247:320,1,188.999994232178,6|0,3:2|0:0,0:0:0:0:
216,382,103685,2,0,B|254:352|315:345|315:345|349:296|289:260,1,188.999994232178,10|0,0:0|0:0,0:0:0:0:
290,263,103985,1,2,3:2:0:0:
427,367,104135,1,0,3:2:0:0:
511,222,104285,2,0,B|480:201|445:172|445:172|378:237,1,161.999995056153,10|0,0:0|0:0,0:0:0:0:
383,243,104585,1,2,3:2:0:0:
503,111,104735,1,0,3:2:0:0:
306,27,104885,2,0,P|317:80|330:158,1,107.999996704102,8|0,0:0|3:2,0:0:0:0:
187,280,105185,6,0,P|120:291|85:247,1,107.999996704102,2|0,0:0|3:2,0:0:0:0:
213,148,105485,2,0,P|256:119|306:135,1,107.999996704102,10|0,0:0|0:0,0:0:0:0:
500,244,105785,2,0,B|453:243|432:195|432:195|372:209|383:281,1,161.999995056153,2|0,3:2|0:0,0:0:0:0:
310,279,106085,2,0,B|344:330|338:376|338:376|344:330|395:296,1,161.999995056153,10|0,0:0|0:0,0:0:0:0:
383,317,106385,1,2,3:2:0:0:
226,223,106535,1,0,3:2:0:0:
67,347,106685,1,10,0:0:0:0:
50,111,106835,5,0,3:2:0:0:
74,114,106910,1,0,3:2:0:0:
93,132,106985,2,0,B|51:185|128:262|130:187|191:272|145:332,1,216,14|0,0:0|0:0,0:0:0:0:
146,324,107285,1,2,3:2:0:0:
4,215,107435,1,12,0:0:0:0:
208,68,107585,5,10,0:0:0:0:
254,48,107660,1,8,0:0:0:0:
300,66,107735,1,8,0:0:0:0:
321,111,107810,1,8,0:0:0:0:
312,128,107885,5,8,2:3:0:0:
355,188,107960,5,8,2:3:0:0:
345,203,108035,5,4,2:3:0:0:
277,241,108110,5,4,2:3:0:0:
325,311,108185,5,6,3:2:0:0:
342,301,108485,1,2,0:0:0:0:
443,355,108785,5,2,0:0:0:0:
442,335,109085,1,2,0:0:0:0:
511,243,109385,6,0,P|497:180|481:102,1,135,2|0,0:0|0:0,0:0:0:0:
469,21,109985,5,2,0:0:0:0:
448,26,110285,1,2,0:0:0:0:
339,6,110585,5,2,3:2:0:0:
260,42,110885,1,2,0:0:0:0:
213,109,111185,1,2,0:0:0:0:
120,132,111485,1,2,0:0:0:0:
21,20,111785,5,2,0:0:0:0:
100,52,112085,1,2,0:0:0:0:
120,132,112385,1,2,0:0:0:0:
58,190,112685,2,0,P|60:203|63:217,1,27,2|0,0:0|0:0,0:0:0:0:
33,289,112985,5,6,3:2:0:0:
44,294,113285,1,2,0:0:0:0:
116,363,113585,5,2,0:0:0:0:
136,353,113885,1,2,0:0:0:0:
208,258,114185,5,2,0:0:0:0:
290,286,114485,1,2,0:0:0:0:
387,379,114785,5,2,0:0:0:0:
494,326,115085,1,2,0:0:0:0:
410,78,115385,6,0,B|342:60|329:-19|329:-19|351:135|244:188,1,297.000009063721,14|0,0:0|0:0,0:0:0:0:
294,151,115685,1,0,3:2:0:0:
286,356,115835,6,0,B|364:323|457:320|457:320|496:262|431:226,1,270,14|0,0:0|0:0,0:0:0:0:
433,229,116135,1,0,3:2:0:0:
150,216,116285,6,0,P|156:233|165:260,36,26.9999991760254,14|2|2|2|2|2|2|2|2|2|2|2|2|2|2|2|2|2|2|2|2|2|2|2|2|2|2|2|2|2|2|2|2|2|2|2|2,0:0|0:0|0:0|0:0|0:0|0:0|0:0|0:0|0:0|0:0|0:0|0:0|0:0|0:0|0:0|0:0|0:0|0:0|0:0|0:0|0:0|0:0|0:0|0:0|0:0|0:0|0:0|0:0|0:0|0:0|0:0|0:0|0:0|0:0|0:0|0:0|0:0,0:0:0:0:
