osu file format v14

[General]
AudioFilename: audio.mp3
AudioLeadIn: 0
PreviewTime: 69614
Countdown: 0
SampleSet: Normal
StackLeniency: 0.7
Mode: 1
LetterboxInBreaks: 0
WidescreenStoryboard: 0

[Editor]
Bookmarks: 10814,99612
DistanceSpacing: 1.6
BeatDivisor: 8
GridSize: 32
TimelineZoom: 3.899999

[Metadata]
Title:Hitohira no, Daisuki o,
TitleUnicode:ひとひらの、だいすきを、
Artist:Fukunaga Yoru
ArtistUnicode:ふくながよる
Creator:Idealism
Version:Fate
Source:はるとゆき、
Tags:Haru to Yuki, eroge galgame visual novel op opening akabeisoft akabei soft rock j-rock jrock Symphony Sounds Generation 2018 ssg vn japanese [r] ron
BeatmapID:2540483
BeatmapSetID:1221262

[Difficulty]
HPDrainRate:5.5
CircleSize:5
OverallDifficulty:5.5
ApproachRate:5
SliderMultiplier:1.4
SliderTickRate:1

[Events]
//Background and Video events
0,0,"whydoestheguydisappearintheerogewhatthehell.png",0,95
//Break Periods
//Storyboard Layer 0 (Background)
//Storyboard Layer 1 (Fail)
//Storyboard Layer 2 (Pass)
//Storyboard Layer 3 (Foreground)
//Storyboard Layer 4 (Overlay)
//Storyboard Sound Samples

[TimingPoints]
1214,600,4,1,0,40,1,0
10814,300,4,1,0,75,1,1
30014,-200,4,1,0,60,0,0
38714,-166.666666666667,4,1,0,60,0,0
38864,-142.857142857143,4,1,0,60,0,0
39014,-125,4,1,0,60,0,0
39164,-120.481927710843,4,1,0,60,0,0
39239,-116.279069767442,4,1,0,60,0,0
39314,-111.111111111111,4,1,0,60,0,0
39464,-105.263157894737,4,1,0,60,0,0
39614,-100,4,1,0,70,0,0
48614,-105.263157894737,4,1,0,70,0,0
48764,-111.111111111111,4,1,0,70,0,0
48914,-117.647058823529,4,1,0,70,0,0
49064,-125,4,1,0,70,0,0
49214,600,4,1,0,60,1,0
49214,-66.6666666666667,4,1,0,60,0,0
62414,300,4,1,0,65,1,0
62414,-133.333333333333,4,1,0,65,0,0
62564,-129.87012987013,4,1,0,65,0,0
62639,-128.205128205128,4,1,0,65,0,0
62714,-126.582278481013,4,1,0,65,0,0
62864,-125,4,1,0,65,0,0
63014,-121.951219512195,4,1,0,65,0,0
63089,-119.047619047619,4,1,0,65,0,0
63164,-116.279069767442,4,1,0,65,0,0
63239,-113.636363636364,4,1,0,65,0,0
63314,-111.111111111111,4,1,0,65,0,0
63389,-108.695652173913,4,1,0,65,0,0
63464,-106.382978723404,4,1,0,65,0,0
63539,-104.166666666667,4,1,0,65,0,0
63614,-102.040816326531,4,1,0,70,0,0
63914,-100,4,1,0,70,0,0
69614,600,4,1,0,60,1,0
69614,-50,4,1,0,60,0,0
69896,600,4,1,0,60,1,8
69896,-50,4,1,0,60,0,0
70212,600,4,1,0,60,1,8
70212,-50,4,1,0,60,0,0
70812,600,4,1,0,80,1,1
70812,-45.4545454545455,4,1,0,80,0,1
89412,-47.6190476190476,4,1,0,80,0,1
89562,-50,4,1,0,80,0,1
89712,-52.6315789473684,4,1,0,80,0,1
89862,-55.5555555555556,4,1,0,80,0,1
90012,-58.8235294117647,4,1,0,75,0,1
94212,-59.8802395209581,4,1,0,75,0,1
94312,-60.9756097560976,4,1,0,75,0,1
94412,-62.111801242236,4,1,0,75,0,1
94512,-63.2911392405063,4,1,0,75,0,1
94612,-64.5161290322581,4,1,0,75,0,1
94712,-65.7894736842105,4,1,0,75,0,1
94812,-66.6666666666667,4,1,0,60,0,0
97212,-45.4545454545455,4,1,0,80,0,1
98412,-71.4285714285714,4,1,0,60,0,0
99012,-62.5,4,1,0,60,0,0
99312,-55.5555555555556,4,1,0,60,0,0
99612,300,4,1,0,80,1,1
99612,-100,4,1,0,80,0,1
115812,-105.263157894737,4,1,0,80,0,1
115962,-111.111111111111,4,1,0,80,0,1
116112,-117.647058823529,4,1,0,80,0,1
116262,-125,4,1,0,80,0,1
116412,600,4,1,0,40,1,0
116412,-66.6666666666667,4,1,0,40,0,0
125262,-65.359477124183,4,1,0,60,0,0
125337,-64.1025641025641,4,1,0,60,0,0
125412,-62.5,4,1,0,60,0,0
125562,-58.8235294117647,4,1,0,60,0,0
125712,-55.5555555555556,4,1,0,60,0,0
125862,-52.6315789473684,4,1,0,60,0,0
126012,-50,4,1,0,70,0,0
144612,-52.6315789473684,4,1,0,70,0,0
144762,-55.5555555555556,4,1,0,70,0,0
144912,-58.8235294117647,4,1,0,70,0,0
145062,-62.5,4,1,0,70,0,0
145212,-66.6666666666667,4,1,0,60,0,0
148812,300,4,1,0,60,1,0
148812,-133.333333333333,4,1,0,60,0,0
148962,-129.87012987013,4,1,0,60,0,0
149037,-128.205128205128,4,1,0,60,0,0
149112,-126.582278481013,4,1,0,60,0,0
149262,-125,4,1,0,60,0,0
149412,-121.951219512195,4,1,0,60,0,0
149487,-119.047619047619,4,1,0,60,0,0
149562,-116.279069767442,4,1,0,60,0,0
149637,-113.636363636364,4,1,0,60,0,0
149712,-111.111111111111,4,1,0,60,0,0
149787,-108.695652173913,4,1,0,60,0,0
149862,-106.382978723404,4,1,0,60,0,0
149937,-104.166666666667,4,1,0,60,0,0
150012,-102.040816326531,4,1,0,70,0,0
150312,-100,4,1,0,70,0,0
156012,600,4,1,0,60,1,0
156012,-50,4,1,0,60,0,0
156296,600,4,1,0,60,1,8
156296,-50,4,1,0,60,0,0
156613,600,4,1,0,60,1,8
156613,-50,4,1,0,60,0,0
157212,300,4,1,0,80,1,1
157212,-90.9090909090909,4,1,0,80,0,1
175812,-92.5925925925926,4,1,0,80,0,1
175887,-94.3396226415094,4,1,0,80,0,1
175962,-96.1538461538461,4,1,0,80,0,1
176037,-98.0392156862745,4,1,0,80,0,1
176112,-100,4,1,0,80,0,1
176187,-102.040816326531,4,1,0,80,0,1
176262,-104.166666666667,4,1,0,80,0,1
176337,-106.382978723404,4,1,0,80,0,1
176412,600,4,1,0,80,1,1
176412,-54.3478260869565,4,1,0,80,0,1
176487,-55.5555555555556,4,1,0,70,0,1
180612,-57.4712643678161,4,1,0,70,0,1
180712,-59.5238095238095,4,1,0,70,0,1
180812,-61.7283950617284,4,1,0,70,0,1
180912,-64.1025641025641,4,1,0,70,0,1
181012,-66.6666666666667,4,1,0,70,0,1
181112,-69.4444444444444,4,1,0,70,0,1
181212,-71.4285714285714,4,1,0,60,0,0
183612,300,4,1,0,80,1,1
183612,-90.9090909090909,4,1,0,80,0,1
185412,-92.1658986175115,4,1,0,80,0,1
185512,-93.4579439252336,4,1,0,80,0,1
185612,-94.7867298578199,4,1,0,80,0,1
185712,-96.1538461538461,4,1,0,80,0,1
185812,-97.5609756097561,4,1,0,80,0,1
185912,-99.009900990099,4,1,0,80,0,1
186012,-100,4,1,0,75,0,1
206412,600,4,1,0,60,1,0
206412,-50,4,1,0,60,0,0
206712,-57.1428571428571,4,1,0,60,0,0
207012,-66.6666666666667,4,1,0,60,0,0
207312,-80,4,1,0,60,0,0
207612,600,4,1,0,40,1,0
216612,-90.9090909090909,4,1,0,40,0,0
216912,-83.3333333333333,4,1,0,40,0,0
217212,-76.9230769230769,4,1,0,50,0,0
225612,-66.6666666666667,4,1,0,60,0,0
225912,-62.5,4,1,0,60,0,0
226062,-61.3496932515337,4,1,0,60,0,0
226137,-60.2409638554217,4,1,0,60,0,0
226212,-58.8235294117647,4,1,0,60,0,0
226362,-55.5555555555556,4,1,0,60,0,0
226512,-52.6315789473684,4,1,0,60,0,0
226812,300,4,1,0,80,1,1
226812,-90.9090909090909,4,1,0,80,0,1
236412,600,4,1,0,80,1,1
236412,-45.4545454545455,4,1,0,80,0,1
245262,-46.2962962962963,4,1,0,80,0,1
245337,-47.1698113207547,4,1,0,80,0,1
245412,-48.0769230769231,4,1,0,80,0,1
245487,-49.0196078431373,4,1,0,80,0,1
245562,-50,4,1,0,80,0,1
245637,-51.0204081632653,4,1,0,80,0,1
245712,-52.0833333333333,4,1,0,80,0,1
245787,-53.1914893617021,4,1,0,80,0,1
245862,-54.3478260869565,4,1,0,80,0,1
246012,-55.5555555555556,4,1,0,70,0,1
250212,-57.4712643678161,4,1,0,70,0,1
250312,-59.5238095238095,4,1,0,70,0,1
250412,-61.7283950617284,4,1,0,70,0,1
250512,-64.1025641025641,4,1,0,70,0,1
250612,-66.6666666666667,4,1,0,70,0,1
250712,-69.4444444444444,4,1,0,70,0,1
250812,-71.4285714285714,4,1,0,60,0,0
253212,-45.4545454545455,4,1,0,80,0,1
254412,-45.4545454545455,4,1,0,80,0,0
254712,-71.4285714285714,4,1,0,60,0,0
255012,-62.5,4,1,0,60,0,0
255312,-55.5555555555556,4,1,0,60,0,0
255612,300,4,1,0,80,1,1
255612,-100,4,1,0,80,0,1
265212,600,4,1,0,60,1,0
265212,-50,4,1,0,60,0,0
265512,-54.054054054054,4,1,0,60,0,0
265812,-62.5,4,1,0,60,0,0
266112,-68.9655172413793,4,1,0,60,0,0
266412,-76.9230769230769,4,1,0,60,0,0
272412,-66.6666666666667,4,1,0,70,0,0

[HitObjects]
248,189,1064,5,0,0:0:0:0:
248,189,1139,1,0,0:0:0:0:
248,189,1214,1,8,0:0:0:0:
248,189,1514,1,0,0:0:0:0:
246,183,1664,1,8,0:0:0:0:
246,183,1814,1,0,0:0:0:0:
246,183,2114,1,8,0:0:0:0:
246,183,2414,1,0,0:0:0:0:
245,183,2564,1,8,0:0:0:0:
246,183,2714,1,0,0:0:0:0:
236,181,3014,1,8,0:0:0:0:
233,179,3314,1,0,0:0:0:0:
233,179,3614,1,8,0:0:0:0:
234,185,3914,1,0,0:0:0:0:
234,185,4064,1,8,0:0:0:0:
231,190,4514,1,8,0:0:0:0:
239,191,4814,1,0,0:0:0:0:
239,191,4964,1,8,0:0:0:0:
239,192,5114,1,0,0:0:0:0:
239,192,5414,1,8,0:0:0:0:
239,191,5714,1,0,0:0:0:0:
239,191,5864,1,0,0:0:0:0:
239,191,5939,1,0,0:0:0:0:
239,192,6014,1,8,0:0:0:0:
247,189,6314,1,0,0:0:0:0:
244,185,6464,1,8,0:0:0:0:
243,186,6614,1,0,0:0:0:0:
242,187,6914,1,8,0:0:0:0:
247,189,7214,1,0,0:0:0:0:
247,189,7364,1,8,0:0:0:0:
244,185,7514,1,0,0:0:0:0:
242,187,7814,1,8,0:0:0:0:
247,189,8114,1,0,0:0:0:0:
241,192,8414,1,8,0:0:0:0:
232,195,8714,1,0,0:0:0:0:
232,195,8864,1,8,0:0:0:0:
232,195,9314,1,8,0:0:0:0:
232,195,9464,1,0,0:0:0:0:
232,195,9614,1,0,0:0:0:0:
232,195,9764,1,8,0:0:0:0:
256,192,10214,12,0,10664,0:0:0:0:
234,193,10814,5,12,0:0:0:0:
236,197,11114,1,8,0:0:0:0:
236,197,11264,1,8,0:0:0:0:
236,197,11414,1,0,0:0:0:0:
234,193,11564,1,0,0:0:0:0:
230,199,11714,1,8,0:0:0:0:
230,199,12014,1,0,0:0:0:0:
222,200,12314,1,0,0:0:0:0:
222,198,12464,1,0,0:0:0:0:
222,197,12614,1,8,0:0:0:0:
236,208,12764,1,0,0:0:0:0:
230,199,12839,1,0,0:0:0:0:
225,203,12914,1,8,0:0:0:0:
226,202,13214,1,8,0:0:0:0:
222,198,13514,1,8,0:0:0:0:
217,197,13664,1,0,0:0:0:0:
217,198,13814,1,8,0:0:0:0:
214,196,13964,1,8,0:0:0:0:
213,196,14114,1,0,0:0:0:0:
211,198,14414,1,0,0:0:0:0:
201,199,14714,1,0,0:0:0:0:
201,199,14864,1,0,0:0:0:0:
201,199,15014,1,8,0:0:0:0:
201,199,15164,1,8,0:0:0:0:
203,196,15239,1,8,0:0:0:0:
201,199,15314,1,0,0:0:0:0:
197,191,15614,1,12,0:0:0:0:
201,199,15914,1,8,0:0:0:0:
201,199,16064,1,8,0:0:0:0:
201,199,16214,1,0,0:0:0:0:
201,199,16364,1,0,0:0:0:0:
202,197,16514,1,8,0:0:0:0:
201,199,16814,1,0,0:0:0:0:
208,188,17114,1,0,0:0:0:0:
208,188,17264,1,0,0:0:0:0:
206,190,17414,1,8,0:0:0:0:
206,190,17564,1,0,0:0:0:0:
206,191,17639,1,0,0:0:0:0:
198,184,17714,1,8,0:0:0:0:
208,188,18014,1,8,0:0:0:0:
206,196,18314,1,8,0:0:0:0:
206,196,18464,1,0,0:0:0:0:
206,196,18614,1,8,0:0:0:0:
203,196,18914,1,8,0:0:0:0:
201,193,19064,1,0,0:0:0:0:
206,196,19139,1,0,0:0:0:0:
206,196,19214,1,12,0:0:0:0:
206,196,19364,1,0,0:0:0:0:
206,196,19439,1,0,0:0:0:0:
206,196,19514,1,0,0:0:0:0:
206,193,19664,1,12,0:0:0:0:
205,193,19814,1,0,0:0:0:0:
203,196,19889,1,0,0:0:0:0:
201,193,19964,1,0,0:0:0:0:
200,192,20039,1,0,0:0:0:0:
206,196,20114,1,8,0:0:0:0:
199,191,20264,1,0,0:0:0:0:
199,192,20414,1,12,0:0:0:0:
197,196,20714,1,8,0:0:0:0:
197,196,20864,1,8,0:0:0:0:
200,192,21014,1,0,0:0:0:0:
192,194,21164,1,0,0:0:0:0:
192,194,21314,1,8,0:0:0:0:
197,196,21614,1,0,0:0:0:0:
200,192,21914,1,0,0:0:0:0:
200,192,22064,1,0,0:0:0:0:
200,192,22214,1,8,0:0:0:0:
201,186,22364,1,0,0:0:0:0:
202,191,22439,1,0,0:0:0:0:
202,191,22514,1,8,0:0:0:0:
200,192,22814,1,8,0:0:0:0:
200,192,23114,1,8,0:0:0:0:
200,192,23264,1,0,0:0:0:0:
199,192,23414,1,8,0:0:0:0:
202,191,23564,1,8,0:0:0:0:
200,192,23714,1,0,0:0:0:0:
200,192,24014,1,0,0:0:0:0:
194,191,24314,1,8,0:0:0:0:
194,191,24464,1,0,0:0:0:0:
192,192,24614,1,8,0:0:0:0:
192,192,24764,1,8,0:0:0:0:
192,192,24839,1,8,0:0:0:0:
192,192,24914,1,0,0:0:0:0:
200,174,25214,1,12,0:0:0:0:
194,191,25514,1,8,0:0:0:0:
192,192,25664,1,8,0:0:0:0:
192,192,25814,1,0,0:0:0:0:
194,191,25964,1,0,0:0:0:0:
194,191,26114,1,8,0:0:0:0:
203,191,26414,1,8,0:0:0:0:
199,192,26714,1,8,0:0:0:0:
199,192,26864,1,0,0:0:0:0:
199,192,27014,1,8,0:0:0:0:
194,191,27089,1,8,0:0:0:0:
203,191,27164,1,0,0:0:0:0:
197,192,27314,1,8,0:0:0:0:
199,192,27464,1,0,0:0:0:0:
199,192,27614,1,12,0:0:0:0:
199,192,27764,1,0,0:0:0:0:
199,192,27839,1,0,0:0:0:0:
199,192,27914,1,0,0:0:0:0:
194,191,28064,1,12,0:0:0:0:
197,192,28214,1,0,0:0:0:0:
197,192,28289,1,0,0:0:0:0:
199,192,28364,1,0,0:0:0:0:
199,192,28514,1,8,0:0:0:0:
256,192,28664,12,0,29864,0:0:0:0:
251,188,30014,5,4,0:0:0:0:
251,188,30314,1,0,0:0:0:0:
251,188,30614,1,8,0:0:0:0:
255,185,30914,1,8,0:0:0:0:
255,185,31064,1,0,0:0:0:0:
256,183,31514,1,8,0:0:0:0:
257,178,31814,1,0,0:0:0:0:
257,178,32114,1,8,0:0:0:0:
256,183,32414,1,0,0:0:0:0:
267,183,32564,1,0,0:0:0:0:
267,183,32714,1,8,0:0:0:0:
273,172,33014,1,8,0:0:0:0:
273,172,33314,1,8,0:0:0:0:
273,172,33464,1,8,0:0:0:0:
273,172,33914,1,8,0:0:0:0:
273,172,34214,1,0,0:0:0:0:
273,172,34364,1,8,0:0:0:0:
273,172,34514,1,0,0:0:0:0:
273,172,34664,1,8,0:0:0:0:
273,172,34814,1,0,0:0:0:0:
273,172,34964,1,0,0:0:0:0:
267,162,35114,1,8,0:0:0:0:
273,172,35414,1,8,0:0:0:0:
265,170,35864,1,0,0:0:0:0:
270,169,36014,1,8,0:0:0:0:
263,167,36314,1,8,0:0:0:0:
263,167,36614,1,0,0:0:0:0:
263,167,37214,1,8,0:0:0:0:
263,167,37364,1,8,0:0:0:0:
263,167,37514,1,0,0:0:0:0:
263,167,37664,1,8,0:0:0:0:
261,161,37964,1,0,0:0:0:0:
261,161,38114,1,8,0:0:0:0:
261,161,38414,1,0,0:0:0:0:
261,161,38714,1,8,0:0:0:0:
261,161,38864,1,8,0:0:0:0:
261,161,39014,1,0,0:0:0:0:
261,161,39164,1,0,0:0:0:0:
261,161,39239,1,0,0:0:0:0:
261,161,39314,1,8,0:0:0:0:
261,161,39464,1,8,0:0:0:0:
261,161,39614,1,4,0:0:0:0:
256,156,39764,1,0,0:0:0:0:
256,156,39839,1,0,0:0:0:0:
256,157,39914,1,8,0:0:0:0:
256,157,40064,1,8,0:0:0:0:
261,153,40364,1,8,0:0:0:0:
261,153,40439,1,8,0:0:0:0:
261,153,40514,1,0,0:0:0:0:
261,153,40664,1,8,0:0:0:0:
261,153,40814,1,0,0:0:0:0:
256,157,40964,1,8,0:0:0:0:
256,157,41039,1,0,0:0:0:0:
261,153,41114,1,8,0:0:0:0:
252,157,41264,1,8,0:0:0:0:
251,154,41564,1,0,0:0:0:0:
251,155,41639,1,0,0:0:0:0:
256,157,41714,1,8,0:0:0:0:
256,157,41864,1,0,0:0:0:0:
256,157,42014,1,8,0:0:0:0:
258,156,42314,1,8,0:0:0:0:
256,156,42614,1,0,0:0:0:0:
266,156,42764,1,0,0:0:0:0:
265,156,42839,1,0,0:0:0:0:
256,157,42914,1,8,0:0:0:0:
256,157,43064,1,0,0:0:0:0:
266,150,43364,1,8,0:0:0:0:
266,150,43439,1,0,0:0:0:0:
266,150,43514,1,8,0:0:0:0:
265,150,43664,1,8,0:0:0:0:
262,147,43814,1,0,0:0:0:0:
265,150,43964,1,0,0:0:0:0:
262,146,44114,1,8,0:0:0:0:
253,142,44414,1,12,0:0:0:0:
256,145,44714,1,0,0:0:0:0:
256,145,44864,1,0,0:0:0:0:
256,145,45014,1,8,0:0:0:0:
256,145,45164,1,0,0:0:0:0:
253,142,45239,1,0,0:0:0:0:
257,144,45314,1,8,0:0:0:0:
249,145,45464,1,0,0:0:0:0:
249,145,45614,1,8,0:0:0:0:
249,146,45914,1,8,0:0:0:0:
249,146,46064,1,8,0:0:0:0:
249,146,46214,1,0,0:0:0:0:
250,146,46364,1,8,0:0:0:0:
249,145,46439,1,0,0:0:0:0:
249,145,46514,1,8,0:0:0:0:
249,146,46814,1,0,0:0:0:0:
249,146,47114,1,8,0:0:0:0:
246,148,47414,1,0,0:0:0:0:
246,148,47564,1,0,0:0:0:0:
247,152,47714,1,8,0:0:0:0:
249,154,47864,1,8,0:0:0:0:
248,151,47939,1,8,0:0:0:0:
248,151,48014,1,0,0:0:0:0:
247,153,48164,1,0,0:0:0:0:
247,153,48239,1,0,0:0:0:0:
247,153,48314,1,0,0:0:0:0:
247,152,48464,1,8,0:0:0:0:
247,152,48614,1,0,0:0:0:0:
249,154,48764,1,0,0:0:0:0:
249,154,48914,1,8,0:0:0:0:
247,153,49064,1,0,0:0:0:0:
247,153,49214,1,12,0:0:0:0:
247,152,49514,1,8,0:0:0:0:
249,154,49814,1,0,0:0:0:0:
247,153,50114,1,0,0:0:0:0:
247,152,50414,1,8,0:0:0:0:
249,154,50714,1,0,0:0:0:0:
247,153,51014,1,8,0:0:0:0:
247,152,51314,1,0,0:0:0:0:
244,156,51614,1,8,0:0:0:0:
247,153,51914,1,8,0:0:0:0:
244,156,52214,1,8,0:0:0:0:
244,156,52514,1,0,0:0:0:0:
251,152,53114,1,8,0:0:0:0:
251,152,53414,1,8,0:0:0:0:
251,152,54014,1,4,0:0:0:0:
251,152,54314,1,8,0:0:0:0:
251,152,54614,1,0,0:0:0:0:
251,152,54914,1,0,0:0:0:0:
245,151,55214,1,8,0:0:0:0:
245,151,55514,1,0,0:0:0:0:
245,151,55814,1,8,0:0:0:0:
245,151,56114,1,8,0:0:0:0:
245,151,56414,1,0,0:0:0:0:
245,151,56714,1,0,0:0:0:0:
245,151,57014,1,8,0:0:0:0:
245,151,57314,1,8,0:0:0:0:
245,151,57914,1,8,0:0:0:0:
245,151,58214,1,8,0:0:0:0:
245,151,58364,1,8,0:0:0:0:
245,151,58514,1,0,0:0:0:0:
245,151,58664,1,0,0:0:0:0:
245,151,58814,1,12,0:0:0:0:
245,151,59114,1,0,0:0:0:0:
245,151,59264,1,8,0:0:0:0:
245,151,59714,1,8,0:0:0:0:
245,151,60014,1,0,0:0:0:0:
245,151,60614,1,0,0:0:0:0:
245,151,60914,1,0,0:0:0:0:
245,151,61214,1,8,0:0:0:0:
245,151,61514,1,0,0:0:0:0:
240,151,61664,1,8,0:0:0:0:
238,151,62114,1,8,0:0:0:0:
238,151,62414,1,8,0:0:0:0:
240,151,62564,1,0,0:0:0:0:
233,154,62639,1,0,0:0:0:0:
231,155,62714,1,8,0:0:0:0:
230,155,62864,1,0,0:0:0:0:
230,155,63014,1,8,0:0:0:0:
238,151,63089,1,8,0:0:0:0:
238,151,63164,1,8,0:0:0:0:
238,151,63239,1,8,0:0:0:0:
238,151,63314,1,0,0:0:0:0:
238,151,63389,1,0,0:0:0:0:
240,151,63464,1,0,0:0:0:0:
240,151,63539,1,0,0:0:0:0:
238,153,63614,1,12,0:0:0:0:
240,149,63914,1,0,0:0:0:0:
240,149,64064,1,0,0:0:0:0:
238,151,64139,1,0,0:0:0:0:
238,151,64214,1,8,0:0:0:0:
238,151,64364,1,8,0:0:0:0:
240,151,64439,1,0,0:0:0:0:
240,151,64514,1,8,0:0:0:0:
243,146,64589,1,8,0:0:0:0:
240,149,64664,1,0,0:0:0:0:
240,149,64814,1,8,0:0:0:0:
238,151,65114,1,8,0:0:0:0:
238,151,65264,1,8,0:0:0:0:
238,151,65339,1,8,0:0:0:0:
240,151,65414,1,0,0:0:0:0:
243,146,65564,1,0,0:0:0:0:
240,149,65639,1,0,0:0:0:0:
240,149,65714,1,8,0:0:0:0:
240,149,65789,1,0,0:0:0:0:
238,151,65864,1,8,0:0:0:0:
238,151,66014,1,12,0:0:0:0:
240,150,66464,1,0,0:0:0:0:
239,151,66539,1,0,0:0:0:0:
240,149,66614,1,8,0:0:0:0:
238,151,66914,1,0,0:0:0:0:
238,151,67064,1,0,0:0:0:0:
240,150,67364,1,8,0:0:0:0:
240,150,67514,1,0,0:0:0:0:
236,153,67664,1,0,0:0:0:0:
238,151,67814,1,8,0:0:0:0:
240,150,68114,1,8,0:0:0:0:
240,150,68264,1,0,0:0:0:0:
240,150,68339,1,0,0:0:0:0:
240,150,68414,1,12,0:0:0:0:
228,148,68564,1,0,0:0:0:0:
226,152,68639,1,0,0:0:0:0:
226,152,68714,1,0,0:0:0:0:
226,152,68864,1,12,0:0:0:0:
226,152,69014,1,0,0:0:0:0:
226,152,69089,1,0,0:0:0:0:
226,152,69164,1,0,0:0:0:0:
226,152,69314,1,8,0:0:0:0:
226,152,69464,1,0,0:0:0:0:
226,152,69614,1,8,0:0:0:0:
226,152,69896,1,8,0:0:0:0:
226,152,70212,1,8,0:0:0:0:
220,148,70287,1,8,0:0:0:0:
226,147,70362,1,8,0:0:0:0:
220,148,70437,1,8,0:0:0:0:
226,152,70512,1,0,0:0:0:0:
226,152,70662,1,0,0:0:0:0:
226,152,70812,1,12,0:0:0:0:
226,152,71112,1,0,0:0:0:0:
220,148,71262,1,0,0:0:0:0:
226,152,71337,1,0,0:0:0:0:
226,152,71412,1,8,0:0:0:0:
218,146,71562,1,8,0:0:0:0:
218,146,71637,1,0,0:0:0:0:
217,146,71712,1,8,0:0:0:0:
214,143,71862,1,8,0:0:0:0:
214,143,72012,1,0,0:0:0:0:
214,142,72162,1,0,0:0:0:0:
214,142,72237,1,0,0:0:0:0:
214,142,72312,1,8,0:0:0:0:
214,142,72462,1,0,0:0:0:0:
214,142,72612,1,8,0:0:0:0:
217,146,72687,1,8,0:0:0:0:
214,143,72762,1,0,0:0:0:0:
214,143,72912,1,8,0:0:0:0:
214,142,73062,1,0,0:0:0:0:
214,142,73212,1,8,0:0:0:0:
220,148,73512,1,0,0:0:0:0:
217,146,73662,1,8,0:0:0:0:
220,148,73737,1,8,0:0:0:0:
220,148,73812,1,0,0:0:0:0:
220,148,73962,1,0,0:0:0:0:
216,150,74037,1,0,0:0:0:0:
216,150,74112,1,8,0:0:0:0:
216,150,74187,1,0,0:0:0:0:
220,148,74262,1,8,0:0:0:0:
220,148,74412,1,0,0:0:0:0:
217,146,74562,1,8,0:0:0:0:
217,146,74637,1,0,0:0:0:0:
220,148,74712,1,8,0:0:0:0:
220,148,74862,1,0,0:0:0:0:
216,150,75012,1,8,0:0:0:0:
220,148,75312,1,8,0:0:0:0:
221,149,75612,1,4,0:0:0:0:
221,147,75912,1,0,0:0:0:0:
220,152,76062,1,0,0:0:0:0:
220,152,76137,1,0,0:0:0:0:
220,152,76212,1,8,0:0:0:0:
231,142,76362,1,8,0:0:0:0:
231,142,76512,1,0,0:0:0:0:
221,147,76812,1,0,0:0:0:0:
221,149,77112,1,8,0:0:0:0:
221,149,77262,1,8,0:0:0:0:
220,152,77337,1,8,0:0:0:0:
221,147,77412,1,0,0:0:0:0:
224,151,77562,1,0,0:0:0:0:
221,147,77712,1,8,0:0:0:0:
220,152,78012,1,8,0:0:0:0:
220,152,78312,1,0,0:0:0:0:
221,147,78462,1,8,0:0:0:0:
224,151,78612,1,0,0:0:0:0:
220,152,78762,1,8,0:0:0:0:
220,152,78837,1,8,0:0:0:0:
220,152,78912,1,0,0:0:0:0:
220,152,79062,1,0,0:0:0:0:
220,152,79212,1,8,0:0:0:0:
218,156,79362,1,8,0:0:0:0:
218,156,79437,1,0,0:0:0:0:
218,156,79512,1,8,0:0:0:0:
220,152,79662,1,0,0:0:0:0:
220,152,79812,1,8,0:0:0:0:
220,152,79887,1,8,0:0:0:0:
220,152,79962,1,0,0:0:0:0:
220,152,80037,1,0,0:0:0:0:
220,152,80112,1,8,0:0:0:0:
225,154,80262,1,8,0:0:0:0:
225,154,80412,1,4,0:0:0:0:
220,152,80712,1,0,0:0:0:0:
220,152,80862,1,0,0:0:0:0:
220,152,80937,1,0,0:0:0:0:
220,152,81012,1,8,0:0:0:0:
225,154,81162,1,8,0:0:0:0:
225,154,81237,1,0,0:0:0:0:
225,154,81312,1,8,0:0:0:0:
225,154,81387,1,8,0:0:0:0:
220,152,81462,1,0,0:0:0:0:
220,152,81612,1,8,0:0:0:0:
220,152,81762,1,0,0:0:0:0:
220,152,81837,1,0,0:0:0:0:
220,152,81912,1,8,0:0:0:0:
219,152,82062,1,0,0:0:0:0:
219,152,82212,1,8,0:0:0:0:
219,152,82287,1,8,0:0:0:0:
219,152,82362,1,0,0:0:0:0:
220,152,82512,1,8,0:0:0:0:
220,152,82662,1,8,0:0:0:0:
220,152,82812,1,0,0:0:0:0:
225,152,83112,1,0,0:0:0:0:
219,152,83262,1,8,0:0:0:0:
220,152,83412,1,0,0:0:0:0:
220,152,83562,1,0,0:0:0:0:
220,152,83637,1,0,0:0:0:0:
220,152,83712,1,8,0:0:0:0:
220,152,83787,1,0,0:0:0:0:
225,152,83862,1,8,0:0:0:0:
225,152,84012,1,8,0:0:0:0:
213,150,84162,1,8,0:0:0:0:
213,150,84237,1,0,0:0:0:0:
213,150,84312,1,8,0:0:0:0:
213,150,84462,1,0,0:0:0:0:
213,150,84612,1,12,0:0:0:0:
213,150,84912,1,12,0:0:0:0:
213,150,85212,1,4,0:0:0:0:
218,152,85512,1,0,0:0:0:0:
219,152,85662,1,0,0:0:0:0:
219,151,85737,1,0,0:0:0:0:
213,150,85812,1,8,0:0:0:0:
213,150,85962,1,8,0:0:0:0:
213,150,86112,1,0,0:0:0:0:
218,152,86412,1,0,0:0:0:0:
218,144,86712,1,8,0:0:0:0:
219,143,86862,1,8,0:0:0:0:
221,142,87012,1,0,0:0:0:0:
221,142,87162,1,8,0:0:0:0:
221,140,87237,1,8,0:0:0:0:
221,140,87312,1,0,0:0:0:0:
218,144,87612,1,8,0:0:0:0:
214,141,87912,1,0,0:0:0:0:
213,141,88062,1,0,0:0:0:0:
213,141,88137,1,0,0:0:0:0:
213,141,88212,1,8,0:0:0:0:
213,141,88362,1,8,0:0:0:0:
213,141,88437,1,0,0:0:0:0:
213,141,88512,1,8,0:0:0:0:
213,139,88587,1,8,0:0:0:0:
214,141,88662,1,8,0:0:0:0:
214,141,88812,1,0,0:0:0:0:
213,141,88962,1,0,0:0:0:0:
213,141,89037,1,0,0:0:0:0:
213,141,89112,1,8,0:0:0:0:
213,141,89262,1,0,0:0:0:0:
213,141,89412,1,8,0:0:0:0:
213,139,89562,1,8,0:0:0:0:
214,141,89712,1,0,0:0:0:0:
213,141,89862,1,0,0:0:0:0:
213,141,90012,1,12,0:0:0:0:
213,141,90312,1,0,0:0:0:0:
214,141,90612,1,12,0:0:0:0:
213,141,90912,1,0,0:0:0:0:
213,141,91212,1,12,0:0:0:0:
214,141,91512,1,0,0:0:0:0:
213,141,91662,1,8,0:0:0:0:
213,141,91812,1,8,0:0:0:0:
213,141,91962,1,0,0:0:0:0:
212,146,92037,1,0,0:0:0:0:
213,141,92112,1,8,0:0:0:0:
211,135,92262,1,0,0:0:0:0:
211,135,92412,1,12,0:0:0:0:
211,135,92712,1,0,0:0:0:0:
218,133,93012,1,12,0:0:0:0:
211,135,93312,1,0,0:0:0:0:
211,135,93612,1,12,0:0:0:0:
218,133,94062,1,0,0:0:0:0:
218,133,94137,1,0,0:0:0:0:
215,129,94212,1,8,0:0:0:0:
215,132,94312,1,8,0:0:0:0:
217,130,94412,1,8,0:0:0:0:
218,130,94512,1,0,0:0:0:0:
220,129,94612,1,0,0:0:0:0:
218,133,94712,1,0,0:0:0:0:
218,133,94812,1,12,0:0:0:0:
221,121,95112,1,8,0:0:0:0:
220,121,95412,1,0,0:0:0:0:
220,121,95712,1,0,0:0:0:0:
221,121,96012,1,8,0:0:0:0:
220,121,96462,1,8,0:0:0:0:
220,121,96612,1,0,0:0:0:0:
221,121,96762,1,0,0:0:0:0:
221,121,96912,1,8,0:0:0:0:
220,121,97212,1,12,0:0:0:0:
220,121,97362,1,0,0:0:0:0:
220,121,97437,1,0,0:0:0:0:
220,121,97512,1,0,0:0:0:0:
221,121,97662,1,12,0:0:0:0:
221,121,97812,1,0,0:0:0:0:
221,121,97887,1,0,0:0:0:0:
220,121,97962,1,0,0:0:0:0:
214,117,98112,1,12,0:0:0:0:
209,117,98262,1,12,0:0:0:0:
221,126,98712,1,8,0:0:0:0:
221,126,99012,1,0,0:0:0:0:
220,126,99312,1,0,0:0:0:0:
221,126,99612,1,12,0:0:0:0:
221,126,99912,1,8,0:0:0:0:
220,126,100062,1,8,0:0:0:0:
220,126,100212,1,0,0:0:0:0:
221,126,100362,1,0,0:0:0:0:
221,126,100512,1,8,0:0:0:0:
221,126,100812,1,0,0:0:0:0:
220,126,101112,1,0,0:0:0:0:
221,126,101262,1,0,0:0:0:0:
221,126,101412,1,8,0:0:0:0:
221,126,101562,1,0,0:0:0:0:
221,126,101637,1,0,0:0:0:0:
221,126,101712,1,8,0:0:0:0:
220,117,102012,1,8,0:0:0:0:
219,117,102312,1,8,0:0:0:0:
219,117,102462,1,0,0:0:0:0:
219,117,102612,1,8,0:0:0:0:
220,117,102762,1,8,0:0:0:0:
220,117,102912,1,0,0:0:0:0:
219,117,103212,1,0,0:0:0:0:
219,117,103512,1,8,0:0:0:0:
219,117,103662,1,0,0:0:0:0:
220,117,103812,1,8,0:0:0:0:
219,117,103962,1,8,0:0:0:0:
219,117,104037,1,8,0:0:0:0:
219,117,104112,1,0,0:0:0:0:
215,121,104412,1,12,0:0:0:0:
214,122,104712,1,8,0:0:0:0:
214,122,104862,1,8,0:0:0:0:
214,122,105012,1,0,0:0:0:0:
215,121,105162,1,0,0:0:0:0:
215,121,105312,1,8,0:0:0:0:
214,122,105612,1,0,0:0:0:0:
215,132,105912,1,0,0:0:0:0:
212,130,106062,1,0,0:0:0:0:
212,130,106212,1,8,0:0:0:0:
212,130,106362,1,0,0:0:0:0:
215,131,106437,1,0,0:0:0:0:
215,131,106512,1,8,0:0:0:0:
215,132,106812,1,8,0:0:0:0:
214,135,107112,1,8,0:0:0:0:
214,135,107262,1,0,0:0:0:0:
215,131,107412,1,8,0:0:0:0:
215,132,107562,1,8,0:0:0:0:
215,132,107712,1,0,0:0:0:0:
214,135,107862,1,0,0:0:0:0:
206,133,107937,1,0,0:0:0:0:
219,136,108012,1,12,0:0:0:0:
204,132,108162,1,0,0:0:0:0:
204,132,108237,1,0,0:0:0:0:
204,132,108312,1,0,0:0:0:0:
204,132,108462,1,12,0:0:0:0:
218,137,108612,1,0,0:0:0:0:
215,132,108687,1,0,0:0:0:0:
214,135,108762,1,0,0:0:0:0:
212,137,108837,1,0,0:0:0:0:
215,132,108912,1,8,0:0:0:0:
211,135,109062,1,0,0:0:0:0:
211,135,109212,1,12,0:0:0:0:
218,137,109512,1,8,0:0:0:0:
215,132,109662,1,8,0:0:0:0:
212,137,109812,1,0,0:0:0:0:
211,135,109962,1,0,0:0:0:0:
211,135,110112,1,8,0:0:0:0:
211,133,110412,1,0,0:0:0:0:
212,137,110712,1,0,0:0:0:0:
211,135,110862,1,0,0:0:0:0:
215,132,111012,1,8,0:0:0:0:
211,133,111162,1,0,0:0:0:0:
211,133,111237,1,0,0:0:0:0:
211,133,111312,1,8,0:0:0:0:
215,132,111612,1,8,0:0:0:0:
211,135,111912,1,8,0:0:0:0:
215,132,112062,1,0,0:0:0:0:
211,133,112212,1,8,0:0:0:0:
215,132,112362,1,8,0:0:0:0:
215,132,112512,1,0,0:0:0:0:
211,135,112812,1,0,0:0:0:0:
215,132,113112,1,8,0:0:0:0:
211,133,113262,1,0,0:0:0:0:
215,132,113412,1,8,0:0:0:0:
213,130,113562,1,8,0:0:0:0:
213,130,113637,1,8,0:0:0:0:
213,130,113712,1,0,0:0:0:0:
215,132,114012,1,12,0:0:0:0:
206,137,114312,1,8,0:0:0:0:
204,137,114462,1,8,0:0:0:0:
204,137,114612,1,0,0:0:0:0:
204,137,114762,1,0,0:0:0:0:
210,139,114912,1,8,0:0:0:0:
206,137,115212,1,8,0:0:0:0:
204,137,115512,1,8,0:0:0:0:
204,137,115662,1,0,0:0:0:0:
204,140,115812,1,8,0:0:0:0:
206,137,115962,1,8,0:0:0:0:
206,137,116112,1,0,0:0:0:0:
206,142,116262,1,0,0:0:0:0:
206,142,116412,1,12,0:0:0:0:
204,140,116712,1,8,0:0:0:0:
203,143,117012,1,0,0:0:0:0:
206,142,117312,1,8,0:0:0:0:
206,142,117462,1,8,0:0:0:0:
203,143,117912,1,8,0:0:0:0:
206,142,118212,1,0,0:0:0:0:
206,142,118512,1,8,0:0:0:0:
203,143,118812,1,0,0:0:0:0:
206,142,119112,1,0,0:0:0:0:
206,142,119412,1,8,0:0:0:0:
203,143,119712,1,0,0:0:0:0:
206,142,119862,1,0,0:0:0:0:
203,143,120612,1,0,0:0:0:0:
203,143,120912,1,0,0:0:0:0:
203,143,121062,1,0,0:0:0:0:
203,143,121137,1,0,0:0:0:0:
203,143,121212,1,8,0:0:0:0:
197,143,121512,1,0,0:0:0:0:
197,143,121662,1,0,0:0:0:0:
197,143,121812,1,8,0:0:0:0:
197,143,122112,1,0,0:0:0:0:
197,143,122412,1,8,0:0:0:0:
197,143,122712,1,8,0:0:0:0:
197,143,122862,1,0,0:0:0:0:
197,143,123012,1,8,0:0:0:0:
197,143,123312,1,8,0:0:0:0:
197,143,123612,1,0,0:0:0:0:
197,143,123912,1,0,0:0:0:0:
197,143,124062,1,8,0:0:0:0:
197,143,124362,1,0,0:0:0:0:
197,143,124512,1,8,0:0:0:0:
197,143,124812,1,0,0:0:0:0:
197,143,125112,1,0,0:0:0:0:
201,142,125262,1,0,0:0:0:0:
197,143,125337,1,0,0:0:0:0:
197,143,125412,1,8,0:0:0:0:
202,139,125562,1,8,0:0:0:0:
201,139,125712,1,0,0:0:0:0:
201,139,125862,1,0,0:0:0:0:
201,139,126012,1,12,0:0:0:0:
192,130,126312,1,0,0:0:0:0:
192,130,126462,1,8,0:0:0:0:
192,130,126762,1,0,0:0:0:0:
192,130,126912,1,8,0:0:0:0:
192,130,127062,1,8,0:0:0:0:
192,130,127212,1,0,0:0:0:0:
192,130,127512,1,8,0:0:0:0:
192,130,127662,1,8,0:0:0:0:
177,126,127962,1,8,0:0:0:0:
178,124,128112,1,0,0:0:0:0:
178,124,128412,1,8,0:0:0:0:
177,126,128712,1,0,0:0:0:0:
177,126,128862,1,0,0:0:0:0:
177,126,129012,1,8,0:0:0:0:
169,128,129312,1,8,0:0:0:0:
178,124,129462,1,0,0:0:0:0:
169,128,129762,1,8,0:0:0:0:
169,128,129912,1,8,0:0:0:0:
166,129,130062,1,0,0:0:0:0:
169,128,130212,1,8,0:0:0:0:
163,130,130512,1,0,0:0:0:0:
163,130,130812,1,12,0:0:0:0:
146,130,131262,1,0,0:0:0:0:
146,130,131412,1,8,0:0:0:0:
146,130,131862,1,8,0:0:0:0:
146,130,132012,1,8,0:0:0:0:
146,130,132462,1,8,0:0:0:0:
146,130,132612,1,0,0:0:0:0:
146,130,132912,1,8,0:0:0:0:
146,130,133212,1,0,0:0:0:0:
146,130,133512,1,0,0:0:0:0:
146,130,133662,1,0,0:0:0:0:
146,130,133812,1,8,0:0:0:0:
140,130,134112,1,8,0:0:0:0:
146,130,134262,1,0,0:0:0:0:
139,134,134337,1,0,0:0:0:0:
140,133,134412,1,12,0:0:0:0:
138,131,134562,1,8,0:0:0:0:
125,130,134712,1,0,0:0:0:0:
125,130,134862,1,12,0:0:0:0:
128,132,135162,1,8,0:0:0:0:
129,136,135237,1,8,0:0:0:0:
129,136,135312,1,8,0:0:0:0:
129,136,135387,1,8,0:0:0:0:
133,136,135462,1,0,0:0:0:0:
124,136,135612,1,12,0:0:0:0:
123,135,135912,1,8,0:0:0:0:
123,135,136062,1,8,0:0:0:0:
122,135,136212,1,0,0:0:0:0:
124,136,136512,1,0,0:0:0:0:
123,135,136812,1,0,0:0:0:0:
123,135,136962,1,8,0:0:0:0:
123,135,137112,1,0,0:0:0:0:
122,135,137262,1,0,0:0:0:0:
124,136,137412,1,8,0:0:0:0:
123,135,137712,1,8,0:0:0:0:
123,135,137862,1,8,0:0:0:0:
123,135,138012,1,0,0:0:0:0:
122,135,138312,1,0,0:0:0:0:
124,136,138462,1,0,0:0:0:0:
123,135,138612,1,8,0:0:0:0:
123,135,138912,1,0,0:0:0:0:
122,135,139062,1,8,0:0:0:0:
124,136,139362,1,8,0:0:0:0:
123,135,139512,1,0,0:0:0:0:
123,135,139812,1,8,0:0:0:0:
124,136,140112,1,0,0:0:0:0:
124,136,140262,1,0,0:0:0:0:
124,136,140337,1,0,0:0:0:0:
123,135,140412,1,12,0:0:0:0:
123,135,140562,1,8,0:0:0:0:
123,135,140712,1,0,0:0:0:0:
123,135,140862,1,0,0:0:0:0:
124,136,141012,1,8,0:0:0:0:
124,136,141312,1,8,0:0:0:0:
123,135,141462,1,0,0:0:0:0:
123,135,141762,1,0,0:0:0:0:
124,136,141912,1,0,0:0:0:0:
124,136,142212,1,8,0:0:0:0:
123,135,142512,1,0,0:0:0:0:
123,135,142662,1,0,0:0:0:0:
119,132,142812,1,8,0:0:0:0:
120,132,142962,1,0,0:0:0:0:
124,136,143262,1,0,0:0:0:0:
123,135,143412,1,8,0:0:0:0:
123,135,143712,1,8,0:0:0:0:
120,132,143862,1,8,0:0:0:0:
116,132,144012,1,0,0:0:0:0:
116,131,144162,1,0,0:0:0:0:
116,131,144237,1,0,0:0:0:0:
116,131,144312,1,8,0:0:0:0:
116,131,144462,1,0,0:0:0:0:
116,131,144612,1,8,0:0:0:0:
120,132,144762,1,8,0:0:0:0:
116,132,144912,1,0,0:0:0:0:
116,131,145062,1,0,0:0:0:0:
116,131,145212,1,12,0:0:0:0:
107,133,145512,1,0,0:0:0:0:
107,133,145662,1,8,0:0:0:0:
116,131,146112,1,8,0:0:0:0:
112,133,146412,1,0,0:0:0:0:
112,133,146712,1,0,0:0:0:0:
116,131,147012,1,8,0:0:0:0:
112,133,147312,1,0,0:0:0:0:
112,133,147612,1,8,0:0:0:0:
109,136,147912,1,0,0:0:0:0:
109,136,148062,1,8,0:0:0:0:
112,133,148512,1,8,0:0:0:0:
109,136,148812,1,8,0:0:0:0:
109,136,148962,1,0,0:0:0:0:
109,136,149037,1,0,0:0:0:0:
104,136,149112,1,8,0:0:0:0:
103,140,149262,1,0,0:0:0:0:
105,141,149412,1,8,0:0:0:0:
105,141,149487,1,8,0:0:0:0:
105,141,149562,1,8,0:0:0:0:
105,141,149637,1,8,0:0:0:0:
105,141,149712,1,0,0:0:0:0:
105,141,149787,1,0,0:0:0:0:
105,141,149862,1,0,0:0:0:0:
105,141,149937,1,0,0:0:0:0:
105,141,150012,1,12,0:0:0:0:
112,136,150312,1,0,0:0:0:0:
112,132,150462,1,0,0:0:0:0:
111,133,150537,1,0,0:0:0:0:
111,133,150612,1,8,0:0:0:0:
111,133,150762,1,8,0:0:0:0:
111,133,150837,1,0,0:0:0:0:
111,133,150912,1,8,0:0:0:0:
111,133,150987,1,8,0:0:0:0:
112,136,151062,1,0,0:0:0:0:
112,136,151212,1,8,0:0:0:0:
112,132,151362,1,8,0:0:0:0:
112,132,151437,1,0,0:0:0:0:
111,133,151512,1,8,0:0:0:0:
108,123,151662,1,0,0:0:0:0:
109,123,151812,1,8,0:0:0:0:
109,123,151887,1,8,0:0:0:0:
109,123,151962,1,0,0:0:0:0:
110,122,152037,1,8,0:0:0:0:
110,122,152112,1,0,0:0:0:0:
110,122,152262,1,0,0:0:0:0:
108,121,152412,1,12,0:0:0:0:
104,127,152862,1,0,0:0:0:0:
104,126,152937,1,0,0:0:0:0:
104,126,153012,1,8,0:0:0:0:
105,126,153312,1,0,0:0:0:0:
105,126,153462,1,0,0:0:0:0:
104,127,153762,1,8,0:0:0:0:
104,127,153912,1,0,0:0:0:0:
104,126,154062,1,0,0:0:0:0:
105,126,154212,1,8,0:0:0:0:
105,118,154512,1,8,0:0:0:0:
107,118,154662,1,0,0:0:0:0:
107,118,154737,1,0,0:0:0:0:
111,117,154812,1,12,0:0:0:0:
111,117,154962,1,0,0:0:0:0:
111,117,155037,1,0,0:0:0:0:
111,117,155112,1,0,0:0:0:0:
111,117,155262,1,12,0:0:0:0:
111,117,155412,1,0,0:0:0:0:
110,118,155487,1,0,0:0:0:0:
107,118,155562,1,0,0:0:0:0:
107,118,155712,1,12,0:0:0:0:
111,117,155862,1,12,0:0:0:0:
111,117,156012,1,8,0:0:0:0:
111,117,156296,1,0,0:0:0:0:
102,111,156463,1,0,0:0:0:0:
102,111,156538,1,0,0:0:0:0:
107,118,156613,1,8,0:0:0:0:
112,125,156763,1,0,0:0:0:0:
102,111,156913,1,8,0:0:0:0:
98,112,157213,1,12,0:0:0:0:
106,112,157512,1,0,0:0:0:0:
102,111,157662,1,0,0:0:0:0:
102,111,157737,1,0,0:0:0:0:
102,111,157812,1,8,0:0:0:0:
106,112,157962,1,8,0:0:0:0:
106,112,158037,1,0,0:0:0:0:
106,112,158112,1,8,0:0:0:0:
106,112,158187,1,8,0:0:0:0:
106,112,158262,1,0,0:0:0:0:
106,112,158412,1,0,0:0:0:0:
102,111,158562,1,0,0:0:0:0:
102,111,158637,1,0,0:0:0:0:
102,111,158712,1,8,0:0:0:0:
106,112,158862,1,0,0:0:0:0:
101,112,159012,1,8,0:0:0:0:
99,112,159087,1,0,0:0:0:0:
99,112,159162,1,8,0:0:0:0:
95,112,159312,1,8,0:0:0:0:
102,111,159462,1,0,0:0:0:0:
102,111,159612,1,8,0:0:0:0:
106,111,159912,1,0,0:0:0:0:
106,111,160062,1,8,0:0:0:0:
106,111,160137,1,8,0:0:0:0:
106,111,160212,1,0,0:0:0:0:
102,111,160362,1,0,0:0:0:0:
102,111,160437,1,8,0:0:0:0:
102,111,160512,1,0,0:0:0:0:
102,111,160587,1,0,0:0:0:0:
106,111,160662,1,8,0:0:0:0:
106,111,160812,1,0,0:0:0:0:
106,111,160962,1,0,0:0:0:0:
106,111,161037,1,0,0:0:0:0:
106,111,161112,1,8,0:0:0:0:
109,114,161262,1,0,0:0:0:0:
109,114,161412,1,8,0:0:0:0:
115,113,161562,1,0,0:0:0:0:
115,113,161712,1,12,0:0:0:0:
115,113,162012,1,4,0:0:0:0:
109,114,162312,1,8,0:0:0:0:
109,114,162462,1,0,0:0:0:0:
118,109,162537,1,0,0:0:0:0:
118,109,162612,1,8,0:0:0:0:
118,109,162762,1,0,0:0:0:0:
118,109,162912,1,8,0:0:0:0:
117,115,163212,1,0,0:0:0:0:
119,116,163512,1,8,0:0:0:0:
119,116,163662,1,8,0:0:0:0:
120,116,163812,1,0,0:0:0:0:
120,116,163962,1,0,0:0:0:0:
117,115,164037,1,0,0:0:0:0:
117,115,164112,1,8,0:0:0:0:
119,116,164262,1,0,0:0:0:0:
119,116,164412,1,8,0:0:0:0:
119,116,164712,1,8,0:0:0:0:
120,116,164862,1,8,0:0:0:0:
120,116,165012,1,0,0:0:0:0:
117,115,165162,1,8,0:0:0:0:
119,116,165237,1,0,0:0:0:0:
119,116,165312,1,8,0:0:0:0:
119,116,165387,1,8,0:0:0:0:
119,116,165462,1,0,0:0:0:0:
119,116,165612,1,8,0:0:0:0:
120,116,165762,1,0,0:0:0:0:
120,116,165837,1,0,0:0:0:0:
120,116,165912,1,8,0:0:0:0:
120,116,166062,1,0,0:0:0:0:
119,116,166212,1,8,0:0:0:0:
119,116,166287,1,8,0:0:0:0:
119,116,166362,1,0,0:0:0:0:
119,116,166437,1,0,0:0:0:0:
119,116,166512,1,8,0:0:0:0:
120,116,166662,1,8,0:0:0:0:
120,116,166812,1,12,0:0:0:0:
121,108,167112,1,12,0:0:0:0:
125,116,167262,1,8,0:0:0:0:
125,116,167337,1,8,0:0:0:0:
125,116,167412,1,0,0:0:0:0:
125,116,167562,1,0,0:0:0:0:
125,116,167637,1,8,0:0:0:0:
125,116,167712,1,0,0:0:0:0:
125,116,167787,1,0,0:0:0:0:
125,116,167862,1,8,0:0:0:0:
129,116,168012,1,0,0:0:0:0:
125,116,168162,1,8,0:0:0:0:
125,116,168237,1,0,0:0:0:0:
125,116,168312,1,8,0:0:0:0:
125,116,168462,1,0,0:0:0:0:
125,116,168612,1,8,0:0:0:0:
125,116,168687,1,8,0:0:0:0:
125,116,168762,1,8,0:0:0:0:
122,117,168912,1,8,0:0:0:0:
125,116,169062,1,0,0:0:0:0:
125,116,169212,1,8,0:0:0:0:
132,116,169512,1,8,0:0:0:0:
141,121,169662,1,8,0:0:0:0:
141,121,169737,1,8,0:0:0:0:
141,121,169812,1,0,0:0:0:0:
142,121,169962,1,0,0:0:0:0:
142,121,170037,1,8,0:0:0:0:
143,121,170112,1,8,0:0:0:0:
144,121,170187,1,0,0:0:0:0:
144,121,170262,1,8,0:0:0:0:
142,125,170412,1,8,0:0:0:0:
141,121,170562,1,8,0:0:0:0:
143,125,170637,1,0,0:0:0:0:
143,125,170712,1,8,0:0:0:0:
142,121,170862,1,0,0:0:0:0:
142,121,171012,1,12,0:0:0:0:
144,121,171312,1,12,0:0:0:0:
143,125,171612,1,4,0:0:0:0:
143,129,171912,1,0,0:0:0:0:
146,127,172062,1,0,0:0:0:0:
146,127,172137,1,0,0:0:0:0:
146,127,172212,1,12,0:0:0:0:
143,125,172512,1,12,0:0:0:0:
143,129,172812,1,4,0:0:0:0:
146,127,173112,1,12,0:0:0:0:
143,125,173412,1,4,0:0:0:0:
143,129,173712,1,4,0:0:0:0:
146,127,174012,1,12,0:0:0:0:
147,127,174162,1,0,0:0:0:0:
147,127,174237,1,0,0:0:0:0:
147,127,174312,1,0,0:0:0:0:
147,127,174462,1,12,0:0:0:0:
147,127,174612,1,0,0:0:0:0:
147,127,174687,1,0,0:0:0:0:
146,127,174762,1,0,0:0:0:0:
146,127,174912,1,12,0:0:0:0:
138,129,175062,1,8,0:0:0:0:
138,129,175137,1,8,0:0:0:0:
138,129,175212,1,0,0:0:0:0:
137,129,175362,1,0,0:0:0:0:
137,129,175437,1,8,0:0:0:0:
137,129,175512,1,0,0:0:0:0:
137,129,175662,1,0,0:0:0:0:
137,129,175812,1,8,0:0:0:0:
132,128,175887,1,8,0:0:0:0:
138,129,175962,1,8,0:0:0:0:
132,128,176037,1,8,0:0:0:0:
138,129,176112,1,0,0:0:0:0:
132,128,176187,1,0,0:0:0:0:
137,129,176262,1,0,0:0:0:0:
137,129,176337,1,0,0:0:0:0:
137,129,176412,1,12,0:0:0:0:
131,140,176712,1,0,0:0:0:0:
138,129,177012,1,12,0:0:0:0:
131,126,177312,1,0,0:0:0:0:
131,126,177612,1,12,0:0:0:0:
132,125,178062,1,8,0:0:0:0:
131,126,178212,1,0,0:0:0:0:
131,126,178362,1,0,0:0:0:0:
131,126,178512,1,8,0:0:0:0:
132,125,178662,1,8,0:0:0:0:
137,133,178812,1,4,0:0:0:0:
137,133,179112,1,8,0:0:0:0:
137,133,179412,1,4,0:0:0:0:
137,133,179712,1,8,0:0:0:0:
137,133,180012,1,4,0:0:0:0:
137,133,180462,1,0,0:0:0:0:
137,133,180537,1,0,0:0:0:0:
137,133,180612,1,8,0:0:0:0:
137,133,180712,1,8,0:0:0:0:
137,133,180812,1,8,0:0:0:0:
137,133,180912,1,0,0:0:0:0:
137,133,181012,1,0,0:0:0:0:
142,131,181112,1,0,0:0:0:0:
143,129,181212,1,12,0:0:0:0:
144,131,181512,1,8,0:0:0:0:
148,130,181812,1,0,0:0:0:0:
150,129,182112,1,0,0:0:0:0:
150,129,182412,1,8,0:0:0:0:
159,128,182862,1,8,0:0:0:0:
158,128,183012,1,0,0:0:0:0:
158,128,183162,1,0,0:0:0:0:
158,128,183312,1,8,0:0:0:0:
157,120,183612,1,12,0:0:0:0:
157,120,183762,1,0,0:0:0:0:
157,120,183837,1,0,0:0:0:0:
159,117,183912,1,0,0:0:0:0:
161,115,184062,1,12,0:0:0:0:
161,115,184212,1,0,0:0:0:0:
161,115,184287,1,0,0:0:0:0:
161,115,184362,1,0,0:0:0:0:
161,115,184512,1,12,0:0:0:0:
161,115,184662,1,12,0:0:0:0:
170,121,184812,1,0,0:0:0:0:
170,121,184962,1,0,0:0:0:0:
170,121,185037,1,0,0:0:0:0:
170,121,185112,1,8,0:0:0:0:
170,121,185262,1,0,0:0:0:0:
170,121,185412,1,8,0:0:0:0:
166,127,185512,1,8,0:0:0:0:
166,124,185612,1,8,0:0:0:0:
170,121,185712,1,0,0:0:0:0:
170,121,185812,1,0,0:0:0:0:
170,121,185912,1,0,0:0:0:0:
170,121,186012,1,12,0:0:0:0:
161,115,186462,1,0,0:0:0:0:
161,115,186537,1,0,0:0:0:0:
161,115,186612,1,8,0:0:0:0:
161,115,186762,1,0,0:0:0:0:
161,115,186912,1,8,0:0:0:0:
166,114,187062,1,0,0:0:0:0:
161,115,187362,1,8,0:0:0:0:
161,115,187437,1,0,0:0:0:0:
161,115,187512,1,8,0:0:0:0:
161,115,187662,1,0,0:0:0:0:
161,115,187812,1,8,0:0:0:0:
157,109,187962,1,8,0:0:0:0:
157,109,188037,1,8,0:0:0:0:
157,109,188112,1,0,0:0:0:0:
157,109,188187,1,8,0:0:0:0:
157,109,188262,1,0,0:0:0:0:
157,109,188412,1,8,0:0:0:0:
161,115,188712,1,0,0:0:0:0:
161,115,188787,1,0,0:0:0:0:
160,113,188862,1,8,0:0:0:0:
163,117,189162,1,8,0:0:0:0:
163,117,189237,1,0,0:0:0:0:
163,117,189312,1,8,0:0:0:0:
161,115,189612,1,0,0:0:0:0:
161,115,189687,1,8,0:0:0:0:
161,115,189762,1,0,0:0:0:0:
160,113,189837,1,0,0:0:0:0:
163,117,189912,1,8,0:0:0:0:
163,117,189987,1,8,0:0:0:0:
163,117,190062,1,0,0:0:0:0:
163,117,190137,1,0,0:0:0:0:
163,117,190212,1,8,0:0:0:0:
163,117,190287,1,0,0:0:0:0:
166,120,190362,1,8,0:0:0:0:
166,120,190437,1,8,0:0:0:0:
166,120,190512,1,0,0:0:0:0:
157,121,190662,1,8,0:0:0:0:
157,120,190812,1,4,0:0:0:0:
153,117,191112,1,8,0:0:0:0:
153,117,191262,1,8,0:0:0:0:
153,117,191337,1,8,0:0:0:0:
153,117,191412,1,0,0:0:0:0:
153,117,191487,1,8,0:0:0:0:
157,121,191562,1,0,0:0:0:0:
157,120,191712,1,8,0:0:0:0:
157,120,191787,1,0,0:0:0:0:
153,117,191862,1,8,0:0:0:0:
153,117,192012,1,0,0:0:0:0:
153,117,192162,1,0,0:0:0:0:
153,117,192237,1,8,0:0:0:0:
153,117,192312,1,8,0:0:0:0:
153,117,192387,1,0,0:0:0:0:
153,117,192462,1,8,0:0:0:0:
149,121,192612,1,8,0:0:0:0:
149,121,192687,1,0,0:0:0:0:
149,121,192762,1,8,0:0:0:0:
149,121,192837,1,8,0:0:0:0:
149,121,192912,1,0,0:0:0:0:
149,121,192987,1,0,0:0:0:0:
149,121,193062,1,8,0:0:0:0:
149,121,193212,1,8,0:0:0:0:
140,119,193362,1,8,0:0:0:0:
140,119,193662,1,0,0:0:0:0:
140,119,193737,1,8,0:0:0:0:
140,120,193812,1,8,0:0:0:0:
140,120,193887,1,0,0:0:0:0:
140,120,193962,1,8,0:0:0:0:
137,118,194112,1,8,0:0:0:0:
137,118,194187,1,8,0:0:0:0:
140,119,194262,1,8,0:0:0:0:
140,119,194412,1,0,0:0:0:0:
140,119,194562,1,8,0:0:0:0:
140,119,194637,1,8,0:0:0:0:
140,119,194712,1,0,0:0:0:0:
140,120,194862,1,8,0:0:0:0:
137,118,195012,1,0,0:0:0:0:
134,123,195087,1,0,0:0:0:0:
137,118,195162,1,8,0:0:0:0:
134,123,195237,1,8,0:0:0:0:
134,123,195312,1,0,0:0:0:0:
134,123,195387,1,0,0:0:0:0:
134,123,195462,1,8,0:0:0:0:
134,123,195537,1,0,0:0:0:0:
140,119,195612,1,12,0:0:0:0:
137,118,195912,1,8,0:0:0:0:
139,122,196062,1,0,0:0:0:0:
137,118,196137,1,0,0:0:0:0:
139,122,196212,1,8,0:0:0:0:
139,122,196362,1,8,0:0:0:0:
139,122,196437,1,0,0:0:0:0:
139,122,196512,1,8,0:0:0:0:
140,119,196587,1,8,0:0:0:0:
137,118,196662,1,0,0:0:0:0:
137,118,196812,1,8,0:0:0:0:
127,122,196962,1,0,0:0:0:0:
127,122,197037,1,8,0:0:0:0:
127,122,197187,1,8,0:0:0:0:
127,122,197262,1,0,0:0:0:0:
129,119,197412,1,0,0:0:0:0:
129,119,197562,1,8,0:0:0:0:
129,119,197637,1,0,0:0:0:0:
129,119,197712,1,8,0:0:0:0:
128,121,197787,1,8,0:0:0:0:
127,122,197862,1,0,0:0:0:0:
127,122,198012,1,8,0:0:0:0:
129,119,198312,1,8,0:0:0:0:
129,119,198462,1,8,0:0:0:0:
129,119,198537,1,0,0:0:0:0:
129,119,198612,1,8,0:0:0:0:
129,119,198762,1,8,0:0:0:0:
127,122,198837,1,8,0:0:0:0:
127,122,198912,1,0,0:0:0:0:
127,122,198987,1,8,0:0:0:0:
129,119,199062,1,0,0:0:0:0:
129,119,199212,1,0,0:0:0:0:
129,119,199287,1,0,0:0:0:0:
139,123,199362,1,12,0:0:0:0:
129,119,199512,1,0,0:0:0:0:
140,120,199662,1,8,0:0:0:0:
140,120,199737,1,0,0:0:0:0:
140,120,199812,1,12,0:0:0:0:
140,120,199962,1,0,0:0:0:0:
140,120,200037,1,0,0:0:0:0:
140,120,200112,1,12,0:0:0:0:
140,120,200262,1,0,0:0:0:0:
140,120,200412,1,12,0:0:0:0:
148,127,200562,1,0,0:0:0:0:
148,127,200637,1,0,0:0:0:0:
148,127,200712,1,8,0:0:0:0:
148,127,200787,1,8,0:0:0:0:
148,127,200862,1,0,0:0:0:0:
148,127,200937,1,0,0:0:0:0:
148,127,201012,1,12,0:0:0:0:
148,127,201162,1,8,0:0:0:0:
148,127,201237,1,0,0:0:0:0:
148,127,201312,1,8,0:0:0:0:
148,127,201387,1,8,0:0:0:0:
148,127,201462,1,0,0:0:0:0:
148,127,201537,1,0,0:0:0:0:
148,127,201612,1,12,0:0:0:0:
148,127,201762,1,8,0:0:0:0:
148,127,201837,1,0,0:0:0:0:
148,127,201912,1,8,0:0:0:0:
148,127,201987,1,8,0:0:0:0:
148,127,202062,1,8,0:0:0:0:
148,127,202137,1,0,0:0:0:0:
148,127,202212,1,12,0:0:0:0:
143,125,202362,1,0,0:0:0:0:
143,125,202437,1,0,0:0:0:0:
143,125,202512,1,8,0:0:0:0:
143,123,202662,1,8,0:0:0:0:
144,123,202812,1,4,0:0:0:0:
144,123,202962,1,8,0:0:0:0:
144,123,203037,1,8,0:0:0:0:
144,123,203112,1,0,0:0:0:0:
143,125,203262,1,4,0:0:0:0:
143,125,203412,1,8,0:0:0:0:
143,125,203487,1,8,0:0:0:0:
143,123,203562,1,0,0:0:0:0:
144,123,203712,1,12,0:0:0:0:
144,123,203862,1,8,0:0:0:0:
144,123,203937,1,0,0:0:0:0:
144,123,204012,1,8,0:0:0:0:
143,125,204162,1,12,0:0:0:0:
143,125,204312,1,8,0:0:0:0:
143,125,204387,1,0,0:0:0:0:
143,125,204462,1,8,0:0:0:0:
144,123,204612,1,8,0:0:0:0:
144,123,204687,1,0,0:0:0:0:
144,123,204762,1,8,0:0:0:0:
144,123,204837,1,8,0:0:0:0:
144,123,204912,1,0,0:0:0:0:
144,123,204987,1,0,0:0:0:0:
143,125,205062,1,8,0:0:0:0:
143,125,205137,1,0,0:0:0:0:
143,125,205212,1,12,0:0:0:0:
133,128,205362,1,0,0:0:0:0:
133,128,205437,1,0,0:0:0:0:
133,128,205512,1,8,0:0:0:0:
133,128,205662,1,8,0:0:0:0:
133,128,205737,1,0,0:0:0:0:
133,128,205812,1,8,0:0:0:0:
133,128,205887,1,8,0:0:0:0:
133,128,205962,1,0,0:0:0:0:
126,130,206037,1,0,0:0:0:0:
126,130,206112,1,8,0:0:0:0:
126,130,206187,1,8,0:0:0:0:
126,130,206262,1,8,0:0:0:0:
126,130,206337,1,8,0:0:0:0:
126,130,206412,1,8,0:0:0:0:
133,128,206712,1,8,0:0:0:0:
137,129,207012,1,0,0:0:0:0:
137,129,207312,1,0,0:0:0:0:
137,129,207612,1,8,0:0:0:0:
128,133,208812,1,8,0:0:0:0:
128,133,209412,1,0,0:0:0:0:
128,133,210012,1,8,0:0:0:0:
128,133,211212,1,8,0:0:0:0:
128,133,211812,1,8,0:0:0:0:
128,133,212412,1,0,0:0:0:0:
126,129,213612,1,0,0:0:0:0:
126,129,214212,1,8,0:0:0:0:
126,129,214812,1,0,0:0:0:0:
126,129,215412,1,0,0:0:0:0:
126,129,216012,1,8,0:0:0:0:
126,129,216612,1,8,0:0:0:0:
126,129,216912,1,8,0:0:0:0:
126,129,217212,1,4,0:0:0:0:
126,129,217512,1,0,0:0:0:0:
126,129,217662,1,8,0:0:0:0:
126,129,217962,1,0,0:0:0:0:
126,129,218412,1,8,0:0:0:0:
126,129,219012,1,0,0:0:0:0:
126,129,219312,1,8,0:0:0:0:
126,129,219612,1,0,0:0:0:0:
126,129,219912,1,0,0:0:0:0:
126,129,220062,1,0,0:0:0:0:
126,129,220362,1,8,0:0:0:0:
122,125,220662,1,0,0:0:0:0:
126,129,220812,1,8,0:0:0:0:
126,129,221412,1,8,0:0:0:0:
126,129,221712,1,8,0:0:0:0:
126,129,222012,1,0,0:0:0:0:
126,129,222612,1,8,0:0:0:0:
126,129,222912,1,0,0:0:0:0:
126,129,223212,1,8,0:0:0:0:
126,129,223512,1,8,0:0:0:0:
126,129,223812,1,0,0:0:0:0:
126,129,224112,1,0,0:0:0:0:
126,129,224412,1,8,0:0:0:0:
126,129,224862,1,8,0:0:0:0:
126,129,225612,1,8,0:0:0:0:
126,129,225912,1,0,0:0:0:0:
126,129,226062,1,0,0:0:0:0:
126,129,226137,1,0,0:0:0:0:
126,129,226212,1,8,0:0:0:0:
126,129,226362,1,0,0:0:0:0:
126,129,226512,1,8,0:0:0:0:
126,129,226812,1,12,0:0:0:0:
136,128,227112,1,8,0:0:0:0:
136,128,227262,1,8,0:0:0:0:
136,128,227337,1,8,0:0:0:0:
135,127,227412,1,0,0:0:0:0:
135,127,227562,1,0,0:0:0:0:
132,126,227637,1,8,0:0:0:0:
132,126,227712,1,0,0:0:0:0:
132,126,227787,1,0,0:0:0:0:
136,128,227862,1,8,0:0:0:0:
136,128,228012,1,0,0:0:0:0:
136,128,228162,1,8,0:0:0:0:
130,127,228237,1,0,0:0:0:0:
131,127,228312,1,8,0:0:0:0:
135,127,228462,1,0,0:0:0:0:
132,126,228612,1,8,0:0:0:0:
137,126,228687,1,0,0:0:0:0:
137,126,228762,1,8,0:0:0:0:
136,128,228912,1,8,0:0:0:0:
136,128,229062,1,0,0:0:0:0:
136,123,229212,1,8,0:0:0:0:
139,128,229512,1,0,0:0:0:0:
137,126,229662,1,8,0:0:0:0:
137,126,229737,1,8,0:0:0:0:
136,128,229812,1,0,0:0:0:0:
136,128,229962,1,0,0:0:0:0:
136,128,230037,1,8,0:0:0:0:
136,123,230112,1,8,0:0:0:0:
136,123,230187,1,0,0:0:0:0:
139,128,230262,1,8,0:0:0:0:
139,128,230412,1,0,0:0:0:0:
137,126,230562,1,0,0:0:0:0:
137,126,230637,1,0,0:0:0:0:
137,126,230712,1,8,0:0:0:0:
136,128,230862,1,0,0:0:0:0:
136,128,231012,1,8,0:0:0:0:
136,127,231087,1,8,0:0:0:0:
136,127,231162,1,0,0:0:0:0:
139,128,231312,1,12,0:0:0:0:
137,126,231612,1,4,0:0:0:0:
141,129,231912,1,8,0:0:0:0:
142,130,232062,1,0,0:0:0:0:
142,130,232137,1,0,0:0:0:0:
143,130,232212,1,8,0:0:0:0:
143,130,232362,1,0,0:0:0:0:
143,130,232512,1,8,0:0:0:0:
141,129,232812,1,0,0:0:0:0:
142,130,233112,1,8,0:0:0:0:
143,130,233262,1,8,0:0:0:0:
143,130,233337,1,8,0:0:0:0:
143,130,233412,1,0,0:0:0:0:
146,130,233562,1,0,0:0:0:0:
146,130,233712,1,8,0:0:0:0:
143,130,234012,1,8,0:0:0:0:
143,130,234162,1,8,0:0:0:0:
143,130,234237,1,8,0:0:0:0:
143,130,234312,1,0,0:0:0:0:
138,131,234462,1,0,0:0:0:0:
138,131,234537,1,8,0:0:0:0:
138,131,234612,1,0,0:0:0:0:
138,131,234687,1,0,0:0:0:0:
143,130,234762,1,8,0:0:0:0:
143,130,234912,1,8,0:0:0:0:
126,130,235062,1,0,0:0:0:0:
127,130,235137,1,0,0:0:0:0:
127,130,235212,1,8,0:0:0:0:
127,131,235362,1,8,0:0:0:0:
127,131,235437,1,0,0:0:0:0:
127,131,235512,1,8,0:0:0:0:
127,131,235662,1,0,0:0:0:0:
127,131,235812,1,8,0:0:0:0:
127,131,235887,1,8,0:0:0:0:
126,130,235962,1,0,0:0:0:0:
126,130,236037,1,8,0:0:0:0:
127,130,236112,1,0,0:0:0:0:
127,131,236262,1,0,0:0:0:0:
127,131,236412,1,12,0:0:0:0:
151,130,236712,1,8,0:0:0:0:
151,130,236862,1,0,0:0:0:0:
151,130,237012,1,12,0:0:0:0:
147,133,237162,1,0,0:0:0:0:
151,130,237462,1,0,0:0:0:0:
147,133,237612,1,12,0:0:0:0:
147,133,237912,1,0,0:0:0:0:
147,133,238062,1,0,0:0:0:0:
147,133,238137,1,0,0:0:0:0:
147,133,238212,1,12,0:0:0:0:
147,133,238362,1,0,0:0:0:0:
147,133,238512,1,8,0:0:0:0:
147,133,238812,1,12,0:0:0:0:
147,133,239112,1,8,0:0:0:0:
147,133,239262,1,0,0:0:0:0:
147,133,239412,1,12,0:0:0:0:
147,133,239562,1,0,0:0:0:0:
147,133,239862,1,0,0:0:0:0:
147,133,240012,1,12,0:0:0:0:
153,135,240312,1,0,0:0:0:0:
153,135,240462,1,0,0:0:0:0:
153,135,240612,1,12,0:0:0:0:
153,135,240912,1,12,0:0:0:0:
147,133,241212,1,4,0:0:0:0:
128,126,241512,1,0,0:0:0:0:
128,126,241662,1,0,0:0:0:0:
128,128,241812,1,12,0:0:0:0:
126,131,242112,1,4,0:0:0:0:
126,131,242412,1,4,0:0:0:0:
121,129,242712,1,12,0:0:0:0:
126,131,243012,1,4,0:0:0:0:
121,129,243312,1,4,0:0:0:0:
121,129,243612,1,12,0:0:0:0:
121,129,243762,1,0,0:0:0:0:
121,129,243837,1,0,0:0:0:0:
121,129,243912,1,0,0:0:0:0:
121,129,244062,1,12,0:0:0:0:
121,129,244212,1,0,0:0:0:0:
121,129,244287,1,0,0:0:0:0:
121,129,244362,1,0,0:0:0:0:
121,129,244512,1,12,0:0:0:0:
121,129,244662,1,0,0:0:0:0:
121,129,244812,1,0,0:0:0:0:
121,129,244962,1,12,0:0:0:0:
121,129,245112,1,0,0:0:0:0:
95,116,245262,1,0,0:0:0:0:
95,116,245337,1,0,0:0:0:0:
95,116,245412,1,8,0:0:0:0:
95,116,245487,1,8,0:0:0:0:
95,116,245562,1,0,0:0:0:0:
95,116,245637,1,8,0:0:0:0:
95,116,245712,1,0,0:0:0:0:
95,116,245787,1,0,0:0:0:0:
95,116,245862,1,0,0:0:0:0:
95,116,246012,1,12,0:0:0:0:
103,123,246312,1,0,0:0:0:0:
103,123,246612,1,12,0:0:0:0:
103,123,246912,1,0,0:0:0:0:
103,123,247212,1,12,0:0:0:0:
103,123,247662,1,0,0:0:0:0:
103,123,247812,1,8,0:0:0:0:
103,123,247962,1,8,0:0:0:0:
103,123,248112,1,0,0:0:0:0:
103,123,248262,1,0,0:0:0:0:
103,123,248412,1,12,0:0:0:0:
103,123,248712,1,0,0:0:0:0:
103,123,249012,1,12,0:0:0:0:
103,123,249312,1,0,0:0:0:0:
107,122,249612,1,12,0:0:0:0:
103,123,250062,1,0,0:0:0:0:
103,123,250137,1,0,0:0:0:0:
103,123,250212,1,8,0:0:0:0:
91,123,250312,1,8,0:0:0:0:
96,126,250412,1,8,0:0:0:0:
98,126,250512,1,0,0:0:0:0:
98,126,250612,1,0,0:0:0:0:
98,125,250712,1,0,0:0:0:0:
103,123,250812,1,12,0:0:0:0:
105,132,251112,1,8,0:0:0:0:
105,132,251412,1,0,0:0:0:0:
105,132,251712,1,0,0:0:0:0:
105,132,252012,1,8,0:0:0:0:
105,132,252462,1,8,0:0:0:0:
105,132,252612,1,0,0:0:0:0:
105,132,252762,1,0,0:0:0:0:
105,132,252912,1,8,0:0:0:0:
105,132,253212,1,12,0:0:0:0:
105,132,253362,1,0,0:0:0:0:
105,132,253437,1,0,0:0:0:0:
105,132,253512,1,0,0:0:0:0:
105,132,253662,1,12,0:0:0:0:
105,132,253812,1,0,0:0:0:0:
105,132,253887,1,0,0:0:0:0:
105,132,253962,1,0,0:0:0:0:
105,132,254112,1,12,0:0:0:0:
98,127,254262,1,12,0:0:0:0:
97,127,254712,1,8,0:0:0:0:
95,127,255012,1,0,0:0:0:0:
98,127,255312,1,0,0:0:0:0:
97,127,255612,1,12,0:0:0:0:
102,140,255912,1,8,0:0:0:0:
102,140,256062,1,8,0:0:0:0:
104,139,256212,1,0,0:0:0:0:
106,139,256362,1,0,0:0:0:0:
106,139,256512,1,8,0:0:0:0:
107,138,256812,1,0,0:0:0:0:
109,138,257112,1,0,0:0:0:0:
104,139,257262,1,0,0:0:0:0:
106,139,257412,1,8,0:0:0:0:
107,138,257562,1,0,0:0:0:0:
107,138,257637,1,0,0:0:0:0:
107,138,257712,1,8,0:0:0:0:
109,138,258012,1,8,0:0:0:0:
122,147,258312,1,8,0:0:0:0:
122,147,258462,1,0,0:0:0:0:
122,147,258612,1,8,0:0:0:0:
122,147,258762,1,8,0:0:0:0:
122,147,258912,1,0,0:0:0:0:
122,147,259212,1,0,0:0:0:0:
123,151,259512,1,8,0:0:0:0:
123,151,259662,1,0,0:0:0:0:
123,151,259812,1,8,0:0:0:0:
122,147,259962,1,8,0:0:0:0:
122,147,260037,1,8,0:0:0:0:
128,148,260112,1,0,0:0:0:0:
123,151,260412,1,12,0:0:0:0:
123,151,260712,1,8,0:0:0:0:
122,147,260862,1,8,0:0:0:0:
122,147,261012,1,0,0:0:0:0:
128,148,261162,1,0,0:0:0:0:
128,146,261312,1,8,0:0:0:0:
128,144,261612,1,0,0:0:0:0:
126,149,261912,1,0,0:0:0:0:
128,148,262062,1,0,0:0:0:0:
128,146,262212,1,8,0:0:0:0:
129,150,262362,1,0,0:0:0:0:
128,149,262437,1,0,0:0:0:0:
128,149,262512,1,8,0:0:0:0:
126,149,262812,1,8,0:0:0:0:
128,148,263112,1,8,0:0:0:0:
129,150,263262,1,0,0:0:0:0:
128,149,263412,1,8,0:0:0:0:
136,141,263562,1,8,0:0:0:0:
136,141,263712,1,0,0:0:0:0:
128,148,263862,1,0,0:0:0:0:
128,148,263937,1,0,0:0:0:0:
136,141,264012,1,12,0:0:0:0:
136,141,264162,1,0,0:0:0:0:
136,141,264237,1,0,0:0:0:0:
136,141,264312,1,0,0:0:0:0:
136,141,264462,1,12,0:0:0:0:
136,141,264612,1,0,0:0:0:0:
136,141,264687,1,0,0:0:0:0:
136,141,264762,1,0,0:0:0:0:
134,141,264837,1,0,0:0:0:0:
134,141,264912,1,8,0:0:0:0:
136,141,265062,1,0,0:0:0:0:
136,141,265212,1,12,0:0:0:0:
136,135,265512,1,8,0:0:0:0:
136,135,265812,1,0,0:0:0:0:
136,135,266112,1,8,0:0:0:0:
136,135,266412,1,0,0:0:0:0:
136,135,267012,1,0,0:0:0:0:
136,135,267312,1,0,0:0:0:0:
136,135,267612,1,8,0:0:0:0:
136,135,267912,1,0,0:0:0:0:
136,135,268212,1,8,0:0:0:0:
136,135,268512,1,8,0:0:0:0:
136,135,268812,1,0,0:0:0:0:
136,135,269112,1,0,0:0:0:0:
136,135,269412,1,8,0:0:0:0:
136,135,269712,1,0,0:0:0:0:
136,135,270012,1,12,0:0:0:0:
136,135,270312,1,8,0:0:0:0:
136,135,270612,1,0,0:0:0:0:
136,135,270912,1,8,0:0:0:0:
136,135,271212,1,8,0:0:0:0:
136,135,271512,1,0,0:0:0:0:
136,135,271812,1,8,0:0:0:0:
136,135,272112,1,0,0:0:0:0:
136,135,272412,1,12,0:0:0:0:
136,135,272712,1,0,0:0:0:0:
136,135,272862,1,12,0:0:0:0:
136,135,273162,1,0,0:0:0:0:
131,134,273312,1,12,0:0:0:0:
256,192,273612,12,0,276012,0:0:0:0:
