osu file format v14

[General]
AudioFilename: audio.mp3
AudioLeadIn: 0
PreviewTime: 68544
Countdown: 0
SampleSet: Soft
StackLeniency: 0.7
Mode: 3
LetterboxInBreaks: 0
SpecialStyle: 0
WidescreenStoryboard: 1

[Editor]
Bookmarks: 18782,38132,62282,70832,80432,82832,90632,91082
DistanceSpacing: 0.4
BeatDivisor: 4
GridSize: 32
TimelineZoom: 2.1

[Metadata]
Title:Hitohira no, Daisuki o,
TitleUnicode:ひとひらの、だいすきを、
Artist:Fukunaga Yoru
ArtistUnicode:ふくなが よる
Creator:Dailycare
Version:Hard,
Source:はるとゆき、
Tags:Haru to Yuki, 西坂恭平 Nishizaka Kyouhei eroge visual novel video game opening op japanese pop jpop j-pop vn short ver version AKABEiSOFT3
BeatmapID:3678863
BeatmapSetID:1794838

[Difficulty]
HPDrainRate:7.8
CircleSize:4
OverallDifficulty:7.8
ApproachRate:5
SliderMultiplier:1.4
SliderTickRate:1

[Events]
//Background and Video events
0,0,"aaaa.jpg",0,0
//Break Periods
//Storyboard Layer 0 (Background)
//Storyboard Layer 1 (Fail)
//Storyboard Layer 2 (Pass)
//Storyboard Layer 3 (Foreground)
//Storyboard Layer 4 (Overlay)
//Storyboard Sound Samples
Sample,18182,0,"drumwhistle.wav",60
Sample,19382,0,"stick.wav",60
Sample,64982,0,"drumwhistle.wav",60
Sample,82382,0,"drumwhistle.wav",60
Sample,91082,0,"stick.wav",60
Sample,106982,0,"drumwhistle.wav",60

[TimingPoints]
182,300,4,2,1,60,1,0

[HitObjects]
64,192,182,128,0,782:0:0:0:0:
320,192,332,128,0,482:0:0:0:0:
320,192,632,128,0,782:0:0:0:0:
192,192,782,1,0,0:0:0:0:
192,192,1082,128,0,1682:0:0:0:0:
448,192,1232,128,0,1382:0:0:0:0:
448,192,1532,128,0,1682:0:0:0:0:
320,192,1682,1,0,0:0:0:0:
320,192,1982,128,0,2282:0:0:0:0:
64,192,2282,128,0,2582:0:0:0:0:
448,192,2582,128,0,3032:0:0:0:0:
320,192,2732,128,0,3032:0:0:0:0:
192,192,3032,1,0,0:0:0:0:
320,192,3482,128,0,3932:0:0:0:0:
192,192,3932,1,0,0:0:0:0:
448,192,4082,1,0,0:0:0:0:
64,192,4232,1,0,0:0:0:0:
320,192,4382,1,0,0:0:0:0:
320,192,4532,1,0,0:0:0:0:
192,192,4682,1,0,0:0:0:0:
448,192,4832,1,0,0:0:0:0:
64,192,4982,128,0,5282:0:0:0:0:
320,192,5132,128,0,5582:0:0:0:0:
64,192,5432,128,0,5582:0:0:0:0:
192,192,5582,1,0,0:0:0:0:
192,192,5882,128,0,6182:0:0:0:0:
448,192,6032,128,0,6482:0:0:0:0:
192,192,6332,128,0,6482:0:0:0:0:
320,192,6482,1,0,0:0:0:0:
320,192,6782,128,0,7082:0:0:0:0:
64,192,7082,128,0,7382:0:0:0:0:
448,192,7382,128,0,7532:0:0:0:0:
320,192,7532,128,0,7682:0:0:0:0:
192,192,7682,128,0,7832:0:0:0:0:
64,192,7832,128,0,8132:0:0:0:0:
320,192,8282,128,0,8432:0:0:0:0:
448,192,8432,128,0,8582:0:0:0:0:
64,192,8582,128,0,8732:0:0:0:0:
192,192,8732,128,0,9782:0:0:0:0:
64,192,9782,1,2,0:0:0:0:
320,192,9782,128,0,10082:0:0:0:60:LR_CymbalCCR.wav
448,192,9782,1,0,0:0:0:60:stick.wav
64,192,10082,128,8,10382:0:0:0:0:
192,192,10082,1,0,0:0:0:0:
320,192,10382,1,2,0:0:0:0:
448,192,10382,1,0,0:0:0:0:
320,192,10532,1,2,0:0:0:0:
64,192,10682,128,8,10982:0:0:0:0:
192,192,10682,1,0,0:0:0:0:
448,192,10682,1,0,0:0:0:0:
320,192,10982,1,2,0:0:0:0:
448,192,10982,1,0,0:0:0:0:
192,192,11132,1,2,0:0:0:0:
64,192,11282,1,8,0:0:0:0:
448,192,11282,1,0,0:0:0:0:
192,192,11432,1,2,0:0:0:0:
320,192,11432,1,0,0:0:0:0:
64,192,11582,1,0,0:0:0:0:
448,192,11732,1,2,0:0:0:0:
320,192,11732,1,0,0:0:0:0:
64,192,11882,1,8,0:0:0:0:
320,192,11882,1,0,0:0:0:0:
192,192,12182,128,2,12482:0:0:0:0:
448,192,12182,1,0,0:0:0:0:
64,192,12482,1,8,0:0:0:0:
320,192,12482,128,0,12782:0:0:0:0:
64,192,12782,1,2,0:0:0:0:
448,192,12782,1,0,0:0:0:0:
64,192,12932,1,2,0:0:0:0:
192,192,13082,1,8,0:0:0:0:
320,192,13082,1,0,0:0:0:0:
448,192,13082,128,0,13382:0:0:0:0:
64,192,13382,1,2,0:0:0:0:
192,192,13382,1,0,0:0:0:0:
320,192,13532,1,2,0:0:0:0:
192,192,13682,1,8,0:0:0:0:
448,192,13682,1,0,0:0:0:0:
320,192,13832,1,2,0:0:0:0:
64,192,13832,1,0,0:0:0:0:
192,192,13982,1,0,0:0:0:0:
448,192,14132,1,2,0:0:0:0:
320,192,14132,1,0,0:0:0:0:
64,192,14282,1,8,0:0:0:0:
192,192,14282,1,0,0:0:0:0:
64,192,14582,1,2,0:0:0:0:
192,192,14582,128,0,14882:0:0:0:60:LR_CymbalCCR.wav
448,192,14582,1,0,0:0:0:0:
320,192,14882,1,8,0:0:0:0:
448,192,14882,128,0,15182:0:0:0:0:
64,192,15182,1,2,0:0:0:0:
192,192,15182,1,0,0:0:0:0:
192,192,15332,1,2,0:0:0:0:
64,192,15482,1,8,0:0:0:0:
320,192,15482,1,0,0:0:0:0:
448,192,15482,128,0,15782:0:0:0:0:
64,192,15782,1,2,0:0:0:0:
192,192,15782,1,0,0:0:0:0:
320,192,15932,1,2,0:0:0:0:
64,192,16082,1,8,0:0:0:0:
448,192,16082,1,0,0:0:0:0:
192,192,16232,1,2,0:0:0:0:
320,192,16232,1,0,0:0:0:0:
448,192,16382,1,0,0:0:0:0:
64,192,16532,1,2,0:0:0:0:
192,192,16532,1,0,0:0:0:0:
64,192,16682,1,8,0:0:0:0:
448,192,16682,1,0,0:0:0:0:
64,192,16982,1,2,0:0:0:0:
320,192,16982,128,0,17282:0:0:0:0:
64,192,17282,128,8,17582:0:0:0:0:
448,192,17282,1,0,0:0:0:0:
320,192,17582,1,2,0:0:0:0:
448,192,17582,128,0,17882:0:0:0:0:
64,192,17882,1,8,0:0:0:0:
192,192,17882,1,0,0:0:0:0:
320,192,18032,1,2,0:0:0:0:
192,192,18107,1,2,0:0:0:0:
64,192,18182,1,8,0:0:0:0:
448,192,18182,1,0,0:0:0:60:LR_CymbalCCR.wav
320,192,18332,1,0,0:0:0:0:
64,192,18482,1,2,0:0:0:0:
448,192,18482,1,0,0:0:0:0:
64,192,18632,1,4,0:0:0:0:
192,192,18632,1,8,0:0:0:0:
448,192,18632,1,0,0:0:0:60:drumwhistle.wav
320,192,18782,128,2,18932:0:0:0:0:
64,192,18932,1,8,0:0:0:0:
192,192,18932,1,0,0:0:0:0:
320,192,19007,1,8,0:0:0:0:
448,192,19007,1,0,0:0:0:0:
192,192,19082,1,0,0:0:0:60:Tom1.wav
448,192,19157,1,0,0:0:0:60:Tom1.wav
192,192,19232,1,0,0:0:0:60:Tom3.wav
320,192,19307,1,0,0:0:0:60:Tom3.wav
64,192,19382,1,2,0:0:0:0:
448,192,19382,128,0,19682:0:0:0:60:LR_CymbalCCR.wav
64,192,19682,128,8,19982:0:0:0:0:
192,192,19682,1,0,0:0:0:0:
320,192,19982,1,2,0:0:0:0:
448,192,19982,1,0,0:0:0:0:
448,192,20132,1,2,0:0:0:0:
64,192,20282,128,8,20582:0:0:0:0:
192,192,20282,1,0,0:0:0:0:
320,192,20282,1,0,0:0:0:0:
192,192,20582,1,0,0:0:0:0:
448,192,20582,128,0,21182:0:0:0:0:
320,192,20732,1,2,0:0:0:0:
64,192,20882,1,8,0:0:0:0:
192,192,20882,1,0,0:0:0:0:
320,192,21032,1,2,0:0:0:0:
64,192,21182,128,2,21482:0:0:0:0:
192,192,21182,1,0,0:0:0:0:
320,192,21332,1,2,0:0:0:0:
320,192,21482,1,8,0:0:0:0:
448,192,21482,128,0,21782:0:0:0:0:
192,192,21782,128,2,22382:0:0:0:0:
64,192,21782,1,0,0:0:0:0:
320,192,22082,128,8,22382:0:0:0:0:
448,192,22082,1,0,0:0:0:0:
64,192,22382,1,2,0:0:0:0:
448,192,22382,128,0,22982:0:0:0:0:
192,192,22532,1,2,0:0:0:0:
64,192,22682,128,8,22982:0:0:0:0:
320,192,22682,1,0,0:0:0:0:
192,192,22832,1,2,0:0:0:0:
320,192,22982,128,2,23282:0:0:0:0:
192,192,23132,1,2,0:0:0:0:
64,192,23282,128,8,23582:0:0:0:0:
448,192,23282,1,0,0:0:0:0:
192,192,23582,128,2,23732:0:0:0:0:
448,192,23582,1,0,0:0:0:0:
320,192,23732,1,2,0:0:0:0:
448,192,23732,1,0,0:0:0:0:
64,192,23882,1,4,0:0:0:0:
192,192,23882,1,8,0:0:0:0:
320,192,23882,128,0,24182:0:0:0:60:drumwhistle.wav
64,192,24182,128,2,24482:0:0:0:0:
192,192,24182,1,0,0:0:0:60:LR_CymbalCCR.wav
448,192,24182,1,0,0:0:0:60:drumwhistle.wav
320,192,24482,1,8,0:0:0:0:
448,192,24482,128,0,24782:0:0:0:0:
64,192,24782,1,2,0:0:0:0:
192,192,24782,128,0,25082:0:0:0:0:
320,192,24932,1,2,0:0:0:0:
64,192,25082,1,8,0:0:0:0:
320,192,25082,128,0,25382:0:0:0:0:
448,192,25082,1,0,0:0:0:0:
64,192,25382,1,0,0:0:0:0:
192,192,25382,1,0,0:0:0:0:
192,192,25532,1,2,0:0:0:0:
64,192,25682,1,8,0:0:0:0:
448,192,25682,1,0,0:0:0:0:
320,192,25832,1,2,0:0:0:0:
192,192,25982,1,2,0:0:0:0:
448,192,25982,1,8,0:0:0:0:
64,192,26132,1,2,0:0:0:0:
192,192,26132,1,0,0:0:0:0:
64,192,26282,1,2,0:0:0:0:
448,192,26282,1,0,0:0:0:0:
192,192,26582,1,4,0:0:0:0:
320,192,26582,1,8,0:0:0:0:
448,192,26582,128,0,26882:0:0:0:0:
64,192,26882,1,2,0:0:0:0:
192,192,26882,1,0,0:0:0:0:
64,192,27032,128,8,27332:0:0:0:0:
192,192,27032,1,0,0:0:0:60:LR_CymbalCCR.wav
320,192,27032,1,0,0:0:0:0:
320,192,27332,1,2,0:0:0:0:
448,192,27332,1,0,0:0:0:0:
192,192,27407,1,2,0:0:0:0:
64,192,27482,1,4,0:0:0:0:
320,192,27482,128,8,28832:0:0:0:0:
448,192,27482,128,0,28832:0:0:0:0:
64,192,28982,1,4,0:0:0:0:
192,192,28982,1,2,0:0:0:0:
448,192,28982,1,0,0:0:0:0:
320,192,29282,1,0,0:0:0:60:stick.wav
320,192,29582,1,0,0:0:0:60:stick.wav
320,192,29882,1,0,0:0:0:60:stick.wav
320,192,30182,1,0,0:0:0:60:stick.wav
320,192,30482,1,0,0:0:0:60:stick.wav
320,192,30782,1,0,0:0:0:60:stick.wav
320,192,31082,1,0,0:0:0:60:stick.wav
192,192,31382,1,2,0:0:0:0:
448,192,31382,1,0,0:0:0:0:
192,192,31532,1,2,0:0:0:0:
320,192,31682,1,0,0:0:0:60:stick.wav
320,192,31982,1,0,0:0:0:60:stick.wav
320,192,32282,1,0,0:0:0:60:stick.wav
320,192,32582,1,0,0:0:0:60:stick.wav
320,192,32882,1,0,0:0:0:60:stick.wav
320,192,33182,1,0,0:0:0:60:stick.wav
64,192,33332,1,0,0:0:0:60:drumwhistle.wav
320,192,33482,1,0,0:0:0:60:stick.wav
64,192,33632,1,0,0:0:0:60:drumwhistle.wav
192,192,33782,1,2,0:0:0:0:
448,192,33782,1,0,0:0:0:0:
192,192,33932,1,2,0:0:0:0:
320,192,34082,1,0,0:0:0:60:stick.wav
320,192,34382,1,0,0:0:0:60:stick.wav
320,192,34682,1,0,0:0:0:60:stick.wav
192,192,34982,1,0,0:0:0:60:stick.wav
192,192,35282,1,0,0:0:0:60:stick.wav
192,192,35582,1,0,0:0:0:60:stick.wav
192,192,35882,1,0,0:0:0:60:stick.wav
64,192,36182,1,2,0:0:0:0:
320,192,36182,1,0,0:0:0:0:
64,192,36332,1,2,0:0:0:0:
448,192,36482,1,0,0:0:0:60:stick.wav
448,192,36782,1,0,0:0:0:60:stick.wav
448,192,37082,1,0,0:0:0:60:stick.wav
64,192,37382,1,0,0:0:0:60:stick.wav
320,192,37532,1,0,0:0:0:0:
64,192,37682,1,0,0:0:0:60:stick.wav
192,192,37832,1,0,0:0:0:0:
64,192,37982,1,0,0:0:0:60:drumwhistle.wav
448,192,37982,1,0,0:0:0:60:stick.wav
320,192,38132,1,2,0:0:0:0:
64,192,38282,1,12,0:0:0:0:
448,192,38282,1,0,0:0:0:60:drumwhistle.wav
64,192,38432,1,0,0:0:0:0:
192,192,38582,1,2,0:0:0:0:
448,192,38582,1,0,0:0:0:60:LR_CymbalCCR.wav
192,192,38882,128,8,39032:0:0:0:0:
320,192,38882,1,0,0:0:0:0:
448,192,39032,128,0,39182:0:0:0:0:
64,192,39182,1,2,0:0:0:0:
192,192,39182,1,0,0:0:0:0:
192,192,39332,1,2,0:0:0:0:
320,192,39482,128,8,39632:0:0:0:0:
448,192,39482,1,0,0:0:0:0:
64,192,39632,1,2,0:0:0:0:
192,192,39632,128,0,39782:0:0:0:0:
192,192,39932,1,2,0:0:0:0:
448,192,39932,1,0,0:0:0:0:
64,192,40082,1,8,0:0:0:0:
320,192,40082,128,0,40232:0:0:0:0:
192,192,40232,128,0,40382:0:0:0:0:
320,192,40382,1,2,0:0:0:0:
448,192,40382,1,0,0:0:0:0:
320,192,40532,1,2,0:0:0:0:
448,192,40682,1,8,0:0:0:0:
64,192,40682,128,0,40832:0:0:0:0:
192,192,40832,1,0,0:0:0:0:
320,192,40982,128,2,41282:0:0:0:0:
448,192,40982,1,0,0:0:0:0:
64,192,41282,128,8,41582:0:0:0:0:
192,192,41282,1,0,0:0:0:0:
320,192,41582,1,2,0:0:0:0:
448,192,41582,128,0,41732:0:0:0:0:
192,192,41732,1,2,0:0:0:0:
64,192,41882,1,8,0:0:0:0:
448,192,41882,128,0,42032:0:0:0:0:
192,192,42032,128,2,42332:0:0:0:0:
320,192,42032,1,0,0:0:0:0:
64,192,42332,1,2,0:0:0:0:
448,192,42332,1,0,0:0:0:0:
64,192,42482,1,8,0:0:0:0:
320,192,42482,128,0,42782:0:0:0:0:
192,192,42782,1,2,0:0:0:0:
192,192,42932,1,2,0:0:0:0:
448,192,42932,1,0,0:0:0:0:
64,192,43082,1,8,0:0:0:0:
320,192,43082,1,0,0:0:0:60:drumwhistle.wav
192,192,43232,1,0,0:0:0:0:
64,192,43382,1,4,0:0:0:0:
320,192,43382,128,2,43682:0:0:0:0:
448,192,43382,1,0,0:0:0:60:drumwhistle.wav
192,192,43682,1,8,0:0:0:0:
320,192,43832,128,0,43982:0:0:0:0:
64,192,43982,128,2,44132:0:0:0:0:
448,192,43982,1,0,0:0:0:0:
320,192,44132,1,2,0:0:0:0:
64,192,44282,1,8,0:0:0:0:
448,192,44282,1,0,0:0:0:0:
192,192,44432,128,2,44582:0:0:0:0:
320,192,44432,1,0,0:0:0:0:
448,192,44582,128,0,44732:0:0:0:0:
192,192,44732,1,2,0:0:0:0:
64,192,44882,1,8,0:0:0:0:
448,192,44882,1,0,0:0:0:0:
320,192,45032,128,0,45182:0:0:0:0:
64,192,45182,1,2,0:0:0:0:
192,192,45182,128,0,45332:0:0:0:0:
320,192,45332,1,2,0:0:0:0:
64,192,45482,128,8,45782:0:0:0:0:
448,192,45482,1,0,0:0:0:0:
192,192,45782,1,2,0:0:0:0:
448,192,45782,128,0,46082:0:0:0:0:
64,192,45932,1,0,0:0:0:0:
64,192,46082,1,8,0:0:0:0:
320,192,46082,1,0,0:0:0:0:
192,192,46232,1,0,0:0:0:0:
192,192,46382,1,2,0:0:0:0:
448,192,46382,1,0,0:0:0:0:
320,192,46532,1,2,0:0:0:0:
64,192,46682,128,8,46982:0:0:0:0:
192,192,46682,1,0,0:0:0:60:drumwhistle.wav
448,192,46682,1,0,0:0:0:0:
320,192,46982,1,4,0:0:0:0:
448,192,46982,1,8,0:0:0:0:
192,192,47132,1,2,0:0:0:0:
320,192,47132,1,0,0:0:0:0:
64,192,47282,1,2,0:0:0:0:
448,192,47282,1,0,0:0:0:0:
192,192,47432,1,0,0:0:0:60:Tom1.wav
448,192,47432,1,0,0:0:0:0:
320,192,47582,1,0,0:0:0:60:Tom3.wav
64,192,47732,1,2,0:0:0:0:
320,192,47732,1,0,0:0:0:0:
192,192,47882,1,2,0:0:0:0:
448,192,47882,1,0,0:0:0:0:
320,192,48032,1,0,0:0:0:60:Tom3.wav
192,192,48107,1,0,0:0:0:60:Tom3.wav
64,192,48182,1,0,0:0:0:60:LR_CymbalCCR.wav
448,192,48182,128,0,48482:0:0:0:60:stick.wav
320,192,48482,128,0,48782:0:0:0:0:
192,192,48782,128,0,49082:0:0:0:0:
448,192,49082,128,0,49382:0:0:0:0:
64,192,49382,128,0,49982:0:0:0:0:
320,192,49682,128,0,49982:0:0:0:0:
192,192,49982,128,0,50582:0:0:0:0:
448,192,50282,128,0,50582:0:0:0:0:
64,192,50582,128,0,50882:0:0:0:0:
320,192,50882,128,0,51182:0:0:0:0:
192,192,51182,128,0,51482:0:0:0:0:
64,192,51482,1,4,0:0:0:0:
448,192,51482,128,0,52082:0:0:0:0:
192,192,52082,128,0,52382:0:0:0:0:
320,192,52382,128,0,52982:0:0:0:0:
64,192,52982,128,0,53282:0:0:0:60:LR_CymbalCCR.wav
448,192,52982,1,0,0:0:0:0:
192,192,53282,128,0,53582:0:0:0:0:
320,192,53582,128,0,53882:0:0:0:0:
64,192,53882,128,0,54182:0:0:0:0:
448,192,54182,128,0,54782:0:0:0:0:
192,192,54482,128,0,54782:0:0:0:0:
320,192,54782,128,0,55382:0:0:0:0:
64,192,55082,128,0,55382:0:0:0:0:
448,192,55382,128,0,55682:0:0:0:0:
192,192,55682,128,0,55982:0:0:0:0:
320,192,55982,128,0,56282:0:0:0:0:
64,192,56282,128,4,56882:0:0:0:0:
448,192,56282,1,0,0:0:0:0:
320,192,56882,128,0,57182:0:0:0:0:
64,192,57182,1,8,0:0:0:0:
448,192,57182,1,0,0:0:0:0:
320,192,57332,1,0,0:0:0:60:Tom1.wav
192,192,57482,1,0,0:0:0:60:Tom3.wav
64,192,57632,1,0,0:0:0:60:Tom3.wav
320,192,57782,1,2,0:0:0:0:
448,192,57782,128,0,58082:0:0:0:60:LR_CymbalCCR.wav
64,192,58082,1,0,0:0:0:0:
448,192,58232,128,0,58682:0:0:0:0:
192,192,58382,1,0,0:0:0:60:stick.wav
64,192,58682,1,0,0:0:0:0:
192,192,58982,128,0,59282:0:0:0:60:stick.wav
320,192,58982,1,0,0:0:0:0:
64,192,59582,1,0,0:0:0:60:stick.wav
192,192,59582,128,0,59882:0:0:0:0:
320,192,59882,128,0,60182:0:0:0:0:
448,192,59882,1,0,0:0:0:0:
64,192,60182,128,2,60482:0:0:0:0:
448,192,60182,1,0,0:0:0:0:
192,192,60482,1,0,0:0:0:0:
64,192,60632,128,0,61082:0:0:0:0:
320,192,60782,1,0,0:0:0:60:stick.wav
448,192,61082,1,0,0:0:0:0:
192,192,61382,1,0,0:0:0:60:stick.wav
320,192,61382,1,0,0:0:0:0:
64,192,61532,1,2,0:0:0:0:
192,192,61607,1,2,0:0:0:0:
320,192,61682,1,4,0:0:0:0:
448,192,61682,1,8,0:0:0:0:
192,192,61832,1,2,0:0:0:0:
320,192,61832,1,0,0:0:0:0:
64,192,61982,1,8,0:0:0:0:
192,192,61982,1,0,0:0:0:0:
320,192,62057,1,8,0:0:0:0:
64,192,62132,1,2,0:0:0:0:
192,192,62207,1,2,0:0:0:0:
448,192,62282,1,0,0:0:0:60:Tom1.wav
320,192,62357,1,0,0:0:0:60:Tom1.wav
192,192,62432,1,0,0:0:0:60:Tom3.wav
64,192,62507,1,0,0:0:0:60:Tom3.wav
192,192,62582,1,4,0:0:0:0:
320,192,62582,1,8,0:0:0:0:
448,192,62582,1,0,0:0:0:0:
64,192,62882,1,8,0:0:0:0:
320,192,62882,1,0,0:0:0:60:drumwhistle.wav
192,192,63032,1,0,0:0:0:0:
64,192,63182,1,8,0:0:0:0:
192,192,63182,1,0,0:0:0:60:drumwhistle.wav
448,192,63182,1,0,0:0:0:0:
320,192,63332,1,2,0:0:0:0:
64,192,63482,1,8,0:0:0:0:
320,192,63482,1,0,0:0:0:60:drumwhistle.wav
448,192,63482,1,0,0:0:0:0:
192,192,63632,1,2,0:0:0:0:
64,192,63782,1,8,0:0:0:0:
192,192,63782,1,0,0:0:0:60:drumwhistle.wav
320,192,63782,1,0,0:0:0:0:
192,192,64082,1,8,0:0:0:0:
448,192,64082,1,0,0:0:0:60:drumwhistle.wav
320,192,64232,1,2,0:0:0:0:
64,192,64382,1,8,0:0:0:0:
320,192,64382,1,0,0:0:0:60:drumwhistle.wav
448,192,64382,1,0,0:0:0:0:
192,192,64532,1,2,0:0:0:0:
64,192,64682,1,8,0:0:0:0:
192,192,64682,1,0,0:0:0:60:drumwhistle.wav
448,192,64682,1,0,0:0:0:0:
320,192,64832,1,2,0:0:0:0:
192,192,64907,1,2,0:0:0:0:
64,192,64982,128,8,65432:0:0:0:0:
448,192,64982,128,0,65432:0:0:0:60:LR_CymbalCCR.wav
192,192,65432,1,2,0:0:0:0:
320,192,65582,128,8,65882:0:0:0:0:
448,192,65582,128,0,65882:0:0:0:0:
64,192,65882,1,2,0:0:0:0:
64,192,66032,128,2,66182:0:0:0:0:
192,192,66032,128,0,66182:0:0:0:0:
448,192,66182,1,0,0:0:0:60:drumwhistle.wav
64,192,66332,1,8,0:0:0:0:
320,192,66332,1,0,0:0:0:0:
192,192,66482,1,0,0:0:0:0:
448,192,66482,1,0,0:0:0:0:
448,192,66632,1,2,0:0:0:0:
64,192,66782,128,8,67082:0:0:0:0:
192,192,66782,128,0,67082:0:0:0:60:drumwhistle.wav
448,192,67082,128,0,67232:0:0:0:0:
192,192,67232,1,2,0:0:0:0:
320,192,67307,1,2,0:0:0:0:
64,192,67382,1,12,0:0:0:0:
448,192,67382,1,0,0:0:0:60:drumwhistle.wav
192,192,67532,1,2,0:0:0:0:
64,192,67532,1,0,0:0:0:0:
192,192,67682,1,2,0:0:0:0:
320,192,67682,1,0,0:0:0:0:
64,192,67832,1,12,0:0:0:0:
448,192,67832,1,0,0:0:0:60:LR_CymbalCCR.wav
64,192,67982,1,0,0:0:0:0:
192,192,67982,1,2,0:0:0:0:
192,192,68132,1,2,0:0:0:0:
320,192,68132,1,0,0:0:0:0:
64,192,68282,1,4,0:0:0:0:
448,192,68282,1,8,0:0:0:0:
64,192,68432,1,8,0:0:0:0:
320,192,68432,1,0,0:0:0:0:
448,192,68582,128,0,69182:0:0:0:0:
320,192,68882,128,0,69482:0:0:0:0:
192,192,69182,128,0,69782:0:0:0:0:
64,192,69482,1,0,0:0:0:0:
64,192,69782,1,2,0:0:0:0:
320,192,69782,1,4,0:0:0:0:
448,192,69782,128,0,70082:0:0:0:60:LR_CymbalCCR.wav
64,192,70082,128,0,70382:0:0:0:0:
320,192,70232,128,2,70382:0:0:0:0:
192,192,70382,1,8,0:0:0:0:
448,192,70382,1,0,0:0:0:60:drumwhistle.wav
64,192,70532,1,8,0:0:0:0:
320,192,70532,128,0,70982:0:0:0:0:
192,192,70832,128,2,70982:0:0:0:0:
64,192,70982,128,0,71432:0:0:0:0:
448,192,71132,1,0,0:0:0:60:drumwhistle.wav
320,192,71132,1,8,0:0:0:0:
192,192,71282,1,0,0:0:0:60:Tom3.wav
320,192,71432,1,2,0:0:0:0:
64,192,71582,1,8,0:0:0:0:
192,192,71582,128,0,71732:0:0:0:60:drumwhistle.wav
448,192,71582,128,0,71732:0:0:0:0:
64,192,71882,128,2,72032:0:0:0:0:
448,192,71882,128,0,72032:0:0:0:0:
192,192,72182,128,2,72482:0:0:0:0:
320,192,72182,1,0,0:0:0:60:Tom3.wav
448,192,72482,128,0,72782:0:0:0:0:
64,192,72632,128,2,72782:0:0:0:0:
192,192,72782,1,8,0:0:0:0:
320,192,72782,1,0,0:0:0:60:drumwhistle.wav
64,192,72932,1,8,0:0:0:0:
448,192,72932,128,0,73382:0:0:0:0:
192,192,73232,128,2,73382:0:0:0:0:
64,192,73382,1,0,0:0:0:0:
320,192,73382,128,0,73532:0:0:0:0:
192,192,73532,1,8,0:0:0:0:
448,192,73532,1,0,0:0:0:60:drumwhistle.wav
64,192,73682,128,0,73982:0:0:0:60:Tom1.wav
320,192,73682,1,0,0:0:0:0:
448,192,73832,1,0,0:0:0:60:Tom1.wav
192,192,73982,128,4,74132:0:0:0:0:
320,192,73982,128,8,74132:0:0:0:0:
448,192,73982,1,0,0:0:0:60:drumwhistle.wav
192,192,74282,128,2,74432:0:0:0:0:
448,192,74282,128,0,74432:0:0:0:60:drumwhistle.wav
64,192,74582,128,4,75032:0:0:0:0:
320,192,74582,128,2,74882:0:0:0:0:
448,192,74582,128,0,74882:0:0:0:60:LR_CymbalCCR.wav
192,192,75032,1,2,0:0:0:0:
320,192,75182,1,8,0:0:0:0:
448,192,75182,1,0,0:0:0:60:drumwhistle.wav
64,192,75332,1,8,0:0:0:0:
192,192,75332,1,0,0:0:0:0:
448,192,75482,1,0,0:0:0:0:
192,192,75632,1,2,0:0:0:0:
64,192,75782,1,0,0:0:0:0:
448,192,75782,1,0,0:0:0:0:
192,192,75932,1,8,0:0:0:0:
448,192,75932,1,0,0:0:0:60:drumwhistle.wav
64,192,76082,128,0,76382:0:0:0:0:
320,192,76082,1,0,0:0:0:0:
448,192,76232,1,2,0:0:0:0:
192,192,76382,1,8,0:0:0:0:
320,192,76382,128,0,76682:0:0:0:60:drumwhistle.wav
64,192,76682,128,2,76982:0:0:0:0:
448,192,76682,1,0,0:0:0:0:
320,192,76832,1,0,0:0:0:0:
192,192,76982,1,2,0:0:0:0:
448,192,76982,128,0,77282:0:0:0:0:
192,192,77282,128,0,77582:0:0:0:0:
320,192,77432,128,2,77582:0:0:0:0:
64,192,77582,1,8,0:0:0:0:
448,192,77582,1,0,0:0:0:60:drumwhistle.wav
192,192,77732,1,8,0:0:0:0:
320,192,77732,128,0,78182:0:0:0:60:drumwhistle.wav
64,192,78032,128,0,78182:0:0:0:60:Tom3.wav
448,192,78182,1,0,0:0:0:0:
192,192,78332,1,8,0:0:0:0:
448,192,78332,1,0,0:0:0:60:drumwhistle.wav
64,192,78482,1,2,0:0:0:0:
64,192,78632,1,0,0:0:0:60:Tom3.wav
320,192,78632,1,0,0:0:0:0:
320,192,78782,128,8,78932:0:0:0:0:
448,192,78782,128,0,78932:0:0:0:60:drumwhistle.wav
64,192,78932,1,8,0:0:0:0:
64,192,79082,128,0,79232:0:0:0:60:Tom1.wav
192,192,79082,128,0,79232:0:0:0:0:
448,192,79232,1,0,0:0:0:60:Tom1.wav
64,192,79382,128,2,79682:0:0:0:0:
192,192,79382,1,4,0:0:0:0:
320,192,79382,1,0,0:0:0:60:LR_CymbalCCR.wav
448,192,79682,128,0,79982:0:0:0:0:
192,192,79832,128,2,79982:0:0:0:0:
64,192,79982,1,8,0:0:0:0:
320,192,79982,1,0,0:0:0:60:drumwhistle.wav
192,192,80132,128,8,80582:0:0:0:0:
448,192,80132,1,0,0:0:0:0:
320,192,80432,128,2,80582:0:0:0:0:
448,192,80582,128,0,81032:0:0:0:0:
192,192,80732,1,8,0:0:0:0:
64,192,80732,1,0,0:0:0:60:drumwhistle.wav
320,192,80882,1,0,0:0:0:60:Tom3.wav
64,192,81032,1,2,0:0:0:0:
192,192,81182,128,8,81332:0:0:0:0:
320,192,81182,128,0,81332:0:0:0:60:drumwhistle.wav
448,192,81182,1,0,0:0:0:0:
64,192,81482,128,2,81632:0:0:0:0:
320,192,81482,128,0,81632:0:0:0:0:
192,192,81782,1,2,0:0:0:0:
448,192,81782,128,0,82082:0:0:0:0:
192,192,82082,128,2,82382:0:0:0:0:
320,192,82232,128,2,82382:0:0:0:0:
448,192,82232,1,0,0:0:0:0:
64,192,82382,1,8,0:0:0:0:
64,192,82532,128,8,82982:0:0:0:0:
448,192,82532,1,0,0:0:0:0:
320,192,82832,128,2,82982:0:0:0:0:
192,192,82982,1,0,0:0:0:0:
448,192,82982,128,0,83132:0:0:0:0:
64,192,83132,1,8,0:0:0:0:
192,192,83132,1,0,0:0:0:60:drumwhistle.wav
320,192,83282,1,0,0:0:0:60:Tom1.wav
448,192,83282,1,0,0:0:0:0:
192,192,83432,1,0,0:0:0:60:Tom3.wav
64,192,83582,128,4,83732:0:0:0:0:
192,192,83582,128,8,83732:0:0:0:0:
320,192,83582,128,0,83732:0:0:0:60:LR_CymbalCCR.wav
192,192,83882,128,2,84032:0:0:0:0:
320,192,83882,128,4,84032:0:0:0:0:
448,192,83882,128,0,84032:0:0:0:60:LR_CymbalCCR.wav
64,192,84182,128,0,84482:0:0:0:60:LR_CymbalCCR.wav
192,192,84182,128,0,84482:0:0:0:60:Tom3.wav
448,192,84182,128,0,84632:0:0:0:0:
192,192,84632,1,2,0:0:0:0:
320,192,84632,1,0,0:0:0:0:
64,192,84782,1,8,0:0:0:0:
320,192,84782,1,0,0:0:0:60:drumwhistle.wav
64,192,84932,1,8,0:0:0:0:
448,192,84932,1,0,0:0:0:0:
320,192,85082,1,0,0:0:0:0:
64,192,85232,1,2,0:0:0:0:
192,192,85382,1,0,0:0:0:60:Tom3.wav
448,192,85382,1,0,0:0:0:0:
192,192,85532,1,8,0:0:0:0:
320,192,85532,1,0,0:0:0:60:drumwhistle.wav
64,192,85682,1,0,0:0:0:0:
320,192,85682,128,0,85982:0:0:0:0:
448,192,85832,1,2,0:0:0:0:
64,192,85982,1,8,0:0:0:0:
192,192,85982,128,0,86282:0:0:0:60:drumwhistle.wav
64,192,86282,1,2,0:0:0:0:
448,192,86282,128,0,86582:0:0:0:0:
64,192,86582,128,6,86882:0:0:0:0:
320,192,86582,1,0,0:0:0:60:drumwhistle.wav
448,192,86882,128,0,87182:0:0:0:0:
192,192,87032,128,2,87182:0:0:0:0:
64,192,87182,1,8,0:0:0:0:
320,192,87182,1,0,0:0:0:60:drumwhistle.wav
192,192,87332,1,8,0:0:0:0:
320,192,87332,128,0,87782:0:0:0:60:drumwhistle.wav
64,192,87632,128,2,87782:0:0:0:0:
448,192,87782,1,0,0:0:0:0:
64,192,87932,128,4,88232:0:0:0:0:
192,192,87932,1,8,0:0:0:0:
448,192,87932,128,0,88232:0:0:0:0:
192,192,88232,1,2,0:0:0:0:
64,192,88382,1,8,0:0:0:0:
320,192,88382,1,0,0:0:0:0:
448,192,88382,1,0,0:0:0:0:
64,192,88532,1,8,0:0:0:0:
320,192,88532,1,0,0:0:0:0:
192,192,88682,1,0,0:0:0:60:Tom1.wav
448,192,88682,1,0,0:0:0:0:
192,192,88832,1,0,0:0:0:60:Tom3.wav
64,192,88982,1,2,0:0:0:0:
320,192,88982,128,0,89432:0:0:0:60:LR_CymbalCCR.wav
448,192,88982,128,0,89432:0:0:0:60:drumwhistle.wav
192,192,89282,128,0,89432:0:0:0:0:
64,192,89582,128,2,90032:0:0:0:0:
192,192,89582,128,4,90032:0:0:0:0:
448,192,89582,1,0,0:0:0:0:
320,192,89882,128,0,90032:0:0:0:0:
192,192,90182,128,2,90632:0:0:0:0:
320,192,90182,128,0,90632:0:0:0:60:drumwhistle.wav
448,192,90182,1,4,0:0:0:0:
64,192,90632,1,2,0:0:0:0:
64,192,90782,128,8,91082:0:0:0:0:
192,192,90782,1,0,0:0:0:0:
448,192,90782,1,0,0:0:0:0:
320,192,90932,128,8,91082:0:0:0:0:
448,192,91082,128,2,91382:0:0:0:0:
64,192,91382,128,2,91832:0:0:0:0:
192,192,91382,128,4,91832:0:0:0:0:
320,192,91382,1,0,0:0:0:60:LR_CymbalCCR.wav
448,192,91682,128,0,91832:0:0:0:0:
192,192,91982,1,2,0:0:0:0:
320,192,91982,128,4,92432:0:0:0:0:
448,192,91982,128,0,92432:0:0:0:60:drumwhistle.wav
64,192,92282,128,0,92432:0:0:0:0:
192,192,92582,128,2,93032:0:0:0:0:
320,192,92582,128,4,93032:0:0:0:0:
64,192,92582,1,0,0:0:0:60:drumwhistle.wav
448,192,93032,1,2,0:0:0:0:
192,192,93182,1,8,0:0:0:0:
64,192,93182,1,0,0:0:0:0:
320,192,93282,1,8,0:0:0:0:
64,192,93382,1,2,0:0:0:0:
320,192,93482,1,0,0:0:0:60:Tom1.wav
192,192,93582,1,0,0:0:0:60:Tom3.wav
448,192,93682,1,0,0:0:0:60:Tom3.wav
192,192,93782,1,2,0:0:0:0:
64,192,93782,1,0,0:0:0:60:LR_CymbalCCR.wav
320,192,94082,128,0,94382:0:0:0:0:
64,192,94382,1,0,0:0:0:0:
192,192,94682,128,0,94982:0:0:0:0:
320,192,94982,128,0,95282:0:0:0:0:
448,192,95282,128,0,95582:0:0:0:0:
64,192,95432,128,0,95582:0:0:0:0:
192,192,95582,1,0,0:0:0:0:
192,192,95732,1,2,0:0:0:0:
320,192,95732,1,0,0:0:0:0:
64,192,95882,1,8,0:0:0:0:
320,192,95882,1,0,0:0:0:0:
448,192,95882,1,0,0:0:0:0:
64,192,96182,128,4,96482:0:0:0:0:
192,192,96182,128,8,96482:0:0:0:0:
448,192,96182,1,0,0:0:0:60:LR_CymbalCCR.wav
320,192,96482,1,2,0:0:0:0:
64,192,96632,1,4,0:0:0:0:
320,192,96632,128,8,96932:0:0:0:0:
448,192,96632,128,0,96932:0:0:0:60:LR_CymbalCCR.wav
192,192,96932,1,2,0:0:0:0:
64,192,97082,1,4,0:0:0:0:
320,192,97082,1,8,0:0:0:0:
448,192,97082,1,0,0:0:0:0:
320,192,97232,1,8,0:0:0:0:
448,192,97232,1,0,0:0:0:0:
192,192,97682,128,0,97982:0:0:0:0:
64,192,97982,128,0,98282:0:0:0:0:
448,192,98282,128,0,98582:0:0:0:0:
64,192,98582,1,2,0:0:0:0:
192,192,98582,1,0,0:0:0:60:LR_CymbalCCR.wav
320,192,98582,128,0,98882:0:0:0:60:stick.wav
64,192,98882,128,8,99182:0:0:0:0:
448,192,98882,1,0,0:0:0:0:
192,192,99182,1,2,0:0:0:0:
448,192,99182,1,0,0:0:0:0:
192,192,99332,1,2,0:0:0:0:
64,192,99482,1,8,0:0:0:0:
320,192,99482,128,0,99782:0:0:0:0:
448,192,99482,1,0,0:0:0:0:
64,192,99782,1,2,0:0:0:0:
192,192,99782,1,0,0:0:0:0:
320,192,99932,1,2,0:0:0:0:
64,192,100082,1,8,0:0:0:0:
448,192,100082,1,0,0:0:0:0:
192,192,100232,1,2,0:0:0:0:
320,192,100232,1,0,0:0:0:0:
448,192,100382,1,0,0:0:0:0:
64,192,100532,1,2,0:0:0:0:
192,192,100532,1,0,0:0:0:0:
64,192,100682,1,8,0:0:0:0:
320,192,100682,1,0,0:0:0:0:
448,192,100982,1,2,0:0:0:0:
192,192,100982,128,0,101282:0:0:0:0:
448,192,101282,128,8,101582:0:0:0:0:
64,192,101282,1,0,0:0:0:0:
64,192,101582,1,2,0:0:0:0:
320,192,101582,1,0,0:0:0:0:
320,192,101732,1,2,0:0:0:0:
192,192,101882,1,8,0:0:0:0:
64,192,101882,128,0,102182:0:0:0:0:
448,192,101882,1,0,0:0:0:0:
320,192,102182,1,2,0:0:0:0:
448,192,102182,1,0,0:0:0:0:
192,192,102332,1,2,0:0:0:0:
320,192,102482,1,8,0:0:0:0:
64,192,102482,1,0,0:0:0:0:
192,192,102632,1,2,0:0:0:0:
448,192,102632,1,0,0:0:0:0:
320,192,102782,1,0,0:0:0:0:
64,192,102932,1,2,0:0:0:0:
192,192,102932,1,0,0:0:0:0:
448,192,103082,1,8,0:0:0:0:
320,192,103082,1,0,0:0:0:0:
64,192,103382,1,2,0:0:0:0:
192,192,103382,128,0,103682:0:0:0:60:LR_CymbalCCR.wav
448,192,103382,1,0,0:0:0:0:
320,192,103682,128,8,103982:0:0:0:0:
448,192,103682,1,0,0:0:0:0:
64,192,103982,1,2,0:0:0:0:
192,192,103982,1,0,0:0:0:0:
64,192,104132,1,2,0:0:0:0:
192,192,104282,1,8,0:0:0:0:
320,192,104282,1,0,0:0:0:0:
448,192,104282,128,0,104582:0:0:0:0:
64,192,104582,1,2,0:0:0:0:
320,192,104582,1,0,0:0:0:0:
192,192,104732,1,2,0:0:0:0:
64,192,104882,1,8,0:0:0:0:
448,192,104882,1,0,0:0:0:0:
192,192,105032,1,2,0:0:0:0:
320,192,105032,1,0,0:0:0:0:
448,192,105182,1,0,0:0:0:0:
64,192,105332,1,2,0:0:0:0:
192,192,105332,1,0,0:0:0:0:
192,192,105482,1,8,0:0:0:0:
448,192,105482,1,0,0:0:0:0:
64,192,105782,1,2,0:0:0:0:
320,192,105782,128,0,106082:0:0:0:0:
192,192,106082,128,8,106382:0:0:0:0:
448,192,106082,1,0,0:0:0:0:
64,192,106382,1,2,0:0:0:0:
448,192,106382,128,0,106682:0:0:0:0:
64,192,106682,1,8,0:0:0:0:
320,192,106682,1,0,0:0:0:0:
192,192,106832,1,2,0:0:0:0:
320,192,106907,1,2,0:0:0:0:
64,192,106982,1,8,0:0:0:0:
448,192,106982,1,0,0:0:0:60:LR_CymbalCCR.wav
320,192,107132,1,0,0:0:0:0:
64,192,107282,1,2,0:0:0:0:
192,192,107282,1,0,0:0:0:0:
64,192,107432,1,4,0:0:0:0:
320,192,107432,1,8,0:0:0:0:
448,192,107432,1,0,0:0:0:60:drumwhistle.wav
192,192,107582,128,2,107732:0:0:0:0:
320,192,107732,1,8,0:0:0:0:
448,192,107732,1,0,0:0:0:0:
64,192,107807,1,8,0:0:0:0:
192,192,107807,1,0,0:0:0:0:
320,192,107882,1,0,0:0:0:60:Tom1.wav
64,192,107957,1,0,0:0:0:60:Tom1.wav
320,192,108032,1,0,0:0:0:60:Tom3.wav
192,192,108107,1,0,0:0:0:60:Tom3.wav
64,192,108182,128,0,108482:0:0:0:60:LR_CymbalCCR.wav
448,192,108182,1,0,0:0:0:60:stick.wav
320,192,108482,128,0,108782:0:0:0:0:
192,192,108782,1,0,0:0:0:0:
192,192,108932,1,0,0:0:0:0:
64,192,109082,128,0,109382:0:0:0:0:
448,192,109082,1,0,0:0:0:0:
320,192,109382,1,0,0:0:0:0:
448,192,109382,128,0,109982:0:0:0:0:
64,192,109682,1,0,0:0:0:0:
192,192,109982,128,0,110582:0:0:0:0:
320,192,109982,1,0,0:0:0:0:
64,192,110282,1,0,0:0:0:60:drumwhistle.wav
448,192,110282,1,0,0:0:0:0:
64,192,110582,1,2,0:0:0:0:
320,192,110582,128,0,111182:0:0:0:0:
64,192,110882,128,0,111182:0:0:0:0:
192,192,111182,128,0,111782:0:0:0:0:
448,192,111182,1,0,0:0:0:0:
448,192,111482,128,0,111782:0:0:0:0:
64,192,111782,1,0,0:0:0:0:
320,192,111782,128,0,112082:0:0:0:0:
64,192,112082,128,0,112382:0:0:0:0:
320,192,112382,1,0,0:0:0:0:
448,192,112382,128,0,112682:0:0:0:0:
64,192,112532,1,0,0:0:0:0:
320,192,112682,1,0,0:0:0:60:drumwhistle.wav
192,192,112682,128,0,112982:0:0:0:0:
64,192,112982,128,4,113282:0:0:0:0:
448,192,112982,1,2,0:0:0:0:
320,192,112982,1,0,0:0:0:60:stick.wav
448,192,113282,128,0,113582:0:0:0:0:
64,192,113582,1,0,0:0:0:0:
192,192,113582,128,0,113882:0:0:0:0:
320,192,113882,128,0,114182:0:0:0:0:
64,192,114182,128,0,114482:0:0:0:0:
448,192,114182,1,0,0:0:0:0:
320,192,114482,128,0,114782:0:0:0:0:
64,192,114782,1,0,0:0:0:0:
192,192,114782,128,0,115082:0:0:0:0:
448,192,115082,128,0,115382:0:0:0:60:drumwhistle.wav
64,192,115382,128,4,115682:0:0:0:0:
192,192,115382,1,8,0:0:0:0:
320,192,115382,1,0,0:0:0:0:
448,192,115682,1,2,0:0:0:0:
192,192,115832,1,8,0:0:0:0:
448,192,115832,128,0,116132:0:0:0:60:LR_CymbalCCR.wav
320,192,115832,1,0,0:0:0:0:
64,192,116132,1,2,0:0:0:0:
64,192,116282,128,4,118982:0:0:0:0:
320,192,116282,1,8,0:0:0:0:
448,192,116282,128,0,118982:0:0:0:0:
