osu file format v14

[General]
AudioFilename: audio.mp3
AudioLeadIn: 0
PreviewTime: 68505
Countdown: 0
SampleSet: Soft
StackLeniency: 0.5
Mode: 0
LetterboxInBreaks: 0
WidescreenStoryboard: 0

[Editor]
DistanceSpacing: 1
BeatDivisor: 4
GridSize: 4
TimelineZoom: 1.5

[Metadata]
Title:Hitohira no, Daisuki o,
TitleUnicode:ひとひらの、だいすきを、
Artist:Fukunaga Yoru
ArtistUnicode:ふくなが よる
Creator:Bellicose
Version:Insane,
Source:はるとゆき、
Tags:Haru to Yuki, Nishizaka Kyouhei 西坂恭平 eroge japanese visual novel op opening Akakura Kohane 赤倉小羽 Mogami Sakina 最上咲奈 Neko ネコ Shinjou San 新庄傘 Shinjou-San
BeatmapID:2164383
BeatmapSetID:841730

[Difficulty]
HPDrainRate:6
CircleSize:3.8
OverallDifficulty:8
ApproachRate:9
SliderMultiplier:1.59999990463257
SliderTickRate:1

[Events]
//Background and Video events
0,0,"bg2.jpg",0,0
//Break Periods
2,93985,95135
//Storyboard Layer 0 (Background)
//Storyboard Layer 1 (Fail)
//Storyboard Layer 2 (Pass)
//Storyboard Layer 3 (Foreground)
//Storyboard Layer 4 (Overlay)
//Storyboard Sound Samples

[TimingPoints]
185,300,4,2,1,40,1,0
185,-142.857142857143,4,2,1,40,0,0
9785,-100,4,2,1,65,0,0
26585,-83.3333333333333,4,2,1,65,0,0
27485,-100,4,2,1,65,0,0
27560,-100,4,2,1,40,0,0
28985,-142.857142857143,4,2,1,40,0,0
38135,-100,4,2,1,55,0,0
48185,-142.857142857143,4,2,1,45,0,0
61535,-100,4,2,1,55,0,0
62885,-100,4,2,1,65,0,0
64985,-125,4,2,1,65,0,0
65585,-100,4,2,1,65,0,0
67385,-90.9090909090909,4,2,1,75,0,0
68585,-100,4,2,1,40,0,0
68885,-100,4,2,1,50,0,0
69185,-100,4,2,1,60,0,0
69485,-100,4,2,1,75,0,0
69785,-83.3333333333333,4,2,1,75,0,1
83585,-71.4285714285714,4,2,1,85,0,1
84185,-83.3333333333333,4,2,1,85,0,1
84635,-83.3333333333333,4,2,1,75,0,1
88985,-83.3333333333333,4,2,1,75,0,0
89585,-76.9230769230769,4,2,1,75,0,0
90185,-100,4,2,1,75,0,0
91385,-83.3333333333333,4,2,1,75,0,0
91985,-76.9230769230769,4,2,1,75,0,0
92585,-100,4,2,1,75,0,0
93785,-142.857142857143,4,2,1,55,0,0
95735,-142.857142857143,4,2,1,75,0,0
95885,-83.3333333333333,4,2,1,75,0,0
96185,-83.3333333333333,4,2,1,75,0,1
97235,-100,4,2,1,75,0,0
98585,-100,4,2,1,65,0,0
108185,-142.857142857143,4,2,1,45,0,0
115385,-100,4,2,1,55,0,0

[Colours]
Combo1 : 98,102,253
Combo2 : 119,187,255

[HitObjects]
102,189,185,6,0,P|164:189|245:255,1,167.999984859467,2|0,0:0|0:0,0:0:0:0:
243,252,785,1,2,0:1:0:0:
435,91,1085,6,0,P|391:121|275:105,1,167.999984859467,2|0,0:0|0:0,0:0:0:0:
281,109,1685,1,0,0:0:0:0:
124,47,1985,6,0,P|126:84|118:181,1,111.999989906311,2|0,0:0|0:0,0:0:0:0:
121,158,2435,1,0,0:0:0:0:
59,214,2585,6,0,P|97:207|238:225,1,167.999984859467,2|0,0:0|0:0,0:0:0:0:
224,220,3185,1,0,0:0:0:0:
357,322,3485,6,0,P|371:265|475:234,1,167.999984859467,2|0,0:0|0:0,0:0:0:0:
466,230,4085,1,0,0:0:0:0:
457,63,4385,6,0,P|390:70|320:66,1,111.999989906311,2|0,0:0|0:0,0:0:0:0:
274,23,4835,1,2,0:0:0:0:
274,23,4910,1,2,0:0:0:0:
274,23,4985,6,0,P|296:62|294:185,1,167.999984859467,2|0,0:0|0:0,0:0:0:0:
295,182,5585,1,2,0:1:0:0:
136,125,5885,6,0,P|96:128|12:230,1,167.999984859467,2|0,0:0|0:0,0:0:0:0:
13,216,6485,1,0,0:0:0:0:
180,211,6785,6,0,P|238:237|276:294,1,111.999989906311,2|0,0:0|0:0,0:0:0:0:
258,357,7235,1,2,0:0:0:0:
258,357,7310,1,2,0:0:0:0:
258,357,7385,6,0,P|301:308|423:286,1,167.999984859467,2|2,0:0|0:0,0:0:0:0:
153,347,8285,5,2,0:0:0:0:
70,328,8435,1,0,0:0:0:0:
21,259,8585,1,0,0:0:0:0:
28,175,8735,1,2,0:0:0:0:
361,166,9785,6,0,P|367:126|364:87,1,79.9999952316285,6|0,3:2|0:0,0:0:0:0:
268,193,10085,2,0,P|265:281|318:333,1,159.999990463257,10|0,0:0|3:0,0:0:0:0:
406,344,10535,1,0,3:0:0:0:
351,264,10685,2,0,P|323:292|311:330,1,79.9999952316285,10|0,0:0|0:0,0:0:0:0:
469,202,10985,6,0,L|488:43,2,159.999990463257,2|8|0,3:2|0:0|3:0,0:0:0:0:
469,202,11735,1,0,3:0:0:0:
381,162,11885,2,0,P|320:155|279:163,1,79.9999952316285,10|0,0:0|0:0,0:0:0:0:
218,109,12185,6,0,P|217:54|235:20,1,79.9999952316285,2|0,3:2|0:0,0:0:0:0:
220,204,12485,2,0,P|148:195|61:233,1,159.999990463257,8|0,0:0|3:0,0:0:0:0:
27,313,12935,1,0,3:0:0:0:
68,226,13085,2,0,P|83:164|75:123,1,79.9999952316285,8|0,0:0|0:0,0:0:0:0:
46,58,13385,5,0,3:0:0:0:
46,58,13535,1,0,3:0:0:0:
140,75,13685,2,0,L|229:74,1,79.9999952316285,10|0,0:0|3:0,0:0:0:0:
177,174,13985,1,8,0:1:0:0:
177,174,14135,1,0,3:0:0:0:
272,173,14285,2,0,L|361:172,1,79.9999952316285,10|0,0:0|0:0,0:0:0:0:
446,154,14585,6,0,P|460:110|452:52,1,79.9999952316285,6|0,3:2|0:0,0:0:0:0:
351,172,14885,2,0,P|416:180|479:263,1,159.999990463257,10|0,0:0|3:0,0:0:0:0:
474,344,15335,1,0,3:0:0:0:
401,273,15485,2,0,P|435:253|474:248,1,79.9999952316285,10|0,0:0|0:0,0:0:0:0:
266,339,15785,6,0,P|179:332|101:318,2,159.999990463257,2|8|0,3:2|0:0|3:0,0:0:0:0:
266,339,16535,1,0,3:0:0:0:
354,301,16685,2,0,P|343:245|321:213,1,79.9999952316285,10|0,0:0|0:0,0:0:0:0:
280,144,16985,6,0,P|246:196|241:263,1,119.999992847443,2|0,3:2|0:0,0:0:0:0:
243,255,17285,2,0,P|220:205|124:166,1,159.999990463257,8|0,0:0|3:0,0:0:0:0:
40,206,17735,1,0,3:0:0:0:
128,165,17885,2,0,P|134:116|110:54,1,79.9999952316285,10|0,0:0|3:0,0:0:0:0:
117,68,18110,1,0,3:0:0:0:
104,52,18185,6,0,P|182:80|276:59,1,159.999990463257,14|0,0:0|3:0,0:0:0:0:
347,34,18635,2,0,P|393:51|430:85,1,79.9999952316285,12|0,0:0|3:0,0:0:0:0:
456,158,18935,1,8,0:0:0:0:
456,158,19010,1,8,0:0:0:0:
456,158,19085,2,0,L|440:220,3,39.9999976158142,8|8|8|0,3:3|3:3|3:3|3:0,0:0:0:0:
400,210,19385,6,0,P|390:241|393:288,1,79.9999952316285,6|0,3:2|0:0,0:0:0:0:
332,128,19685,2,0,P|280:139|212:238,1,159.999990463257,10|0,0:0|3:0,0:0:0:0:
242,310,20135,1,0,3:0:0:0:
291,229,20285,2,0,P|254:215|215:218,1,79.9999952316285,10|0,0:0|3:0,0:0:0:0:
64,336,20585,6,0,L|32:156,2,159.999990463257,2|8|0,3:2|0:0|3:0,0:0:0:0:
64,336,21335,1,0,3:0:0:0:
162,310,21485,2,0,P|207:305|267:318,1,79.9999952316285,10|0,0:0|0:0,0:0:0:0:
330,273,21785,6,0,P|331:216|318:170,1,79.9999952316285,2|0,3:2|0:0,0:0:0:0:
254,75,22085,2,0,P|222:118|206:227,1,159.999990463257,8|0,0:0|3:0,0:0:0:0:
241,309,22535,1,0,3:0:0:0:
205,221,22685,2,0,P|155:205|117:209,1,79.9999952316285,8|0,0:0|3:0,0:0:0:0:
46,257,22985,5,2,0:0:0:0:
46,257,23135,1,0,3:0:0:0:
19,164,23285,2,0,L|23:64,1,79.9999952316285,10|2,0:0|0:0,0:0:0:0:
128,206,23585,1,0,3:0:0:0:
128,206,23735,1,0,3:0:0:0:
109,111,23885,2,0,L|113:11,1,79.9999952316285,14|0,0:0|0:0,0:0:0:0:
205,143,24185,6,0,P|246:137|304:153,1,79.9999952316285,6|0,3:2|0:0,0:0:0:0:
386,48,24485,2,0,P|425:86|451:198,1,159.999990463257,10|0,0:0|3:0,0:0:0:0:
400,265,24935,1,0,3:0:0:0:
374,172,25085,2,0,P|414:172|452:185,1,79.9999952316285,10|0,0:0|0:0,0:0:0:0:
307,243,25385,6,0,L|210:231,1,79.9999952316285,2|0,0:0|3:0,0:0:0:0:
79,309,25685,2,0,L|159:300,1,79.9999952316285,10|0,0:0|3:0,0:0:0:0:
300,259,25985,6,0,L|203:247,1,79.9999952316285,10|0,0:0|3:0,0:0:0:0:
72,325,26285,2,0,L|151:315,1,79.9999952316285,2|0,3:2|3:0,0:0:0:0:
385,305,26585,6,0,B|433:272|435:175|388:140|353:203|400:252,1,191.999982696534,6|0,3:2|3:0,0:0:0:0:
486,163,27035,2,0,P|433:113|320:137,1,191.999982696534,6|0,3:2|3:0,0:0:0:0:
254,200,27485,1,8,0:0:0:0:
256,192,27560,12,0,28835,0:0:0:0:
45,129,28985,5,6,3:1:0:0:
45,129,29135,1,0,3:0:0:0:
102,67,29285,2,0,P|160:60|220:86,1,111.999989906311,8|8,0:1|0:1,0:0:0:0:
331,193,29885,1,8,0:1:0:0:
331,193,30035,2,0,P|314:100|376:43,1,167.999984859467,2|8,0:0|0:1,0:0:0:0:
493,150,30785,2,0,P|484:214|445:256,1,111.999989906311,8|8,0:1|0:1,0:0:0:0:
287,273,31385,5,0,3:0:0:0:
287,273,31535,1,0,3:0:0:0:
352,221,31685,2,0,P|409:221|469:269,2,111.999989906311,8|8|8,0:1|0:1|0:1,0:0:0:0:
209,310,32585,6,0,P|152:310|92:262,1,111.999989906311,8|8,0:1|0:1,0:0:0:0:
249,192,33185,2,0,P|306:192|366:240,1,111.999989906311,8|8,0:1|0:1,0:0:0:0:
180,235,33785,5,0,3:0:0:0:
180,235,33935,1,0,3:0:0:0:
114,182,34085,2,0,P|91:122|104:64,2,111.999989906311,8|8|8,0:1|0:1|0:1,0:0:0:0:
280,133,34985,6,0,P|220:110|162:123,2,111.999989906311,8|8|8,0:1|0:1|0:1,0:0:0:0:
392,257,35885,1,8,0:1:0:0:
447,98,36185,5,0,3:0:0:0:
447,98,36335,1,0,3:0:0:0:
497,164,36485,2,0,P|502:217|482:293,2,111.999989906311,8|8|8,0:1|0:1|0:1,0:0:0:0:
331,197,37385,5,8,0:1:0:0:
331,197,37535,2,0,L|263:201,1,55.9999949531557,2|8,0:0|0:1,0:0:0:0:
200,240,37835,2,0,L|132:244,1,55.9999949531557,2|8,0:0|0:1,0:0:0:0:
63,333,38135,1,0,3:0:0:0:
11,251,38285,2,0,P|15:198|41:157,1,79.9999952316285,10|2,0:0|0:0,0:0:0:0:
91,99,38585,6,0,P|126:142|143:249,1,159.999990463257,6|10,3:2|0:0,0:0:0:0:
173,151,39035,2,0,P|234:109|341:116,1,159.999990463257,2|0,0:0|3:0,0:0:0:0:
405,147,39485,1,10,0:0:0:0:
495,113,39635,1,2,3:2:0:0:
479,207,39785,6,0,P|418:249|311:242,1,159.999990463257,2|10,0:0|0:0,0:0:0:0:
260,189,40235,2,0,P|290:229|269:353,1,159.999990463257,2|0,0:0|3:0,0:0:0:0:
189,310,40685,2,0,P|130:296|70:318,1,119.999992847443,10|0,0:0|0:0,0:0:0:0:
51,356,40985,6,0,L|24:196,2,159.999990463257,2|8|2,3:2|0:0|3:2,0:0:0:0:
51,356,41735,1,0,3:0:0:0:
132,196,41885,1,10,0:0:0:0:
73,119,42035,6,0,P|148:100|213:145,1,159.999990463257,2|0,3:2|3:0,0:0:0:0:
235,238,42485,2,0,P|252:154|319:80,1,159.999990463257,10|0,0:0|3:0,0:0:0:0:
386,61,42935,1,0,3:0:0:0:
296,96,43085,2,0,P|245:65|227:33,1,79.9999952316285,8|0,0:0|0:0,0:0:0:0:
478,83,43385,6,0,L|462:250,1,159.999990463257,6|8,3:2|0:0,0:0:0:0:
462,242,43835,1,2,3:2:0:0:
379,195,43985,2,0,P|340:182|360:263,1,159.999990463257,2|8,3:2|0:0,0:0:0:0:
342,264,44435,1,2,3:2:0:0:
454,359,44585,6,0,B|374:324|384:381|299:345,1,159.999990463257,2|8,0:0|0:0,0:0:0:0:
298,345,45035,1,2,0:0:0:0:
239,269,45185,2,0,P|175:255|129:265,1,79.9999952316285,2|0,3:2|3:0,0:0:0:0:
32,325,45485,2,0,P|70:337|110:338,1,79.9999952316285,10|0,0:0|0:0,0:0:0:0:
161,256,45785,6,0,L|182:66,2,159.999990463257,2|8|0,3:2|0:0|3:0,0:0:0:0:
161,256,46535,1,0,3:0:0:0:
70,97,46685,1,8,0:0:0:0:
121,178,46835,1,0,3:0:0:0:
121,178,46910,1,0,3:0:0:0:
121,178,46985,6,0,L|200:174,2,79.9999952316285,8|0|0,0:0|3:0|3:0,0:0:0:0:
270,107,47435,2,0,L|349:110,2,79.9999952316285,8|0|0,3:3|3:0|3:0,0:0:0:0:
397,194,47885,2,0,L|476:190,1,79.9999952316285,0|0,3:0|3:0,0:0:0:0:
292,243,48185,6,0,P|347:264|378:307,1,111.999989906311,6|2,3:2|0:0,0:0:0:0:
196,289,48785,2,0,P|240:250|293:243,1,111.999989906311,2|2,0:3|0:3,0:0:0:0:
85,187,49385,6,0,P|30:166|-1:122,1,111.999989906311,2|2,0:0|0:0,0:0:0:0:
181,141,49985,2,0,P|136:179|83:186,1,111.999989906311,2|2,0:3|0:3,0:0:0:0:
178,44,50585,5,2,0:0:0:0:
267,89,50885,1,2,0:0:0:0:
358,45,51185,1,2,0:3:0:0:
447,90,51485,1,2,0:3:0:0:
358,45,52085,5,2,0:3:0:0:
447,90,52385,5,2,0:3:0:0:
419,188,52985,6,0,P|398:212|314:227,1,111.999989906311,6|2,3:2|0:0,0:0:0:0:
238,166,53585,2,0,P|269:172|324:237,1,111.999989906311,2|2,0:3|0:3,0:0:0:0:
105,368,54185,6,0,P|81:347|66:263,1,111.999989906311,2|2,0:0|0:0,0:0:0:0:
127,187,54785,2,0,P|120:218|55:273,1,111.999989906311,2|2,0:3|0:3,0:0:0:0:
67,107,55385,5,2,0:0:0:0:
166,94,55685,1,2,0:0:0:0:
233,168,55985,1,2,0:3:0:0:
332,155,56285,1,2,0:3:0:0:
233,168,56885,5,2,0:3:0:0:
332,155,57185,5,8,0:0:0:0:
371,157,57335,1,8,3:3:0:0:
428,179,57485,1,8,3:3:0:0:
478,238,57635,1,8,3:3:0:0:
500,330,57785,5,4,3:0:0:0:
500,330,57935,1,0,3:0:0:0:
386,361,58385,2,0,P|286:345|151:310,1,223.999979812623,8|8,0:1|0:1,0:0:0:0:
32,234,59585,2,0,P|90:224|156:199,1,111.999989906311,8|2,0:1|0:0,0:0:0:0:
213,137,60185,5,0,3:0:0:0:
213,137,60335,2,0,L|207:71,1,55.9999949531557,0|2,3:0|0:0,0:0:0:0:
199,42,60635,2,0,P|161:9|114:89,1,167.999984859467,2|2,0:0|0:0,0:0:0:0:
303,95,61385,5,8,0:1:0:0:
398,108,61535,1,0,3:0:0:0:
398,108,61610,1,0,3:0:0:0:
398,108,61685,2,0,P|457:106|491:97,1,79.9999952316285,12|0,0:0|3:0,0:0:0:0:
401,196,61985,1,8,0:0:0:0:
379,220,62060,1,8,0:0:0:0:
368,249,62135,1,8,0:0:0:0:
364,280,62210,1,8,0:0:0:0:
374,310,62285,2,0,P|390:332|406:344,3,39.9999976158142,8|8|8|8,3:3|3:3|3:3|3:3,0:0:0:0:
445,355,62585,6,0,P|479:334|503:234,1,119.999992847443,4|0,3:0|0:0,0:0:0:0:
500,214,62885,2,0,P|455:190|404:193,1,79.9999952316285,8|2,0:0|0:0,0:0:0:0:
287,305,63185,5,8,0:0:0:0:
131,280,63335,1,0,3:0:0:0:
37,197,63485,5,8,0:0:0:0:
193,172,63635,1,0,3:0:0:0:
331,75,63785,6,0,P|249:50|163:87,1,159.999990463257,10|8,0:0|0:0,0:0:0:0:
105,132,64235,1,0,3:0:0:0:
14,100,64385,6,0,L|3:13,1,79.9999952316285,8|0,0:0|3:0,0:0:0:0:
193,172,64685,2,0,L|204:259,1,79.9999952316285,8|0,0:0|3:0,0:0:0:0:
209,278,64910,1,0,3:0:0:0:
216,306,64985,6,0,L|232:101,1,191.999988555908,14|0,0:0|3:0,0:0:0:0:
322,145,65585,2,0,P|385:132|297:63,1,239.999985694885,10|0,0:0|3:0,0:0:0:0:
230,114,66185,5,0,0:0:0:0:
322,145,66335,2,0,P|328:177|317:224,2,79.9999952316285,8|0|0,0:0|0:0|3:0,0:0:0:0:
407,99,66785,2,0,P|423:165|411:246,1,119.999992847443,8|0,0:0|0:0,0:0:0:0:
391,251,67085,2,0,P|348:226|313:223,1,79.9999952316285,2|0,0:0|3:0,0:0:0:0:
283,241,67310,1,0,3:0:0:0:
250,265,67385,6,0,P|179:297|97:242,1,175.999994880676,14|0,0:0|3:0,0:0:0:0:
261,183,67835,1,10,0:0:0:0:
68,159,67985,2,0,L|54:44,1,87.9999974403381,2|0,3:2|3:0,0:0:0:0:
182,216,68285,1,8,0:0:0:0:
232,64,68435,1,8,0:0:0:0:
428,163,68585,5,2,0:0:0:0:
428,163,68885,5,2,0:0:0:0:
428,163,69185,5,2,0:0:0:0:
428,163,69485,5,2,0:0:0:0:
428,163,69785,6,0,P|354:169|411:250,1,191.999982696534,6|2,3:2|0:0,0:0:0:0:
482,258,70235,2,0,L|366:250,1,95.9999913482669,2|8,3:2|0:0,0:0:0:0:
222,190,70535,2,0,L|318:184,1,95.9999913482669,10|0,0:0|0:0,0:0:0:0:
384,114,70835,1,2,3:2:0:0:
313,338,70985,5,2,0:0:0:0:
232,285,71135,2,0,L|222:189,1,95.9999913482669,8|0,0:0|0:0,0:0:0:0:
213,93,71435,1,0,3:0:0:0:
88,213,71585,2,0,P|68:161|146:182,1,143.9999870224,10|0,0:0|0:0,0:0:0:0:
172,181,71885,2,0,P|230:188|302:139,1,143.9999870224,2|0,3:2|0:0,0:0:0:0:
325,102,72185,6,0,P|293:167|366:302,1,191.999982696534,2|2,3:2|0:0,0:0:0:0:
403,335,72635,2,0,P|452:296|468:240,1,95.9999913482669,2|8,3:2|0:0,0:0:0:0:
469,170,72935,2,0,P|400:153|324:172,1,143.9999870224,10|0,0:0|0:0,0:0:0:0:
298,192,73235,1,2,3:2:0:0:
185,357,73385,6,0,L|153:241,1,95.9999913482669,2|8,0:0|0:0,0:0:0:0:
298,192,73685,2,0,L|280:287,1,95.9999913482669,2|0,0:0|3:0,0:0:0:0:
159,264,73985,2,0,P|129:204|183:164,1,143.9999870224,10|0,0:0|0:0,0:0:0:0:
298,192,74285,2,0,P|317:124|257:76,1,143.9999870224,2|0,3:2|0:0,0:0:0:0:
181,164,74585,6,0,B|110:180|38:142|24:76|24:76|66:121|121:126,1,287.999974044801,6|0,3:2|3:0,0:0:0:0:
210,151,75185,1,10,0:0:0:0:
294,72,75335,1,8,0:0:0:0:
181,47,75485,2,0,P|131:65|96:137,1,95.9999913482669,2|0,0:0|3:0,0:0:0:0:
82,282,75785,6,0,P|45:221|-12:194,1,95.9999913482669,2|8,0:0|0:0,0:0:0:0:
97,320,76085,2,0,P|117:276|153:245,1,95.9999913482669,2|0,0:0|3:0,0:0:0:0:
214,343,76385,2,0,P|270:350|360:303,1,143.9999870224,10|0,0:0|0:0,0:0:0:0:
377,289,76685,2,0,B|397:258|396:220|396:220|425:253|416:314,1,143.9999870224,2|0,3:2|0:0,0:0:0:0:
271,263,76985,6,0,P|240:201|299:247,1,191.999982696534,2|2,3:2|0:0,0:0:0:0:
168,160,77435,2,0,P|200:126|245:109,1,95.9999913482669,2|8,3:2|0:0,0:0:0:0:
138,272,77735,2,0,P|84:231|76:106,1,191.999982696534,10|0,0:0|3:0,0:0:0:0:
168,160,78185,5,2,0:0:0:0:
319,58,78335,1,8,0:0:0:0:
432,132,78485,5,0,0:0:0:0:
313,85,78635,1,0,3:0:0:0:
179,188,78785,5,10,0:0:0:0:
308,111,78935,1,8,0:0:0:0:
443,160,79085,5,2,3:2:0:0:
303,139,79235,1,0,3:0:0:0:
291,234,79385,6,0,P|342:203|387:303,1,191.999982696534,6|2,3:2|0:0,0:0:0:0:
291,234,79835,2,0,L|302:138,1,95.9999913482669,2|8,3:2|0:0,0:0:0:0:
191,222,80135,2,0,L|203:318,1,95.9999913482669,10|0,0:0|0:0,0:0:0:0:
316,340,80435,1,2,3:2:0:0:
200,127,80585,5,2,0:0:0:0:
105,192,80735,2,0,P|84:135|102:76,1,95.9999913482669,8|0,0:0|0:0,0:0:0:0:
191,222,81035,1,0,3:0:0:0:
294,57,81185,2,0,P|350:70|386:159,1,143.9999870224,10|0,0:0|0:0,0:0:0:0:
375,179,81485,2,0,P|407:122|487:100,1,143.9999870224,2|0,3:2|0:0,0:0:0:0:
508,123,81785,6,0,P|512:195|453:310,1,191.999982696534,2|2,3:2|0:0,0:0:0:0:
360,357,82235,2,0,P|353:325|298:276,1,95.9999913482669,2|8,3:2|0:0,0:0:0:0:
195,264,82535,2,0,P|261:248|351:170,1,143.9999870224,10|0,0:0|0:0,0:0:0:0:
350,178,82835,1,2,3:2:0:0:
235,39,82985,5,2,0:0:0:0:
180,140,83135,2,0,P|130:113|77:120,2,95.9999913482669,8|0|0,0:0|0:0|3:0,0:0:0:0:
195,264,83585,6,0,P|145:286|134:187,1,167.999984859467,6|0,3:2|0:0,0:0:0:0:
180,140,83885,2,0,B|297:139|226:197|370:196,1,167.999984859467,6|0,3:2|0:0,0:0:0:0:
441,198,84185,2,0,B|449:115|382:70|382:70|320:119|336:213,1,287.999974044801,6|0,3:2|3:0,0:0:0:0:
476,115,84785,1,10,0:0:0:0:
335,225,84935,1,8,0:0:0:0:
412,310,85085,2,0,P|466:308|512:288,1,95.9999913482669,2|0,0:0|3:0,0:0:0:0:
335,225,85385,6,0,L|231:205,1,95.9999913482669,2|8,0:0|0:0,0:0:0:0:
146,273,85685,2,0,L|42:253,1,95.9999913482669,2|0,0:0|3:0,0:0:0:0:
240,206,85985,2,0,P|258:124|228:61,1,143.9999870224,10|0,0:0|0:0,0:0:0:0:
205,47,86285,2,0,B|177:27|135:26|135:26|156:8|214:12,1,143.9999870224,2|0,3:2|0:0,0:0:0:0:
136,180,86585,6,0,P|114:115|157:175,1,191.999982696534,2|2,3:2|0:0,0:0:0:0:
18,145,87035,2,0,P|37:80|81:39,1,95.9999913482669,2|8,3:2|0:0,0:0:0:0:
126,270,87335,2,0,B|223:268|193:201|300:203,1,191.999982696534,10|0,0:0|3:0,0:0:0:0:
382,282,87785,5,2,0:0:0:0:
169,161,87935,1,8,0:0:0:0:
402,188,88085,5,0,0:0:0:0:
279,296,88235,1,0,3:0:0:0:
490,266,88385,6,0,L|493:373,1,95.9999913482669,8|8,0:0|0:0,0:0:0:0:
299,202,88685,2,0,L|297:91,1,95.9999913482669,8|8,3:3|3:3,0:0:0:0:
484,115,88985,6,0,B|378:143|401:79|291:107,1,191.999982696534,6|2,3:2|0:0,0:0:0:0:
306,284,89585,6,0,P|302:196|383:229,1,207.999978080751,6|2,3:2|0:0,0:0:0:0:
207,294,90185,6,0,P|200:192|322:102,1,239.999985694885,6|0,3:2|3:0,0:0:0:0:
383,229,90785,2,0,P|343:236|303:224,1,79.9999952316285,8|0,0:0|3:0,0:0:0:0:
184,144,91085,2,0,P|138:138|175:167,1,119.999992847443,8|0,3:3|0:0,0:0:0:0:
244,79,91385,6,0,P|165:44|72:86,1,191.999982696534,6|2,3:2|0:0,0:0:0:0:
0,218,91985,6,0,B|114:195|76:281|208:253,1,207.999978080751,6|2,3:2|0:0,0:0:0:0:
372,213,92585,6,0,P|297:212|381:279,1,239.999985694885,6|0,3:2|3:0,0:0:0:0:
392,295,93110,1,0,3:0:0:0:
423,288,93185,6,0,P|479:284|496:287,2,53.333330154419,8|8|8,0:0|0:0|3:3,0:0:0:0:
302,154,93485,2,0,P|276:146|249:144,2,53.333330154419,8|0|0,3:3|3:0|3:0,0:0:0:0:
372,213,93785,5,6,3:2:0:0:
159,228,95735,5,0,3:0:0:0:
223,162,95885,2,0,P|222:88|199:36,1,95.9999913482669,8|2,0:0|0:0,0:0:0:0:
95,164,96185,6,0,L|-4:153,2,95.9999913482669,14|0|0,0:0|3:0|3:0,0:0:0:0:
251,250,96635,2,0,P|344:257|450:220,1,191.999982696534,14|0,0:0|3:0,0:0:0:0:
426,190,97010,1,0,3:0:0:0:
404,158,97085,1,8,0:0:0:0:
355,337,97235,1,8,0:0:0:0:
193,186,98585,6,0,P|172:193|100:180,1,79.9999952316285,6|0,3:2|0:0,0:0:0:0:
206,90,98885,2,0,P|241:84|337:180,1,159.999990463257,10|0,0:0|3:0,0:0:0:0:
314,248,99335,1,0,3:0:0:0:
333,154,99485,2,0,P|390:141|429:158,1,79.9999952316285,10|0,0:0|0:0,0:0:0:0:
455,325,99785,6,0,L|490:158,2,159.999990463257,2|8|0,3:2|0:0|3:0,0:0:0:0:
455,325,100535,1,0,3:0:0:0:
377,268,100685,2,0,P|336:262|299:274,1,79.9999952316285,8|0,0:0|0:0,0:0:0:0:
242,351,100985,6,0,P|211:282|212:247,1,79.9999952316285,2|0,3:2|0:0,0:0:0:0:
301,139,101285,2,0,P|239:162|144:164,1,159.999990463257,8|0,0:0|3:0,0:0:0:0:
58,125,101735,1,0,3:0:0:0:
146,86,101885,2,0,P|153:137|138:179,1,79.9999952316285,8|0,0:0|0:0,0:0:0:0:
65,217,102185,5,2,3:2:0:0:
65,217,102335,1,0,3:0:0:0:
149,263,102485,2,0,L|259:262,1,79.9999952316285,10|0,0:0|3:0,0:0:0:0:
202,354,102785,1,8,0:1:0:0:
202,354,102935,1,0,3:0:0:0:
296,334,103085,2,0,L|409:333,1,79.9999952316285,10|0,0:0|0:0,0:0:0:0:
462,289,103385,6,0,P|485:240|487:199,1,79.9999952316285,6|0,3:2|0:0,0:0:0:0:
375,333,103685,2,0,P|357:267|376:144,1,159.999990463257,10|0,0:0|3:0,0:0:0:0:
427,104,104135,1,0,3:0:0:0:
364,176,104285,2,0,P|326:200|280:208,1,79.9999952316285,10|0,0:0|0:0,0:0:0:0:
166,100,104585,6,0,P|242:92|336:92,2,159.999990463257,2|8|0,3:2|0:0|3:0,0:0:0:0:
166,100,105335,1,0,3:0:0:0:
73,75,105485,2,0,P|69:118|88:163,1,79.9999952316285,10|0,0:0|0:0,0:0:0:0:
111,297,105785,6,0,P|150:242|162:174,1,119.999992847443,2|0,3:2|0:0,0:0:0:0:
166,195,106085,2,0,P|191:240|292:286,1,159.999990463257,10|0,0:0|3:0,0:0:0:0:
380,267,106535,1,0,3:0:0:0:
285,285,106685,2,0,P|291:228|317:197,1,79.9999952316285,10|0,0:0|3:0,0:0:0:0:
317,195,106910,1,0,3:0:0:0:
333,183,106985,6,0,P|435:191|472:235,1,159.999990463257,14|0,0:0|3:0,0:0:0:0:
463,326,107435,2,0,P|429:360|384:370,1,79.9999952316285,12|0,0:0|3:0,0:0:0:0:
309,334,107735,1,8,0:0:0:0:
309,334,107810,1,8,0:0:0:0:
309,334,107885,2,0,L|304:278,3,39.9999976158142,8|8|8|8,3:3|3:3|3:3|3:3,0:0:0:0:
269,259,108185,6,0,P|278:184|313:140,1,111.999989906311,6|2,3:2|0:0,0:0:0:0:
162,145,108785,2,0,P|207:84|259:63,1,111.999989906311,2|2,0:0|0:0,0:0:0:0:
359,107,109385,6,0,P|393:175|297:155,1,223.999979812623,2|2,0:0|0:0,0:0:0:0:
265,47,110285,1,2,0:0:0:0:
179,119,110585,6,0,P|112:154|57:150,1,111.999989906311,2|2,0:0|0:0,0:0:0:0:
215,222,111185,2,0,P|192:294|150:330,1,111.999989906311,2|2,0:0|0:0,0:0:0:0:
339,221,111785,6,0,P|373:288|421:316,1,111.999989906311,2|2,0:0|0:0,0:0:0:0:
356,113,112385,2,0,P|428:135|481:122,1,111.999989906311,2|2,0:0|0:0,0:0:0:0:
480,24,112985,5,6,3:2:0:0:
368,38,113285,1,2,0:0:0:0:
256,52,113585,1,2,0:0:0:0:
146,68,113885,1,2,0:0:0:0:
32,164,114185,5,2,0:0:0:0:
144,178,114485,1,2,0:0:0:0:
255,192,114785,1,2,0:0:0:0:
365,207,115085,1,2,0:0:0:0:
256,332,115385,5,6,3:2:0:0:
256,332,115835,5,14,0:0:0:0:
256,332,116285,5,14,0:0:0:0:
256,192,116360,12,0,118985,0:0:0:0:
