osu file format v14

[General]
AudioFilename: audio.mp3
AudioLeadIn: 0
PreviewTime: 43389
Countdown: 0
SampleSet: Soft
StackLeniency: 0.7
Mode: 3
LetterboxInBreaks: 0
SpecialStyle: 0
WidescreenStoryboard: 0

[Editor]
DistanceSpacing: 0.8
BeatDivisor: 6
GridSize: 8
TimelineZoom: 1.9

[Metadata]
Title:LET IT OUT (TV Size)
TitleUnicode:LET IT OUT (TV Size)
Artist:Fukuhara Miho
ArtistUnicode:Fukuhara Miho
Creator:Daeng Simatta
Version:Hard
Source:鋼の錬金術師 FULLMETAL ALCHEMIST
Tags:_Asha Kanon Matsubara Fullmetal Alchemist: Brotherhood Hagane no Renkinjutsushi: Furumetaru Arukemisuto FMA second 2nd ending theme Jpop Pop Anime tv size
BeatmapID:1942318
BeatmapSetID:930032

[Difficulty]
HPDrainRate:7.5
CircleSize:4
OverallDifficulty:7.5
ApproachRate:5
SliderMultiplier:1.2
SliderTickRate:1

[Events]
//Background and Video events
0,0,"Full Metal Alchemist.jpg",0,0
//Break Periods
//Storyboard Layer 0 (Background)
//Storyboard Layer 1 (Fail)
//Storyboard Layer 2 (Pass)
//Storyboard Layer 3 (Foreground)
//Storyboard Sound Samples
Sample,27536,0,"soft-hitclap.wav",0
Sample,29752,0,"Hat open.wav",45
Sample,41514,0,"Hat open.wav",45
Sample,44923,0,"Hat open.wav",50
Sample,46798,0,"soft-hitwhistle.wav",0
Sample,49525,0,"soft-hitwhistle.wav",0
Sample,50377,0,"Hat open.wav",50
Sample,51741,0,"Hat open.wav",50
Sample,54127,0,"Hat open.wav",50
Sample,54468,0,"Hat open.wav",50
Sample,57196,0,"Hat open.wav",50
Sample,61286,0,"Hat open.wav",50
Sample,65548,0,"soft-hitwhistle.wav",0
Sample,66911,0,"soft-hitwhistle.wav",0
Sample,70661,0,"soft-hitwhistle.wav",0
Sample,70832,0,"Hat open.wav",50
Sample,72196,0,"Hat open.wav",50
Sample,73389,0,"soft-hitwhistle.wav",0
Sample,73559,0,"Hat open.wav",50
Sample,74923,0,"Hat open.wav",50
Sample,76286,0,"Hat open.wav",50
Sample,77650,0,"Hat open.wav",50
Sample,78843,0,"soft-hitwhistle.wav",0
Sample,79014,0,"Hat open.wav",50
Sample,80718,0,"Hat open.wav",50
Sample,81741,0,"Hat open.wav",50
Sample,86343,0,"Tom2.wav",60
Sample,86514,0,"Tom3.wav",60
Sample,86684,0,"soft-hitwhistle.wav",0

[TimingPoints]
946,340.909090909091,4,2,1,40,1,0
22764,-100.0,4,2,1,45,0,0
44582,-100.0,4,2,1,50,0,1
65036,-100.0,4,2,1,50,0,0
66400,-100.0,4,2,1,50,0,1
86855,-100.0,4,2,1,45,0,0

[HitObjects]
64,192,946,1,2,0:0:0:0:
448,192,946,1,0,0:0:0:0:
192,192,1286,1,0,0:0:0:0:
320,192,1286,1,0,0:0:0:0:
64,192,1627,1,0,0:0:0:30:Clap.wav
192,192,1627,1,0,0:0:0:0:
320,192,1968,1,0,0:0:0:0:
192,192,2139,1,0,0:0:0:0:
320,192,2309,1,2,0:0:0:0:
448,192,2309,1,0,0:0:0:0:
64,192,2480,1,0,0:0:0:0:
192,192,2480,1,0,0:0:0:0:
320,192,2650,1,2,0:0:0:0:
448,192,2650,128,0,2991:0:0:0:0:
64,192,2991,1,0,0:0:0:30:Clap.wav
320,192,2991,1,0,0:0:0:0:
192,192,3332,1,0,0:0:0:0:
448,192,3502,1,0,0:0:0:0:
64,192,3673,1,2,0:0:0:0:
320,192,3673,1,0,0:0:0:0:
64,192,4014,1,0,0:0:0:0:
192,192,4355,1,0,0:0:0:30:Clap.wav
448,192,4355,1,0,0:0:0:0:
192,192,4696,1,0,0:0:0:0:
320,192,4866,1,0,0:0:0:0:
64,192,5036,1,2,0:0:0:0:
192,192,5036,1,0,0:0:0:0:
320,192,5207,1,0,0:0:0:0:
448,192,5207,1,0,0:0:0:0:
64,192,5377,128,2,5718:0:0:0:0:
192,192,5377,1,0,0:0:0:0:
320,192,5718,1,0,0:0:0:30:Clap.wav
448,192,5718,1,0,0:0:0:0:
320,192,6059,1,0,0:0:0:0:
64,192,6230,1,0,0:0:0:0:
192,192,6400,1,2,0:0:0:0:
448,192,6400,1,0,0:0:0:0:
448,192,6741,1,0,0:0:0:0:
64,192,7082,1,0,0:0:0:30:Clap.wav
320,192,7082,1,0,0:0:0:0:
320,192,7423,1,0,0:0:0:0:
192,192,7593,1,0,0:0:0:0:
64,192,7764,1,2,0:0:0:0:
320,192,7764,1,0,0:0:0:0:
192,192,7934,1,0,0:0:0:0:
448,192,7934,1,0,0:0:0:0:
64,192,8105,128,2,8446:0:0:0:0:
320,192,8105,1,0,0:0:0:0:
192,192,8446,1,0,0:0:0:30:Clap.wav
320,192,8446,1,0,0:0:0:0:
448,192,8786,1,0,0:0:0:0:
64,192,8957,1,0,0:0:0:0:
192,192,9127,1,2,0:0:0:0:
320,192,9127,1,0,0:0:0:0:
192,192,9468,1,0,0:0:0:0:
64,192,9809,1,0,0:0:0:30:Clap.wav
320,192,9809,1,0,0:0:0:0:
192,192,10150,1,0,0:0:0:0:
320,192,10321,1,0,0:0:0:0:
192,192,10491,1,2,0:0:0:0:
448,192,10491,1,0,0:0:0:0:
64,192,10661,1,0,0:0:0:0:
320,192,10661,1,0,0:0:0:0:
192,192,10832,1,2,0:0:0:0:
448,192,10832,128,0,11173:0:0:0:0:
192,192,11173,1,0,0:0:0:30:Clap.wav
320,192,11173,1,0,0:0:0:0:
192,192,11514,128,0,11855:0:0:0:0:
64,192,11855,128,2,12877:0:0:0:0:
320,192,11855,1,0,0:0:0:0:
192,192,12196,1,0,0:0:0:0:
320,192,12536,1,0,0:0:0:30:Clap.wav
448,192,12536,1,0,0:0:0:0:
192,192,12877,128,0,13048:0:0:0:0:
320,192,13048,128,0,13218:0:0:0:0:
64,192,13218,1,2,0:0:0:0:
448,192,13218,128,0,13559:0:0:0:0:
64,192,13559,128,2,13900:0:0:0:0:
320,192,13559,1,0,0:0:0:0:
192,192,13900,128,0,14241:0:0:0:30:Clap.wav
448,192,13900,1,0,0:0:0:0:
64,192,14241,1,0,0:0:0:0:
320,192,14241,128,0,14582:0:0:0:0:
192,192,14582,1,2,0:0:0:0:
448,192,14582,128,0,15605:0:0:0:0:
192,192,14923,1,0,0:0:0:0:
64,192,15264,1,0,0:0:0:30:Clap.wav
320,192,15264,1,0,0:0:0:0:
192,192,15605,128,0,15946:0:0:0:0:
64,192,15946,128,2,17309:0:0:0:0:
448,192,15946,1,0,0:0:0:0:
192,192,16286,1,2,0:0:0:0:
448,192,16286,1,0,0:0:0:0:
192,192,16627,1,0,0:0:0:30:Clap.wav
320,192,16627,1,0,0:0:0:0:
448,192,16968,1,0,0:0:0:0:
192,192,17139,1,0,0:0:0:0:
320,192,17309,1,2,0:0:0:0:
448,192,17309,128,0,18673:0:0:0:0:
320,192,17650,1,0,0:0:0:0:
64,192,17991,1,0,0:0:0:30:Clap.wav
192,192,17991,1,0,0:0:0:0:
320,192,18332,1,0,0:0:0:0:
64,192,18673,128,2,20036:0:0:0:0:
192,192,18673,1,0,0:0:0:0:
320,192,18673,1,0,0:0:0:0:
192,192,19014,1,2,0:0:0:0:
448,192,19014,1,0,0:0:0:0:
320,192,19355,1,0,0:0:0:30:Clap.wav
448,192,19355,1,0,0:0:0:0:
192,192,19696,1,0,0:0:0:0:
448,192,19866,1,0,0:0:0:0:
192,192,20036,1,2,0:0:0:0:
320,192,20036,128,0,21400:0:0:0:0:
192,192,20377,1,0,0:0:0:0:
64,192,20718,1,0,0:0:0:30:Clap.wav
448,192,20718,1,0,0:0:0:0:
192,192,21059,1,0,0:0:0:0:
64,192,21400,1,2,0:0:0:0:
192,192,21400,128,0,21741:0:0:0:0:
320,192,21741,1,2,0:0:0:0:
448,192,21741,128,0,22082:0:0:0:45:Hat open.wav
64,192,22082,1,8,0:0:0:0:
320,192,22082,1,0,0:0:0:0:
192,192,22252,1,2,0:0:0:0:
448,192,22423,1,0,0:0:0:0:
320,192,22593,1,0,0:0:0:0:
64,192,22764,1,2,0:0:0:0:
192,192,22764,1,4,0:0:0:0:
64,192,23105,1,2,0:0:0:0:
192,192,23105,1,0,0:0:0:0:
320,192,23446,1,8,0:0:0:0:
448,192,23446,1,0,0:0:0:0:
192,192,23786,1,0,0:0:0:0:
320,192,23957,1,8,0:0:0:0:
448,192,23957,1,0,0:0:0:0:
64,192,24298,1,2,0:0:0:0:
64,192,24468,1,2,0:0:0:0:
320,192,24639,128,0,24809:0:0:0:0:
448,192,24809,128,0,24980:0:0:0:0:
64,192,24980,128,2,25150:0:0:0:0:
192,192,25150,128,8,25321:0:0:0:0:
320,192,25150,1,0,0:0:0:45:Hat open.wav
320,192,25491,1,2,0:0:0:0:
448,192,25491,1,4,0:0:0:0:
320,192,25832,1,2,0:0:0:0:
448,192,25832,1,0,0:0:0:0:
192,192,26173,1,8,0:0:0:0:
448,192,26173,1,0,0:0:0:0:
64,192,26343,1,8,0:0:0:0:
320,192,26343,1,0,0:0:0:0:
64,192,26684,1,2,0:0:0:0:
192,192,26684,1,0,0:0:0:0:
64,192,27025,1,2,0:0:0:0:
192,192,27025,1,0,0:0:0:0:
320,192,27196,1,2,0:0:0:0:
64,192,27366,1,8,0:0:0:0:
448,192,27366,1,0,0:0:0:0:
64,192,27707,1,2,0:0:0:0:
192,192,27707,1,0,0:0:0:0:
320,192,27877,1,8,0:0:0:0:
448,192,27877,1,0,0:0:0:45:Hat open.wav
192,192,28218,1,2,0:0:0:0:
320,192,28218,1,4,0:0:0:0:
192,192,28559,1,2,0:0:0:0:
320,192,28559,1,0,0:0:0:0:
192,192,28900,1,8,0:0:0:0:
448,192,28900,1,0,0:0:0:0:
64,192,29241,1,0,0:0:0:0:
320,192,29411,1,8,0:0:0:0:
448,192,29411,1,0,0:0:0:0:
192,192,29582,1,0,0:0:0:0:
64,192,29752,1,2,0:0:0:0:
320,192,29923,1,0,0:0:0:0:
64,192,30093,1,8,0:0:0:0:
192,192,30093,1,0,0:0:0:0:
448,192,30434,1,2,0:0:0:0:
320,192,30605,1,0,0:0:0:60:Tom2.wav
64,192,30775,1,8,0:0:0:0:
192,192,30775,1,0,0:0:0:0:
320,192,30946,1,2,0:0:0:0:
448,192,30946,1,4,0:0:0:0:
320,192,31286,1,0,0:0:0:0:
64,192,31457,1,2,0:0:0:0:
192,192,31457,1,0,0:0:0:0:
320,192,31627,1,8,0:0:0:0:
448,192,31627,1,4,0:0:0:0:
192,192,31968,1,0,0:0:0:0:
64,192,32139,1,8,0:0:0:0:
320,192,32139,1,0,0:0:0:0:
192,192,32309,1,8,0:0:0:0:
448,192,32309,1,0,0:0:0:0:
320,192,32650,1,0,0:0:0:60:Tom2.wav
448,192,32650,1,0,0:0:0:0:
64,192,32991,1,0,0:0:0:60:Tom2.wav
192,192,32991,1,0,0:0:0:0:
320,192,33161,1,0,0:0:0:60:Tom2.wav
448,192,33332,1,0,0:0:0:60:Tom3.wav
192,192,33673,1,2,0:0:0:0:
448,192,33673,1,4,0:0:0:0:
192,192,34014,1,2,0:0:0:0:
448,192,34014,1,0,0:0:0:45:Hat open.wav
192,192,34355,1,8,0:0:0:0:
320,192,34355,1,0,0:0:0:0:
320,192,34696,1,0,0:0:0:0:
64,192,34866,1,8,0:0:0:0:
448,192,34866,1,0,0:0:0:0:
448,192,35207,1,2,0:0:0:0:
448,192,35377,1,2,0:0:0:0:
192,192,35548,128,8,35718:0:0:0:0:
320,192,35548,1,0,0:0:0:0:
64,192,35718,128,0,35889:0:0:0:0:
320,192,35889,128,2,36059:0:0:0:0:
192,192,36059,1,8,0:0:0:0:
448,192,36059,128,0,36230:0:0:0:45:Hat open.wav
64,192,36400,1,2,0:0:0:0:
320,192,36400,1,4,0:0:0:0:
64,192,36741,1,2,0:0:0:0:
320,192,36741,1,0,0:0:0:0:
192,192,37082,1,8,0:0:0:0:
448,192,37082,1,0,0:0:0:0:
64,192,37252,1,8,0:0:0:0:
320,192,37252,1,0,0:0:0:0:
320,192,37593,1,2,0:0:0:0:
448,192,37593,1,0,0:0:0:0:
320,192,37934,1,8,0:0:0:0:
448,192,37934,1,0,0:0:0:0:
64,192,38105,1,2,0:0:0:0:
192,192,38105,1,0,0:0:0:45:Hat open.wav
320,192,38446,1,8,0:0:0:0:
448,192,38446,1,0,0:0:0:0:
64,192,38616,1,8,0:0:0:0:
192,192,38616,1,0,0:0:0:0:
320,192,38786,1,8,0:0:0:0:
448,192,38786,1,0,0:0:0:0:
64,192,38957,1,8,0:0:0:0:
192,192,38957,1,0,0:0:0:0:
320,192,39127,1,2,0:0:0:0:
448,192,39127,1,4,0:0:0:0:
192,192,39468,1,0,0:0:0:45:Hat open.wav
320,192,39468,1,0,0:0:0:0:
64,192,39809,1,8,0:0:0:0:
192,192,39809,1,0,0:0:0:45:Hat open.wav
320,192,40150,1,0,0:0:0:45:Hat open.wav
192,192,40321,1,2,0:0:0:0:
64,192,40491,1,0,0:0:0:0:
192,192,40661,1,8,0:0:0:0:
448,192,40661,1,0,0:0:0:0:
320,192,40832,1,0,0:0:0:0:
192,192,41002,1,2,0:0:0:0:
320,192,41173,1,8,0:0:0:0:
448,192,41173,1,0,0:0:0:0:
64,192,41343,1,0,0:0:0:0:
192,192,41343,1,0,0:0:0:0:
320,192,41514,1,8,0:0:0:0:
192,192,41684,1,0,0:0:0:0:
64,192,41855,1,2,0:0:0:0:
320,192,41855,1,0,0:0:0:0:
192,192,42025,1,8,0:0:0:0:
448,192,42025,1,0,0:0:0:0:
320,192,42196,1,0,0:0:0:0:
64,192,42366,1,2,0:0:0:0:
192,192,42536,1,8,0:0:0:0:
320,192,42536,1,0,0:0:0:0:
448,192,42707,1,0,0:0:0:60:Tom2.wav
320,192,42877,1,0,0:0:0:60:Tom3.wav
192,192,43048,1,2,0:0:0:0:
64,192,43218,1,8,0:0:0:0:
448,192,43218,1,0,0:0:0:0:
192,192,43900,1,0,0:0:0:0:
192,192,44071,1,0,0:0:0:0:
320,192,44411,1,0,0:0:0:0:
64,192,44582,1,2,0:0:0:0:
192,192,44582,1,4,0:0:0:0:
448,192,44582,128,0,45946:0:0:0:0:
320,192,44923,1,2,0:0:0:0:
64,192,45264,1,8,0:0:0:0:
320,192,45264,1,0,0:0:0:50:Hat open.wav
64,192,45605,1,0,0:0:0:50:Hat open.wav
192,192,45775,1,8,0:0:0:0:
320,192,45860,1,0,0:0:0:0:
64,192,45946,128,2,47309:0:0:0:0:
192,192,45946,1,0,0:0:0:50:Hat open.wav
192,192,46286,1,2,0:0:0:0:
320,192,46286,1,0,0:0:0:50:Hat open.wav
320,192,46627,1,8,0:0:0:0:
448,192,46627,1,0,0:0:0:50:Hat open.wav
192,192,46968,1,0,0:0:0:50:Hat open.wav
320,192,47309,128,2,48673:0:0:0:0:
448,192,47309,1,0,0:0:0:50:Hat open.wav
64,192,47650,1,2,0:0:0:0:
192,192,47650,1,0,0:0:0:50:Hat open.wav
64,192,47991,1,8,0:0:0:0:
448,192,47991,1,0,0:0:0:50:Hat open.wav
192,192,48332,1,0,0:0:0:50:Hat open.wav
192,192,48673,128,2,49014:0:0:0:0:
448,192,48673,1,0,0:0:0:50:Hat open.wav
64,192,49014,128,2,49355:0:0:0:0:
320,192,49014,1,0,0:0:0:50:Hat open.wav
192,192,49355,1,8,0:0:0:0:
448,192,49355,128,0,49696:0:0:0:50:Hat open.wav
192,192,49696,1,0,0:0:0:50:Hat open.wav
320,192,49696,128,0,50036:0:0:0:0:
64,192,50036,128,2,51400:0:0:0:0:
448,192,50036,1,4,0:0:0:0:
192,192,50377,1,2,0:0:0:0:
320,192,50718,1,8,0:0:0:0:
448,192,50718,1,0,0:0:0:50:Hat open.wav
320,192,51059,1,0,0:0:0:50:Hat open.wav
192,192,51230,1,8,0:0:0:0:
448,192,51230,1,0,0:0:0:0:
320,192,51400,1,2,0:0:0:0:
448,192,51400,128,0,52764:0:0:0:50:Hat open.wav
192,192,51741,1,2,0:0:0:0:
64,192,52082,1,8,0:0:0:0:
320,192,52082,1,0,0:0:0:50:Hat open.wav
192,192,52423,1,0,0:0:0:50:Hat open.wav
64,192,52764,128,2,54127:0:0:0:0:
320,192,52764,1,0,0:0:0:50:Hat open.wav
320,192,53105,1,2,0:0:0:0:
448,192,53105,1,0,0:0:0:50:Hat open.wav
192,192,53446,1,8,0:0:0:0:
320,192,53446,1,0,0:0:0:50:Hat open.wav
448,192,53786,1,0,0:0:0:50:Hat open.wav
192,192,53957,1,8,0:0:0:0:
320,192,54042,1,0,0:0:0:0:
448,192,54127,1,2,0:0:0:0:
320,192,54298,1,8,0:0:0:0:
448,192,54298,128,0,54468:0:0:0:0:
192,192,54468,128,2,54639:0:0:0:0:
448,192,54639,128,0,54809:0:0:0:0:
64,192,54809,128,8,55150:0:0:0:0:
320,192,54809,1,0,0:0:0:50:Hat open.wav
320,192,55150,1,8,0:0:0:0:
448,192,55150,1,0,0:0:0:50:Hat open.wav
64,192,55321,1,8,0:0:0:0:
192,192,55321,1,0,0:0:0:0:
64,192,55491,128,2,56855:0:0:0:0:
320,192,55491,1,4,0:0:0:0:
448,192,55491,1,0,0:0:0:0:
320,192,55832,1,2,0:0:0:0:
448,192,55832,1,0,0:0:0:50:Hat open.wav
192,192,56173,1,8,0:0:0:0:
448,192,56173,1,0,0:0:0:50:Hat open.wav
320,192,56514,1,0,0:0:0:50:Hat open.wav
320,192,56855,1,2,0:0:0:0:
448,192,56855,128,0,57536:0:0:0:50:Hat open.wav
64,192,57025,1,8,0:0:0:0:
192,192,57025,1,0,0:0:0:0:
320,192,57196,1,2,0:0:0:0:
64,192,57536,1,8,0:0:0:0:
320,192,57536,128,0,58218:0:0:0:50:Hat open.wav
64,192,57877,1,0,0:0:0:50:Hat open.wav
192,192,58048,1,8,0:0:0:0:
448,192,58133,1,0,0:0:0:0:
64,192,58218,128,2,59582:0:0:0:0:
192,192,58218,1,0,0:0:0:50:Hat open.wav
192,192,58559,1,2,0:0:0:0:
320,192,58559,1,0,0:0:0:50:Hat open.wav
320,192,58900,1,8,0:0:0:0:
448,192,58900,1,0,0:0:0:50:Hat open.wav
448,192,59241,1,0,0:0:0:50:Hat open.wav
192,192,59411,1,8,0:0:0:0:
320,192,59411,1,0,0:0:0:0:
448,192,59582,1,0,0:0:0:50:Hat open.wav
320,192,59752,1,2,0:0:0:0:
64,192,59923,1,2,0:0:0:0:
192,192,59923,1,0,0:0:0:50:Hat open.wav
320,192,60264,1,8,0:0:0:0:
448,192,60264,1,0,0:0:0:50:Hat open.wav
64,192,60605,1,0,0:0:0:50:Hat open.wav
448,192,60775,1,8,0:0:0:0:
320,192,60860,1,0,0:0:0:0:
64,192,60946,1,2,0:0:0:0:
192,192,60946,1,4,0:0:0:0:
320,192,61116,1,8,0:0:0:0:
448,192,61116,1,0,0:0:0:0:
64,192,61286,1,2,0:0:0:0:
192,192,61457,1,2,0:0:0:0:
320,192,61627,1,8,0:0:0:0:
448,192,61627,1,0,0:0:0:50:Hat open.wav
448,192,61968,1,0,0:0:0:50:Hat open.wav
64,192,62139,1,8,0:0:0:0:
192,192,62224,1,0,0:0:0:0:
320,192,62309,1,2,0:0:0:0:
448,192,62309,1,0,0:0:0:50:Hat open.wav
64,192,62480,1,8,0:0:0:0:
192,192,62480,1,0,0:0:0:0:
448,192,62650,1,0,0:0:0:50:Hat open.wav
320,192,62821,1,2,0:0:0:0:
64,192,62991,1,8,0:0:0:0:
192,192,62991,1,0,0:0:0:50:Hat open.wav
320,192,63332,1,0,0:0:0:50:Hat open.wav
448,192,63502,1,0,0:0:0:0:
320,192,63588,1,0,0:0:0:0:
64,192,63673,1,2,0:0:0:0:
192,192,63673,1,0,0:0:0:50:Hat open.wav
320,192,63843,1,8,0:0:0:0:
448,192,63843,1,0,0:0:0:0:
64,192,64014,1,0,0:0:0:50:Hat open.wav
192,192,64184,1,2,0:0:0:0:
320,192,64355,1,8,0:0:0:0:
448,192,64355,1,0,0:0:0:50:Hat open.wav
64,192,64525,1,8,0:0:0:0:
192,192,64525,1,0,0:0:0:0:
448,192,64696,128,0,65036:0:0:0:50:Hat open.wav
64,192,65036,1,2,0:0:0:0:
320,192,65036,1,4,0:0:0:0:
320,192,65718,1,8,0:0:0:0:
192,192,65832,1,8,0:0:0:0:
64,192,65946,1,8,0:0:0:0:
448,192,66059,1,0,0:0:0:60:Tom2.wav
320,192,66173,1,0,0:0:0:60:Tom3.wav
192,192,66286,1,2,0:0:0:0:
64,192,66400,128,2,67764:0:0:0:0:
320,192,66400,1,4,0:0:0:0:
448,192,66400,1,0,0:0:0:0:
192,192,66741,1,0,0:0:0:50:Hat open.wav
320,192,66741,1,0,0:0:0:0:
192,192,67082,1,8,0:0:0:0:
320,192,67082,1,4,0:0:0:0:
448,192,67082,1,0,0:0:0:50:Hat open.wav
192,192,67423,1,0,0:0:0:50:Hat open.wav
320,192,67593,1,8,0:0:0:0:
448,192,67593,1,0,0:0:0:0:
192,192,67764,128,2,69127:0:0:0:0:
448,192,67764,1,0,0:0:0:50:Hat open.wav
320,192,68105,1,2,0:0:0:0:
448,192,68105,1,0,0:0:0:50:Hat open.wav
64,192,68446,1,8,0:0:0:0:
320,192,68446,1,0,0:0:0:50:Hat open.wav
448,192,68786,1,0,0:0:0:50:Hat open.wav
320,192,69127,1,2,0:0:0:0:
448,192,69127,128,0,70491:0:0:0:50:Hat open.wav
64,192,69468,1,2,0:0:0:0:
192,192,69468,1,0,0:0:0:50:Hat open.wav
192,192,69809,1,8,0:0:0:0:
320,192,69809,1,0,0:0:0:50:Hat open.wav
320,192,70150,1,0,0:0:0:50:Hat open.wav
64,192,70321,1,8,0:0:0:0:
192,192,70321,1,0,0:0:0:0:
320,192,70491,128,0,70832:0:0:0:50:Hat open.wav
192,192,70832,128,2,71173:0:0:0:0:
64,192,71173,1,8,0:0:0:0:
448,192,71173,128,0,71514:0:0:0:50:Hat open.wav
192,192,71514,128,0,71855:0:0:0:50:Hat open.wav
320,192,71514,1,0,0:0:0:0:
64,192,71855,128,2,73218:0:0:0:0:
448,192,71855,1,4,0:0:0:0:
448,192,72196,1,2,0:0:0:0:
192,192,72536,1,8,0:0:0:0:
320,192,72536,1,0,0:0:0:50:Hat open.wav
448,192,72877,1,0,0:0:0:50:Hat open.wav
192,192,73048,1,8,0:0:0:0:
320,192,73048,1,0,0:0:0:0:
320,192,73218,1,0,0:0:0:50:Hat open.wav
448,192,73218,128,0,74582:0:0:0:0:
192,192,73559,1,2,0:0:0:0:
64,192,73900,1,8,0:0:0:0:
320,192,73900,1,0,0:0:0:50:Hat open.wav
64,192,74241,1,0,0:0:0:50:Hat open.wav
192,192,74411,1,8,0:0:0:0:
320,192,74497,1,0,0:0:0:0:
64,192,74582,128,2,75946:0:0:0:0:
192,192,74582,1,0,0:0:0:50:Hat open.wav
320,192,74752,1,8,0:0:0:0:
448,192,74923,1,2,0:0:0:0:
192,192,75264,1,8,0:0:0:0:
320,192,75264,1,4,0:0:0:0:
448,192,75605,1,0,0:0:0:50:Hat open.wav
192,192,75775,1,8,0:0:0:0:
320,192,75775,1,0,0:0:0:0:
448,192,75946,1,0,0:0:0:50:Hat open.wav
192,192,76116,1,2,0:0:0:0:
320,192,76116,128,0,76286:0:0:0:0:
64,192,76286,128,2,76457:0:0:0:0:
192,192,76457,128,0,76627:0:0:0:0:
320,192,76627,1,8,0:0:0:0:
448,192,76627,128,0,76968:0:0:0:50:Hat open.wav
64,192,76968,1,0,0:0:0:50:Hat open.wav
192,192,76968,1,0,0:0:0:0:
320,192,77139,1,2,0:0:0:0:
448,192,77139,1,0,0:0:0:0:
64,192,77309,1,2,0:0:0:0:
192,192,77309,1,4,0:0:0:0:
448,192,77309,128,0,78673:0:0:0:0:
320,192,77650,1,2,0:0:0:0:
64,192,77991,1,8,0:0:0:0:
192,192,77991,1,0,0:0:0:50:Hat open.wav
64,192,78332,1,0,0:0:0:50:Hat open.wav
192,192,78502,1,8,0:0:0:0:
320,192,78502,1,0,0:0:0:0:
64,192,78673,128,0,80036:0:0:0:50:Hat open.wav
192,192,78673,1,0,0:0:0:0:
448,192,79014,1,2,0:0:0:0:
192,192,79355,1,8,0:0:0:0:
448,192,79355,1,0,0:0:0:50:Hat open.wav
320,192,79696,1,0,0:0:0:50:Hat open.wav
192,192,79866,1,8,0:0:0:0:
320,192,79951,1,0,0:0:0:0:
192,192,80036,128,2,81400:0:0:0:0:
448,192,80036,1,0,0:0:0:50:Hat open.wav
320,192,80377,1,2,0:0:0:0:
448,192,80377,1,0,0:0:0:50:Hat open.wav
320,192,80718,1,8,0:0:0:0:
320,192,81059,1,0,0:0:0:50:Hat open.wav
64,192,81230,1,8,0:0:0:0:
448,192,81230,1,0,0:0:0:0:
320,192,81400,128,0,82423:0:0:0:50:Hat open.wav
448,192,81400,1,0,0:0:0:0:
64,192,81571,1,8,0:0:0:0:
448,192,81571,1,0,0:0:0:0:
192,192,81741,1,2,0:0:0:0:
64,192,82082,1,8,0:0:0:0:
192,192,82082,1,0,0:0:0:50:Hat open.wav
192,192,82423,1,0,0:0:0:50:Hat open.wav
448,192,82593,1,8,0:0:0:0:
320,192,82678,1,0,0:0:0:0:
64,192,82764,1,2,0:0:0:0:
192,192,82764,1,4,0:0:0:0:
320,192,82934,1,8,0:0:0:0:
448,192,82934,1,0,0:0:0:0:
64,192,83105,1,0,0:0:0:50:Hat open.wav
192,192,83275,1,2,0:0:0:0:
320,192,83446,1,8,0:0:0:0:
448,192,83446,1,0,0:0:0:50:Hat open.wav
448,192,83786,1,0,0:0:0:50:Hat open.wav
64,192,83957,1,8,0:0:0:0:
192,192,84042,1,0,0:0:0:0:
320,192,84127,1,2,0:0:0:0:
448,192,84127,1,0,0:0:0:50:Hat open.wav
64,192,84298,1,8,0:0:0:0:
192,192,84298,1,0,0:0:0:0:
448,192,84468,1,0,0:0:0:50:Hat open.wav
320,192,84639,1,2,0:0:0:0:
64,192,84809,1,8,0:0:0:0:
192,192,84809,1,0,0:0:0:50:Hat open.wav
64,192,85150,1,0,0:0:0:50:Hat open.wav
320,192,85321,1,8,0:0:0:0:
192,192,85406,1,0,0:0:0:0:
64,192,85491,1,2,0:0:0:0:
448,192,85491,1,0,0:0:0:50:Hat open.wav
192,192,85661,1,8,0:0:0:0:
320,192,85661,1,0,0:0:0:0:
64,192,85832,1,0,0:0:0:50:Hat open.wav
192,192,86002,1,2,0:0:0:0:
320,192,86173,1,8,0:0:0:0:
448,192,86173,1,0,0:0:0:50:Hat open.wav
64,192,86286,1,0,0:0:0:0:
192,192,86457,1,0,0:0:0:0:
320,192,86627,1,0,0:0:0:0:
64,192,86855,1,2,0:0:0:0:
192,192,86855,1,4,0:0:0:0:
448,192,86855,1,0,0:0:0:0:
