osu file format v14

[General]
AudioFilename: audio.mp3
AudioLeadIn: 0
PreviewTime: 488
Countdown: 1
SampleSet: Soft
StackLeniency: 0.7
Mode: 0
LetterboxInBreaks: 0
WidescreenStoryboard: 1

[Editor]
Bookmarks: 915,11824,22733,33642,44551,55460,66369,77278,86824
DistanceSpacing: 1.8
BeatDivisor: 4
GridSize: 32
TimelineZoom: 1

[Metadata]
Title:LET IT OUT (TV Size)
TitleUnicode:LET IT OUT (TV Size)
Artist:Fukuhara Miho
ArtistUnicode:福原美穂
Creator:celerih
Version:Ultima Fox's Hard
Source:鋼の錬金術師 FULLMETAL ALCHEMIST
Tags:thicc bish Ultima Fox Hagane no Renkinjutsushi Brotherhood ED ending 2 FMAB anime japanese
BeatmapID:1939650
BeatmapSetID:928651

[Difficulty]
HPDrainRate:4.5
CircleSize:3.2
OverallDifficulty:5
ApproachRate:7.5
SliderMultiplier:1.4
SliderTickRate:1

[Events]
//Background and Video events
0,0,"LET IT OUT BG.jpg",0,0
//Break Periods
//Storyboard Layer 0 (Background)
//Storyboard Layer 1 (Fail)
//Storyboard Layer 2 (Pass)
//Storyboard Layer 3 (Foreground)
//Storyboard Sound Samples

[TimingPoints]
930,340.909090909091,4,2,1,50,1,0
930,-125,4,2,1,50,0,0
23430,-111.111111111111,4,2,1,50,0,0
39111,-100,4,2,1,50,0,0
43543,-142.857142857143,4,2,1,50,0,0
44566,-90.9090909090909,4,2,1,60,0,0
48316,-111.111111111111,4,2,1,60,0,0
49339,-90.9090909090909,4,2,1,60,0,0
55475,-142.857142857143,4,2,1,60,0,0
56157,-111.111111111111,4,2,1,60,0,0
56668,-90.9090909090909,4,2,1,60,0,0
77293,-142.857142857143,4,2,1,60,0,0
77975,-111.111111111111,4,2,1,60,0,0
78486,-90.9090909090909,4,2,1,60,0,0
85134,329.67032967033,4,2,1,60,1,0
85134,-90.9090909090909,4,2,1,60,0,0
85463,340.909090909091,4,2,1,60,1,0
85463,-90.9090909090909,4,2,1,60,0,0
86826,348.837209302326,4,2,1,60,1,0
86826,-111.111111111111,4,2,1,60,0,0
87523,-166.666666666667,4,2,1,60,0,0

[Colours]
Combo1 : 129,137,211
Combo2 : 255,213,128

[HitObjects]
177,230,930,6,0,P|219:242|287:277,1,112,8|0,0:0|0:0,0:0:0:0:
339,339,1441,1,0,0:0:0:0:
339,339,1611,2,0,P|386:329|456:298,1,112,8|0,0:3|0:0,0:0:0:0:
500,230,2123,1,2,0:0:0:0:
500,230,2293,2,0,L|477:163,1,56,8|0,0:0|0:0,0:0:0:0:
511,93,2634,1,8,0:0:0:0:
393,209,2975,1,8,0:3:0:0:
300,74,3316,6,0,P|259:80|234:84,1,56,2|2,0:0|0:0,0:0:0:0:
159,65,3657,2,0,P|153:113|137:190,1,112,8|0,0:0|0:0,0:0:0:0:
88,249,4168,1,0,0:0:0:0:
88,249,4339,2,0,P|131:264|170:340,1,112,8|0,0:3|0:0,0:0:0:0:
251,376,4850,1,2,0:0:0:0:
251,376,5020,2,0,P|292:372|314:360,1,56,8|0,0:0|0:0,0:0:0:0:
263,281,5361,1,8,0:0:0:0:
408,360,5702,1,8,0:3:0:0:
473,209,6043,6,0,P|481:172|487:149,1,56,2|2,0:0|0:0,0:0:0:0:
433,79,6384,2,0,P|406:101|320:114,1,112,8|0,0:0|0:0,0:0:0:0:
270,52,6895,2,0,P|240:46|210:54,1,56,0|8,0:0|0:3,0:0:0:0:
192,212,7407,6,0,P|200:246|206:272,1,56,0|2,0:0|0:0,0:0:0:0:
293,267,7748,2,0,P|286:239|280:212,1,56,8|0,0:0|0:0,0:0:0:0:
240,136,8089,1,8,0:0:0:0:
113,250,8430,1,8,0:3:0:0:
230,377,8770,2,0,P|261:368|288:365,1,56,2|2,0:0|0:0,0:0:0:0:
306,364,9111,6,0,P|259:352|212:296,1,112,8|0,0:0|0:0,0:0:0:0:
206,215,9623,1,0,0:0:0:0:
206,215,9793,2,0,P|216:159|229:96,1,112,8|0,0:3|0:0,0:0:0:0:
308,58,10305,1,2,0:0:0:0:
308,58,10475,2,0,P|319:99|331:131,1,56,8|0,0:0|0:0,0:0:0:0:
300,193,10816,1,8,0:0:0:0:
410,73,11157,1,8,0:3:0:0:
510,205,11498,6,0,P|503:243|499:268,1,56,2|2,0:0|0:0,0:0:0:0:
492,344,11839,2,0,P|446:337|381:378,1,112,8|0,0:0|0:0,0:0:0:0:
305,372,12350,1,0,0:0:0:0:
305,372,12520,2,0,P|259:379|194:338,1,112,8|0,0:3|0:0,0:0:0:0:
118,384,13032,1,2,0:0:0:0:
118,384,13202,2,0,P|113:348|107:315,1,56,8|0,0:0|0:0,0:0:0:0:
201,312,13543,2,0,P|204:284|209:256,1,56,8|0,0:0|0:0,0:0:0:0:
137,212,13884,1,8,0:3:0:0:
191,85,14225,6,0,P|201:124|206:146,1,56,2|2,0:0|0:0,0:0:0:0:
286,181,14566,2,0,P|292:135|312:51,1,112,8|0,0:0|0:0,0:0:0:0:
379,29,15077,1,0,0:0:0:0:
379,29,15248,2,0,P|424:34|472:92,1,112,8|0,0:3|0:0,0:0:0:0:
510,153,15759,1,2,0:0:0:0:
510,153,15930,2,0,P|503:194|498:225,1,56,8|0,0:0|0:0,0:0:0:0:
425,244,16270,1,8,0:0:0:0:
509,382,16611,1,8,0:3:0:0:
350,358,16952,6,0,P|318:366|295:373,1,56,2|2,0:0|0:0,0:0:0:0:
216,344,17293,2,0,P|168:333|108:307,1,112,8|0,0:0|0:0,0:0:0:0:
27,325,17805,2,0,P|18:348|13:378,1,56,0|8,0:0|0:3,0:0:0:0:
101,219,18316,6,0,P|92:178|76:149,1,56,0|0,0:0|0:0,0:0:0:0:
31,101,18657,2,0,P|40:60|56:31,1,56,8|0,0:0|0:0,0:0:0:0:
119,7,18998,1,8,0:0:0:0:
119,7,19168,2,0,L|241:20,1,112,0|0,0:0|0:0,0:0:0:0:
275,90,19680,2,0,P|311:83|339:76,1,56,2|2,0:0|0:0,0:0:0:0:
386,16,20020,5,8,0:0:0:0:
497,142,20361,1,0,0:0:0:0:
374,257,20702,2,0,P|335:251|296:243,1,56,8|0,0:3|0:0,0:0:0:0:
269,179,21043,1,0,0:0:0:0:
226,106,21214,2,0,P|155:119|101:125,1,112,2|0,0:0|0:0,0:0:0:0:
31,121,21725,2,0,P|21:166|15:190,1,56,8|0,0:0|0:0,0:0:0:0:
111,239,22066,6,0,P|121:284|127:308,1,56,8|2,0:3|0:0,0:0:0:0:
64,354,22407,1,2,0:0:0:0:
210,246,22748,5,12,0:1:0:0:
215,261,23089,1,8,0:0:0:0:
314,372,23430,5,8,0:3:0:0:
314,372,23600,2,0,P|321:329|326:300,1,62.9999980773926,2|0,0:0|0:0,0:0:0:0:
410,241,23941,1,8,0:3:0:0:
410,241,24111,2,0,P|403:198|389:109,1,125.999996154785,2|8,0:0|0:0,0:0:0:0:
298,63,24623,2,0,P|253:66|185:13,1,125.999996154785,0|8,0:0|0:0,0:0:0:0:
107,11,25134,2,0,P|101:47|91:91,1,62.9999980773926,8|0,0:3|0:0,0:0:0:0:
163,162,25475,5,12,0:1:0:0:
168,175,25816,1,8,0:0:0:0:
88,318,26157,5,8,0:3:0:0:
88,318,26327,2,0,P|60:298|18:294,2,62.9999980773926,8|0|8,0:3|0:0|0:0,0:0:0:0:
165,373,26839,2,0,P|224:379|282:341,1,125.999996154785,0|8,0:0|0:0,0:0:0:0:
309,260,27350,2,0,P|295:185|288:119,1,125.999996154785,8|8,0:3|0:0,0:0:0:0:
358,75,27861,2,0,P|370:39|387:7,1,62.9999980773926,8|0,0:3|0:0,0:0:0:0:
471,30,28202,5,12,0:1:0:0:
487,36,28543,1,8,0:0:0:0:
302,0,28884,2,0,L|228:8,1,62.9999980773926,8|0,0:3|0:0,0:0:0:0:
195,76,29225,2,0,L|121:68,1,62.9999980773926,0|8,0:0|0:3,0:0:0:0:
50,60,29566,2,0,P|39:14|34:-1,2,62.9999980773926,0|8|2,0:0|0:0|0:0,0:0:0:0:
80,136,30077,2,0,P|64:193|50:261,1,125.999996154785,8|0,0:3|0:0,0:0:0:0:
105,330,30589,1,8,0:0:0:0:
179,274,30759,1,8,0:3:0:0:
240,364,30930,6,0,P|280:352|314:343,1,62.9999980773926,12|0,0:1|0:0,0:0:0:0:
404,265,31270,2,0,P|373:256|343:247,1,62.9999980773926,0|8,0:0|0:0,0:0:0:0:
235,182,31611,1,12,0:3:0:0:
387,52,31952,6,0,P|407:96|419:121,1,62.9999980773926,0|8,0:0|0:3,0:0:0:0:
331,159,32293,2,0,P|303:101|277:43,1,125.999996154785,8|8,0:3|0:0,0:0:0:0:
129,114,32975,2,0,P|156:136|188:144,1,62.9999980773926,0|2,0:0|0:0,0:0:0:0:
196,62,33316,1,8,0:0:0:0:
36,142,33657,5,12,0:1:0:0:
30,164,33998,1,8,0:0:0:0:
93,317,34339,6,0,P|137:307|163:299,1,62.9999980773926,8|0,0:3|0:0,0:0:0:0:
226,223,34680,2,0,P|260:233|291:241,1,62.9999980773926,0|8,0:0|0:3,0:0:0:0:
333,339,35020,2,0,P|368:322|458:284,1,125.999996154785,0|8,0:0|0:0,0:0:0:0:
494,198,35532,2,0,P|483:156|454:74,1,125.999996154785,8|8,3:0|0:0,0:0:0:0:
383,38,36043,1,8,0:3:0:0:
283,168,36384,5,12,0:1:0:0:
261,163,36725,1,8,0:0:0:0:
157,35,37066,5,8,0:3:0:0:
157,35,37236,1,8,0:3:0:0:
81,100,37407,2,0,P|94:147|103:183,1,62.9999980773926,0|8,0:0|0:0,0:0:0:0:
58,252,37748,1,0,0:0:0:0:
58,252,37918,2,0,P|102:247|175:306,1,125.999996154785,8|0,0:3|0:0,0:0:0:0:
222,362,38430,1,8,0:3:0:0:
263,274,38600,1,8,0:3:0:0:
341,337,38770,2,0,P|378:323|415:314,1,62.9999980773926,8|8,0:3|0:3,0:0:0:0:
500,239,39111,6,0,P|451:221|352:185,1,140,12|0,0:1|0:0,0:0:0:0:
108,105,39793,2,0,P|157:87|256:51,1,140,8|0,0:3|0:0,0:0:0:0:
331,1,40305,1,8,0:0:0:0:
331,1,40475,2,0,P|340:56|344:88,1,70,2|8,0:0|0:3,0:0:0:0:
282,149,40816,1,8,0:0:0:0:
466,241,41157,2,0,P|474:200|488:152,1,70,8|8,0:3|0:3,0:0:0:0:
378,163,41498,2,0,P|371:197|362:231,1,70,8|0,0:0|0:0,0:0:0:0:
394,326,41839,5,8,0:0:0:0:
394,326,42009,2,0,P|329:327|272:383,1,140,8|8,0:3|0:0,0:0:0:0:
205,297,42520,1,8,0:0:0:0:
146,377,42691,1,8,0:0:0:0:
41,307,42861,2,0,P|75:299|109:291,1,70,8|8,0:0|0:0,0:0:0:0:
222,215,43202,1,8,0:3:0:0:
108,107,43714,5,0,0:0:0:0:
108,107,43884,2,0,L|207:122,1,97.9999970092774,2|0,0:0|0:0,0:0:0:0:
301,71,44395,1,2,0:0:0:0:
397,147,44566,6,0,P|406:191|437:311,1,154.000004699707,12|8,0:1|0:0,0:0:0:0:
351,367,45077,1,0,0:0:0:0:
351,367,45248,2,0,P|299:329|190:331,1,154.000004699707,8|0,0:3|0:0,0:0:0:0:
119,381,45759,1,10,0:0:0:0:
119,381,45930,2,0,P|67:372|10:356,1,77.0000023498536,8|0,0:0|0:0,0:0:0:0:
7,266,46270,1,8,0:0:0:0:
191,102,46611,2,0,P|208:160|218:190,1,77.0000023498536,8|8,0:3|0:0,0:0:0:0:
124,240,46952,6,0,P|112:203|101:166,1,77.0000023498536,0|2,0:0|0:0,0:0:0:0:
149,14,47293,2,0,P|205:8|283:76,1,154.000004699707,8|8,0:0|0:0,0:0:0:0:
392,68,47805,2,0,P|382:124|376:177,1,77.0000023498536,0|8,0:0|0:3,0:0:0:0:
283,312,48316,1,0,0:0:0:0:
283,312,48486,2,0,P|275:267|248:184,1,125.999996154785,2|0,0:0|0:0,0:0:0:0:
166,133,48998,2,0,P|120:140|92:141,1,62.9999980773926,8|0,0:0|0:0,0:0:0:0:
17,229,49339,6,0,P|70:232|138:316,1,154.000004699707,8|2,0:3|0:0,0:0:0:0:
225,237,49850,1,0,0:0:0:0:
228,375,50020,6,0,P|271:363|388:338,1,154.000004699707,12|8,0:1|0:0,0:0:0:0:
505,128,50702,2,0,P|429:112|355:92,1,154.000004699707,8|0,0:3|0:0,0:0:0:0:
277,16,51214,1,8,0:3:0:0:
277,16,51384,2,0,P|235:29|196:37,1,77.0000023498536,8|0,0:0|0:0,0:0:0:0:
125,111,51725,1,8,0:0:0:0:
210,176,51895,2,0,P|203:219|195:259,1,77.0000023498536,0|8,0:0|0:3,0:0:0:0:
290,305,52236,2,0,P|307:212|320:140,1,154.000004699707,0|2,0:0|0:0,0:0:0:0:
360,53,52748,6,0,B|286:33|286:75|202:57,1,154.000004699707,8|8,0:0|0:0,0:0:0:0:
100,10,53259,1,0,0:0:0:0:
100,10,53430,2,0,P|84:93|72:163,1,154.000004699707,8|0,0:3|0:0,0:0:0:0:
139,246,53941,2,0,L|148:288,2,38.5000011749268,8|8|8,0:0|0:0|0:0,0:0:0:0:
213,189,54282,1,8,0:3:0:0:
267,267,54452,2,0,P|309:258|346:249,1,77.0000023498536,0|0,0:0|0:0,0:0:0:0:
431,176,54793,2,0,P|376:164|324:80,1,154.000004699707,8|8,0:3|0:3,0:0:0:0:
332,67,55305,1,8,0:3:0:0:
238,170,55475,6,0,P|204:167|137:155,1,97.9999970092774,12|8,0:0|0:0,0:0:0:0:
56,265,55986,1,0,0:0:0:0:
56,265,56157,2,0,P|90:268|185:286,1,125.999996154785,8|0,0:3|0:0,0:0:0:0:
280,384,56668,2,0,P|294:300|325:208,2,154.000004699707,2|8|0,0:0|0:3|0:0,0:0:0:0:
199,309,57520,1,8,0:3:0:0:
404,240,57861,1,0,0:0:0:0:
244,113,58202,6,0,P|206:119|163:128,1,77.0000023498536,8|0,0:0|0:0,0:0:0:0:
84,70,58543,1,8,0:0:0:0:
84,70,58714,1,0,0:0:0:0:
157,2,58884,2,0,P|197:12|314:24,1,154.000004699707,8|0,0:3|0:0,0:0:0:0:
439,5,59395,2,0,P|402:48|415:149,1,154.000004699707,8|0,0:3|0:0,0:0:0:0:
498,187,59907,1,8,0:0:0:0:
306,128,60248,5,8,0:3:0:0:
422,290,60589,1,2,0:0:0:0:
338,344,60759,2,0,L|331:383,2,38.5000011749268,8|8|8,0:0|0:0|0:0,0:0:0:0:
266,273,61100,2,0,P|223:268|136:338,1,154.000004699707,8|0,0:3|0:0,0:0:0:0:
52,381,61611,2,0,P|39:334|25:291,1,77.0000023498536,8|0,0:3|0:0,0:0:0:0:
98,221,61952,5,0,0:0:0:0:
33,144,62123,1,8,0:0:0:0:
102,72,62293,2,0,P|148:66|206:53,1,77.0000023498536,8|8,0:0|0:3,0:0:0:0:
265,9,62634,2,0,P|282:69|307:162,1,154.000004699707,0|8,0:0|0:3,0:0:0:0:
485,246,63316,6,0,P|476:290|467:333,1,77.0000023498536,2|8,0:0|0:0,0:0:0:0:
385,375,63657,1,8,0:0:0:0:
328,292,63827,1,8,0:3:0:0:
256,362,63998,2,0,P|209:356|170:350,1,77.0000023498536,2|8,0:0|0:0,0:0:0:0:
81,374,64339,2,0,P|71:314|61:272,1,77.0000023498536,8|8,0:3|0:0,0:0:0:0:
156,251,64680,1,2,0:0:0:0:
19,105,65020,1,12,0:1:0:0:
307,21,65532,5,0,0:0:0:0:
280,110,65702,2,0,P|257:99|238:83,2,51.3333348999024,8|2|2,0:0|0:0|0:0,0:0:0:0:
333,179,66043,2,0,P|311:191|286:196,2,51.3333348999024,8|2|2,0:0|0:0|0:0,0:0:0:0:
441,128,66384,6,0,P|426:191|437:313,1,154.000004699707,12|0,0:1|0:0,0:0:0:0:
356,377,66895,2,0,L|345:337,1,38.5000011749268,8|8,0:0|0:0,0:0:0:0:
337,325,67066,2,0,B|256:296|265:350|179:324,1,154.000004699707,4|0,0:1|0:0,0:0:0:0:
78,365,67577,1,8,0:3:0:0:
78,365,67748,2,0,P|91:319|101:257,1,77.0000023498536,8|0,0:0|0:0,0:0:0:0:
175,227,68089,1,8,0:0:0:0:
4,121,68430,1,8,0:3:0:0:
179,25,68770,6,0,P|229:32|271:36,1,77.0000023498536,0|2,0:0|0:0,0:0:0:0:
375,0,69111,2,0,P|394:62|424:158,1,154.000004699707,8|8,0:0|0:0,0:0:0:0:
485,224,69623,2,0,P|446:249|400:244,1,77.0000023498536,0|8,0:0|0:3,0:0:0:0:
337,187,69964,2,0,P|271:178|195:229,1,154.000004699707,0|8,0:0|0:3,0:0:0:0:
113,274,70475,2,0,P|126:338|132:373,2,77.0000023498536,8|8|8,0:0|0:0|0:0,0:0:0:0:
41,203,70986,5,0,0:0:0:0:
41,203,71157,2,0,P|50:148|64:44,1,154.000004699707,8|0,0:3|0:0,0:0:0:0:
182,9,71668,1,2,0:0:0:0:
228,141,71839,6,0,P|274:145|370:80,1,154.000004699707,12|8,0:1|0:0,0:0:0:0:
506,304,72520,2,0,P|446:257|370:254,1,154.000004699707,8|0,0:3|0:0,0:0:0:0:
305,330,73032,1,8,0:3:0:0:
305,330,73202,2,0,P|231:337|205:342,1,77.0000023498536,8|0,0:0|0:0,0:0:0:0:
171,254,73543,1,8,0:0:0:0:
91,337,73714,2,0,P|66:276|51:237,1,77.0000023498536,0|8,0:0|0:3,0:0:0:0:
118,167,74055,2,0,P|171:152|270:223,1,154.000004699707,0|2,0:0|0:0,0:0:0:0:
320,303,74566,6,0,P|368:312|417:316,1,77.0000023498536,8|8,0:0|0:3,0:0:0:0:
472,249,74907,1,8,0:0:0:0:
405,174,75077,1,0,0:0:0:0:
405,174,75248,2,0,P|391:103|378:14,1,154.000004699707,12|0,0:1|0:0,0:0:0:0:
284,102,75759,2,0,P|234:92|198:82,1,77.0000023498536,8|8,0:3|0:0,0:0:0:0:
134,18,76100,2,0,P|86:16|46:117,1,154.000004699707,8|0,0:0|0:0,0:0:0:0:
113,167,76611,2,0,P|102:254|85:348,1,154.000004699707,8|0,0:3|0:0,0:0:0:0:
286,365,77293,6,0,P|295:293|299:266,1,97.9999970092774,12|8,0:0|0:0,0:0:0:0:
381,184,77805,1,0,0:0:0:0:
381,184,77975,2,0,P|319:173|270:107,1,125.999996154785,8|0,0:3|0:0,0:0:0:0:
240,18,78486,2,0,P|213:62|97:82,2,154.000004699707,8|0|0,0:3|0:0|0:0,0:0:0:0:
330,61,79339,1,8,0:3:0:0:
208,192,79680,1,0,0:0:0:0:
398,253,80020,6,0,P|388:314|385:341,1,77.0000023498536,8|0,0:0|0:0,0:0:0:0:
301,382,80361,1,8,0:0:0:0:
301,382,80532,1,0,0:0:0:0:
243,295,80702,2,0,P|199:290|117:357,1,154.000004699707,8|0,0:3|0:0,0:0:0:0:
27,309,81214,2,0,P|21:333|20:352,2,38.5000011749268,8|0|0,0:3|0:0|0:0,0:0:0:0:
98,237,81555,1,8,0:3:0:0:
23,170,81725,2,0,P|16:113|11:75,1,77.0000023498536,8|0,0:0|0:0,0:0:0:0:
69,10,82066,5,8,0:3:0:0:
210,152,82407,1,8,0:0:0:0:
271,73,82577,2,0,P|267:43|263:22,2,38.5000011749268,8|8|8,0:0|0:0|0:0,0:0:0:0:
350,133,82918,2,0,P|334:208|317:293,1,154.000004699707,8|8,0:3|0:0,0:0:0:0:
262,367,83430,2,0,P|221:348|183:347,1,77.0000023498536,8|0,0:3|0:0,0:0:0:0:
93,374,83770,5,0,0:0:0:0:
36,290,83941,1,8,0:0:0:0:
105,217,84111,2,0,P|96:159|90:130,1,77.0000023498536,8|8,0:0|0:3,0:0:0:0:
192,89,84452,2,0,P|202:155|217:243,1,154.000004699707,0|8,0:0|0:3,0:0:0:0:
368,373,85134,6,0,P|414:370|445:349,1,77.0000023498536,2|8,0:0|0:3,0:0:0:0:
382,271,85463,1,8,0:0:0:0:
454,202,85633,1,8,0:3:0:0:
381,132,85803,2,0,P|342:122|308:109,1,77.0000023498536,8|0,0:0|0:0,0:0:0:0:
210,85,86144,2,0,P|220:123|224:165,1,77.0000023498536,8|8,0:3|0:0,0:0:0:0:
256,255,86485,2,0,P|284:226|314:201,1,77.0000023498536,8|8,0:0|0:0,0:0:0:0:
408,150,86826,6,0,P|421:219|433:290,1,125.999996154785,4|0,0:1|0:0,0:0:0:0:
326,27,87523,2,0,P|317:64|306:113,1,83.9999974365235,2|0,0:0|0:0,0:0:0:0:
