osu file format v14

[General]
AudioFilename: audio.mp3
AudioLeadIn: 0
PreviewTime: 488
Countdown: 1
SampleSet: Soft
StackLeniency: 0.7
Mode: 0
LetterboxInBreaks: 0
WidescreenStoryboard: 1

[Editor]
Bookmarks: 915,11824,22733,33642,44551,55460,66369,77278,86824
DistanceSpacing: 1
BeatDivisor: 8
GridSize: 32
TimelineZoom: 1

[Metadata]
Title:LET IT OUT (TV Size)
TitleUnicode:LET IT OUT (TV Size)
Artist:Fukuhara Miho
ArtistUnicode:福原美穂
Creator:celerih
Version:Normal
Source:鋼の錬金術師 FULLMETAL ALCHEMIST
Tags:thicc bish Ultima Fox Hagane no Renkinjutsushi Brotherhood ED ending 2 FMAB anime japanese
BeatmapID:1939649
BeatmapSetID:928651

[Difficulty]
HPDrainRate:3
CircleSize:2.6
OverallDifficulty:4
ApproachRate:5.5
SliderMultiplier:0.999999999999999
SliderTickRate:1

[Events]
//Background and Video events
0,0,"LET IT OUT BG.jpg",0,0
//Break Periods
//Storyboard Layer 0 (Background)
//Storyboard Layer 1 (Fail)
//Storyboard Layer 2 (Pass)
//Storyboard Layer 3 (Foreground)
//Storyboard Sound Samples

[TimingPoints]
930,340.909090909091,4,2,1,50,1,0
44566,-100,4,2,1,60,0,0
85134,329.67032967033,4,2,1,60,1,0
85463,340.909090909091,4,2,1,60,1,0
86826,348.837209302326,4,2,1,60,1,0

[Colours]
Combo1 : 129,137,211
Combo2 : 255,213,128

[HitObjects]
105,240,930,6,0,P|208:245|306:256,1,200,8|8,0:0|0:3,0:0:0:0:
437,106,2293,1,8,0:0:0:0:
343,140,2634,1,8,0:0:0:0:
262,80,2975,1,8,0:3:0:0:
172,125,3316,2,0,P|146:120|115:115,1,50,2|2,0:0|0:0,0:0:0:0:
86,81,3657,6,0,P|177:61|283:45,1,200,8|8,0:0|0:3,0:0:0:0:
454,147,5020,1,8,0:0:0:0:
393,226,5361,1,8,0:0:0:0:
419,322,5702,1,8,0:3:0:0:
330,368,6043,2,0,P|299:360|253:350,1,50,2|2,0:0|0:0,0:0:0:0:
226,355,6384,6,0,P|191:294|66:268,1,200,8|8,0:0|0:3,0:0:0:0:
7,76,7748,1,8,0:0:0:0:
104,96,8089,1,8,0:0:0:0:
160,13,8430,1,8,0:3:0:0:
255,40,8770,2,0,P|249:66|244:97,1,50,2|2,0:0|0:0,0:0:0:0:
277,127,9111,6,0,P|294:225|310:335,1,200,8|8,0:0|0:3,0:0:0:0:
487,233,10475,1,8,0:0:0:0:
424,154,10816,1,8,0:0:0:0:
483,73,11157,1,8,0:3:0:0:
409,4,11498,2,0,P|378:10|344:20,1,50,2|2,0:0|0:0,0:0:0:0:
331,55,11839,6,0,P|284:119|163:89,1,200,8|8,0:0|0:3,0:0:0:0:
26,229,13202,1,8,0:0:0:0:
123,250,13543,1,8,0:0:0:0:
169,338,13884,1,8,0:3:0:0:
268,324,14225,2,0,P|277:291|286:268,1,50,2|2,0:0|0:0,0:0:0:0:
262,230,14566,6,0,P|216:152|108:151,1,200,8|8,0:0|0:3,0:0:0:0:
22,28,15930,1,8,0:0:0:0:
120,6,16270,1,8,0:0:0:0:
183,83,16611,1,8,0:3:0:0:
277,49,16952,2,0,P|285:26|299:-4,1,50,2|2,0:0|0:0,0:0:0:0:
345,7,17293,6,0,P|361:114|371:211,1,200,8|8,0:0|0:3,0:0:0:0:
233,351,18657,1,8,0:0:0:0:
331,367,18998,1,8,0:0:0:0:
404,299,19339,1,8,0:3:0:0:
499,328,19680,2,0,P|504:297|512:270,1,50,2|2,0:0|0:0,0:0:0:0:
487,234,20020,6,0,P|396:182|309:114,1,200,8|8,0:0|0:3,0:0:0:0:
277,319,21384,1,8,0:0:0:0:
189,366,21725,1,8,0:0:0:0:
96,324,22066,2,0,P|65:316|21:306,1,50,8|2,0:3|0:0,0:0:0:0:
19,270,22407,2,0,P|47:262|94:252,1,50,2|2,0:0|0:0,0:0:0:0:
99,218,22748,5,12,0:1:0:0:
39,137,23089,1,8,0:0:0:0:
79,45,23430,2,0,P|154:58|240:65,1,150,8|8,0:3|0:3,0:0:0:0:
311,188,24452,1,8,0:0:0:0:
485,65,25134,1,8,0:3:0:0:
389,34,25475,5,12,0:1:0:0:
355,128,25816,1,8,0:0:0:0:
262,165,26157,1,8,0:3:0:0:
216,143,26327,1,8,0:3:0:0:
129,167,26668,2,0,P|149:271|163:368,1,200,8|8,0:0|0:3,0:0:0:0:
29,339,27861,1,8,0:3:0:0:
1,253,28202,5,12,0:1:0:0:
82,214,28543,1,8,0:0:0:0:
163,251,28884,2,0,P|237:229|331:211,1,150,8|8,0:3|0:3,0:0:0:0:
348,234,29566,1,0,0:0:0:0:
419,178,29907,2,0,P|426:150|441:105,1,50,2|8,0:0|0:3,0:0:0:0:
380,56,30418,2,0,P|403:32|425:11,2,50,0|8|8,0:0|0:0|0:3,0:0:0:0:
335,47,30930,6,0,P|241:28|119:15,1,200,12|12,0:1|0:3,0:0:0:0:
23,89,32123,2,0,P|14:124|0:164,1,50,8|8,0:3|0:3,0:0:0:0:
46,219,32634,1,8,0:0:0:0:
8,300,32975,2,0,P|2:328|-5:366,2,50,0|2|8,0:0|0:0|0:0,0:0:0:0:
98,296,33657,5,12,0:1:0:0:
171,347,33998,1,8,0:0:0:0:
257,321,34339,2,0,P|249:251|229:155,1,150,8|8,0:3|0:3,0:0:0:0:
270,43,35361,2,0,P|299:24|335:7,1,50,8|8,0:0|3:0,0:0:0:0:
384,71,35873,1,8,0:0:0:0:
426,55,36043,1,8,0:3:0:0:
478,128,36384,5,12,0:1:0:0:
419,196,36725,1,8,0:0:0:0:
435,284,37066,1,8,0:3:0:0:
472,308,37236,1,8,0:3:0:0:
406,369,37577,2,0,P|354:357|279:345,1,99.9999999999999,8|8,0:0|0:3,0:0:0:0:
263,359,38089,1,8,0:0:0:0:
190,306,38430,2,0,P|162:302|118:297,1,50,8|8,0:3|0:3,0:0:0:0:
105,271,38770,2,0,P|77:275|33:280,1,50,8|8,0:3|0:3,0:0:0:0:
21,248,39111,6,0,L|33:125,1,99.9999999999999,12|0,0:1|0:0,0:0:0:0:
59,62,39793,1,8,0:3:0:0:
146,39,40134,1,0,0:0:0:0:
185,60,40305,2,0,P|239:54|298:49,1,99.9999999999999,8|8,0:0|0:3,0:0:0:0:
393,153,41157,2,0,P|423:160|447:168,1,50,8|8,0:3|0:3,0:0:0:0:
467,12,41839,5,8,0:0:0:0:
423,1,42009,2,0,P|377:12|323:18,1,99.9999999999999,8|8,0:3|0:0,0:0:0:0:
291,48,42520,2,0,L|296:108,1,50,8|8,0:0|0:0,0:0:0:0:
329,126,42861,2,0,L|334:186,1,50,8|8,0:0|0:0,0:0:0:0:
358,212,43202,1,8,0:3:0:0:
79,366,44566,6,0,P|66:315|48:253,1,99.9999999999999,12|8,0:1|0:0,0:0:0:0:
113,189,45248,1,8,0:3:0:0:
59,104,45589,2,0,P|53:76|43:39,1,50,0|10,0:0|0:0,0:0:0:0:
83,20,45930,6,0,P|130:36|183:45,1,99.9999999999999,8|8,0:0|0:0,0:0:0:0:
252,113,46611,1,8,0:3:0:0:
299,127,46782,2,0,P|326:117|361:106,1,50,8|0,0:0|0:0,0:0:0:0:
433,61,47293,6,0,P|453:110|466:156,1,99.9999999999999,8|8,0:0|0:0,0:0:0:0:
400,231,47975,1,8,0:3:0:0:
445,320,48316,2,0,P|433:342|416:374,1,50,0|2,0:0|0:0,0:0:0:0:
372,355,48657,5,8,0:0:0:0:
279,316,48998,1,8,0:0:0:0:
189,359,49339,1,8,0:3:0:0:
144,337,49509,2,0,P|103:326|40:318,1,99.9999999999999,8|0,0:0|0:0,0:0:0:0:
13,279,50020,5,12,0:1:0:0:
88,213,50361,1,8,0:0:0:0:
175,261,50702,2,0,P|228:247|277:238,1,99.9999999999999,8|0,0:3|0:0,0:0:0:0:
319,220,51214,1,8,0:3:0:0:
337,173,51384,5,8,0:0:0:0:
294,82,51725,1,8,0:0:0:0:
205,127,52066,2,0,P|151:108|97:93,1,99.9999999999999,8|0,0:3|0:0,0:0:0:0:
45,173,52748,6,0,P|58:224|69:277,1,99.9999999999999,8|8,0:0|0:0,0:0:0:0:
150,326,53430,1,8,0:3:0:0:
240,367,53770,2,0,P|260:357|298:343,1,50,0|8,0:0|0:0,0:0:0:0:
335,339,54111,5,8,0:0:0:0:
383,352,54282,2,0,P|399:303|417:255,1,99.9999999999999,8|0,0:3|0:0,0:0:0:0:
396,211,54793,1,8,0:3:0:0:
468,141,55134,1,8,0:3:0:0:
493,97,55305,1,8,0:3:0:0:
475,50,55475,6,0,P|426:35|367:23,1,99.9999999999999,12|8,0:0|0:0,0:0:0:0:
300,88,56157,2,0,P|241:94|179:107,1,99.9999999999999,8|0,0:3|0:0,0:0:0:0:
110,57,56839,5,8,0:0:0:0:
70,26,57009,2,0,P|42:18|12:15,1,50,8|8,0:3|0:0,0:0:0:0:
8,115,57520,1,8,0:3:0:0:
70,193,57861,2,0,P|79:222|88:254,1,50,0|8,0:0|0:0,0:0:0:0:
121,275,58202,6,0,P|174:281|231:291,1,99.9999999999999,8|8,0:0|0:0,0:0:0:0:
293,356,58884,1,8,0:3:0:0:
370,293,59225,1,0,0:0:0:0:
358,244,59395,6,0,P|308:218|259:197,1,99.9999999999999,8|0,0:3|0:0,0:0:0:0:
246,154,59907,1,8,0:0:0:0:
255,54,60248,2,0,P|301:38|405:27,1,150,8|8,0:3|0:0,0:0:0:0:
442,56,60930,5,12,0:0:0:0:
430,104,61100,2,0,P|450:179|466:256,1,150,8|8,0:3|0:3,0:0:0:0:
352,338,62123,1,8,0:0:0:0:
315,303,62293,6,0,P|289:299|251:296,1,50,8|8,0:0|0:3,0:0:0:0:
225,265,62634,1,0,0:0:0:0:
291,189,62975,2,0,P|302:137|317:79,1,99.9999999999999,8|2,0:3|0:0,0:0:0:0:
238,25,63657,6,0,P|208:20|171:18,1,50,8|8,0:0|0:3,0:0:0:0:
146,45,63998,2,0,P|116:40|79:38,1,50,2|8,0:0|0:0,0:0:0:0:
55,67,64339,2,0,P|66:119|78:185,1,99.9999999999999,8|2,0:3|0:0,0:0:0:0:
143,237,65020,6,0,P|114:174|224:143,1,200,12|8,0:1|0:0,0:0:0:0:
264,219,66043,1,8,0:0:0:0:
358,251,66384,6,0,P|439:231|526:219,1,150,12|8,0:1|0:0,0:0:0:0:
490,172,67066,1,4,0:1:0:0:
417,40,67577,1,8,0:3:0:0:
375,67,67748,6,0,P|331:47|271:27,1,99.9999999999999,8|8,0:0|0:0,0:0:0:0:
194,79,68430,1,8,0:3:0:0:
104,35,68770,2,0,P|81:40|44:54,1,50,0|2,0:0|0:0,0:0:0:0:
8,32,69111,5,8,0:0:0:0:
1,131,69452,2,0,P|24:177|48:238,1,99.9999999999999,8|8,0:0|0:3,0:0:0:0:
91,309,70134,1,0,0:0:0:0:
139,295,70305,1,8,0:3:0:0:
188,303,70475,5,8,0:0:0:0:
278,346,70816,1,8,0:0:0:0:
372,312,71157,2,0,P|405:267|442:231,1,99.9999999999999,8|0,0:3|0:0,0:0:0:0:
447,136,71839,6,0,P|394:124|340:116,1,99.9999999999999,12|8,0:1|0:0,0:0:0:0:
263,168,72520,1,8,0:3:0:0:
178,43,73032,1,8,0:3:0:0:
214,8,73202,6,0,P|257:41|298:78,1,99.9999999999999,8|8,0:0|0:0,0:0:0:0:
376,124,73884,2,0,P|360:165|340:224,1,99.9999999999999,8|0,0:3|0:0,0:0:0:0:
298,242,74395,1,2,0:0:0:0:
248,236,74566,6,0,P|239:207|230:183,1,50,8|8,0:0|0:3,0:0:0:0:
182,179,74907,2,0,P|167:239|151:292,1,99.9999999999999,8|12,0:0|0:1,0:0:0:0:
279,361,75759,1,8,0:3:0:0:
317,328,75930,6,0,P|348:324|381:321,1,50,8|8,0:0|0:0,0:0:0:0:
413,339,76270,2,0,P|441:289|466:249,1,99.9999999999999,8|8,0:0|0:3,0:0:0:0:
449,153,76952,2,0,P|423:157|389:166,1,50,0|2,0:0|0:0,0:0:0:0:
359,133,77293,5,12,0:0:0:0:
285,65,77634,1,8,0:0:0:0:
206,126,77975,2,0,P|157:112|92:98,1,99.9999999999999,8|0,0:3|0:0,0:0:0:0:
83,57,78486,6,0,P|33:57|-25:87,1,99.9999999999999,8|0,0:3|0:0,0:0:0:0:
1,125,78998,1,8,0:0:0:0:
39,217,79339,1,8,0:3:0:0:
137,235,79680,1,0,0:0:0:0:
160,191,79850,1,8,0:0:0:0:
200,161,80020,5,8,0:0:0:0:
299,157,80361,1,8,0:0:0:0:
325,60,80702,2,0,P|275:38|218:25,1,99.9999999999999,8|0,0:3|0:0,0:0:0:0:
183,44,81214,6,0,P|174:97|157:154,1,99.9999999999999,8|8,0:3|0:3,0:0:0:0:
119,169,81725,1,8,0:0:0:0:
50,241,82066,2,0,P|75:288|100:338,1,99.9999999999999,8|8,0:3|0:0,0:0:0:0:
187,371,82748,5,12,0:0:0:0:
218,331,82918,2,0,P|272:319|336:313,1,99.9999999999999,8|8,0:3|0:0,0:0:0:0:
352,278,83430,1,8,0:3:0:0:
439,325,83770,1,0,0:0:0:0:
507,251,84111,5,8,0:0:0:0:
478,209,84282,2,0,P|468:154|454:96,1,99.9999999999999,8|8,0:3|0:0,0:0:0:0:
466,61,84793,1,8,0:3:0:0:
373,23,85134,1,2,0:0:0:0:
324,35,85298,1,8,0:3:0:0:
296,76,85463,6,0,P|308:131|316:182,1,99.9999999999999,8|8,0:0|0:0,0:0:0:0:
223,215,86144,1,8,0:3:0:0:
168,131,86485,1,8,0:0:0:0:
118,122,86656,1,8,0:0:0:0:
73,146,86826,6,0,P|85:202|92:246,1,99.9999999999999,4|0,0:1|0:0,0:0:0:0:
96,344,87523,2,0,P|46:316|-2:297,1,99.9999999999999,2|0,0:0|0:0,0:0:0:0:
