osu file format v14

[General]
AudioFilename: audio.mp3
AudioLeadIn: 0
PreviewTime: 488
Countdown: 1
SampleSet: Soft
StackLeniency: 0.7
Mode: 0
LetterboxInBreaks: 0
WidescreenStoryboard: 0

[Editor]
Bookmarks: 930,11824,22733,33642,44551,55460,66369,77278,86824
DistanceSpacing: 0.4
BeatDivisor: 4
GridSize: 32
TimelineZoom: 1.7

[Metadata]
Title:LET IT OUT (TV Size)
TitleUnicode:LET IT OUT (TV Size)
Artist:Fukuhara Miho
ArtistUnicode:福原美穂
Creator:celerih
Version:Insane
Source:鋼の錬金術師 FULLMETAL ALCHEMIST
Tags:thicc bish Ultima Fox Hagane no Renkinjutsushi Brotherhood ED ending 2 FMAB anime japanese
BeatmapID:1939648
BeatmapSetID:928651

[Difficulty]
HPDrainRate:6
CircleSize:4
OverallDifficulty:8
ApproachRate:8.7
SliderMultiplier:1.8
SliderTickRate:1

[Events]
//Background and Video events
0,0,"LET IT OUT BG.jpg",0,0
//Break Periods
//Storyboard Layer 0 (Background)
//Storyboard Layer 1 (Fail)
//Storyboard Layer 2 (Pass)
//Storyboard Layer 3 (Foreground)
//Storyboard Sound Samples

[TimingPoints]
930,340.909090909091,4,2,1,50,1,0
930,-142.857142857143,4,2,1,50,0,0
22748,-100,4,2,1,50,0,0
43884,-153.846153846153,4,2,1,35,0,0
44566,-100,4,2,1,60,0,0
85134,329.67032967033,4,2,1,60,1,0
85463,340.909090909091,4,2,1,60,1,0
86826,348.837209302326,4,2,1,60,1,0
87520,-153.846153846153,4,2,1,60,0,0

[Colours]
Combo1 : 129,137,211
Combo2 : 255,213,128

[HitObjects]
127,101,930,5,8,0:0:0:0:
113,124,1100,2,0,P|121:153|129:186,2,62.9999980773926,2|0|0,0:0|0:0|0:0,0:0:0:0:
156,267,1611,2,0,P|166:199|181:132,1,125.999996154785,8|0,0:3|0:0,0:0:0:0:
134,85,2123,1,2,0:0:0:0:
273,187,2293,6,0,P|263:154|249:119,1,62.9999980773926,8|0,0:0|0:0,0:0:0:0:
358,57,2634,2,0,P|342:85|327:117,1,62.9999980773926,8|0,0:0|0:0,0:0:0:0:
409,148,2975,1,8,0:3:0:0:
339,174,3316,1,2,0:0:0:0:
329,155,3486,1,2,0:0:0:0:
413,274,3657,5,8,0:0:0:0:
429,294,3827,2,0,P|465:300|496:309,2,62.9999980773926,2|0|0,0:0|0:0|0:0,0:0:0:0:
344,232,4339,2,0,P|407:223|470:205,1,125.999996154785,8|0,0:3|0:0,0:0:0:0:
482,136,4850,1,2,0:0:0:0:
407,248,5020,6,0,P|410:277|415:310,1,62.9999980773926,8|0,0:0|0:0,0:0:0:0:
307,354,5361,2,0,P|329:319|352:292,1,62.9999980773926,8|0,0:0|0:0,0:0:0:0:
273,245,5702,1,8,0:3:0:0:
228,182,6043,1,2,0:0:0:0:
216,196,6214,1,2,0:0:0:0:
132,341,6384,6,0,P|142:277|159:201,1,125.999996154785,8|0,0:0|0:0,0:0:0:0:
227,221,6895,1,0,0:0:0:0:
101,134,7066,2,0,P|110:199|126:267,1,125.999996154785,8|0,0:3|0:0,0:0:0:0:
189,289,7577,1,2,0:0:0:0:
296,195,7748,6,0,P|325:204|368:221,1,62.9999980773926,8|0,0:0|0:0,0:0:0:0:
433,125,8089,2,0,P|401:133|367:145,1,62.9999980773926,8|0,0:0|0:0,0:0:0:0:
334,58,8430,1,8,0:3:0:0:
405,67,8770,1,2,0:0:0:0:
420,57,8941,1,2,0:0:0:0:
300,148,9111,6,0,P|246:132|157:111,1,125.999996154785,8|0,0:0|0:0,0:0:0:0:
385,360,9793,2,0,P|398:302|458:293,1,125.999996154785,8|0,0:3|0:0,0:0:0:0:
512,345,10305,1,2,0:0:0:0:
388,219,10475,6,0,P|357:212|317:206,1,62.9999980773926,8|0,0:0|0:0,0:0:0:0:
265,338,10816,2,0,P|289:318|323:296,1,62.9999980773926,8|0,0:0|0:0,0:0:0:0:
183,207,11157,2,0,P|177:174|168:136,1,62.9999980773926,8|0,0:3|0:0,0:0:0:0:
186,70,11498,1,2,0:0:0:0:
148,138,11668,1,2,0:0:0:0:
268,226,11839,6,0,P|332:208|407:193,1,125.999996154785,8|0,0:0|0:0,0:0:0:0:
413,128,12350,1,0,0:0:0:0:
311,39,12520,2,0,P|249:27|174:18,1,125.999996154785,8|0,0:3|0:0,0:0:0:0:
130,71,13032,1,2,0:0:0:0:
15,23,13202,6,0,P|24:50|37:91,1,62.9999980773926,8|0,0:0|0:0,0:0:0:0:
124,147,13543,2,0,P|119:117|111:85,1,62.9999980773926,8|0,0:0|0:0,0:0:0:0:
197,19,13884,1,8,0:3:0:0:
264,66,14225,1,2,0:0:0:0:
285,54,14395,1,2,0:0:0:0:
191,172,14566,6,0,P|140:161|153:97,1,125.999996154785,8|0,0:0|0:0,0:0:0:0:
374,321,15248,2,0,P|435:305|508:293,1,125.999996154785,8|0,0:3|0:0,0:0:0:0:
496,215,15759,1,2,0:0:0:0:
340,218,15930,6,0,P|371:206|404:198,1,62.9999980773926,8|0,0:0|0:0,0:0:0:0:
339,129,16270,2,0,P|309:120|277:113,1,62.9999980773926,8|0,0:0|0:0,0:0:0:0:
370,39,16611,1,8,0:3:0:0:
451,18,16952,1,2,0:0:0:0:
465,7,17123,1,2,0:0:0:0:
500,154,17293,6,0,P|485:220|473:295,1,125.999996154785,8|0,0:0|0:0,0:0:0:0:
156,357,17975,2,0,P|174:302|242:296,1,125.999996154785,8|0,0:3|0:0,0:0:0:0:
283,352,18486,1,0,0:0:0:0:
160,270,18657,6,0,P|129:259|93:248,1,62.9999980773926,8|0,0:0|0:0,0:0:0:0:
34,371,18998,2,0,P|70:342|94:327,1,62.9999980773926,8|0,0:0|0:0,0:0:0:0:
20,240,19339,1,8,0:3:0:0:
0,167,19680,1,2,0:0:0:0:
5,150,19850,1,2,0:0:0:0:
127,231,20020,6,0,P|176:236|173:159,1,125.999996154785,8|0,0:0|0:0,0:0:0:0:
285,352,20702,2,0,P|293:284|303:206,1,125.999996154785,8|0,0:3|0:0,0:0:0:0:
369,196,21214,1,2,0:0:0:0:
235,96,21384,6,0,P|243:130|253:159,1,62.9999980773926,8|0,0:0|0:0,0:0:0:0:
153,220,21725,2,0,P|165:184|178:155,1,62.9999980773926,8|0,0:0|0:0,0:0:0:0:
42,113,22066,1,8,0:3:0:0:
32,31,22237,1,2,0:0:0:0:
113,21,22407,1,2,0:0:0:0:
123,103,22577,1,2,0:0:0:0:
27,267,22748,5,12,0:1:0:0:
42,284,23089,2,0,P|134:271|226:264,1,180,8|8,0:0|0:3,0:0:0:0:
285,324,23600,1,2,0:0:0:0:
391,179,23941,1,8,0:3:0:0:
363,190,24111,6,0,P|368:241|376:299,1,90,2|0,0:0|0:0,0:0:0:0:
355,291,24452,2,0,B|287:299|190:283|251:253|162:228|90:231,1,270,8|8,0:0|0:0,0:0:0:0:
231,134,25134,2,0,P|275:119|329:105,1,90,8|0,0:3|0:0,0:0:0:0:
140,33,25475,5,12,0:1:0:0:
143,59,25816,2,0,P|94:43|35:30,1,90,8|0,0:0|0:0,0:0:0:0:
236,177,26157,1,8,0:3:0:0:
202,105,26327,2,0,P|214:206|220:292,1,180,8|8,0:3|0:0,0:0:0:0:
317,249,27009,6,0,P|306:293|296:352,1,90,2|8,0:0|0:0,0:0:0:0:
284,344,27265,1,8,0:0:0:0:
269,357,27350,1,8,0:3:0:0:
186,321,27520,1,2,0:0:0:0:
66,359,27691,1,8,0:0:0:0:
10,305,27861,2,0,P|2:257|-9:203,1,90,8|0,0:3|0:0,0:0:0:0:
243,116,28202,5,12,0:1:0:0:
258,137,28543,2,0,P|358:117|476:97,1,180,8|8,0:0|0:3,0:0:0:0:
364,283,29395,6,0,P|374:234|387:194,1,90,8|0,0:3|0:0,0:0:0:0:
249,169,29736,1,8,0:0:0:0:
278,242,29907,1,2,0:0:0:0:
227,300,30077,2,0,P|231:226|243:94,1,180,8|0,0:3|0:0,0:0:0:0:
71,58,30589,1,8,0:0:0:0:
120,122,30759,1,8,0:3:0:0:
278,66,30930,6,0,B|317:61|391:80|342:93|403:114|471:107,1,180,12|0,0:1|0:0,0:0:0:0:
439,17,31441,1,8,0:0:0:0:
430,24,31526,1,8,0:0:0:0:
423,32,31611,2,0,P|413:126|408:214,1,180,12|0,0:3|0:0,0:0:0:0:
191,291,32123,5,8,0:3:0:0:
249,212,32293,2,0,P|257:161|267:120,1,90,8|0,0:3|0:0,0:0:0:0:
211,54,32634,2,0,P|224:142|237:256,1,180,8|0,0:0|0:0,0:0:0:0:
170,332,33145,1,2,0:0:0:0:
166,355,33316,1,8,0:0:0:0:
27,137,33657,5,12,0:1:0:0:
49,121,33998,2,0,P|57:211|65:308,1,180,8|8,0:0|0:3,0:0:0:0:
154,220,34850,6,0,P|162:169|174:125,1,90,8|0,0:3|0:0,0:0:0:0:
85,25,35191,1,2,0:0:0:0:
107,109,35361,1,8,0:0:0:0:
47,167,35532,2,0,P|26:121|4:84,1,90,8|0,3:0|0:0,0:0:0:0:
125,217,35873,1,8,0:0:0:0:
66,265,36043,2,0,P|73:216|87:152,1,90,8|0,0:3|0:0,0:0:0:0:
230,20,36384,5,12,0:1:0:0:
214,33,36725,2,0,P|222:84|229:138,1,90,8|0,0:0|0:0,0:0:0:0:
329,253,37066,1,8,0:3:0:0:
314,333,37236,2,0,P|304:220|292:134,1,180,8|8,0:3|0:0,0:0:0:0:
430,257,37918,5,8,0:3:0:0:
377,195,38089,2,0,P|392:101|413:8,1,180,8|8,0:0|0:3,0:0:0:0:
365,87,38600,1,8,0:3:0:0:
403,186,38770,1,8,0:3:0:0:
356,289,38941,1,8,0:3:0:0:
425,345,39111,6,0,P|414:269|315:269,1,180,12|0,0:1|0:0,0:0:0:0:
75,348,39793,2,0,P|57:271|41:157,1,180,8|0,0:3|0:0,0:0:0:0:
93,83,40305,1,8,0:0:0:0:
100,91,40390,1,2,0:0:0:0:
108,99,40475,5,2,0:0:0:0:
196,210,40645,1,8,0:3:0:0:
264,170,40816,2,0,P|306:175|361:187,1,90,8|8,0:0|0:0,0:0:0:0:
371,172,41072,1,8,0:0:0:0:
382,152,41157,1,8,0:3:0:0:
285,25,41327,1,8,0:3:0:0:
236,89,41498,2,0,P|244:133|249:185,1,90,8|0,0:0|0:0,0:0:0:0:
106,294,41839,5,8,0:0:0:0:
170,341,42009,2,0,P|255:317|349:300,1,180,8|8,0:3|0:0,0:0:0:0:
147,100,42520,1,8,0:0:0:0:
161,84,42691,1,8,0:0:0:0:
108,186,42861,1,8,0:0:0:0:
195,316,43032,1,8,0:0:0:0:
238,35,43202,5,8,0:3:0:0:
299,119,43884,2,0,P|298:98|297:74,1,29.2499986610413,2|0,0:0|0:0,0:0:0:0:
310,129,44055,2,0,P|319:110|329:89,1,29.2499986610413,2|0,0:0|0:0,0:0:0:0:
269,200,44395,1,2,0:0:0:0:
407,371,44566,6,0,P|414:323|426:260,1,90,12|0,0:1|0:0,0:0:0:0:
511,129,44907,2,0,P|494:83|469:24,1,90,8|0,0:0|0:0,0:0:0:0:
510,229,45248,2,0,B|466:223|408:202|445:183|392:158|337:152,1,180,8|0,0:3|0:0,0:0:0:0:
217,110,45759,1,10,0:0:0:0:
209,117,45844,1,10,0:0:0:0:
202,127,45930,6,0,P|218:77|239:39,1,90,8|0,0:0|0:0,0:0:0:0:
120,216,46270,2,0,P|103:166|98:123,1,90,8|0,0:0|0:0,0:0:0:0:
259,306,46611,1,8,0:3:0:0:
240,295,46782,2,0,P|251:243|265:193,1,90,8|0,0:0|0:0,0:0:0:0:
333,227,47123,1,2,0:0:0:0:
134,114,47293,6,0,P|120:67|104:21,1,90,8|0,0:0|0:0,0:0:0:0:
37,259,47634,2,0,P|51:209|71:153,1,90,8|0,0:0|0:0,0:0:0:0:
1,18,47975,2,0,P|17:111|29:203,1,180,8|0,0:3|0:0,0:0:0:0:
57,315,48486,1,2,0:0:0:0:
3,369,48657,6,0,P|9:320|18:270,1,90,8|0,0:0|0:0,0:0:0:0:
117,188,48998,2,0,P|133:234|152:281,1,90,8|0,0:0|0:0,0:0:0:0:
325,354,49339,1,8,0:3:0:0:
406,303,49509,1,8,0:0:0:0:
414,296,49594,1,2,0:0:0:0:
425,290,49680,2,0,P|473:302|514:309,1,90,2|0,0:0|0:0,0:0:0:0:
318,131,50020,6,0,P|329:82|348:13,1,90,12|0,0:1|0:0,0:0:0:0:
242,216,50361,2,0,P|215:171|181:127,1,90,8|0,0:0|0:0,0:0:0:0:
77,189,50702,2,0,P|98:264|122:385,1,180,8|0,0:3|0:0,0:0:0:0:
186,182,51214,1,8,0:3:0:0:
148,120,51384,6,0,P|138:162|130:225,1,90,8|0,0:0|0:0,0:0:0:0:
30,296,51725,2,0,P|40:338|48:401,1,90,8|0,0:0|0:0,0:0:0:0:
43,206,52066,2,0,P|51:115|56:22,1,180,8|0,0:3|0:0,0:0:0:0:
199,119,52577,1,2,0:0:0:0:
257,55,52748,6,0,P|303:35|354:21,1,90,8|0,0:0|0:0,0:0:0:0:
429,130,53089,2,0,P|473:144|520:166,1,90,8|0,0:0|0:0,0:0:0:0:
362,298,53430,2,0,P|354:214|334:111,1,180,8|0,0:3|0:0,0:0:0:0:
490,21,53941,5,8,0:0:0:0:
484,31,54026,1,8,0:0:0:0:
480,43,54111,1,8,0:0:0:0:
504,183,54282,2,0,P|467:103|384:102,1,180,8|0,0:3|0:0,0:0:0:0:
334,229,54793,2,0,P|381:210|434:197,1,90,8|0,0:3|0:0,0:0:0:0:
507,341,55134,1,8,0:3:0:0:
407,285,55305,1,8,0:3:0:0:
229,345,55475,6,0,P|184:350|122:365,1,90,12|0,0:0|0:0,0:0:0:0:
88,243,55816,2,0,P|43:238|-19:223,1,90,8|0,0:0|0:0,0:0:0:0:
39,370,56157,2,0,P|96:321|205:333,1,180,8|0,0:3|0:0,0:0:0:0:
271,314,56668,1,2,0:0:0:0:
460,221,56839,5,8,0:0:0:0:
329,187,57009,1,8,0:3:0:0:
275,237,57180,2,0,P|319:224|365:217,1,90,8|0,0:0|0:0,0:0:0:0:
220,102,57520,2,0,P|234:185|248:280,1,180,8|0,0:3|0:0,0:0:0:0:
438,380,58032,1,8,0:0:0:0:
431,370,58117,1,8,0:0:0:0:
425,360,58202,6,0,P|436:310|452:253,1,90,8|0,0:0|0:0,0:0:0:0:
327,178,58543,2,0,P|338:221|348:265,1,90,8|0,0:0|0:0,0:0:0:0:
455,179,58884,2,0,P|449:85|435:-15,1,180,8|0,0:3|0:0,0:0:0:0:
277,251,59395,1,8,0:3:0:0:
235,182,59566,6,0,P|252:139|276:91,1,90,8|0,0:0|0:0,0:0:0:0:
141,250,59907,2,0,P|129:205|120:152,1,90,8|0,0:0|0:0,0:0:0:0:
198,20,60248,2,0,P|190:62|184:114,1,90,8|0,0:3|0:0,0:0:0:0:
214,178,60589,1,2,0:0:0:0:
131,332,60759,5,8,0:0:0:0:
120,339,60845,1,8,0:0:0:0:
111,348,60930,1,12,0:0:0:0:
190,203,61100,2,0,P|105:166|1:139,1,180,8|0,0:3|0:0,0:0:0:0:
93,347,61611,2,0,P|139:260|310:245,1,270,8|8,0:3|0:0,0:0:0:0:
305,246,62208,1,8,0:0:0:0:
311,257,62293,1,8,0:0:0:0:
92,284,62464,6,0,B|135:281|200:292|157:316|224:329|279:323,1,180,8|8,0:3|0:0,0:0:0:0:
471,188,62975,2,0,P|479:135|492:86,1,90,8|0,0:3|0:0,0:0:0:0:
357,177,63316,1,2,0:0:0:0:
392,280,63486,1,8,0:0:0:0:
155,310,63657,5,8,0:0:0:0:
262,372,63827,1,8,0:3:0:0:
214,220,63998,2,0,P|169:231|121:235,1,90,2|8,0:0|0:0,0:0:0:0:
334,296,64339,5,8,0:3:0:0:
249,146,64509,1,8,0:0:0:0:
233,159,64680,2,0,P|242:202|251:257,1,90,2|0,0:0|0:0,0:0:0:0:
18,21,65020,6,0,B|80:11|178:44|110:63|216:89|296:79,1,270,12|0,0:1|0:0,0:0:0:0:
371,34,65702,5,8,0:0:0:0:
320,52,65816,1,2,0:0:0:0:
297,94,65930,1,2,0:0:0:0:
297,135,66043,1,8,0:0:0:0:
309,168,66157,1,2,0:0:0:0:
312,197,66270,1,2,0:0:0:0:
307,220,66384,6,0,P|266:140|406:127,1,270,12|8,0:1|0:0,0:0:0:0:
405,102,66981,1,8,0:0:0:0:
400,91,67066,2,0,P|380:183|362:288,1,180,4|0,0:1|0:0,0:0:0:0:
425,330,67577,1,8,0:3:0:0:
222,362,67748,6,0,P|177:350|108:338,1,90,8|0,0:0|0:0,0:0:0:0:
87,216,68089,2,0,P|42:224|0:236,1,90,8|0,0:0|0:0,0:0:0:0:
328,288,68430,2,0,P|242:276|130:269,1,180,8|0,0:3|0:0,0:0:0:0:
36,371,68941,1,2,0:0:0:0:
117,161,69111,6,0,P|105:115|85:60,1,90,8|0,0:0|0:0,0:0:0:0:
213,10,69452,2,0,P|201:56|187:115,1,90,8|0,0:0|0:0,0:0:0:0:
287,221,69793,2,0,P|294:125|304:41,1,180,8|0,0:3|0:0,0:0:0:0:
467,194,70305,1,8,0:3:0:0:
437,119,70475,5,8,0:0:0:0:
485,188,70645,1,8,0:0:0:0:
461,271,70816,2,0,P|418:260|364:250,1,90,8|0,0:0|0:0,0:0:0:0:
214,370,71157,2,0,P|312:345|407:328,1,180,8|0,0:3|0:0,0:0:0:0:
456,370,71668,1,2,0:0:0:0:
204,249,71839,6,0,P|158:238|105:230,1,90,12|0,0:1|0:0,0:0:0:0:
58,356,72180,2,0,P|100:335|150:316,1,90,8|0,0:0|0:0,0:0:0:0:
36,241,72520,2,0,P|18:145|-2:58,1,180,8|0,0:3|0:0,0:0:0:0:
181,135,73032,1,8,0:3:0:0:
133,200,73202,6,0,P|143:246|152:303,1,90,8|0,0:0|0:0,0:0:0:0:
213,351,73543,2,0,P|225:299|237:253,1,90,8|0,0:0|0:0,0:0:0:0:
349,142,73884,2,0,P|334:243|327:335,1,180,8|0,0:3|0:0,0:0:0:0:
504,323,74395,5,2,0:0:0:0:
494,314,74481,1,2,0:0:0:0:
485,302,74566,1,8,0:0:0:0:
512,167,74736,1,8,0:3:0:0:
465,104,74907,2,0,P|454:53|442:12,1,90,8|0,0:0|0:0,0:0:0:0:
196,162,75248,2,0,B|244:155|297:129|255:121|314:94|356:87,1,180,12|0,0:1|0:0,0:0:0:0:
138,84,75759,1,8,0:3:0:0:
181,151,75930,5,8,0:0:0:0:
123,91,76101,1,8,0:0:0:0:
145,16,76270,2,0,P|189:4|242:1,1,90,8|0,0:0|0:0,0:0:0:0:
374,228,76611,2,0,P|360:130|509:105,1,270,8|2,0:3|0:0,0:0:0:0:
504,280,77293,6,0,P|496:328|489:395,1,90,12|0,0:0|0:0,0:0:0:0:
337,211,77634,2,0,P|354:256|375:320,1,90,8|0,0:0|0:0,0:0:0:0:
466,74,77975,2,0,P|452:163|438:267,1,180,8|0,0:3|0:0,0:0:0:0:
245,86,78486,1,8,0:3:0:0:
300,136,78657,6,0,P|345:120|397:106,1,90,8|0,0:0|0:0,0:0:0:0:
301,28,78998,2,0,P|256:51|206:76,1,90,8|0,0:0|0:0,0:0:0:0:
47,128,79339,2,0,P|135:137|243:154,1,180,8|0,0:3|0:0,0:0:0:0:
172,360,79850,1,8,0:0:0:0:
165,352,79935,1,8,0:0:0:0:
153,345,80020,6,0,P|139:300|121:253,1,90,8|0,0:0|0:0,0:0:0:0:
23,384,80361,2,0,P|32:335|43:292,1,90,8|0,0:0|0:0,0:0:0:0:
168,175,80702,2,0,P|154:94|132:-13,1,180,8|0,0:3|0:0,0:0:0:0:
317,206,81214,6,0,P|329:159|346:111,1,90,8|0,0:3|0:0,0:0:0:0:
412,289,81555,1,8,0:3:0:0:
381,362,81725,2,0,P|371:315|357:263,1,90,8|0,0:0|0:0,0:0:0:0:
267,119,82066,1,8,0:3:0:0:
298,35,82236,1,0,0:0:0:0:
414,118,82407,6,0,P|423:165|429:218,1,90,8|8,0:0|0:0,0:0:0:0:
436,215,82662,1,8,0:0:0:0:
446,221,82748,1,12,0:0:0:0:
309,356,82918,2,0,P|319:255|333:153,1,180,8|8,0:3|0:0,0:0:0:0:
204,310,83430,2,0,P|158:236|71:237,1,180,8|0,0:3|0:0,0:0:0:0:
2,321,83941,5,8,0:0:0:0:
8,331,84026,1,8,0:0:0:0:
13,341,84111,1,8,0:0:0:0:
113,205,84282,2,0,B|116:157|98:95|88:136|69:81|70:31,1,180,8|8,0:3|0:0,0:0:0:0:
0,293,84793,2,0,P|12:243|23:205,1,90,8|0,0:3|0:0,0:0:0:0:
186,69,85134,1,2,0:0:0:0:
266,128,85298,1,8,0:3:0:0:
486,23,85463,5,8,0:0:0:0:
405,95,85633,1,8,0:3:0:0:
440,233,85803,2,0,P|433:277|429:322,1,90,8|0,0:0|0:0,0:0:0:0:
67,246,86144,5,8,0:3:0:0:
170,169,86315,1,8,0:0:0:0:
291,236,86485,1,8,0:0:0:0:
403,149,86656,1,8,0:0:0:0:
152,261,86826,6,0,P|249:270|356:283,1,180,4|0,0:1|0:0,0:0:0:0:
243,170,87523,6,0,P|178:178|120:188,1,116.999994644165,2|0,0:0|0:0,0:0:0:0:
