osu file format v14

[General]
AudioFilename: audio.mp3
AudioLeadIn: 0
PreviewTime: 89604
Countdown: 0
SampleSet: Normal
StackLeniency: 0.7
Mode: 1
LetterboxInBreaks: 0
WidescreenStoryboard: 1

[Editor]
DistanceSpacing: 1.1
BeatDivisor: 4
GridSize: 4
TimelineZoom: 1

[Metadata]
Title:Trinity Field (Game Ver.)
TitleUnicode:Trinity Field (Game Ver.)
Artist:Fukuhara Ayaka, Fuchigami Mai, Matsui Eriko
ArtistUnicode:福原綾香, 渕上舞, 松井恵理子
Creator:Nisoquo
Version:Muzukashii
Source:アイドルマスター シンデレラガールズ スターライトステージ
Tags:japanese video game Triad Primus 渋谷凛 Shibuya Rin 北条加蓮 Hojo Karen 神谷奈緒 Kamiya Nao THE iDOLM@STER Cinderella Girls Starlight Stage 346 Production 346PRO 346プロ mishiro project
BeatmapID:2237997
BeatmapSetID:1069061

[Difficulty]
HPDrainRate:6
CircleSize:5
OverallDifficulty:5
ApproachRate:5
SliderMultiplier:1.4
SliderTickRate:1

[Events]
//Background and Video events
0,0,"BG.jpg",0,0
//Break Periods
//Storyboard Layer 0 (Background)
//Storyboard Layer 1 (Fail)
//Storyboard Layer 2 (Pass)
//Storyboard Layer 3 (Foreground)
//Storyboard Layer 4 (Overlay)
//Storyboard Sound Samples

[TimingPoints]
1144,461.538461538462,4,1,0,40,1,0
23118,324.324324324324,4,1,0,90,1,0
33496,-90.9090909090909,4,1,0,100,0,0
41928,-94.3396226415094,4,1,0,100,0,0
42090,-98.0392156862745,4,1,0,100,0,0
42253,-102.040816326531,4,1,0,100,0,0
42415,-106.382978723404,4,1,0,100,0,0
42577,-111.111111111111,4,1,0,80,0,0
47766,-133.333333333333,4,1,0,60,0,0
57009,-133.333333333333,4,1,0,70,0,0
58145,-100,4,1,0,80,0,0
69172,-100,4,1,0,85,0,0
69820,-100,4,1,0,90,0,0
71280,-100,4,1,0,80,0,0
71766,-100,4,1,0,85,0,0
72415,-100,4,1,0,90,0,0
73874,-100,4,1,0,80,0,0
74361,-100,4,1,0,85,0,0
75009,-100,4,1,0,90,0,0
76631,-100,4,1,0,80,0,0
82793,-111.111111111111,4,1,0,70,0,0
84090,-105.263157894737,4,1,0,80,0,0
85388,-100,4,1,0,87,0,0
90577,-95.2380952380952,4,1,0,92,0,1
106145,-95.2380952380952,4,1,0,85,0,0
106469,-100,4,1,0,60,0,0
113928,-95.2380952380952,4,1,0,92,0,1
120253,-95.2380952380952,4,1,0,92,0,0

[HitObjects]
261,186,1144,5,0,0:0:0:0:
145,166,1836,1,0,0:0:0:0:
258,203,2297,1,0,0:0:0:0:
180,189,2759,1,8,0:0:0:0:
261,186,3451,1,8,0:0:0:0:
234,229,3913,1,0,0:0:0:0:
64,203,4374,1,8,0:0:0:0:
261,186,4836,1,0,0:0:0:0:
221,190,5528,1,0,0:0:0:0:
227,182,5990,1,0,0:0:0:0:
227,182,6451,1,8,0:0:0:0:
231,195,7836,1,8,0:0:0:0:
206,174,8067,1,8,0:0:0:0:
261,186,8528,1,0,0:0:0:0:
222,175,9220,1,0,0:0:0:0:
222,175,9682,1,0,0:0:0:0:
222,175,10144,1,8,0:0:0:0:
261,186,10836,1,8,0:0:0:0:
261,186,11297,1,0,0:0:0:0:
242,194,11759,1,8,0:0:0:0:
261,186,12220,1,0,0:0:0:0:
235,187,12913,1,0,0:0:0:0:
265,210,13374,1,0,0:0:0:0:
234,175,13836,1,8,0:0:0:0:
261,186,14990,1,0,0:0:0:0:
218,182,15451,1,8,0:0:0:0:
129,226,15913,2,0,L|224:99,7,140
256,192,19605,12,0,22605,0:0:0:0:
416,176,23118,5,4,0:0:0:0:
416,176,23442,1,8,0:0:0:0:
416,176,23766,1,0,0:0:0:0:
416,176,24090,1,8,0:0:0:0:
416,176,24253,1,0,0:0:0:0:
416,176,24415,1,8,0:0:0:0:
416,176,24739,1,8,0:0:0:0:
224,229,24901,1,0,0:0:0:0:
224,229,24982,1,0,0:0:0:0:
416,176,25063,1,0,0:0:0:0:
416,176,25226,1,0,0:0:0:0:
416,176,25388,1,8,0:0:0:0:
416,176,25712,1,0,0:0:0:0:
416,176,26036,1,8,0:0:0:0:
416,176,26361,1,0,0:0:0:0:
416,176,26685,1,8,0:0:0:0:
416,176,26847,1,0,0:0:0:0:
416,176,27009,1,8,0:0:0:0:
416,176,27334,1,0,0:0:0:0:
416,176,27820,1,8,0:0:0:0:
416,176,27982,1,0,0:0:0:0:
416,176,28307,1,4,0:0:0:0:
416,176,28631,1,8,0:0:0:0:
416,176,28955,1,0,0:0:0:0:
416,176,29280,1,8,0:0:0:0:
416,176,29442,1,0,0:0:0:0:
416,176,29604,1,8,0:0:0:0:
416,176,29928,1,8,0:0:0:0:
416,176,30090,1,0,0:0:0:0:
190,53,30172,1,0,0:0:0:0:
300,78,30253,1,0,0:0:0:0:
416,176,30415,1,0,0:0:0:0:
416,176,30577,1,8,0:0:0:0:
416,176,30901,1,0,0:0:0:0:
416,176,31226,1,8,0:0:0:0:
416,176,31550,1,0,0:0:0:0:
416,176,31874,1,8,0:0:0:0:
416,176,32036,1,0,0:0:0:0:
416,176,32199,1,0,0:0:0:0:
416,176,32847,1,8,0:0:0:0:
416,176,33009,1,0,0:0:0:0:
416,176,33090,1,0,0:0:0:0:
416,176,33172,1,0,0:0:0:0:
416,176,33334,1,8,0:0:0:0:
416,176,33496,1,4,0:0:0:0:
416,176,33820,1,8,0:0:0:0:
416,176,33982,1,0,0:0:0:0:
375,185,34063,1,0,0:0:0:0:
416,176,34145,1,0,0:0:0:0:
416,176,34307,1,0,0:0:0:0:
416,176,34469,1,8,0:0:0:0:
416,176,34793,1,0,0:0:0:0:
416,176,35117,1,8,0:0:0:0:
416,176,35280,1,0,0:0:0:0:
416,176,35766,1,8,0:0:0:0:
416,176,36090,1,4,0:0:0:0:
416,176,36415,1,8,0:0:0:0:
416,176,36577,1,0,0:0:0:0:
221,78,36658,1,0,0:0:0:0:
331,171,36739,1,0,0:0:0:0:
416,176,36901,1,0,0:0:0:0:
416,176,37063,1,8,0:0:0:0:
157,96,37388,1,0,0:0:0:0:
416,176,37712,1,8,0:0:0:0:
416,176,37874,1,0,0:0:0:0:
416,176,38361,1,8,0:0:0:0:
416,176,38685,1,4,0:0:0:0:
416,176,39009,1,8,0:0:0:0:
331,166,39334,1,0,0:0:0:0:
245,156,39496,1,0,0:0:0:0:
195,109,39658,1,8,0:0:0:0:
256,209,39820,1,8,0:0:0:0:
416,176,39982,1,4,0:0:0:0:
416,176,40307,1,8,0:0:0:0:
331,171,40631,1,0,0:0:0:0:
247,157,40793,1,0,0:0:0:0:
163,143,40955,1,8,0:0:0:0:
256,209,41117,1,0,0:0:0:0:
416,176,41280,1,4,0:0:0:0:
416,176,41604,1,8,0:0:0:0:
331,172,41928,1,0,0:0:0:0:
253,134,42090,1,0,0:0:0:0:
179,98,42253,1,8,0:0:0:0:
256,209,42415,1,8,0:0:0:0:
416,176,42577,1,4,0:0:0:0:
416,176,43226,1,0,0:0:0:0:
416,176,43874,1,0,0:0:0:0:
416,176,44523,1,0,0:0:0:0:
416,176,44847,1,8,0:0:0:0:
416,176,45009,1,8,0:0:0:0:
416,176,45090,1,8,0:0:0:0:
416,176,45172,1,8,0:0:0:0:
416,176,45820,1,0,0:0:0:0:
416,176,46469,1,0,0:0:0:0:
416,176,47117,1,0,0:0:0:0:
416,176,47766,1,0,0:0:0:0:
416,176,48253,1,0,0:0:0:0:
416,176,48415,1,8,0:0:0:0:
416,176,49063,1,0,0:0:0:0:
416,176,49550,1,0,0:0:0:0:
416,176,49712,1,8,0:0:0:0:
416,176,50361,1,0,0:0:0:0:
416,176,50685,1,0,0:0:0:0:
416,176,51009,1,8,0:0:0:0:
416,176,51658,1,0,0:0:0:0:
416,176,52307,1,8,0:0:0:0:
416,176,52955,1,0,0:0:0:0:
416,176,53442,1,0,0:0:0:0:
416,176,53604,1,8,0:0:0:0:
416,176,54253,1,0,0:0:0:0:
242,162,54739,1,8,0:0:0:0:
416,176,55226,1,8,0:0:0:0:
416,176,55550,1,0,0:0:0:0:
416,176,55874,1,0,0:0:0:0:
416,176,56199,1,8,0:0:0:0:
416,176,56685,1,8,0:0:0:0:
416,176,57009,1,0,0:0:0:0:
416,176,57172,1,8,0:0:0:0:
416,176,57334,1,8,0:0:0:0:
227,131,57496,1,0,0:0:0:0:
236,193,57577,1,0,0:0:0:0:
236,193,57658,1,0,0:0:0:0:
416,176,57820,1,8,0:0:0:0:
416,176,58145,1,4,0:0:0:0:
416,176,58469,1,8,0:0:0:0:
416,176,58631,1,0,0:0:0:0:
174,113,58712,1,0,0:0:0:0:
416,176,58793,1,0,0:0:0:0:
416,176,58955,1,0,0:0:0:0:
416,176,59117,1,8,0:0:0:0:
416,176,59442,1,0,0:0:0:0:
416,176,59766,1,8,0:0:0:0:
416,176,59928,1,0,0:0:0:0:
148,110,60009,1,0,0:0:0:0:
416,176,60090,1,0,0:0:0:0:
416,176,60253,1,0,0:0:0:0:
416,176,60415,1,8,0:0:0:0:
416,176,60739,1,0,0:0:0:0:
416,176,61063,1,8,0:0:0:0:
416,176,61226,1,0,0:0:0:0:
416,176,61307,1,0,0:0:0:0:
416,176,61388,1,0,0:0:0:0:
416,176,61550,1,8,0:0:0:0:
416,176,61874,1,0,0:0:0:0:
416,176,62036,1,8,0:0:0:0:
257,190,62361,1,0,0:0:0:0:
416,176,62847,1,0,0:0:0:0:
416,176,63009,1,8,0:0:0:0:
416,176,63334,1,4,0:0:0:0:
416,176,63658,1,8,0:0:0:0:
416,176,63820,1,0,0:0:0:0:
416,176,63901,1,0,0:0:0:0:
416,176,63982,1,0,0:0:0:0:
416,176,64145,1,0,0:0:0:0:
416,176,64307,1,8,0:0:0:0:
416,176,64631,1,4,0:0:0:0:
416,176,64955,1,8,0:0:0:0:
416,176,65117,1,0,0:0:0:0:
416,176,65199,1,0,0:0:0:0:
416,176,65280,1,0,0:0:0:0:
416,176,65442,1,0,0:0:0:0:
416,176,65604,1,8,0:0:0:0:
416,176,65928,1,4,0:0:0:0:
416,176,66577,1,12,0:0:0:0:
416,176,67226,1,4,0:0:0:0:
416,176,67550,1,8,0:0:0:0:
416,176,67874,1,8,0:0:0:0:
339,168,68036,1,0,0:0:0:0:
416,176,68199,1,8,0:0:0:0:
416,176,68523,1,0,0:0:0:0:
416,176,68685,1,0,0:0:0:0:
416,176,68847,1,8,0:0:0:0:
416,176,69009,1,0,0:0:0:0:
416,176,69172,1,8,0:0:0:0:
416,176,69334,1,0,0:0:0:0:
416,176,69415,1,0,0:0:0:0:
416,176,69496,1,0,0:0:0:0:
416,176,69658,1,8,0:0:0:0:
416,176,69820,1,4,0:0:0:0:
416,176,70307,1,4,0:0:0:0:
416,176,70793,1,12,0:0:0:0:
416,176,71280,1,0,0:0:0:0:
416,176,71442,1,8,0:0:0:0:
416,176,71604,1,0,0:0:0:0:
416,176,71766,1,8,0:0:0:0:
416,176,71928,1,0,0:0:0:0:
416,176,72009,1,0,0:0:0:0:
416,176,72090,1,0,0:0:0:0:
416,176,72253,1,0,0:0:0:0:
416,176,72415,1,4,0:0:0:0:
416,176,72901,1,4,0:0:0:0:
416,176,73388,1,12,0:0:0:0:
416,176,73874,1,8,0:0:0:0:
416,176,74036,1,0,0:0:0:0:
416,176,74199,1,0,0:0:0:0:
416,176,74361,1,8,0:0:0:0:
416,176,74523,1,0,0:0:0:0:
416,176,74604,1,0,0:0:0:0:
416,176,74685,1,0,0:0:0:0:
416,176,74847,1,8,0:0:0:0:
416,176,75009,1,4,0:0:0:0:
416,176,75496,1,4,0:0:0:0:
416,176,75982,1,12,0:0:0:0:
416,176,76631,1,8,0:0:0:0:
416,176,76955,1,0,0:0:0:0:
416,176,77280,1,8,0:0:0:0:
416,176,77604,1,4,0:0:0:0:
416,176,77928,1,8,0:0:0:0:
416,176,78253,1,0,0:0:0:0:
416,176,78415,1,0,0:0:0:0:
416,176,78577,1,8,0:0:0:0:
416,176,78901,1,0,0:0:0:0:
416,176,79063,1,0,0:0:0:0:
416,176,79226,1,8,0:0:0:0:
416,176,79388,1,0,0:0:0:0:
416,176,79550,1,8,0:0:0:0:
416,176,79712,1,0,0:0:0:0:
416,176,79874,1,8,0:0:0:0:
416,176,80199,1,0,0:0:0:0:
416,176,80523,1,8,0:0:0:0:
416,176,80847,1,0,0:0:0:0:
416,176,81009,1,0,0:0:0:0:
416,176,81172,1,8,0:0:0:0:
416,176,81334,1,0,0:0:0:0:
416,176,81496,1,8,0:0:0:0:
416,176,81982,1,0,0:0:0:0:
416,176,82145,1,8,0:0:0:0:
416,176,82388,1,0,0:0:0:0:
256,186,82631,1,8,0:0:0:0:
416,176,82793,1,4,0:0:0:0:
416,176,83117,1,8,0:0:0:0:
416,176,83442,1,0,0:0:0:0:
416,176,83604,1,0,0:0:0:0:
416,176,83766,1,8,0:0:0:0:
416,176,83928,1,8,0:0:0:0:
416,176,84090,1,0,0:0:0:0:
416,176,84415,1,8,0:0:0:0:
416,176,84739,1,0,0:0:0:0:
416,176,84901,1,0,0:0:0:0:
416,176,85063,1,8,0:0:0:0:
416,176,85226,1,8,0:0:0:0:
416,176,85388,1,0,0:0:0:0:
416,176,85712,1,8,0:0:0:0:
416,176,86036,1,0,0:0:0:0:
416,176,86199,1,0,0:0:0:0:
416,176,86361,1,8,0:0:0:0:
416,176,86523,1,8,0:0:0:0:
416,176,86685,1,4,0:0:0:0:
416,176,87009,1,12,0:0:0:0:
416,176,87334,1,0,0:0:0:0:
416,176,87982,1,4,0:0:0:0:
416,176,88307,1,8,0:0:0:0:
416,176,88469,1,4,0:0:0:0:
416,176,88793,1,8,0:0:0:0:
416,176,88955,1,4,0:0:0:0:
338,175,89280,1,8,0:0:0:0:
132,124,89442,1,0,0:0:0:0:
132,124,89523,1,0,0:0:0:0:
132,124,89604,1,0,0:0:0:0:
132,124,89766,1,8,0:0:0:0:
212,186,89928,1,0,0:0:0:0:
212,186,90253,1,8,0:0:0:0:
416,176,90577,1,4,0:0:0:0:
416,176,90901,1,8,0:0:0:0:
416,176,91063,1,0,0:0:0:0:
374,166,91145,1,0,0:0:0:0:
332,155,91226,1,0,0:0:0:0:
416,176,91388,1,0,0:0:0:0:
416,176,91550,1,8,0:0:0:0:
416,176,91712,1,0,0:0:0:0:
416,176,92036,1,0,0:0:0:0:
416,176,92199,1,8,0:0:0:0:
416,176,92523,1,0,0:0:0:0:
416,176,92847,1,8,0:0:0:0:
416,176,93172,1,4,0:0:0:0:
416,176,93658,1,8,0:0:0:0:
416,176,93982,1,0,0:0:0:0:
416,176,94145,1,8,0:0:0:0:
416,176,94469,1,0,0:0:0:0:
416,176,94631,1,0,0:0:0:0:
416,176,94793,1,8,0:0:0:0:
416,176,94955,1,0,0:0:0:0:
416,176,95280,1,0,0:0:0:0:
416,176,95361,1,0,0:0:0:0:
416,176,95442,1,0,0:0:0:0:
416,176,95604,1,8,0:0:0:0:
416,176,95766,1,4,0:0:0:0:
416,176,96090,1,8,0:0:0:0:
416,176,96253,1,0,0:0:0:0:
374,166,96334,1,0,0:0:0:0:
336,156,96415,1,0,0:0:0:0:
416,176,96577,1,0,0:0:0:0:
416,176,96739,1,8,0:0:0:0:
416,176,96901,1,0,0:0:0:0:
416,176,97226,1,0,0:0:0:0:
416,176,97388,1,8,0:0:0:0:
416,176,97712,1,0,0:0:0:0:
416,176,98036,1,8,0:0:0:0:
416,176,98361,1,4,0:0:0:0:
416,176,98847,1,8,0:0:0:0:
416,176,99172,1,0,0:0:0:0:
416,176,99334,1,8,0:0:0:0:
331,173,99658,1,8,0:0:0:0:
416,176,99820,1,0,0:0:0:0:
375,162,99901,1,0,0:0:0:0:
416,176,99982,1,0,0:0:0:0:
416,176,100145,1,0,0:0:0:0:
416,176,100307,1,8,0:0:0:0:
416,176,100469,1,0,0:0:0:0:
416,176,100550,1,0,0:0:0:0:
416,176,100631,1,0,0:0:0:0:
416,176,100793,1,8,0:0:0:0:
416,176,100955,1,4,0:0:0:0:
416,176,101280,1,8,0:0:0:0:
416,176,101442,1,0,0:0:0:0:
375,189,101523,1,0,0:0:0:0:
335,202,101604,1,0,0:0:0:0:
416,176,101766,1,0,0:0:0:0:
416,176,101928,1,8,0:0:0:0:
416,176,102253,1,12,0:0:0:0:
416,176,102496,1,12,0:0:0:0:
416,176,102739,1,12,0:0:0:0:
416,176,102901,1,4,0:0:0:0:
416,176,103145,1,4,0:0:0:0:
416,176,103388,1,4,0:0:0:0:
416,176,103550,1,12,0:0:0:0:
261,205,104036,1,8,0:0:0:0:
263,202,104361,1,0,0:0:0:0:
416,176,104523,1,8,0:0:0:0:
416,176,104847,1,0,0:0:0:0:
416,176,105009,1,0,0:0:0:0:
416,176,105172,1,8,0:0:0:0:
416,176,105334,1,0,0:0:0:0:
416,176,105496,1,8,0:0:0:0:
416,176,105658,1,0,0:0:0:0:
416,176,105739,1,0,0:0:0:0:
416,176,105820,1,0,0:0:0:0:
416,176,105982,1,8,0:0:0:0:
416,176,106145,1,0,0:0:0:0:
119,256,106793,1,0,0:0:0:0:
88,264,107117,1,8,0:0:0:0:
88,264,107280,1,0,0:0:0:0:
239,235,107442,1,0,0:0:0:0:
163,251,107766,1,8,0:0:0:0:
393,236,108090,1,8,0:0:0:0:
240,210,108415,1,0,0:0:0:0:
222,362,108739,1,0,0:0:0:0:
234,208,109063,1,0,0:0:0:0:
228,285,109226,1,8,0:0:0:0:
240,131,109550,1,0,0:0:0:0:
128,237,109874,2,8,L|634:-4,1,560
416,176,111658,5,8,0:0:0:0:
188,221,111982,1,0,0:0:0:0:
235,129,112307,1,8,0:0:0:0:
416,176,112631,1,0,0:0:0:0:
280,180,112955,1,8,0:0:0:0:
181,40,113280,1,8,0:0:0:0:
416,176,113604,1,0,0:0:0:0:
416,176,113928,1,8,0:0:0:0:
416,176,114090,1,0,0:0:0:0:
416,176,114253,1,0,0:0:0:0:
416,176,114415,1,8,0:0:0:0:
416,176,114577,1,0,0:0:0:0:
416,176,114739,1,0,0:0:0:0:
416,176,114901,1,8,0:0:0:0:
416,176,115063,1,0,0:0:0:0:
416,176,115226,1,0,0:0:0:0:
416,176,115388,1,8,0:0:0:0:
416,176,115550,1,0,0:0:0:0:
416,176,115712,1,0,0:0:0:0:
416,176,115874,1,8,0:0:0:0:
416,176,116523,1,8,0:0:0:0:
416,176,116685,1,0,0:0:0:0:
416,176,116847,1,0,0:0:0:0:
416,176,117009,1,8,0:0:0:0:
416,176,117172,1,0,0:0:0:0:
416,176,117334,1,0,0:0:0:0:
416,176,117496,1,8,0:0:0:0:
416,176,117658,1,0,0:0:0:0:
416,176,117820,1,0,0:0:0:0:
416,176,117982,1,8,0:0:0:0:
416,176,118145,1,0,0:0:0:0:
416,176,118307,1,0,0:0:0:0:
416,176,118469,1,8,0:0:0:0:
416,176,119117,1,8,0:0:0:0:
416,176,119280,1,0,0:0:0:0:
416,176,119361,1,0,0:0:0:0:
416,176,119442,1,0,0:0:0:0:
416,176,119604,1,8,0:0:0:0:
416,176,119766,1,0,0:0:0:0:
229,107,119847,1,0,0:0:0:0:
416,176,119928,1,0,0:0:0:0:
416,176,120090,1,8,0:0:0:0:
416,176,120253,1,4,0:0:0:0:
