osu file format v14

[General]
AudioFilename: audio.mp3
AudioLeadIn: 0
PreviewTime: 89604
Countdown: 0
SampleSet: Normal
StackLeniency: 0.7
Mode: 1
LetterboxInBreaks: 0
WidescreenStoryboard: 1

[Editor]
DistanceSpacing: 1.1
BeatDivisor: 2
GridSize: 4
TimelineZoom: 1

[Metadata]
Title:Trinity Field (Game Ver.)
TitleUnicode:Trinity Field (Game Ver.)
Artist:Fukuhara Ayaka, Fuchigami Mai, Matsui Eriko
ArtistUnicode:福原綾香, 渕上舞, 松井恵理子
Creator:Nisoquo
Version:Futsuu
Source:アイドルマスター シンデレラガールズ スターライトステージ
Tags:japanese video game Triad Primus 渋谷凛 Shibuya Rin 北条加蓮 Hojo Karen 神谷奈緒 Kamiya Nao THE iDOLM@STER Cinderella Girls Starlight Stage 346 Production 346PRO 346プロ mishiro project
BeatmapID:2237994
BeatmapSetID:1069061

[Difficulty]
HPDrainRate:7
CircleSize:5
OverallDifficulty:4
ApproachRate:5
SliderMultiplier:1.4
SliderTickRate:1

[Events]
//Background and Video events
0,0,"BG.jpg",0,0
//Break Periods
//Storyboard Layer 0 (Background)
//Storyboard Layer 1 (Fail)
//Storyboard Layer 2 (Pass)
//Storyboard Layer 3 (Foreground)
//Storyboard Layer 4 (Overlay)
//Storyboard Sound Samples

[TimingPoints]
1144,461.538461538462,4,1,0,40,1,0
23118,324.324324324324,4,1,0,90,1,0
33496,-100,4,1,0,100,0,0
42577,-100,4,1,0,80,0,0
47766,-100,4,1,0,60,0,0
57009,-100,4,1,0,70,0,0
58145,-100,4,1,0,80,0,0
69172,-100,4,1,0,85,0,0
69820,-100,4,1,0,90,0,0
71280,-100,4,1,0,80,0,0
71766,-100,4,1,0,85,0,0
72415,-100,4,1,0,90,0,0
73874,-100,4,1,0,80,0,0
74361,-100,4,1,0,85,0,0
75009,-100,4,1,0,90,0,0
76631,-100,4,1,0,80,0,0
82793,-100,4,1,0,70,0,0
84090,-100,4,1,0,80,0,0
85388,-100,4,1,0,87,0,0
90577,-100,4,1,0,92,0,1
106145,-100,4,1,0,85,0,0
106469,-100,4,1,0,60,0,0
113928,-100,4,1,0,92,0,1
120253,-100,4,1,0,92,0,0

[HitObjects]
261,186,1144,5,0,0:0:0:0:
261,186,2759,1,8,0:0:0:0:
33,225,3451,1,0,0:0:0:0:
136,149,3913,1,8,0:0:0:0:
261,186,4836,1,0,0:0:0:0:
261,186,6451,1,8,0:0:0:0:
258,163,7836,1,8,0:0:0:0:
231,195,8067,1,8,0:0:0:0:
261,186,8528,1,0,0:0:0:0:
261,186,10144,1,8,0:0:0:0:
261,238,10836,1,0,0:0:0:0:
136,149,11297,1,8,0:0:0:0:
261,186,12220,1,0,0:0:0:0:
261,186,13836,1,8,0:0:0:0:
261,186,14990,1,8,0:0:0:0:
129,226,15913,2,0,L|224:99,7,140
256,192,19605,12,0,22605,0:0:0:0:
416,176,23118,5,4,0:0:0:0:
416,176,23766,1,8,0:0:0:0:
416,176,24415,1,0,0:0:0:0:
416,176,24739,1,8,0:0:0:0:
132,92,25063,1,0,0:0:0:0:
214,193,25226,1,0,0:0:0:0:
416,176,25388,1,8,0:0:0:0:
416,176,25712,1,0,0:0:0:0:
245,118,26361,1,8,0:0:0:0:
411,181,26847,1,0,0:0:0:0:
416,176,27009,1,8,0:0:0:0:
216,172,27334,1,0,0:0:0:0:
416,176,27658,1,8,0:0:0:0:
344,181,27820,1,0,0:0:0:0:
283,180,27982,1,8,0:0:0:0:
416,176,28307,1,4,0:0:0:0:
416,176,28955,1,8,0:0:0:0:
416,176,29604,1,0,0:0:0:0:
416,176,29928,1,8,0:0:0:0:
416,176,30253,1,0,0:0:0:0:
416,176,30577,1,8,0:0:0:0:
416,176,30739,1,8,0:0:0:0:
416,176,30901,1,0,0:0:0:0:
416,176,31226,1,8,0:0:0:0:
416,176,31550,1,0,0:0:0:0:
416,176,31874,1,8,0:0:0:0:
416,176,32199,1,0,0:0:0:0:
416,176,32847,1,8,0:0:0:0:
416,176,33172,1,8,0:0:0:0:
416,176,33496,1,4,0:0:0:0:
416,176,33820,1,8,0:0:0:0:
173,186,33982,1,8,0:0:0:0:
416,176,34145,1,0,0:0:0:0:
416,176,34469,1,8,0:0:0:0:
416,176,34793,1,0,0:0:0:0:
416,176,35280,1,8,0:0:0:0:
416,176,35766,1,8,0:0:0:0:
416,176,36090,1,4,0:0:0:0:
416,176,36415,1,8,0:0:0:0:
416,176,36577,1,8,0:0:0:0:
331,171,36739,1,0,0:0:0:0:
416,176,37063,1,8,0:0:0:0:
157,96,37388,1,8,0:0:0:0:
416,176,37874,1,8,0:0:0:0:
214,235,38361,1,8,0:0:0:0:
416,176,38685,1,4,0:0:0:0:
331,166,39334,1,0,0:0:0:0:
245,156,39496,1,0,0:0:0:0:
195,109,39658,1,8,0:0:0:0:
416,176,39982,1,4,0:0:0:0:
331,171,40631,1,0,0:0:0:0:
247,157,40793,1,0,0:0:0:0:
163,143,40955,1,8,0:0:0:0:
416,176,41280,1,4,0:0:0:0:
416,176,41604,1,8,0:0:0:0:
331,172,41928,1,0,0:0:0:0:
253,134,42090,1,0,0:0:0:0:
179,98,42253,1,8,0:0:0:0:
416,176,42577,1,4,0:0:0:0:
416,176,43874,1,0,0:0:0:0:
416,176,44523,1,0,0:0:0:0:
416,176,44847,1,8,0:0:0:0:
416,176,45172,1,0,0:0:0:0:
416,176,46469,1,0,0:0:0:0:
416,176,47117,1,0,0:0:0:0:
416,176,47766,1,0,0:0:0:0:
416,176,48415,1,8,0:0:0:0:
416,176,49063,1,0,0:0:0:0:
416,176,49712,1,8,0:0:0:0:
416,176,50361,1,0,0:0:0:0:
416,176,50685,1,0,0:0:0:0:
416,176,51009,1,8,0:0:0:0:
416,176,51658,1,0,0:0:0:0:
416,176,52307,1,8,0:0:0:0:
416,176,52955,1,0,0:0:0:0:
416,176,53604,1,8,0:0:0:0:
416,176,54253,1,0,0:0:0:0:
196,83,54739,1,0,0:0:0:0:
210,115,55226,1,8,0:0:0:0:
416,176,55550,1,0,0:0:0:0:
416,176,56199,1,8,0:0:0:0:
416,176,56685,1,8,0:0:0:0:
416,176,57009,1,0,0:0:0:0:
416,176,57334,1,0,0:0:0:0:
416,176,57496,1,8,0:0:0:0:
416,176,57820,1,8,0:0:0:0:
416,176,58145,1,4,0:0:0:0:
262,189,58793,1,8,0:0:0:0:
416,176,59117,1,8,0:0:0:0:
416,176,59442,1,0,0:0:0:0:
416,176,60090,1,8,0:0:0:0:
416,176,60415,1,8,0:0:0:0:
416,176,60739,1,0,0:0:0:0:
416,176,61063,1,8,0:0:0:0:
278,210,61388,1,0,0:0:0:0:
139,154,61550,1,8,0:0:0:0:
300,200,61874,1,8,0:0:0:0:
271,186,62036,1,0,0:0:0:0:
262,192,62361,1,8,0:0:0:0:
272,177,62847,1,0,0:0:0:0:
416,176,63009,1,8,0:0:0:0:
416,176,63334,1,4,0:0:0:0:
416,176,63658,1,8,0:0:0:0:
278,238,64145,1,0,0:0:0:0:
416,176,64307,1,8,0:0:0:0:
416,176,64631,1,4,0:0:0:0:
416,176,64955,1,8,0:0:0:0:
416,176,65442,1,0,0:0:0:0:
416,176,65604,1,8,0:0:0:0:
416,176,65928,1,4,0:0:0:0:
416,176,66577,1,12,0:0:0:0:
416,176,67226,1,4,0:0:0:0:
416,176,67550,1,8,0:0:0:0:
249,226,67874,1,8,0:0:0:0:
221,208,68036,1,0,0:0:0:0:
416,176,68199,1,8,0:0:0:0:
416,176,68523,1,0,0:0:0:0:
282,194,68685,1,0,0:0:0:0:
280,207,68847,1,8,0:0:0:0:
416,176,69172,1,8,0:0:0:0:
416,176,69820,1,4,0:0:0:0:
416,176,70307,1,4,0:0:0:0:
416,176,70793,1,12,0:0:0:0:
416,176,71280,1,0,0:0:0:0:
416,176,71442,1,8,0:0:0:0:
416,176,71766,1,8,0:0:0:0:
416,176,72090,1,8,0:0:0:0:
416,176,72415,1,4,0:0:0:0:
416,176,72901,1,4,0:0:0:0:
416,176,73388,1,12,0:0:0:0:
416,176,73874,1,8,0:0:0:0:
416,176,74036,1,0,0:0:0:0:
416,176,74361,1,0,0:0:0:0:
416,176,74685,1,8,0:0:0:0:
416,176,75009,1,4,0:0:0:0:
416,176,75496,1,4,0:0:0:0:
416,176,75982,1,12,0:0:0:0:
416,176,76631,1,8,0:0:0:0:
416,176,76955,1,0,0:0:0:0:
416,176,77280,1,8,0:0:0:0:
416,176,77604,1,4,0:0:0:0:
416,176,77928,1,8,0:0:0:0:
416,176,78253,1,0,0:0:0:0:
416,176,78415,1,0,0:0:0:0:
416,176,78577,1,8,0:0:0:0:
416,176,78901,1,0,0:0:0:0:
416,176,79226,1,8,0:0:0:0:
416,176,79550,1,8,0:0:0:0:
416,176,79712,1,0,0:0:0:0:
416,176,79874,1,8,0:0:0:0:
416,176,80199,1,0,0:0:0:0:
416,176,80523,1,8,0:0:0:0:
416,176,80847,1,0,0:0:0:0:
416,176,81172,1,0,0:0:0:0:
416,176,81496,1,8,0:0:0:0:
416,176,82145,1,8,0:0:0:0:
416,176,82469,1,8,0:0:0:0:
416,176,82793,1,4,0:0:0:0:
416,176,83117,1,8,0:0:0:0:
416,176,83442,1,0,0:0:0:0:
416,176,84090,1,0,0:0:0:0:
416,176,84415,1,8,0:0:0:0:
416,176,84739,1,0,0:0:0:0:
416,176,85388,1,0,0:0:0:0:
416,176,85712,1,8,0:0:0:0:
416,176,86036,1,0,0:0:0:0:
416,176,86199,1,0,0:0:0:0:
416,176,86361,1,8,0:0:0:0:
416,176,86685,1,4,0:0:0:0:
416,176,87009,1,12,0:0:0:0:
416,176,87334,1,0,0:0:0:0:
416,176,87982,1,4,0:0:0:0:
416,176,88307,1,8,0:0:0:0:
322,173,88469,1,4,0:0:0:0:
263,159,88793,1,8,0:0:0:0:
416,176,88955,1,4,0:0:0:0:
338,175,89280,1,0,0:0:0:0:
328,188,89766,1,8,0:0:0:0:
416,176,89928,1,0,0:0:0:0:
166,53,90253,1,8,0:0:0:0:
416,176,90577,1,4,0:0:0:0:
416,176,90901,1,8,0:0:0:0:
416,176,91550,1,8,0:0:0:0:
416,176,91712,1,0,0:0:0:0:
416,176,92036,1,0,0:0:0:0:
416,176,92199,1,8,0:0:0:0:
416,176,92523,1,0,0:0:0:0:
416,176,92847,1,8,0:0:0:0:
416,176,93172,1,4,0:0:0:0:
416,176,93496,1,8,0:0:0:0:
271,212,93982,1,0,0:0:0:0:
416,176,94145,1,8,0:0:0:0:
247,186,94469,1,0,0:0:0:0:
416,176,94793,1,8,0:0:0:0:
219,203,94955,1,0,0:0:0:0:
169,163,95280,1,0,0:0:0:0:
205,174,95442,1,8,0:0:0:0:
416,176,95766,1,4,0:0:0:0:
416,176,96090,1,8,0:0:0:0:
416,176,96739,1,8,0:0:0:0:
416,176,96901,1,0,0:0:0:0:
261,169,97226,1,0,0:0:0:0:
416,176,97388,1,8,0:0:0:0:
416,176,97712,1,0,0:0:0:0:
416,176,98036,1,8,0:0:0:0:
416,176,98361,1,4,0:0:0:0:
416,176,99009,1,8,0:0:0:0:
331,173,99658,1,8,0:0:0:0:
268,227,99982,1,8,0:0:0:0:
416,176,100307,1,0,0:0:0:0:
314,152,100469,1,0,0:0:0:0:
260,184,100631,1,8,0:0:0:0:
416,176,100955,1,4,0:0:0:0:
416,176,101442,1,8,0:0:0:0:
416,176,101928,1,8,0:0:0:0:
416,176,102253,1,12,0:0:0:0:
416,176,102901,1,12,0:0:0:0:
416,176,103550,1,4,0:0:0:0:
416,176,103874,1,8,0:0:0:0:
416,176,104361,1,0,0:0:0:0:
416,176,104523,1,8,0:0:0:0:
416,176,104847,1,0,0:0:0:0:
416,176,105009,1,0,0:0:0:0:
416,176,105172,1,8,0:0:0:0:
308,170,105496,1,8,0:0:0:0:
416,176,105658,1,0,0:0:0:0:
416,176,105820,1,8,0:0:0:0:
416,176,106145,1,0,0:0:0:0:
119,256,106793,1,8,0:0:0:0:
88,264,107442,1,0,0:0:0:0:
240,210,107766,1,0,0:0:0:0:
393,236,108090,1,8,0:0:0:0:
222,362,108739,1,0,0:0:0:0:
234,208,109226,1,8,0:0:0:0:
128,237,109874,2,8,L|634:-4,1,560
416,176,111658,5,8,0:0:0:0:
416,176,111982,1,0,0:0:0:0:
416,176,112307,1,8,0:0:0:0:
416,176,112631,1,0,0:0:0:0:
416,176,112955,1,8,0:0:0:0:
416,176,113280,1,8,0:0:0:0:
416,176,113928,1,12,0:0:0:0:
416,176,114253,1,0,0:0:0:0:
416,176,114415,1,8,0:0:0:0:
416,176,114739,1,0,0:0:0:0:
416,176,114901,1,8,0:0:0:0:
416,176,115063,1,0,0:0:0:0:
416,176,115388,1,0,0:0:0:0:
416,176,115550,1,8,0:0:0:0:
416,176,115712,1,0,0:0:0:0:
416,176,115874,1,0,0:0:0:0:
416,176,116199,1,8,0:0:0:0:
416,176,116523,1,12,0:0:0:0:
416,176,116847,1,0,0:0:0:0:
416,176,117009,1,8,0:0:0:0:
416,176,117334,1,0,0:0:0:0:
416,176,117496,1,8,0:0:0:0:
416,176,117658,1,0,0:0:0:0:
416,176,117982,1,0,0:0:0:0:
416,176,118145,1,8,0:0:0:0:
416,176,118307,1,8,0:0:0:0:
416,176,118469,1,0,0:0:0:0:
416,176,119117,1,12,0:0:0:0:
416,176,119442,1,0,0:0:0:0:
416,176,119604,1,8,0:0:0:0:
416,176,119928,1,0,0:0:0:0:
416,176,120090,1,8,0:0:0:0:
416,176,120253,1,4,0:0:0:0:
