osu file format v14

[General]
AudioFilename: audio.mp3
AudioLeadIn: 0
PreviewTime: 89592
Countdown: 0
SampleSet: Soft
StackLeniency: 0.7
Mode: 0
LetterboxInBreaks: 0
WidescreenStoryboard: 0

[Editor]
DistanceSpacing: 1.1
BeatDivisor: 4
GridSize: 4
TimelineZoom: 0.5999999

[Metadata]
Title:Trinity Field (Game Ver.)
TitleUnicode:Trinity Field (Game Ver.)
Artist:Fukuhara Ayaka, Fuchigami Mai, Matsui Eriko
ArtistUnicode:福原綾香、渕上舞、松井恵理子
Creator:10nya
Version:MASTER+
Source:アイドルマスター シンデレラガールズ スターライトステージ
Tags:Triad Primus 渋谷凛 Shibuya Rin 北条加蓮 Hojo Karen 神谷奈緒 Kamiya Nao THE iDOLM@STER Cinderella Girls Starlight Stage Kuro_Fuyusaki -_t_e_n_n_y_a_- 346 Production 346PRO 346プロ mishiro pro project
BeatmapID:1538007
BeatmapSetID:728488

[Difficulty]
HPDrainRate:7
CircleSize:4
OverallDifficulty:8.2
ApproachRate:9.3
SliderMultiplier:1.8
SliderTickRate:1

[Events]
//Background and Video events
0,0,"BG.jpg",0,0
//Break Periods
//Storyboard Layer 0 (Background)
//Storyboard Layer 1 (Fail)
//Storyboard Layer 2 (Pass)
//Storyboard Layer 3 (Foreground)
//Storyboard Layer 4 (Overlay)
//Storyboard Sound Samples

[TimingPoints]
1144,461.538461538462,4,2,1,50,1,0
1144,-133.333333333333,4,2,4,50,0,0
1605,-133.333333333333,4,2,1,40,0,0
6451,-166.666666666667,4,2,4,40,0,0
6682,-133.333333333333,4,2,1,40,0,0
8528,-133.333333333333,4,2,4,40,0,0
8644,-133.333333333333,4,2,1,40,0,0
15913,-200,4,2,4,50,0,0
19374,-200,4,2,1,50,0,0
23106,324.324324324324,4,2,2,70,1,0
25700,-100,4,2,2,60,0,0
32187,-133.333333333333,4,2,4,60,0,0
32835,-100,4,2,1,60,0,0
33484,-100,4,2,2,60,0,0
38673,-100,4,2,4,60,0,0
38754,-100,4,2,2,60,0,0
39970,-100,4,2,4,60,0,0
40051,-100,4,2,2,60,0,0
41268,-100,4,2,4,60,0,0
41349,-100,4,2,2,60,0,0
42565,-133.333333333333,4,2,1,60,0,0
45160,-200,4,2,1,60,0,0
47754,-133.333333333333,4,2,1,40,0,0
56997,-133.333333333333,4,2,4,50,0,0
57808,-133.333333333333,4,2,2,60,0,0
58133,-100,4,2,2,60,0,0
62511,-100,4,2,4,60,0,0
62835,-100,4,2,2,60,0,0
80187,-100,4,2,4,60,0,0
80268,-100,4,2,2,60,0,0
81484,-100,4,2,4,60,0,0
81565,-100,4,2,2,60,0,0
90565,-100,4,2,2,70,0,1
94457,-100,4,2,4,70,0,1
94781,-100,4,2,2,70,0,1
94943,-100,4,2,4,70,0,1
95430,-100,4,2,2,70,0,1
106133,-133.333333333333,4,2,1,50,0,0
109862,-200,4,2,1,50,0,0
111160,-200,4,2,4,50,0,0
111646,-100,4,2,1,50,0,0
113916,-100,4,2,2,70,0,1
116511,-100,4,2,2,80,0,1
120403,-100,4,2,4,70,0,0

[Colours]
Combo1 : 252,129,227
Combo2 : 101,101,248
Combo3 : 237,89,52
Combo4 : 254,185,101

[HitObjects]
132,368,1144,6,0,P|148:308|148:224,1,135.000005149842,4|2,0:0|0:0,0:0:0:0:
84,184,1836,2,0,P|148:152|218:191,1,135.000005149842,0|2,0:0|0:0,0:0:0:0:
216,192,2759,6,0,B|216:32|216:32|252:84,1,202.500007724762,2|0,0:0|0:0,0:0:0:0:
320,120,3913,2,0,P|384:132|440:86,1,135.000005149842,2|0,0:0|0:0,0:0:0:0:
232,72,4836,6,0,P|240:144|272:212,1,135.000005149842,2|0,0:0|0:0,0:0:0:0:
224,276,5529,2,0,P|292:284|344:216,1,135.000005149842,2|2,0:0|0:0,0:0:0:0:
364,232,6452,6,0,P|300:284|384:266,1,215.999993408203,4|0,0:0|0:0,0:0:0:0:
413,29,7836,1,2,0:0:0:0:
348,84,8067,2,0,P|352:123|361:154,1,67.5000025749208
412,252,8529,6,0,P|336:224|268:240,1,135.000005149842,4|0,0:0|0:0,0:0:0:0:
180,159,9221,2,0,L|188:319,1,135.000005149842,2|2,0:0|0:0,0:0:0:0:
191,303,10144,6,0,B|243:315|287:247|287:247|335:287|275:311,1,202.500007724762,2|0,0:0|0:0,0:0:0:0:
192,188,11298,2,0,P|180:148|180:112,1,67.5000025749208,2|0,0:0|0:0,0:0:0:0:
304,32,11759,2,0,P|301:65|290:97,1,67.5000025749208
331,195,12221,6,0,P|387:179|467:211,1,135.000005149842,2|0,0:0|0:0,0:0:0:0:
489,82,12913,2,0,P|488:165|431:216,1,135.000005149842,2|2,0:0|0:0,0:0:0:0:
312,344,13836,1,2,0:0:0:0:
312,344,14067,6,0,P|296:292|300:260,1,67.5000025749208,2|0,0:0|0:0,0:0:0:0:
277,157,14529,2,0,P|233:189|202:197,1,67.5000025749208,2|0,0:0|0:0,0:0:0:0:
32,300,14990,2,0,P|124:276|180:300,1,135.000005149842,2|2,0:0|0:0,0:0:0:0:
276,352,15913,6,0,B|392:352|392:352|332:208|332:208|292:288,1,360,4|4,0:0|0:0,0:0:0:0:
256,192,17874,12,2,19432,0:0:0:0:
256,192,19778,5,2,0:0:0:0:
256,192,19894,12,0,22836,0:0:0:0:
140,44,23106,5,4,0:1:0:0:
52,188,23268,1,0,0:0:0:0:
224,188,23430,1,2,0:0:0:0:
145,145,23592,5,0,0:0:0:0:
170,311,23754,1,2,0:0:0:0:
301,201,23916,1,0,0:0:0:0:
203,229,24078,5,2,0:0:0:0:
307,360,24241,1,0,0:0:0:0:
366,199,24403,1,2,0:0:0:0:
305,264,24565,5,0,0:0:0:0:
468,297,24727,1,2,0:0:0:0:
410,136,24889,1,0,0:0:0:0:
327,343,25051,6,0,P|278:344|229:296,2,90,2|8|2,0:0|0:3|0:0,0:0:0:0:
217,134,25538,5,0,0:0:0:0:
305,264,25700,1,2,0:0:0:0:
390,132,25862,1,0,0:0:0:0:
181,256,26024,5,2,0:0:0:0:
306,135,26187,1,0,0:0:0:0:
388,289,26349,1,2,0:0:0:0:
191,146,26511,2,0,P|136:136|76:142,2,90,0|2|0,0:0|0:0|0:0,0:0:0:0:
417,107,26997,5,2,0:0:0:0:
415,194,27160,2,0,P|425:150|417:107,1,90,0|8,0:0|0:0,0:0:0:0:
438,305,27484,2,0,P|478:285|507:251,1,90,0|2,0:0|0:0,0:0:0:0:
253,238,27808,1,8,0:0:0:0:
176,56,27970,2,0,P|240:36|304:88,1,135,8|0,0:0|0:0,0:0:0:0:
324,148,28295,5,6,0:0:0:0:
176,225,28457,1,0,0:0:0:0:
176,56,28619,1,2,0:0:0:0:
408,189,28781,5,0,0:0:0:0:
244,163,28943,1,2,0:0:0:0:
334,29,29105,1,0,0:0:0:0:
323,298,29268,5,2,0:0:0:0:
324,119,29430,1,0,0:0:0:0:
417,227,29592,5,2,0:0:0:0:
244,163,29754,2,0,P|184:147|132:167,2,90,0|2|0,0:0|0:0|0:0,0:0:0:0:
346,318,30241,1,2,0:0:0:0:
197,239,30403,1,0,0:0:0:0:
417,227,30565,1,2,0:0:0:0:
243,370,30727,1,8,0:0:0:0:
310,225,30889,5,2,0:0:0:0:
103,234,31051,1,0,0:0:0:0:
204,53,31214,1,2,0:0:0:0:
377,271,31376,5,0,0:0:0:0:
195,165,31538,1,2,0:0:0:0:
353,26,31700,1,0,0:0:0:0:
265,269,31862,5,2,0:0:0:0:
344,142,32024,1,0,0:0:0:0:
344,142,32187,6,0,P|288:126|256:134,1,67.5000025749208,2|0,0:0|0:0,0:0:0:0:
343,221,32511,2,0,P|381:215|416:180,1,67.5000025749208,2|2,0:0|0:0,0:0:0:0:
67,84,32835,5,8,0:0:0:0:
41,115,32916,1,8,0:0:0:0:
32,154,32997,1,8,0:0:0:0:
29,194,33078,1,8,0:0:0:0:
37,234,33160,5,8,0:0:0:0:
52,271,33241,1,8,0:0:0:0:
76,303,33322,1,8,0:0:0:0:
111,321,33403,1,8,0:0:0:0:
150,329,33484,6,0,P|221:315|276:219,1,180,4|8,0:0|0:0,0:0:0:0:
281,97,33970,1,0,0:0:0:0:
175,145,34133,2,0,P|167:205|179:249,1,90,2|2,0:0|0:0,0:0:0:0:
392,152,34457,2,0,P|400:92|388:48,1,90,8|0,0:0|0:0,0:0:0:0:
340,328,34781,6,0,P|388:272|484:292,1,180,2|8,0:0|0:0,0:0:0:0:
256,124,35268,1,0,0:0:0:0:
188,208,35430,2,0,P|128:208|84:188,1,90,2|2,0:0|0:0,0:0:0:0:
160,40,35754,1,8,0:0:0:0:
341,108,35916,1,8,0:0:0:0:
353,152,35997,1,8,0:0:0:0:
365,196,36078,6,0,B|285:196|285:196|261:208|261:208|157:208,1,180,2|8,0:0|0:0,0:0:0:0:
28,308,36565,1,0,0:0:0:0:
84,128,36727,2,0,P|92:204|88:240,1,90,2|2,0:0|0:0,0:0:0:0:
113,365,37051,2,0,P|181:331|216:322,1,90,8|0,0:0|0:0,0:0:0:0:
456,228,37376,6,0,P|400:188|396:80,1,180,2|8,0:0|0:0,0:0:0:0:
476,132,37862,1,0,0:0:0:0:
268,192,38024,6,8,P|300:184|328:184,1,45
240,320,38187,2,8,P|208:310|184:296,1,45
144,124,38349,2,8,P|140:156|130:183,1,45
67,331,38511,2,8,P|61:309|60:286,1,45
268,192,38673,5,14,0:0:0:0:
119,239,38835,1,2,0:0:0:0:
260,340,38997,1,8,0:0:0:0:
119,239,39160,1,2,0:0:0:0:
357,201,39322,5,2,0:0:0:0:
157,329,39484,1,2,0:0:0:0:
188,176,39646,1,8,0:0:0:0:
354,349,39808,1,2,0:0:0:0:
255,260,39970,5,14,0:0:0:0:
286,119,40133,1,2,0:0:0:0:
275,338,40295,1,8,0:0:0:0:
286,119,40457,1,2,0:0:0:0:
184,164,40619,5,2,0:0:0:0:
371,364,40781,1,2,0:0:0:0:
173,344,40943,1,8,0:0:0:0:
379,180,41105,1,2,0:0:0:0:
218,264,41268,6,0,P|162:252|122:264,1,90,14|2,0:0|0:0,0:0:0:0:
40,120,41592,2,0,P|57:174|88:203,1,90,8|2,0:0|0:0,0:0:0:0:
39,368,41916,2,0,P|55:312|47:272,1,90,2|2,0:0|0:0,0:0:0:0:
205,107,42241,6,8,L|200:181,1,45
284,293,42403,2,8,L|280:248,1,45
289,109,42565,6,0,P|341:93|425:93,1,135.000005149842,4|0,0:0|0:0,0:0:0:0:
280,248,43051,1,0,0:0:0:0:
280,248,43214,2,0,P|216:206|208:127,1,135.000005149842,2|0,0:0|0:0,0:0:0:0:
386,95,43700,1,0,0:0:0:0:
386,95,43862,2,0,P|338:155|254:153,1,135.000005149842,2|0,0:0|0:0,0:0:0:0:
279,16,44349,1,0,0:0:0:0:
279,16,44511,2,0,P|299:76|295:100,1,67.5000025749208,2|0,0:0|0:0,0:0:0:0:
187,136,44835,2,0,P|210:77|228:61,1,67.5000025749208,0|2,0:0|0:0,0:0:0:0:
223,213,45160,6,0,P|151:210|129:194,1,90,2|0,0:0|0:0,0:0:0:0:
64,72,45646,1,0,0:0:0:0:
64,72,45808,2,0,P|56:116|47:129,1,45,2|0,0:0|0:0,0:0:0:0:
52,252,46133,2,0,P|90:229|107:227,1,45,2|0,0:0|0:0,0:0:0:0:
136,152,46457,5,2,0:0:0:0:
216,192,46619,1,0,0:0:0:0:
240,280,46781,1,0,0:0:0:0:
220,368,46943,1,0,0:0:0:0:
253,148,47105,5,2,0:0:0:0:
242,224,47268,1,0,0:0:0:0:
253,299,47430,1,0,0:0:0:0:
220,368,47592,1,0,0:0:0:0:
36,268,47754,6,0,P|108:235|178:262,1,135.000005149842,2|0,0:0|0:0,0:0:0:0:
253,148,48241,1,0,0:0:0:0:
253,148,48403,2,0,P|207:152|176:139,1,67.5000025749208,2|0,0:0|0:0,0:0:0:0:
357,242,48727,2,0,L|431:236,1,67.5000025749208,0|2,0:0|0:0,0:0:0:0:
480,89,49051,6,0,L|333:87,1,135.000005149842,2|0,0:0|0:0,0:0:0:0:
425,199,49538,1,0,0:0:0:0:
425,199,49700,2,0,L|513:195,1,67.5000025749208,2|0,0:0|0:0,0:0:0:0:
305,221,50024,2,0,L|237:217,1,67.5000025749208,0|2,0:0|0:0,0:0:0:0:
414,55,50349,6,0,P|356:85|296:60,1,135.000005149842,2|0,0:0|0:0,0:0:0:0:
226,125,50835,1,0,0:0:0:0:
295,59,50997,1,2,0:0:0:0:
107,120,51160,2,0,P|165:150|225:125,1,135.000005149842,2|0,0:0|0:0,0:0:0:0:
275,249,51646,6,0,L|283:321,1,67.5000025749208,2|2,0:0|0:0,0:0:0:0:
408,196,51970,2,0,L|401:264,1,67.5000025749208
326,88,52295,2,0,P|374:68|398:72,1,67.5000025749208,2|2,0:0|0:0,0:0:0:0:
275,249,52619,5,0,0:0:0:0:
228,94,52781,1,0,0:0:0:0:
388,69,52943,2,0,P|416:141|396:221,1,135.000005149842,2|0,0:0|0:0,0:0:0:0:
308,352,53430,1,2,0:0:0:0:
384,304,53592,2,0,P|460:284|528:328,1,135.000005149842,2|0,0:0|0:0,0:0:0:0:
508,306,54078,1,2,0:0:0:0:
304,256,54241,6,0,P|284:216|280:176,1,67.5000025749208,2|0,0:0|0:0,0:0:0:0:
404,112,54565,1,0,0:0:0:0:
404,112,54727,2,0,P|396:144|380:174,1,67.5000025749208,0|2,0:0|0:0,0:0:0:0:
248,36,55051,1,0,0:0:0:0:
324,116,55214,1,2,0:0:0:0:
216,140,55376,1,0,0:0:0:0:
392,24,55538,6,0,P|416:84|432:160,1,135.000005149842,2|2,0:0|0:0,0:0:0:0:
272,196,56024,1,0,0:0:0:0:
240,300,56187,2,0,P|228:352|228:392,2,67.5000025749208,2|0|0,0:0|0:0|0:0,0:0:0:0:
272,196,56673,1,2,0:0:0:0:
272,196,56997,5,0,0:0:0:0:
340,152,57160,1,2,0:0:0:0:
420,148,57322,1,2,0:0:0:0:
488,192,57484,2,0,P|492:240|488:260,1,67.5000025749208,2|2,0:0|0:0,0:0:0:0:
348,368,57808,2,0,P|344:320|348:300,1,67.5000025749208,2|0,0:0|0:0,0:0:0:0:
440,88,58133,6,0,P|384:116|344:116,1,90,6|0,0:0|0:0,0:0:0:0:
220,56,58457,2,0,P|232:108|228:156,1,90,2|0,0:0|0:0,0:0:0:0:
268,288,58781,2,0,P|312:258|359:246,1,90,2|0,0:0|0:0,0:0:0:0:
480,192,59105,1,2,0:0:0:0:
480,192,59268,1,0,0:0:0:0:
368,48,59430,6,0,L|364:160,1,90,2|0,0:0|0:0,0:0:0:0:
404,340,59754,2,0,P|359:356|293:339,1,90,2|0,0:0|0:0,0:0:0:0:
160,188,60078,2,0,P|221:193|258:232,1,90,2|0,0:0|0:0,0:0:0:0:
172,336,60403,1,2,0:0:0:0:
344,184,60565,5,8,0:0:0:0:
344,184,60646,1,8,0:0:0:0:
344,184,60727,2,0,P|348:260|316:304,1,90,2|0,0:0|0:0,0:0:0:0:
252,68,61051,2,0,P|304:40|364:61,1,90,2|0,0:0|0:0,0:0:0:0:
132,192,61376,1,2,0:0:0:0:
132,192,61538,2,0,P|74:180|35:132,1,90,2|0,0:0|0:0,0:0:0:0:
309,116,61862,1,2,0:0:0:0:
245,274,62024,5,2,0:0:0:0:
427,229,62187,1,0,0:0:0:0:
309,116,62349,1,2,0:0:0:0:
343,284,62511,1,2,0:0:0:0:
343,284,62592,1,0,0:0:0:0:
343,284,62673,1,2,0:0:0:0:
405,131,62835,1,0,0:0:0:0:
405,131,62916,1,0,0:0:0:0:
405,131,62997,1,2,0:0:0:0:
237,169,63160,1,8,0:0:0:0:
392,48,63322,6,0,P|440:32|484:48,1,90,2|0,0:0|0:0,0:0:0:0:
279,82,63646,2,0,P|228:80|192:50,1,90,2|0,0:0|0:0,0:0:0:0:
439,153,63970,1,2,0:0:0:0:
392,48,64133,1,2,0:0:0:0:
326,252,64295,1,2,0:0:0:0:
392,48,64457,1,2,0:0:0:0:
415,259,64619,6,0,L|326:252,1,90,2|0,0:0|0:0,0:0:0:0:
172,296,64943,2,0,P|196:236|196:200,1,90,2|0,0:0|0:0,0:0:0:0:
246,34,65268,1,2,0:0:0:0:
289,201,65430,1,2,0:0:0:0:
415,79,65592,1,8,0:0:0:0:
144,148,65754,1,0,0:0:0:0:
144,148,65835,1,0,0:0:0:0:
144,148,65916,6,0,L|-4:140,2,135,2|2|0,0:0|0:0|0:0,0:0:0:0:
344,332,66565,2,0,L|492:324,2,135,2|2|0,0:0|0:0|0:0,0:0:0:0:
255,221,67214,5,2,0:0:0:0:
149,346,67376,1,0,0:0:0:0:
132,230,67538,5,2,0:0:0:0:
266,337,67700,1,0,0:0:0:0:
349,98,67862,5,2,0:0:0:0:
202,280,68024,1,0,0:0:0:0:
185,122,68187,5,2,0:0:0:0:
366,256,68349,1,0,0:0:0:0:
347,29,68511,5,2,0:0:0:0:
140,200,68673,1,0,0:0:0:0:
165,29,68835,5,2,0:0:0:0:
372,200,68997,1,0,0:0:0:0:
48,101,69160,5,8,0:0:0:0:
254,195,69322,1,10,0:0:0:0:
464,101,69484,5,8,0:0:0:0:
257,286,69646,1,8,0:0:0:0:
364,100,69808,6,0,L|452:292,1,180,4|0,0:0|0:0,0:0:0:0:
73,263,70295,2,0,L|148:100,1,180,4|0,0:0|0:0,0:0:0:0:
168,360,70781,2,0,P|256:344|356:360,1,180,4|0,0:0|0:0,0:0:0:0:
432,364,71268,1,2,0:0:0:0:
380,200,71430,2,0,P|392:244|384:296,1,90,8|0,0:0|0:0,0:0:0:0:
148,216,71754,5,2,0:0:0:0:
316,248,71916,1,2,0:0:0:0:
256,80,72078,1,8,0:0:0:0:
252,308,72241,1,0,0:0:0:0:
440,184,72403,6,0,L|304:44,1,180,4|0,0:0|0:0,0:0:0:0:
72,184,72889,2,0,L|208:44,1,180,4|0,0:0|0:0,0:0:0:0:
168,360,73376,2,0,P|256:344|356:360,1,180,4|0,0:0|0:0,0:0:0:0:
344,264,73862,1,2,0:0:0:0:
440,240,74024,2,0,P|435:298|411:340,1,90,8|0,0:0|0:0,0:0:0:0:
312,200,74349,5,2,0:0:0:0:
180,200,74511,1,2,0:0:0:0:
363,99,74673,1,8,0:0:0:0:
149,99,74835,1,2,0:0:0:0:
438,263,74997,6,0,L|364:100,1,180,4|0,0:0|0:0,0:0:0:0:
73,263,75484,2,0,L|148:100,1,180,4|0,0:0|0:0,0:0:0:0:
167,360,75970,2,0,P|255:343|344:356,1,180,4|0,0:0|0:0,0:0:0:0:
104,300,76457,1,2,0:0:0:0:
144,200,76619,1,8,0:0:0:0:
40,140,76781,2,0,L|40:236,1,90,0|2,0:0|0:0,0:0:0:0:
204,280,77105,1,2,0:0:0:0:
320,184,77268,1,8,0:0:0:0:
232,76,77430,5,0,0:0:0:0:
232,76,77511,1,0,0:0:0:0:
232,76,77592,2,0,P|172:52|68:104,1,180,4|8,0:0|0:0,0:0:0:0:
148,248,78078,1,0,0:0:0:0:
148,248,78160,1,0,0:0:0:0:
148,248,78241,2,0,P|164:184|152:136,1,90,2|2,0:0|0:0,0:0:0:0:
75,340,78565,2,0,P|131:364|195:356,1,90,8|0,0:0|0:0,0:0:0:0:
307,232,78889,6,0,P|220:205|135:268,1,180,2|8,0:0|0:0,0:0:0:0:
392,340,79376,1,2,0:0:0:0:
392,340,79457,1,0,0:0:0:0:
392,340,79538,2,0,P|417:281|420:239,1,90,2|2,0:0|0:0,0:0:0:0:
147,247,79862,2,0,P|154:291|175:330,1,90,8|2,0:0|0:0,0:0:0:0:
368,96,80187,6,0,P|312:84|268:104,1,90,10|0,0:0|0:0,0:0:0:0:
392,248,80511,1,8,0:0:0:0:
392,248,80673,2,0,L|484:248,1,90,0|2,0:0|0:0,0:0:0:0:
282,94,80997,2,0,L|190:94,2,90,2|8|2,0:0|0:0|0:0,0:0:0:0:
112,176,81484,6,0,P|68:112|100:16,1,180,10|8,0:0|0:0,0:0:0:0:
293,196,81970,1,0,0:0:0:0:
204,248,82133,2,0,P|192:192|196:140,1,90,2|0,0:0|0:0,0:0:0:0:
208,120,82376,1,0,0:0:0:0:
208,120,82457,2,0,P|216:76|216:64,1,45,8|0,0:0|0:0,0:0:0:0:
24,188,82619,2,0,P|26:210|32:232,1,45,8|0,0:0|0:0,0:0:0:0:
256,364,82781,5,6,0:0:0:0:
265,349,83105,1,2,0:0:0:0:
265,349,83268,1,0,0:0:0:0:
265,349,83430,1,2,0:0:0:0:
265,349,83592,1,0,0:0:0:0:
253,240,83754,5,8,0:0:0:0:
265,349,83916,1,2,0:0:0:0:
360,136,84078,5,2,0:0:0:0:
360,136,84241,1,0,0:0:0:0:
360,136,84403,1,2,0:0:0:0:
360,136,84565,1,0,0:0:0:0:
360,136,84727,1,2,0:0:0:0:
360,136,84889,1,0,0:0:0:0:
316,36,85051,5,8,0:0:0:0:
360,136,85214,1,2,0:0:0:0:
152,136,85376,5,2,0:0:0:0:
152,136,85538,1,0,0:0:0:0:
152,136,85700,1,2,0:0:0:0:
152,136,85862,1,0,0:0:0:0:
152,136,86024,1,2,0:0:0:0:
152,136,86187,1,0,0:0:0:0:
196,36,86349,5,8,0:0:0:0:
254,228,86511,1,2,0:0:0:0:
152,136,86673,1,2,0:0:0:0:
152,136,86997,6,0,P|220:116|268:168,1,135,4|0,0:0|0:0,0:0:0:0:
388,204,87322,2,0,P|320:224|272:172,1,135,2|8,0:0|0:3,0:0:0:0:
263,154,87646,2,0,L|259:106,1,45
368,36,87808,2,0,L|364:80,1,45,8|0,0:0|0:0,0:0:0:0:
388,204,87970,5,8,0:0:0:0:
316,344,88133,1,0,0:0:0:0:
224,216,88295,1,2,0:0:0:0:
308,252,88457,5,8,0:0:0:0:
148,316,88619,1,2,0:0:0:0:
184,144,88781,1,0,0:0:0:0:
224,244,88943,5,8,0:0:0:0:
24,164,89105,1,0,0:0:0:0:
204,48,89268,1,8,0:0:0:0:
147,152,89430,5,2,0:0:0:0:
148,7,89592,1,2,0:0:0:0:
288,60,89754,1,8,0:0:0:0:
284,328,89916,6,0,P|329:320|373:337,1,90
368,214,90241,2,0,L|376:170,1,45
291,170,90403,2,0,L|283:125,1,45
284,328,90565,6,0,P|200:276|104:268,1,180,4|8,0:0|0:0,0:0:0:0:
32,212,91051,2,0,P|16:264|32:320,1,90,2|0,0:0|0:0,0:0:0:0:
112,148,91376,2,0,P|68:115|10:111,1,90,2|8,0:0|0:0,0:0:0:0:
256,56,91700,6,0,P|260:164|252:248,1,180,2|2,0:0|0:0,0:0:0:0:
368,356,92187,2,0,P|420:324|464:332,1,90,8|0,0:0|0:0,0:0:0:0:
132,296,92511,2,0,L|80:284,2,45,2|0|2,0:0|0:0|0:0,0:0:0:0:
234,350,92835,1,8,0:0:0:0:
308,208,92997,2,0,L|360:196,1,45,2|8,0:0|0:0,0:0:0:0:
200,108,93160,6,0,P|120:152|24:144,1,180,2|8,0:0|0:0,0:0:0:0:
304,128,93646,2,0,P|288:192|264:236,1,90,2|2,0:0|0:0,0:0:0:0:
360,56,93970,2,0,P|416:40|456:48,1,90,0|8,0:0|0:0,0:0:0:0:
268,41,94295,1,0,0:0:0:0:
440,216,94457,5,10,0:0:0:0:
304,128,94619,1,10,0:0:0:0:
446,44,94781,1,8,0:0:0:0:
212,68,94943,2,0,P|200:128|212:188,1,90,10|0,0:0|0:0,0:0:0:0:
480,128,95268,1,10,0:0:0:0:
260,328,95430,5,8,0:0:0:0:
216,320,95511,1,8,0:0:0:0:
172,312,95592,1,8,0:0:0:0:
128,304,95673,1,8,0:0:0:0:
84,292,95754,6,0,P|64:252|60:172,1,90,4|0,0:0|0:0,0:0:0:0:
200,80,96078,1,8,0:0:0:0:
200,80,96241,2,0,P|205:124|181:200,1,90,2|0,0:0|0:0,0:0:0:0:
56,116,96565,1,2,0:0:0:0:
56,116,96646,1,0,0:0:0:0:
56,116,96727,1,8,0:0:0:0:
264,280,96889,6,0,P|352:252|440:256,1,180,2|2,0:0|0:0,0:0:0:0:
160,352,97376,2,0,P|136:280|136:240,1,90,8|0,0:0|0:0,0:0:0:0:
280,96,97700,2,0,P|264:170|244:204,1,90,2|2,0:0|0:0,0:0:0:0:
104,124,98024,1,8,0:0:0:0:
280,320,98187,1,0,0:0:0:0:
280,320,98268,1,0,0:0:0:0:
280,320,98349,5,2,0:0:0:0:
220,176,98511,1,2,0:0:0:0:
216,384,98673,1,2,0:0:0:0:
340,201,98835,2,0,P|356:149|356:109,1,90,8|2,0:0|0:0,0:0:0:0:
44,244,99160,2,0,P|46:288|60:331,1,90,2|8,0:0|0:0,0:0:0:0:
248,140,99484,5,0,0:0:0:0:
248,140,99565,1,0,0:0:0:0:
248,140,99646,1,8,0:0:0:0:
120,72,99808,1,2,0:0:0:0:
228,4,99970,1,2,0:0:0:0:
200,232,100133,1,8,0:0:0:0:
360,80,100295,6,8,P|312:72|296:76,1,45
84,163,100457,2,8,P|105:170|127:171,1,45
312,218,100619,2,8,P|320:170|316:154,1,45
212,12,100781,1,2,0:0:0:0:
212,12,100862,1,2,0:0:0:0:
212,12,100943,6,0,P|220:80|224:204,1,180,4|2,0:0|0:0,0:0:0:0:
272,328,101430,1,2,0:0:0:0:
444,180,101592,1,8,0:0:0:0:
397,180,101673,1,8,0:0:0:0:
355,195,101754,1,8,0:0:0:0:
325,227,101835,1,8,0:0:0:0:
300,266,101916,1,2,0:0:0:0:
260,284,101997,1,2,0:0:0:0:
215,288,102078,1,2,0:0:0:0:
160,266,102160,1,2,0:0:0:0:
120,220,102241,5,4,0:0:0:0:
256,20,102484,1,8,0:0:0:0:
392,220,102727,1,8,0:0:0:0:
56,88,102889,5,8,0:0:0:0:
456,88,103133,1,8,0:0:0:0:
257,343,103376,1,8,0:0:0:0:
180,264,103538,6,0,P|264:228|348:288,1,180,4|8,0:0|0:0,0:0:0:0:
472,352,104024,2,0,P|456:296|468:252,1,90,2|0,0:0|0:0,0:0:0:0:
416,104,104349,2,0,P|380:147|335:166,1,90,2|8,0:0|0:0,0:0:0:0:
156,44,104673,6,0,P|292:40|340:96,1,180,2|2,0:0|0:0,0:0:0:0:
248,236,105160,2,0,P|220:152|228:112,1,90,8|2,0:0|0:0,0:0:0:0:
416,104,105484,1,8,0:0:0:0:
300,168,105646,1,2,0:0:0:0:
320,32,105808,1,8,0:0:0:0:
320,32,105889,1,8,0:0:0:0:
320,32,105970,1,2,0:0:0:0:
352,268,106133,5,4,0:0:0:0:
352,268,106457,2,0,P|396:260|424:272,1,67.5000025749208,2|0,0:0|0:0,0:0:0:0:
256,336,106781,2,0,P|236:292|236:256,1,67.5000025749208,2|0,0:0|0:0,0:0:0:0:
300,192,107105,1,0,0:0:0:0:
234,273,107268,1,0,0:0:0:0:
224,116,107430,5,2,0:0:0:0:
234,273,107592,1,0,0:0:0:0:
128,180,107754,2,0,P|80:172|52:168,1,67.5000025749208,0|2,0:0|0:0,0:0:0:0:
234,273,108078,2,0,P|290:253|366:253,1,135.000005149842,2|2,0:0|0:0,0:0:0:0:
408,56,108727,5,2,0:0:0:0:
316,100,108889,1,2,0:0:0:0:
224,60,109051,1,0,0:0:0:0:
136,112,109214,2,0,P|84:124|-4:92,1,135.000005149842,2|2,0:0|0:0,0:0:0:0:
380,356,109862,6,0,B|496:356|496:356|436:212|436:212|396:292,1,360,2|6,0:0|0:0,0:0:0:0:
396,290,111646,6,0,L|400:340,3,45,8|0|0|0,0:0|0:0|0:0|0:0,0:0:0:0:
360,116,111970,2,0,L|363:71,3,45,8|0|0|0,0:0|0:0|0:0|0:0,0:0:0:0:
468,196,112295,2,0,L|517:192,3,45,8|0|0|0,0:0|0:0|0:0|0:0,0:0:0:0:
272,228,112619,2,0,L|222:224,3,45,8|0|0|0,0:0|0:0|0:0|0:0,0:0:0:0:
88,344,112943,6,0,P|76:304|76:288,1,45,8|0,0:0|0:0,0:0:0:0:
160,164,113105,2,0,P|156:186|147:206,1,45
32,128,113268,2,0,P|20:88|20:72,1,45,8|0,0:0|0:0,0:0:0:0:
201,323,113430,2,0,P|205:345|204:367,1,45
264,224,113592,2,0,B|316:224|316:224|344:232|344:232|404:232,1,135,8|0,0:0|0:0,0:0:0:0:
472,232,113916,5,4,0:0:0:0:
340,344,114078,1,0,0:0:0:0:
312,172,114241,1,0,0:0:0:0:
380,248,114403,5,8,0:0:0:0:
192,268,114565,1,0,0:0:0:0:
260,92,114727,1,0,0:0:0:0:
284,192,114889,5,8,0:0:0:0:
188,16,115051,1,0,0:0:0:0:
388,32,115214,2,0,B|404:80|404:80|392:136,1,90,2|8,0:0|0:0,0:0:0:0:
132,288,115538,2,0,B|116:240|116:240|128:184,1,90,2|2,0:0|0:0,0:0:0:0:
395,118,115862,5,8,0:0:0:0:
124,201,116024,1,2,0:0:0:0:
356,217,116187,1,8,0:0:0:0:
100,98,116349,1,2,0:0:0:0:
256,192,116511,5,8,0:0:0:0:
132,52,116673,1,2,0:0:0:0:
64,224,116835,1,2,0:0:0:0:
208,372,116997,5,8,0:0:0:0:
160,160,117160,1,2,0:0:0:0:
20,284,117322,1,2,0:0:0:0:
344,152,117484,5,8,0:0:0:0:
144,256,117646,1,2,0:0:0:0:
340,368,117808,1,2,0:0:0:0:
268,12,117970,5,8,0:0:0:0:
272,256,118133,1,8,0:0:0:0:
512,128,118295,1,2,0:0:0:0:
163,81,118457,6,0,B|149:125|149:125|159:197,1,90,8|2,0:0|0:0,0:0:0:0:
467,355,118781,2,0,B|473:311|473:311|459:267,1,90,8|2,0:0|0:0,0:0:0:0:
245,226,119105,5,2,0:0:0:0:
388,58,119268,1,2,0:0:0:0:
459,267,119430,1,2,0:0:0:0:
199,79,119592,5,2,0:0:0:0:
371,180,119754,1,2,0:0:0:0:
213,341,119916,1,2,0:0:0:0:
79,193,120078,5,12,0:0:0:0:
505,107,120241,1,4,0:1:0:0:
256,192,120403,12,4,121700,0:0:0:0:
