osu file format v14

[General]
AudioFilename: audio.mp3
AudioLeadIn: 0
PreviewTime: 57933
Countdown: 1
SampleSet: Normal
StackLeniency: 0.7
Mode: 0
LetterboxInBreaks: 0
WidescreenStoryboard: 0

[Editor]
Bookmarks: 10095,79014
DistanceSpacing: 0.7
BeatDivisor: 4
GridSize: 32
TimelineZoom: 2.650003

[Metadata]
Title:Kagayaku Yoru e Youkoso! (TV Size)
TitleUnicode:輝く夜へようこそ!(TV Size)
Artist:Fuki Commune
ArtistUnicode:Fuki Commune
Creator:Invictimos
Version:Trickery and Deceit
Source:怪盗ジョーカー シーズン
Tags:Fisky Mysterious Joker Third Season JOKER 3rd Ending Song ed
BeatmapID:1740253
BeatmapSetID:830620

[Difficulty]
HPDrainRate:6.4
CircleSize:4
OverallDifficulty:8.5
ApproachRate:9.3
SliderMultiplier:1.9
SliderTickRate:1

[Events]
//Background and Video events
0,0,"Nice thigh i mean bg.jpg",0,0
//Break Periods
//Storyboard Layer 0 (Background)
//Storyboard Layer 1 (Fail)
//Storyboard Layer 2 (Pass)
//Storyboard Layer 3 (Foreground)
//Storyboard Sound Samples

[TimingPoints]
1183,324.324324324324,4,1,1,60,1,0
2561,-100,4,1,1,5,0,0
2642,-100,4,1,1,60,0,0
2885,-100,4,1,1,5,0,0
2966,-100,4,1,1,60,0,0
5155,-100,4,1,1,5,0,0
5237,-100,4,1,1,60,0,0
5480,-100,4,1,1,5,0,0
5561,-100,4,1,1,60,0,0
6372,-90.9090909090909,4,1,1,60,0,0
21939,-125,4,1,1,60,0,0
24777,-125,4,1,1,5,0,0
24858,-125,4,1,1,60,0,0
31101,-125,4,1,1,5,0,0
31182,-125,4,1,1,60,0,0
31426,-125,4,1,1,5,0,0
31507,-125,4,1,1,60,0,0
32318,-117.647058823529,4,1,1,60,0,0
33696,-117.647058823529,4,1,1,5,0,0
33777,-117.647058823529,4,1,1,60,0,0
34020,-117.647058823529,4,1,1,5,0,0
34101,-117.647058823529,4,1,1,60,0,0
36291,-117.647058823529,4,1,1,5,0,0
36372,-117.647058823529,4,1,1,60,0,0
36615,-117.647058823529,4,1,1,5,0,0
36696,-117.647058823529,4,1,1,60,0,0
38723,-117.647058823529,4,1,1,5,0,0
38804,-117.647058823529,4,1,1,60,0,0
45534,-117.647058823529,4,1,1,5,0,0
45615,-117.647058823529,4,1,1,60,0,0
58264,-100,4,1,1,80,0,1
70182,-100,4,1,1,5,0,1
70263,-100,4,1,1,80,0,1
78372,-100,4,1,1,80,0,0
79020,-100,4,1,1,90,0,1
82750,-100,4,1,1,90,0,0
83074,-100,4,1,1,90,0,1
88750,-100,4,1,1,90,0,0

[Colours]
Combo1 : 128,64,0
Combo2 : 255,128,0
Combo3 : 255,255,0

[HitObjects]
349,287,1183,5,10,0:0:0:0:
120,161,1345,1,8,0:0:0:0:
313,128,1507,2,0,L|408:114,1,95,2|0,0:0|0:0,0:0:0:0:
229,291,1831,5,2,0:0:0:0:
142,69,1993,2,0,L|115:184,1,95,2|0,0:0|0:0,0:0:0:0:
322,311,2318,2,0,P|408:261|431:223,1,142.5,10|0,0:0|0:0,0:0:0:0:
441,189,2642,2,0,L|297:161,1,142.5,10|0,0:0|0:0,0:0:0:0:
266,154,2966,2,0,B|335:86|335:86|440:105,1,190,2|0,0:0|0:0,0:0:0:0:
228,71,3453,5,2,0:0:0:0:
150,158,3615,1,2,0:0:0:0:
96,52,3777,1,10,0:0:0:0:
231,232,3939,1,10,0:0:0:0:
311,23,4101,2,0,L|323:126,1,95,2|0,0:0|0:0,0:0:0:0:
348,297,4426,5,2,0:0:0:0:
105,236,4588,2,0,P|173:210|217:207,1,95,2|0,0:0|0:0,0:0:0:0:
293,176,4912,2,0,P|277:258|210:294,1,142.5,10|0,0:0|0:0,0:0:0:0:
203,295,5237,2,0,L|162:156,1,142.5,10|0,0:0|0:0,0:0:0:0:
155,130,5561,1,2,0:0:0:0:
311,279,5723,1,2,0:0:0:0:
382,97,5885,1,0,0:0:0:0:
382,97,5966,1,0,0:0:0:0:
382,97,6047,2,0,L|400:215,1,95,12|0,0:0|0:0,0:0:0:0:
222,313,6372,5,10,0:0:0:0:
154,145,6534,1,0,0:0:0:0:
146,289,6696,1,10,0:0:0:0:
231,94,6858,1,0,0:0:0:0:
299,245,7020,1,10,0:0:0:0:
171,42,7182,2,0,L|151:157,1,104.500003189087,2|8,0:0|0:0,0:0:0:0:
328,67,7507,6,0,L|346:173,1,104.500003189087,2|8,0:0|0:0,0:0:0:0:
217,306,7831,2,0,P|265:258|311:242,1,104.500003189087,2|8,0:0|0:0,0:0:0:0:
450,253,8155,1,2,0:0:0:0:
219,195,8318,2,0,L|112:174,1,104.500003189087,8|0,0:0|0:0,0:0:0:0:
276,140,8642,5,10,0:0:0:0:
89,250,8804,1,2,0:0:0:0:
345,220,8966,1,10,0:0:0:0:
110,86,9128,2,0,L|174:100,3,52.2500015945435,2|0|2|0,0:0|0:0|0:0|0:0,0:0:0:0:
270,183,9453,2,0,L|206:197,3,52.2500015945435,0|0|2|0,0:0|0:0|0:0|0:0,0:0:0:0:
118,264,9777,1,2,0:0:0:0:
152,274,9858,1,0,0:0:0:0:
186,284,9939,1,0,0:0:0:0:
220,294,10020,1,0,0:0:0:0:
256,298,10101,6,0,L|374:273,1,104.500003189087,10|0,0:0|0:0,0:0:0:0:
126,170,10426,2,0,P|180:126|240:121,1,104.500003189087,10|0,0:0|0:0,0:0:0:0:
429,117,10750,1,10,0:0:0:0:
222,266,10912,1,10,0:0:0:0:
187,279,10993,1,0,0:0:0:0:
150,279,11074,1,0,0:0:0:0:
115,268,11155,1,0,0:0:0:0:
85,245,11237,2,0,L|66:132,1,104.500003189087,12|0,0:0|0:0,0:0:0:0:
296,50,11561,5,10,0:0:0:0:
218,214,11723,1,2,0:0:0:0:
209,73,11885,1,10,0:0:0:0:
301,248,12047,1,2,0:0:0:0:
331,67,12210,1,10,0:0:0:0:
194,239,12372,2,0,L|165:133,1,104.500003189087,2|8,0:0|0:0,0:0:0:0:
470,153,12696,6,0,P|405:174|363:171,1,104.500003189087,2|8,0:0|0:0,0:0:0:0:
459,54,13020,1,2,0:0:0:0:
409,245,13182,2,0,L|392:349,1,104.500003189087,10|0,0:0|0:0,0:0:0:0:
123,287,13507,1,10,0:0:0:0:
230,191,13669,2,0,P|302:165|350:168,1,104.500003189087,2|8,0:0|0:0,0:0:0:0:
455,205,13993,6,0,L|470:90,2,104.500003189087,2|8|2,0:0|0:0|0:0,0:0:0:0:
226,281,14480,1,10,0:0:0:0:
384,150,14642,1,2,0:0:0:0:
311,337,14804,1,10,0:0:0:0:
311,102,14966,1,2,0:0:0:0:
155,224,15128,1,10,0:0:0:0:
384,150,15291,6,0,L|493:134,1,104.500003189087,2|8,0:0|0:0,0:0:0:0:
290,245,15615,1,2,0:0:0:0:
398,62,15777,1,10,0:0:0:0:
210,103,15939,2,0,L|96:131,1,104.500003189087,2|8,0:0|0:0,0:0:0:0:
367,243,16264,1,2,0:0:0:0:
367,243,16345,1,0,0:0:0:0:
367,243,16426,2,0,P|361:173|346:128,1,104.500003189087,10|0,0:0|0:0,0:0:0:0:
227,246,16750,5,10,0:0:0:0:
302,62,16912,1,2,0:0:0:0:
303,184,17074,1,10,0:0:0:0:
227,19,17237,1,2,0:0:0:0:
157,197,17399,1,10,0:0:0:0:
364,117,17561,2,0,P|418:104|472:113,1,104.500003189087,2|8,0:0|0:0,0:0:0:0:
278,314,17885,6,0,L|253:206,1,104.500003189087,2|8,0:0|0:0,0:0:0:0:
225,87,18210,1,2,0:0:0:0:
365,219,18372,1,10,0:0:0:0:
159,299,18534,2,0,P|98:313|43:312,1,104.500003189087,2|8,0:0|0:0,0:0:0:0:
225,87,18858,1,2,0:0:0:0:
225,87,18939,1,2,0:0:0:0:
225,87,19020,2,0,L|244:206,1,104.500003189087,10|0,0:0|0:0,0:0:0:0:
279,347,19345,5,10,0:0:0:0:
399,69,19507,1,10,0:0:0:0:
76,281,20480,5,10,0:0:0:0:
189,110,20804,1,10,0:0:0:0:
322,301,21128,2,0,L|344:183,1,104.500003189087,10|0,0:0|0:0,0:0:0:0:
365,76,21453,1,2,0:0:0:0:
365,76,21534,1,0,0:0:0:0:
365,76,21615,1,14,0:0:0:0:
146,289,21939,6,0,P|121:241|136:195,1,76,2|0,0:0|0:0,0:0:0:0:
260,174,22264,2,0,P|230:219|183:229,1,76,2|0,0:0|0:0,0:0:0:0:
45,189,22588,1,2,0:0:0:0:
189,101,22750,1,2,0:0:0:0:
59,102,22912,1,2,0:0:0:0:
260,176,23074,2,0,L|347:163,1,76,2|0,0:0|0:0,0:0:0:0:
167,259,23399,2,0,L|254:272,1,76,2|0,0:0|0:0,0:0:0:0:
175,143,23723,2,0,P|237:89|310:98,1,152,2|0,0:0|0:0,0:0:0:0:
399,147,24210,1,0,0:0:0:0:
314,223,24372,1,0,0:0:0:0:
408,282,24534,6,0,P|348:319|275:313,1,114,2|0,0:0|0:0,0:0:0:0:
275,318,24858,2,0,L|202:287,1,76,2|0,0:0|0:0,0:0:0:0:
92,236,25182,1,2,0:0:0:0:
191,179,25345,1,2,0:0:0:0:
93,117,25507,1,2,0:0:0:0:
201,69,25669,2,0,L|283:47,1,76,2|0,0:0|0:0,0:0:0:0:
402,161,25993,2,0,L|328:141,1,76,2|0,0:0|0:0,0:0:0:0:
235,229,26318,1,2,0:0:0:0:
400,157,26480,1,0,0:0:0:0:
231,133,26642,1,0,0:0:0:0:
322,246,26804,5,2,0:0:0:0:
359,80,26966,1,2,0:0:0:0:
235,229,27128,2,0,L|221:330,1,76,2|0,0:0|0:0,0:0:0:0:
404,282,27453,1,2,0:0:0:0:
293,157,27615,2,0,P|203:142|154:200,1,152,2|0,0:0|0:0,0:0:0:0:
321,335,28101,6,0,L|348:244,1,76,2|0,0:0|0:0,0:0:0:0:
382,131,28426,2,0,L|360:52,1,76,2|0,0:0|0:0,0:0:0:0:
238,199,28750,2,0,L|258:110,1,76,0|2,0:0|0:0,0:0:0:0:
121,40,29074,2,0,L|133:124,1,76,0|0,0:0|0:0,0:0:0:0:
56,261,29399,2,0,P|101:280|148:279,1,76,2|0,0:0|0:0,0:0:0:0:
296,230,29723,5,10,0:0:0:0:
111,183,29885,1,0,0:0:0:0:
344,148,30047,1,10,0:0:0:0:
189,236,30210,1,0,0:0:0:0:
393,267,30372,1,10,0:0:0:0:
223,119,30534,1,2,0:0:0:0:
156,332,30696,1,8,0:0:0:0:
302,69,30858,6,0,P|316:133|296:182,1,114,2|0,0:0|0:0,0:0:0:0:
271,222,31182,2,0,L|135:182,1,114,10|0,0:0|0:0,0:0:0:0:
99,187,31507,2,0,P|97:269|164:318,1,152,10|0,0:0|0:0,0:0:0:0:
363,288,31993,1,8,0:0:0:0:
265,50,32318,6,0,L|251:149,1,80.750001540184,2|0,0:0|0:0,0:0:0:0:
124,109,32642,2,0,L|138:208,1,80.750001540184,10|0,0:0|0:0,0:0:0:0:
18,89,32966,1,2,0:0:0:0:
211,235,33128,2,0,P|274:247|312:237,1,80.750001540184,2|10,0:0|0:0,0:0:0:0:
125,184,33453,2,0,P|182:149|249:157,1,121.125002310276,2|0,0:0|0:0,0:0:0:0:
283,155,33777,2,0,L|399:105,1,121.125002310276,2|0,0:0|0:0,0:0:0:0:
447,120,34101,2,0,P|476:204|441:283,1,161.500003080368,2|0,0:0|0:0,0:0:0:0:
278,354,34588,1,10,0:0:0:0:
206,249,34750,1,0,0:0:0:0:
116,322,34912,6,0,L|96:222,1,80.750001540184,2|0,0:0|0:0,0:0:0:0:
206,162,35237,2,0,L|226:62,1,80.750001540184,10|0,0:0|0:0,0:0:0:0:
330,256,35561,1,2,0:0:0:0:
384,111,35723,2,0,L|404:211,1,80.750001540184,2|10,0:0|0:0,0:0:0:0:
258,330,36047,2,0,P|178:290|142:238,1,121.125002310276,2|0,0:0|0:0,0:0:0:0:
136,216,36372,2,0,L|158:89,1,121.125002310276,2|0,0:0|0:0,0:0:0:0:
192,70,36696,2,0,P|258:148|328:137,1,161.500003080368,2|0,0:0|0:0,0:0:0:0:
459,25,37182,5,10,0:0:0:0:
282,66,37345,1,2,0:0:0:0:
459,230,37507,2,0,L|369:217,1,80.750001540184,2|0,0:0|0:0,0:0:0:0:
225,200,37831,1,10,0:0:0:0:
414,94,37993,2,0,P|320:77|219:85,1,161.500003080368,2|0,0:0|0:0,0:0:0:0:
105,182,38480,6,0,P|172:196|243:199,1,121.125002310276,10|0,0:0|0:0,0:0:0:0:
263,195,38804,2,0,L|235:361,1,161.500003080368,2|10,0:0|0:0,0:0:0:0:
177,158,39291,2,0,P|241:101|325:124,1,161.500003080368,2|0,0:0|0:0,0:0:0:0:
437,263,39777,2,0,P|373:284|321:284,1,80.750001540184,10|0,0:0|0:0,0:0:0:0:
164,236,40101,5,10,0:0:0:0:
368,193,40264,1,2,0:0:0:0:
241,343,40426,1,10,0:0:0:0:
245,132,40588,1,2,0:0:0:0:
351,314,40750,1,10,0:0:0:0:
147,212,40912,1,2,0:0:0:0:
369,161,41074,1,10,0:0:0:0:
179,51,41237,2,0,L|266:72,1,80.750001540184,2|0,0:0|0:0,0:0:0:0:
455,137,41561,5,8,0:0:0:0:
260,202,41723,1,0,0:0:0:0:
414,213,41885,1,0,0:0:0:0:
197,140,42047,1,8,0:0:0:0:
390,86,42210,1,0,0:0:0:0:
306,273,42372,1,8,0:0:0:0:
249,65,42534,1,0,0:0:0:0:
183,300,42696,6,0,P|113:263|110:181,1,161.500003080368,2|8,0:0|0:0,0:0:0:0:
310,129,43182,1,2,0:0:0:0:
187,212,43345,1,2,0:0:0:0:
337,42,43507,2,0,L|351:136,1,80.750001540184,2|8,0:0|0:0,0:0:0:0:
157,141,43831,6,0,L|143:235,1,80.750001540184,2|0,0:0|0:0,0:0:0:0:
212,342,44155,1,2,0:0:0:0:
295,203,44318,1,10,0:0:0:0:
389,305,44480,1,0,0:0:0:0:
348,134,44642,2,0,L|326:48,1,80.750001540184,2|0,0:0|0:0,0:0:0:0:
213,168,44966,2,0,L|191:254,1,80.750001540184,8|0,0:0|0:0,0:0:0:0:
289,267,45291,6,0,P|347:209|345:144,1,121.125002310276,2|0,0:0|0:0,0:0:0:0:
348,134,45615,1,10,0:0:0:0:
168,313,45777,2,0,L|153:223,1,80.750001540184,2|0,0:0|0:0,0:0:0:0:
51,110,46101,6,0,L|137:93,1,80.750001540184,2|8,0:0|0:0,0:0:0:0:
234,140,46426,2,0,L|320:159,1,80.750001540184,2|0,0:0|0:0,0:0:0:0:
431,91,46750,1,2,0:0:0:0:
359,239,46912,1,10,0:0:0:0:
347,61,47074,1,2,0:0:0:0:
449,254,47237,2,0,P|392:323|313:319,1,161.500003080368,2|8,0:0|0:0,0:0:0:0:
116,191,47885,5,2,0:0:0:0:
281,108,48047,1,2,0:0:0:0:
197,248,48210,1,10,0:0:0:0:
160,88,48372,1,2,0:0:0:0:
285,224,48534,2,0,P|331:245|378:241,1,80.750001540184,2|0,0:0|0:0,0:0:0:0:
497,179,48858,2,0,P|451:158|404:162,1,80.750001540184,10|0,0:0|0:0,0:0:0:0:
264,193,49182,5,2,0:0:0:0:
441,241,49345,1,2,0:0:0:0:
321,100,49507,1,10,0:0:0:0:
333,275,49669,1,2,0:0:0:0:
430,117,49831,2,0,P|442:57|439:22,1,80.750001540184,2|0,0:0|0:0,0:0:0:0:
235,70,50155,6,0,L|210:165,1,80.750001540184,10|0,0:0|0:0,0:0:0:0:
146,323,50480,1,2,0:0:0:0:
94,120,50642,1,2,0:0:0:0:
73,271,50804,1,10,0:0:0:0:
190,93,50966,1,2,0:0:0:0:
238,313,51128,2,0,L|254:217,1,80.750001540184,2|0,0:0|0:0,0:0:0:0:
288,49,51453,5,10,0:0:0:0:
340,247,51615,1,2,0:0:0:0:
369,92,51777,1,2,0:0:0:0:
251,257,51939,1,2,0:0:0:0:
170,57,52101,2,0,L|182:172,1,80.750001540184,10|0,0:0|0:0,0:0:0:0:
206,326,52426,5,2,0:0:0:0:
272,118,52588,1,2,0:0:0:0:
284,282,52750,1,10,0:0:0:0:
186,91,52912,1,2,0:0:0:0:
124,333,53074,2,0,P|132:275|145:240,1,80.750001540184,2|0,0:0|0:0,0:0:0:0:
272,118,53399,2,0,P|264:60|251:25,1,80.750001540184,8|0,0:0|0:0,0:0:0:0:
103,216,53723,5,10,0:0:0:0:
320,276,53885,1,2,0:0:0:0:
133,306,54047,1,10,0:0:0:0:
320,174,54210,1,2,0:0:0:0:
109,127,54372,5,10,0:0:0:0:
248,336,54534,1,2,0:0:0:0:
323,92,54696,1,10,0:0:0:0:
71,253,54858,2,0,L|157:232,1,80.750001540184,2|8,0:0|0:0,0:0:0:0:
242,155,55182,2,0,L|320:174,1,80.750001540184,0|8,0:0|0:0,0:0:0:0:
429,109,55507,1,0,0:0:0:0:
263,327,55669,5,12,0:0:0:0:
137,65,55831,1,12,0:0:0:0:
392,289,56804,5,12,0:0:0:0:
106,175,57128,5,12,0:0:0:0:
386,60,57453,5,12,0:0:0:0:
213,283,57777,5,0,0:0:0:0:
196,306,57858,1,0,0:0:0:0:
180,329,57939,1,12,0:0:0:0:
254,69,58264,5,2,0:0:0:0:
371,241,58426,1,2,0:0:0:0:
421,58,58588,1,10,0:0:0:0:
243,188,58750,2,0,P|189:209|141:198,1,95,2|0,0:0|0:0,0:0:0:0:
208,28,59074,2,0,L|187:133,1,95,2|8,0:0|0:0,0:0:0:0:
66,97,59399,5,2,0:0:0:0:
208,362,59561,2,0,L|224:261,1,95,2|0,0:0|0:0,0:0:0:0:
49,309,59885,1,10,0:0:0:0:
253,158,60047,2,0,P|356:165|381:241,1,190,2|0,0:0|0:0,0:0:0:0:
238,305,60534,2,0,L|301:225,1,95,10|0,0:0|0:0,0:0:0:0:
415,115,60858,5,2,0:0:0:0:
343,309,61020,1,0,0:0:0:0:
248,84,61182,1,10,0:0:0:0:
135,275,61345,2,0,P|102:172|160:114,1,190,2|0,0:0|0:0,0:0:0:0:
348,52,61831,2,0,L|328:144,1,95,10|0,0:0|0:0,0:0:0:0:
280,320,62155,2,0,L|259:221,1,95,2|0,0:0|0:0,0:0:0:0:
224,79,62480,5,8,0:0:0:0:
121,318,62642,1,0,0:0:0:0:
114,284,62723,1,0,0:0:0:0:
106,251,62804,5,2,0:0:0:0:
74,90,62966,1,2,0:0:0:0:
18,272,63128,1,10,0:0:0:0:
146,50,63291,1,2,0:0:0:0:
216,281,63453,2,0,P|310:305|386:251,1,190,2|8,0:0|0:0,0:0:0:0:
451,66,63939,5,2,0:0:0:0:
292,218,64101,1,2,0:0:0:0:
357,37,64264,1,2,0:0:0:0:
382,256,64426,1,10,0:0:0:0:
232,90,64588,1,2,0:0:0:0:
178,243,64750,2,0,L|147:339,1,95,2|0,0:0|0:0,0:0:0:0:
69,169,65074,5,8,0:0:0:0:
232,90,65237,1,2,0:0:0:0:
268,284,65399,2,0,L|293:192,1,95,2|0,0:0|0:0,0:0:0:0:
343,19,65723,2,0,L|367:111,1,95,8|0,0:0|0:0,0:0:0:0:
208,361,66047,6,0,P|177:272|192:220,1,142.5,2|0,0:0|0:0,0:0:0:0:
209,192,66372,1,10,0:0:0:0:
433,59,66534,2,0,L|406:169,1,95,2|0,0:0|0:0,0:0:0:0:
121,172,66858,6,0,P|153:124|210:102,1,95,2|8,0:0|0:0,0:0:0:0:
423,240,67182,2,0,L|322:252,1,95,2|10,0:0|0:0,0:0:0:0:
108,259,67507,5,2,0:0:0:0:
314,168,67669,1,10,0:0:0:0:
123,141,67831,1,2,0:0:0:0:
304,253,67993,1,10,0:0:0:0:
144,331,68155,1,2,0:0:0:0:
236,113,68318,1,10,0:0:0:0:
262,93,68399,1,2,0:0:0:0:
294,84,68480,1,2,0:0:0:0:
327,82,68561,1,2,0:0:0:0:
358,91,68642,6,0,L|456:129,1,95,14|0,0:0|0:0,0:0:0:0:
289,289,68966,1,10,0:0:0:0:
160,170,69128,2,0,P|147:112|154:64,1,95,2|0,0:0|0:0,0:0:0:0:
389,177,69453,2,0,P|402:235|395:283,1,95,2|8,0:0|0:0,0:0:0:0:
175,278,69777,5,2,0:0:0:0:
334,101,69939,2,0,P|265:57|209:68,1,142.5,2|0,0:0|0:0,0:0:0:0:
179,83,70264,1,10,0:0:0:0:
256,322,70426,2,0,B|287:216|211:242|263:127,1,190,2|0,0:0|0:0,0:0:0:0:
421,155,70912,2,0,L|312:189,1,95,10|0,0:0|0:0,0:0:0:0:
124,323,71237,6,0,L|100:208,1,95,2|0,0:0|0:0,0:0:0:0:
76,66,71561,1,8,0:0:0:0:
194,212,71723,2,0,P|288:237|338:168,1,190,2|0,0:0|0:0,0:0:0:0:
240,61,72210,2,0,L|256:160,1,95,10|0,0:0|0:0,0:0:0:0:
413,34,72534,2,0,B|367:137|454:132|396:238,1,190,2|8,0:0|0:0,0:0:0:0:
255,320,73020,5,0,0:0:0:0:
255,320,73101,1,0,0:0:0:0:
255,320,73182,2,0,L|137:299,1,95,2|2,0:0|0:0,0:0:0:0:
277,188,73507,1,10,0:0:0:0:
354,326,73669,1,2,0:0:0:0:
390,157,73831,2,0,L|410:58,1,95,2|0,0:0|0:0,0:0:0:0:
464,219,74155,1,8,0:0:0:0:
322,37,74318,5,2,0:0:0:0:
241,221,74480,1,2,0:0:0:0:
238,63,74642,1,2,0:0:0:0:
330,215,74804,1,10,0:0:0:0:
396,73,74966,1,2,0:0:0:0:
187,150,75128,2,0,L|83:177,1,95,2|0,0:0|0:0,0:0:0:0:
241,221,75453,5,8,0:0:0:0:
66,89,75615,1,2,0:0:0:0:
289,71,75777,2,0,B|281:190|344:141|333:250,1,190,0|0,0:0|0:0,0:0:0:0:
377,97,76264,1,0,0:0:0:0:
269,317,76426,6,0,L|174:304,1,95,2|0,0:0|0:0,0:0:0:0:
98,227,76750,1,10,0:0:0:0:
216,116,76912,2,0,L|115:135,1,95,2|0,0:0|0:0,0:0:0:0:
286,177,77237,2,0,P|315:115|304:66,1,95,2|8,0:0|0:0,0:0:0:0:
247,267,77561,1,2,0:0:0:0:
216,116,77723,5,8,0:0:0:0:
155,310,77885,1,0,0:0:0:0:
95,130,78047,1,8,0:0:0:0:
247,267,78210,1,0,0:0:0:0:
281,64,78372,1,8,0:0:0:0:
338,305,78534,1,0,0:0:0:0:
338,305,78615,1,0,0:0:0:0:
338,305,78696,2,0,P|405:290|435:245,1,95,8|0,0:0|0:0,0:0:0:0:
194,64,79020,5,10,0:0:0:0:
352,221,79182,1,0,0:0:0:0:
277,39,79345,5,10,0:0:0:0:
216,249,79507,1,0,0:0:0:0:
152,126,79669,5,10,0:0:0:0:
285,331,79831,1,2,0:0:0:0:
266,116,79993,5,8,0:0:0:0:
177,332,80155,2,0,L|158:232,1,95,2|8,0:0|0:0,0:0:0:0:
363,41,80480,2,0,L|344:141,1,95,2|8,0:0|0:0,0:0:0:0:
81,185,80804,2,0,P|134:154|186:156,2,95,2|8|0,0:0|0:0|0:0,0:0:0:0:
401,250,81291,5,10,0:0:0:0:
139,328,81453,1,2,0:0:0:0:
332,319,81615,5,10,0:0:0:0:
61,245,81777,1,0,0:0:0:0:
310,109,81939,5,10,0:0:0:0:
190,349,82101,1,0,0:0:0:0:
134,107,82264,5,10,0:0:0:0:
332,319,82426,2,0,L|353:200,1,95,2|8,0:0|0:0,0:0:0:0:
378,33,82750,5,14,0:0:0:0:
77,248,83074,1,14,0:0:0:0:
414,287,83399,5,14,0:0:0:0:
319,96,83561,2,0,L|301:215,1,95,14|0,0:0|0:0,0:0:0:0:
302,215,83804,1,0,0:0:0:0:
302,215,83885,1,8,0:0:0:0:
196,91,84047,1,0,0:0:0:0:
155,278,84210,5,10,0:0:0:0:
397,176,84372,1,0,0:0:0:0:
124,188,84534,5,10,0:0:0:0:
377,256,84696,1,0,0:0:0:0:
72,254,84858,5,10,0:0:0:0:
303,131,85020,1,2,0:0:0:0:
32,174,85182,5,8,0:0:0:0:
289,219,85345,1,2,0:0:0:0:
84,293,85507,5,8,0:0:0:0:
194,64,85669,1,2,0:0:0:0:
266,304,85831,5,8,0:0:0:0:
51,138,85993,1,2,0:0:0:0:
303,131,86155,5,8,0:0:0:0:
114,325,86318,1,0,0:0:0:0:
159,66,86480,5,10,0:0:0:0:
234,257,86642,1,2,0:0:0:0:
296,87,86804,1,10,0:0:0:0:
372,251,86966,1,2,0:0:0:0:
166,191,87128,2,0,P|238:166|274:173,1,95,10|0,0:0|0:0,0:0:0:0:
436,199,87453,1,10,0:0:0:0:
140,279,87615,2,0,P|85:236|78:191,1,95,2|8,0:0|0:0,0:0:0:0:
366,75,87939,5,14,0:0:0:0:
202,344,88264,5,14,0:0:0:0:
71,105,88588,5,14,0:0:0:0:
444,278,88750,1,14,0:0:0:0:
