osu file format v14

[General]
AudioFilename: audio.mp3
AudioLeadIn: 0
PreviewTime: 95090
Countdown: 0
SampleSet: Drum
StackLeniency: 0.3
Mode: 0
LetterboxInBreaks: 0
WidescreenStoryboard: 0

[Editor]
Bookmarks: 27044,96802,163227,232077,273072
DistanceSpacing: 1.8
BeatDivisor: 4
GridSize: 16
TimelineZoom: 2.24

[Metadata]
Title:Sacred Bones Riot
TitleUnicode:Sacred Bones Riot
Artist:Fuki
ArtistUnicode:Fuki
Creator:Foxy Grandpa
Version:Scars
Source:
Tags:FoxyGrandpa IsomirDiAngelo Gothic Unlucky Morpheus shuhei million scarlets fuyuki tenge commune symphonic featured artist metal japanese
BeatmapID:2540771
BeatmapSetID:1221414

[Difficulty]
HPDrainRate:5
CircleSize:4.3
OverallDifficulty:10
ApproachRate:9.8
SliderMultiplier:1.9
SliderTickRate:1

[Events]
//Background and Video events
0,0,"9abfbcd056fd59a2be3a7a24d23122cb1c21f365_s2_n1.png",0,0
//Break Periods
//Storyboard Layer 0 (Background)
//Storyboard Layer 1 (Fail)
//Storyboard Layer 2 (Pass)
//Storyboard Layer 3 (Foreground)
//Storyboard Layer 4 (Overlay)
//Storyboard Sound Samples

[TimingPoints]
11900,300,4,2,1,40,1,0
12050,-100,4,2,1,10,0,0
12350,-100,4,2,1,15,0,0
12650,-100,4,2,1,20,0,0
12950,-100,4,2,1,25,0,0
13250,-100,4,2,1,30,0,0
13550,-100,4,2,1,35,0,0
13850,-100,4,2,1,40,0,0
14150,-100,4,2,1,50,0,0
14300,-100,4,2,1,55,0,0
14450,-100,4,2,1,60,0,0
14600,-100,4,2,1,65,0,0
14750,-100,4,2,1,70,0,0
14900,-100,4,2,1,75,0,0
15050,-100,4,2,1,80,0,0
15950,-100,4,2,1,90,0,0
16850,-100,4,2,1,60,0,0
17150,300,4,2,2,40,1,0
17750,-100,4,2,2,40,0,0
17825,-100,4,2,1,5,0,0
17900,-100,4,2,2,40,0,0
17975,-100,4,2,1,5,0,0
18050,-100,4,2,2,40,0,0
18125,-100,4,2,1,5,0,0
18200,-100,4,2,2,40,0,0
18275,-100,4,2,1,5,0,0
18350,-100,4,3,1,60,0,0
18800,294.117647058824,4,3,1,60,1,0
19094,300,4,3,1,60,1,0
19244,-100,4,3,1,80,0,0
19394,315.789473684211,4,3,1,80,1,0
19550,300,4,3,1,75,1,0
19550,-80,4,3,1,75,0,0
21650,309.278350515464,4,3,1,75,1,0
21959,300,4,3,1,75,1,0
21959,-80,4,3,1,75,0,0
23159,295.566502463054,4,3,1,75,1,0
23750,300,4,3,1,75,1,0
24350,300,4,3,1,75,1,0
24350,-80,4,3,1,75,0,0
25700,297.029702970297,4,3,1,75,1,0
26145,-80,4,3,1,75,0,0
26294,300,4,3,1,75,1,0
26744,300,4,3,1,75,1,0
27344,-66.6666666666667,4,3,1,75,0,0
27944,-50,4,3,1,75,0,0
28244,310.880829015544,4,3,1,75,1,0
28244,-50,4,3,1,75,0,0
28554,300,4,3,1,75,1,0
28854,-100,4,3,1,85,0,0
29154,300,4,3,1,75,1,0
29154,-80,4,3,1,75,0,0
30350,301.507537688442,4,3,1,75,1,0
31556,-80,4,3,1,75,0,0
32762,300,4,3,1,75,1,0
33662,297.029702970297,4,3,1,75,1,0
33959,297.029702970297,4,3,1,75,1,0
35147,300,4,3,1,75,1,0
36047,307.692307692308,4,3,1,75,1,0
36354,301.507537688442,4,3,1,75,1,0
36354,-50,4,3,1,80,0,0
36957,-66.6666666666667,4,3,1,80,0,0
37258,295.566502463054,4,3,1,80,1,0
37258,-66.6666666666667,4,3,1,80,0,0
37550,300,4,3,1,90,1,0
37550,-50,4,3,1,90,0,0
38150,-100,4,3,1,80,0,0
38300,-100,4,3,1,75,0,0
38375,-100,4,3,1,70,0,0
38450,-100,4,3,1,65,0,0
38525,-100,4,3,1,5,0,0
38600,-100,4,3,1,60,0,0
38680,-100,4,3,1,5,0,0
38750,279.06976744186,4,3,1,70,1,0
38750,-100,4,3,1,70,0,0
38889,-100,4,3,1,20,0,0
38936,320.855614973262,4,3,1,70,1,0
38936,-100,4,3,1,70,0,0
39100,-100,4,3,8,20,0,0
39149,300,4,3,1,70,1,0
39149,-100,4,3,1,70,0,0
39299,-100,4,3,1,20,0,0
39349,304.568527918782,4,3,1,80,1,0
39400,-100,4,3,8,80,0,0
39501,-100,4,3,8,20,0,0
39552,-100,4,3,8,80,0,0
39704,-100,4,3,8,20,0,0
39755,-100,4,3,8,80,0,0
39907,-100,4,3,8,20,0,0
39958,295.566502463054,4,3,1,85,1,0
39958,-66.6666666666667,4,3,1,85,0,0
40105,-100,4,3,8,20,0,0
40155,-66.6666666666667,4,3,8,85,0,0
40302,-100,4,3,8,20,0,0
40352,-66.6666666666667,4,3,8,85,0,0
40499,-100,4,3,8,20,0,0
40549,300,4,3,1,90,1,0
40549,-50,4,3,1,90,0,0
40699,-50,4,3,1,5,0,0
40749,-50,4,3,1,90,0,0
40899,-50,4,3,1,5,0,0
40949,315.789473684211,4,3,1,90,1,0
40949,-50,4,3,1,90,0,0
41106,-100,4,3,1,5,0,0
41159,301.507537688442,4,3,1,90,1,0
43571,300,4,3,1,80,1,0
44621,223.880597014925,4,3,1,60,1,0
44732,300,4,3,1,60,1,0
45332,257.510729613734,4,3,1,60,1,0
45460,348.837209302326,4,3,1,40,1,0
45634,315.789473684211,4,3,1,60,1,0
45791,309.278350515464,4,3,1,80,1,0
45945,304.568527918782,4,3,1,60,1,0
46858,294.117647058824,4,3,1,60,1,0
47152,300,4,3,1,60,1,0
48202,333.333333333333,4,3,1,60,1,0
48368,288.461538461538,4,3,1,60,1,0
48944,300,4,3,1,60,1,0
49394,303.030303030303,4,3,1,60,1,0
50151,279.06976744186,4,3,1,75,1,0
50569,352.941176470588,4,3,1,75,1,0
50745,301.507537688442,4,3,1,70,1,0
50895,-100,4,3,1,60,0,0
52252,292.682926829268,4,3,1,60,1,0
52544,304.568527918782,4,3,1,60,1,0
53153,298.507462686567,4,3,1,60,1,0
54347,300,4,3,1,60,1,0
55397,322.58064516129,4,3,1,60,1,0
55558,280.373831775701,4,3,1,60,1,0
55978,359.281437125748,4,3,1,60,1,0
56157,294.117647058824,4,3,1,60,1,0
56745,306.122448979592,4,3,1,60,1,0
57663,292.682926829268,4,3,1,60,1,0
57955,300,4,3,1,75,1,0
57955,-83.3333333333333,4,3,1,75,0,0
59455,291.26213592233,4,3,1,80,1,0
59745,-100,4,3,8,70,0,0
59820,-100,4,3,1,55,0,0
59891,-100,4,3,1,80,0,0
59958,-100,4,3,1,75,0,0
60037,315.789473684211,4,3,1,70,1,0
60115,-100,4,3,8,65,0,0
60194,-100,4,3,9,60,0,0
60273,-100,4,3,10,50,0,0
60352,300,3,3,1,70,1,0
61252,315.789473684211,3,3,1,60,1,0
61567,275.229357798165,3,3,1,60,1,0
61704,309.278350515464,4,3,1,60,1,0
62167,294.117647058824,3,3,1,60,1,0
62608,271.493212669683,3,3,1,60,1,0
62879,310.880829015544,3,3,1,60,1,0
63034,306.122448979592,3,3,1,60,1,0
63952,309.278350515464,3,3,1,60,1,0
64415,287.081339712919,3,3,1,60,1,0
64845,307.692307692308,3,3,1,60,1,0
65152,300,3,3,1,60,1,0
66052,285.714285714286,3,3,1,60,1,0
66480,315.789473684211,3,3,1,60,1,0
66637,300,3,3,1,75,1,0
67537,-100,3,3,1,65,0,0
69037,297.029702970297,3,3,1,65,1,0
69928,301.507537688442,3,3,1,65,1,0
71134,306.122448979592,3,3,1,65,1,0
71363,-100,3,3,1,5,0,0
71440,-100,3,3,1,65,0,0
72281,-100,3,3,1,5,0,0
72358,291.26213592233,3,3,1,65,1,0
72649,303.030303030303,3,3,1,65,1,0
73027,-100,3,3,8,70,0,0
73255,-100,3,3,9,70,0,0
73558,-100,3,3,10,70,0,0
73861,300,3,3,1,70,1,0
73936,-100,3,3,8,70,0,0
74161,-100,3,3,9,70,0,0
74461,-100,3,3,10,45,0,0
74761,289.855072463768,4,3,1,70,1,0
75630,310.880829015544,4,3,1,60,1,0
75940,-100,4,3,8,80,0,0
76096,-100,4,3,8,80,0,0
76251,300,4,3,9,60,1,0
76401,-100,4,3,9,60,0,0
76551,-100,4,3,10,40,0,0
76701,-100,4,3,10,40,0,0
76851,-100,4,3,1,25,0,0
77001,-100,4,3,1,25,0,0
77151,306.122448979592,4,3,1,70,1,0
78069,292.682926829268,4,3,1,70,1,0
78361,300,4,3,1,75,1,0
78361,-80,4,3,1,75,0,0
79561,301.507537688442,4,3,1,70,1,0
80767,300,4,3,1,80,1,0
81067,-100,4,3,8,60,0,0
81367,-100,4,3,9,40,0,0
81667,-100,4,3,10,45,0,0
81817,259.74025974026,4,3,10,45,1,0
81946,309.278350515464,4,3,1,75,1,0
82564,300,4,3,1,60,1,0
82714,-83.3333333333333,4,3,1,80,0,0
82864,-71.4285714285714,4,3,1,90,0,0
83014,-71.4285714285714,4,3,1,70,0,0
83164,-71.4285714285714,4,3,1,80,0,0
83464,-71.4285714285714,4,3,8,60,0,0
83764,292.682926829268,4,3,1,70,1,0
84056,-100,4,3,2,90,0,0
84338,303.030303030303,4,3,1,75,1,0
84338,-66.6666666666667,4,3,1,75,0,0
85550,300,4,3,1,75,1,0
86750,297.029702970297,4,3,1,75,1,0
86750,-66.6666666666667,4,3,1,75,0,0
87938,303.030303030303,4,3,1,60,1,0
88544,-66.6666666666667,4,3,1,80,0,0
89150,300,4,3,1,60,1,0
89450,-100,4,3,1,40,0,0
89750,-100,4,3,1,45,0,0
90050,-100,4,3,1,50,0,0
90350,-100,4,3,1,55,0,0
90650,-100,4,3,1,60,0,0
90950,-100,4,3,1,70,0,0
91250,-100,4,3,1,80,0,0
91550,295.566502463054,4,3,1,85,1,0
91550,-200,4,3,1,85,0,0
91845,-200,4,3,1,85,0,0
92064,-200,4,3,1,5,0,0
92141,304.568527918782,4,3,1,85,1,0
92141,-200,4,3,1,85,0,0
92445,-200,4,3,1,85,0,0
92675,-200,4,3,1,5,0,0
92750,300,4,3,1,85,1,0
92750,-200,4,3,1,85,0,0
93050,-200,4,3,1,85,0,0
93276,-200,4,3,1,5,0,0
93350,294.117647058824,4,3,1,85,1,0
93350,-200,4,3,1,85,0,0
93644,-200,4,3,1,5,0,0
93938,309.278350515464,4,2,1,40,1,0
94865,214.285714285714,4,3,1,60,1,0
94972,315.789473684211,4,3,1,40,1,0
95129,324.324324324324,4,3,1,60,1,0
95129,-80,4,3,1,60,0,0
95291,-80,4,3,1,5,0,0
95345,-80,4,3,2,60,0,0
95511,-80,4,3,1,5,0,0
95561,300,4,3,1,75,1,0
95761,287.081339712919,4,3,1,90,1,0
95761,-66.6666666666667,4,3,1,90,0,0
95904,-66.6666666666667,4,3,1,5,0,0
95952,-66.6666666666667,4,3,1,90,0,0
96095,-66.6666666666667,4,3,1,5,0,0
96149,319.148936170213,4,3,1,90,1,0
96149,-66.6666666666667,4,3,1,90,0,0
96308,-66.6666666666667,4,3,1,5,0,0
96355,298.507462686567,4,3,1,80,1,1
96355,-80,4,3,1,80,0,1
97549,299.25187032419,4,3,1,80,1,1
99344,-80,4,3,1,80,0,1
99943,-80,4,3,1,85,0,1
101140,300,4,3,1,90,1,1
101438,292.682926829268,4,3,1,80,1,1
102318,303.030303030303,4,3,1,80,1,1
102318,-80,4,3,1,80,0,1
102924,309.278350515464,4,3,1,80,1,1
103542,306.122448979592,4,3,1,80,1,1
104154,300,4,3,1,80,1,1
104154,-80,4,3,1,80,0,1
104604,291.26213592233,4,3,1,80,1,1
104604,-80,4,3,1,80,0,1
104738,300,4,3,1,95,1,1
104738,-50,4,3,1,95,0,1
105038,-100,4,3,8,95,0,1
105188,-50,4,3,1,95,0,1
105263,-100,4,3,8,95,0,1
105338,-100,4,3,10,95,0,1
105488,317.460317460317,4,3,10,90,1,1
105646,-100,4,3,1,90,0,1
105964,294.117647058824,4,3,1,80,1,1
105964,-80,4,3,1,80,0,1
106552,300,4,3,1,80,1,1
106852,-80,4,3,1,80,0,1
107152,298.507462686567,4,3,1,80,1,1
107152,-80,4,3,1,80,0,1
108346,300,4,3,1,80,1,1
109396,280.373831775701,4,3,1,80,1,1
109536,309.278350515464,4,3,1,85,1,1
109845,-80,4,3,1,85,0,1
110154,291.26213592233,4,3,1,85,1,1
110445,-80,4,3,1,85,0,1
110590,315.789473684211,4,3,1,85,1,1
110590,-80,4,3,1,85,0,1
110747,-80,4,3,1,90,0,1
110905,300,4,3,1,90,1,1
111055,300,4,3,1,80,1,1
111655,304.568527918782,4,3,1,80,1,1
111959,-80,4,3,1,80,0,1
112264,300,4,3,1,80,1,1
112414,-80,4,3,1,80,0,1
113164,300,4,3,1,80,1,1
113764,-80,4,3,1,80,0,1
114064,284.36018957346,4,3,1,80,1,1
114064,-80,4,3,1,80,0,1
114348,300,4,3,1,80,1,1
114348,-50,4,3,1,95,0,1
114573,-50,4,3,8,95,0,1
114798,-50,4,3,9,95,0,1
114948,-50,4,3,1,95,0,1
115173,-50,4,3,9,95,0,1
115248,294.117647058824,4,3,10,60,1,0
115321,-100,4,3,10,50,0,0
115395,-100,4,3,10,40,0,0
115465,-100,4,3,10,30,0,0
115542,307.692307692308,4,3,1,85,1,1
115542,-100,4,3,1,85,0,1
116157,300,4,3,1,85,1,1
117357,295.566502463054,4,3,1,85,1,1
117357,-66.6666666666667,4,3,1,85,0,1
117948,303.030303030303,4,3,1,85,1,1
118857,300,4,3,1,85,1,1
119157,300,4,3,1,85,1,1
119757,-66.6666666666667,4,3,1,85,0,1
120357,307.692307692308,4,3,1,90,1,1
120818,292.682926829268,4,3,1,95,1,1
120964,333.333333333333,4,3,1,95,1,1
121130,277.777777777778,4,3,1,95,1,1
121268,300,4,3,1,100,1,0
122468,292.682926829268,4,3,1,60,1,0
122760,292.682926829268,4,3,1,80,1,1
124369,333.333333333333,4,3,1,60,1,0
124535,-100,4,3,1,75,0,0
124702,297.029702970297,4,3,1,75,1,0
125147,301.507537688442,4,3,1,80,1,0
125147,-80,4,3,1,80,0,0
126353,300,4,3,1,80,1,0
127553,-80,4,3,1,80,0,0
129353,295.566502463054,4,3,1,80,1,0
129648,304.568527918782,4,3,1,70,1,0
129952,294.117647058824,4,3,1,75,1,0
130540,300,4,3,1,60,1,0
131140,300,4,3,1,75,1,0
132940,-66.6666666666667,4,3,1,75,0,0
133544,257.510729613734,4,3,1,80,1,0
133544,-50,4,3,1,80,0,0
133737,434.782608695652,4,3,1,80,1,0
133845,300,4,3,8,80,1,0
134145,312.5,4,3,1,85,1,0
134561,294.117647058824,4,3,1,85,1,0
134757,307.692307692308,4,3,1,80,1,0
134757,-57.1428571428571,4,3,1,80,0,0
134833,-57.1428571428571,4,3,1,5,0,0
135218,290.135396518375,4,3,1,60,1,0
135218,-57.1428571428571,4,3,1,60,0,0
135290,-57.1428571428571,4,3,1,5,0,0
135653,300,4,3,1,60,1,0
135653,-57.1428571428571,4,3,1,60,0,0
135728,-57.1428571428571,4,3,1,5,0,0
135953,300,4,3,1,60,1,0
136103,-57.1428571428571,4,3,1,60,0,0
136178,-57.1428571428571,4,3,1,5,0,0
137153,-57.1428571428571,4,3,1,60,0,0
137228,-57.1428571428571,4,3,1,5,0,0
137603,-57.1428571428571,4,3,1,60,0,0
137678,-57.1428571428571,4,3,1,5,0,0
138053,-57.1428571428571,4,3,1,60,0,0
138128,-57.1428571428571,4,3,1,5,0,0
138503,-57.1428571428571,4,3,1,60,0,0
138578,-57.1428571428571,4,3,1,5,0,0
138953,-57.1428571428571,4,3,1,40,0,0
139253,-57.1428571428571,4,3,1,60,0,0
139403,250,4,3,1,60,1,0
139528,317.460317460317,4,3,1,60,1,0
139528,-57.1428571428571,4,3,1,60,0,0
139607,-100,4,3,1,5,0,0
140003,307.692307692308,4,3,1,60,1,0
140003,-57.1428571428571,4,3,1,60,0,0
140079,-57.1428571428571,4,3,1,5,0,0
140464,300,4,3,1,60,1,0
140464,-57.1428571428571,4,3,1,60,0,0
140539,-57.1428571428571,4,3,1,5,0,0
140914,297.029702970297,4,3,1,60,1,0
140914,-57.1428571428571,4,3,1,60,0,0
140988,-57.1428571428571,4,3,1,5,0,0
141953,292.682926829268,4,3,1,60,1,0
141953,-57.1428571428571,4,3,1,60,0,0
142026,-57.1428571428571,4,3,1,5,0,0
142392,307.692307692308,4,3,1,60,1,0
142392,-57.1428571428571,4,3,1,60,0,0
142468,-57.1428571428571,4,3,1,5,0,0
142853,300,4,3,1,60,1,0
142853,-57.1428571428571,4,3,1,60,0,0
142928,-57.1428571428571,4,3,1,5,0,0
143303,312.5,4,3,1,60,1,0
143303,-57.1428571428571,4,3,1,60,0,0
143381,-57.1428571428571,4,3,1,5,0,0
143771,279.06976744186,4,3,1,40,1,0
144189,300,4,3,1,40,1,0
144339,301.507537688442,4,3,1,60,1,0
145846,300,4,3,1,60,1,0
146746,301.507537688442,4,3,1,60,1,0
148253,300,4,3,1,60,1,0
149153,294.117647058824,4,3,1,60,1,0
150329,312.5,4,3,1,60,1,0
150954,300,4,3,1,60,1,0
151554,300,4,3,1,75,1,0
151554,-80,4,3,1,75,0,0
153054,-80,4,3,1,80,0,0
153204,-100,4,3,10,60,0,0
153354,-100,4,3,1,80,0,0
153429,-100,4,3,10,75,0,0
153504,-100,4,3,10,70,0,0
153579,-100,4,3,10,60,0,0
153654,294.117647058824,4,3,1,60,1,0
153948,300,3,3,1,75,1,0
154848,306.122448979592,3,3,1,55,1,0
155766,295.566502463054,3,3,1,75,1,0
156652,300,3,3,1,55,1,0
156652,-80,3,3,1,55,0,0
157552,-100,3,3,1,75,0,0
158152,-200,3,3,1,55,0,0
158377,-200,3,3,1,5,0,0
158452,-200,3,3,1,75,0,0
159052,-200,3,3,1,55,0,0
159277,-200,3,3,1,5,0,0
159352,-100,3,3,1,75,0,0
159952,-66.6666666666667,3,3,1,55,0,0
160027,-66.6666666666667,3,3,1,5,0,0
160102,-66.6666666666667,3,3,1,60,0,0
160177,-66.6666666666667,3,3,1,5,0,0
160252,292.682926829268,3,3,1,70,1,0
160837,311.688311688312,3,3,1,70,1,0
161148,297.029702970297,4,3,1,80,1,1
161148,-66.6666666666667,4,3,1,80,0,1
163227,306.122448979592,4,3,1,80,1,1
163533,294.117647058824,4,3,1,80,1,1
163533,-66.6666666666667,4,3,1,80,0,1
164415,315.789473684211,4,3,1,80,1,1
164730,-100,4,3,1,70,0,0
165046,300,4,3,8,70,1,0
165196,-100,4,3,9,80,0,0
165346,-100,4,3,10,60,0,0
165496,-100,4,3,10,40,0,0
165648,-100,4,3,1,80,0,0
165946,292.682926829268,4,3,1,75,1,0
165946,-66.6666666666667,4,3,8,75,0,0
166092,-66.6666666666667,4,3,9,75,0,0
166238,-100,4,3,10,60,0,0
166458,348.837209302326,4,3,1,60,1,0
166545,300,4,3,1,70,1,0
167445,-80,4,3,1,75,0,0
167745,303.030303030303,4,3,1,75,1,0
167896,-100,4,3,8,75,0,0
168048,-100,4,3,1,75,0,0
168199,-100,4,3,9,75,0,0
168351,-100,4,3,1,75,0,0
168502,-100,4,3,10,75,0,0
168654,-100,4,3,1,75,0,0
168805,-100,4,3,10,75,0,0
168957,295.566502463054,4,3,1,75,1,0
168957,-57.1428571428571,4,3,1,75,0,0
170287,338.983050847458,4,3,1,60,1,0
170288,-100,4,3,8,60,0,0
170456,300,4,3,10,50,1,0
171056,-100,4,3,1,40,0,0
171131,-100,4,3,1,50,0,0
171206,-100,4,3,1,60,0,0
171283,-100,4,3,1,70,0,0
171356,291.26213592233,4,3,1,85,1,1
171647,303.030303030303,4,3,1,85,1,1
172556,300,4,3,1,90,1,1
173456,292.682926829268,4,3,1,90,1,1
173748,324.324324324324,4,3,1,70,1,0
173748,-50,4,3,1,70,0,0
173829,-50,4,3,1,5,0,0
173910,-50,4,3,1,70,0,0
173991,-50,4,3,1,5,0,0
174072,257.510729613734,4,3,1,70,1,0
174072,-50,4,3,1,70,0,0
174136,-50,4,3,1,5,0,0
174200,301.507537688442,4,3,1,70,1,0
174200,-200,4,3,1,70,0,0
174803,-50,4,3,1,70,0,0
174878,-50,4,3,1,5,0,0
174953,-50,4,3,1,70,0,0
175029,-50,4,3,1,5,0,0
175104,300,4,3,1,70,1,0
175104,-400,4,3,1,70,0,0
175554,-50,4,3,1,70,0,0
175629,-50,4,3,1,5,0,0
175704,-50,4,3,1,70,0,0
176004,-50,4,3,1,70,0,0
176079,-50,4,3,1,5,0,0
176154,300,4,3,1,80,1,1
176154,-80,4,3,1,80,0,1
177354,292.682926829268,4,3,1,80,1,1
177646,300,4,3,1,80,1,1
178246,-79.9999999999999,4,3,1,80,0,1
178546,300,4,3,1,80,1,1
179146,-79.9999999999999,4,3,1,80,0,1
179746,-79.9999999999999,4,3,1,85,0,1
180346,292.682926829268,4,3,1,85,1,1
180346,-79.9999999999999,4,3,1,85,0,1
180638,-79.9999999999999,4,3,1,85,0,1
180785,310.880829015544,4,3,1,85,1,1
180785,-79.9999999999999,4,3,1,60,0,1
180940,298.507462686567,4,3,1,90,1,1
181238,-100,4,3,1,80,0,1
182134,-79.9999999999999,4,3,1,80,0,1
182731,307.692307692308,4,3,1,80,1,1
183346,300,4,3,1,80,1,1
183346,-79.9999999999999,4,3,1,80,0,1
184546,309.278350515464,4,3,1,95,1,1
184546,-50,4,3,1,95,0,1
184855,300,4,3,9,95,1,1
185005,-50,4,3,1,95,0,1
185080,-50,4,3,9,95,0,1
185155,-50,4,3,10,95,0,1
185455,-50,4,3,1,85,0,1
185755,300,4,3,1,85,1,1
186205,-80,4,3,1,80,0,1
189355,-80,4,3,1,85,0,1
190405,315.789473684211,4,3,1,85,1,1
190405,-79.9999999999999,4,3,1,85,0,1
190562,292.682926829268,4,3,1,90,1,1
190854,-100,4,3,1,80,0,1
191440,300,4,3,1,80,1,1
191740,-79.9999999999999,4,3,1,80,0,1
192040,285.714285714286,4,3,1,80,1,1
192182,-79.9999999999999,4,3,1,80,0,1
192325,304.568527918782,4,3,1,80,1,1
192934,310.880829015544,4,3,1,80,1,1
193555,300,4,3,1,80,1,1
193555,-79.9999999999999,4,3,1,80,0,1
194155,292.682926829268,4,3,1,95,1,1
194155,-50,4,3,1,95,0,1
194374,-50,4,3,8,95,0,1
194594,-50,4,3,9,95,0,1
194740,-50,4,3,1,95,0,1
194959,-50,4,3,9,95,0,1
195033,315.789473684211,4,3,10,60,1,0
195111,-100,4,3,10,50,0,0
195190,-100,4,3,10,40,0,0
195269,-100,4,3,10,30,0,0
195348,300,4,3,1,85,1,1
197148,294.117647058824,4,3,1,85,1,1
197148,-57.1428571428571,4,3,1,85,0,1
197442,304.568527918782,4,3,1,85,1,1
197442,-57.1428571428571,4,3,1,85,0,1
197746,309.278350515464,4,3,1,85,1,1
198673,300,4,3,1,85,1,1
198973,300,4,3,1,85,1,1
199573,-57.1428571428571,4,3,1,85,0,1
200173,-57.1428571428571,4,3,1,90,0,1
200623,-57.1428571428571,4,3,1,95,0,1
201073,-100,4,3,1,100,0,0
202273,289.855072463768,4,3,1,60,1,0
202562,298.507462686567,3,3,1,60,1,0
202711,309.278350515464,3,3,1,60,1,0
202711,-200,3,3,1,60,0,0
203484,304.568527918782,3,3,1,60,1,0
203636,288.461538461538,3,3,1,60,1,0
203636,-200,3,3,1,60,0,0
204068,270.27027027027,3,3,1,60,1,0
204338,307.692307692308,3,3,1,60,1,0
204645,300,3,3,1,60,1,0
204946,301.507537688442,3,3,1,60,1,0
205096,-200,3,3,1,60,0,0
205850,300,3,3,1,60,1,0
206000,284.36018957346,3,3,1,60,1,0
206000,-200,3,3,1,60,0,0
206568,300,3,3,1,60,1,0
206718,315.789473684211,3,3,1,60,1,0
206954,307.692307692308,3,3,8,60,1,0
207184,340.909090909091,3,3,9,60,1,0
207354,300,3,3,1,60,1,0
207504,-200,3,3,1,60,0,0
208854,-100,3,3,8,60,0,0
209154,-100,3,3,9,50,0,0
209454,297.029702970297,3,3,1,40,1,0
209749,368.098159509202,3,3,1,60,1,0
209933,292.682926829268,3,3,1,60,1,0
209933,-100,3,3,1,60,0,0
211396,303.030303030303,4,3,1,60,1,0
211549,312.5,3,3,1,60,1,0
211757,-100,3,3,1,40,0,0
212160,260.869565217391,4,2,1,60,1,0
212588,285.714285714286,4,2,1,60,1,0
213045,300,4,2,1,60,1,0
213354,298.507462686567,4,2,1,60,1,0
213951,291.26213592233,4,2,1,60,1,0
214416,298.507462686567,4,2,1,60,1,0
214565,298.507462686567,4,2,1,60,1,0
215457,298.507462686567,4,2,1,60,1,0
216789,298.507462686567,4,3,1,60,1,0
216938,301.507537688442,4,2,1,60,1,0
218897,285.714285714286,4,3,1,60,1,0
219363,301.507537688442,4,2,1,60,1,0
219806,301.507537688442,4,2,1,60,1,0
220559,304.568527918782,4,3,1,60,1,0
221138,307.692307692308,4,3,1,70,1,0
221753,298.507462686567,4,3,1,75,1,0
221753,-83.3333333333333,4,3,1,75,0,0
221902,-83.3333333333333,4,3,1,60,0,0
222797,-100,4,3,8,60,0,0
222947,300,4,3,1,60,1,0
222947,-80,4,3,1,60,0,0
224147,298.507462686567,4,3,1,60,1,0
224147,-83.3333333333333,4,3,1,60,0,0
226535,306.122448979592,4,3,1,60,1,0
226535,-80,4,3,1,60,0,0
227147,300,4,3,1,60,1,0
227747,300,4,3,1,60,1,0
228497,-100,4,3,8,60,0,0
228797,324.324324324324,4,3,1,60,1,0
228959,300,4,3,1,60,1,0
229259,-100,4,3,1,40,0,0
229559,285.714285714286,4,3,1,50,1,0
229701,-100,4,3,1,60,0,0
229844,300,4,3,1,70,1,0
229994,-100,4,3,1,80,0,0
230144,292.682926829268,4,3,1,60,1,0
230436,-100,4,3,1,70,0,0
230729,-66.6666666666667,4,3,1,80,0,0
231166,304.568527918782,4,3,1,75,1,1
231166,-57.1428571428571,4,3,1,75,0,1
231470,324.324324324324,4,3,1,75,1,1
231632,300,4,3,1,75,1,1
231632,-66.6666666666667,4,3,1,75,0,1
231932,291.26213592233,4,3,1,75,1,1
232368,307.692307692308,4,3,1,75,1,1
232368,-66.6666666666667,4,3,1,75,0,1
232675,342.857142857143,4,3,1,75,1,1
232846,294.117647058824,4,3,1,75,1,1
233581,315.789473684211,4,3,1,75,1,1
233581,-66.6666666666667,4,3,1,75,0,1
234054,300,4,3,1,75,1,1
234054,-66.6666666666667,4,3,1,75,0,1
234954,300,4,3,10,75,1,1
234954,-66.6666666666667,4,3,10,75,0,1
235254,-100,4,3,1,75,0,1
235329,-100,4,3,10,75,0,1
235554,-100,4,3,1,75,0,1
236004,294.117647058824,4,3,1,75,1,1
236004,-66.6666666666667,4,3,1,75,0,1
236445,300,4,3,1,75,1,1
236445,-66.6666666666667,4,3,1,75,0,1
237270,-100,4,3,1,5,0,1
237345,300,4,3,1,75,1,1
237345,-66.6666666666667,4,3,1,75,0,1
237870,-100,4,3,1,5,0,1
237945,-66.6666666666667,4,3,1,75,0,1
238695,329.67032967033,4,3,1,75,1,1
238859,297.029702970297,4,3,1,75,1,1
238859,-66.6666666666667,4,3,1,75,0,1
239453,303.030303030303,4,3,1,75,1,1
239453,-66.6666666666667,4,3,1,75,0,1
240059,300,4,3,1,75,1,1
240209,-66.6666666666667,4,3,1,75,0,1
240809,315.789473684211,4,3,1,75,1,1
241282,291.26213592233,4,3,1,75,1,1
242155,295.566502463054,4,3,1,75,1,1
242746,-66.6666666666667,4,3,1,75,0,1
243406,-66.6666666666667,4,3,1,5,0,1
243485,315.789473684211,4,3,1,75,1,1
243642,291.26213592233,4,3,1,75,1,1
243933,304.568527918782,4,3,1,75,1,1
243933,-66.6666666666667,4,3,1,75,0,1
244846,297.029702970297,4,3,1,75,1,1
245361,-100,4,3,1,5,0,1
245440,315.789473684211,4,3,1,75,1,1
245755,300,4,3,1,80,1,0
246055,-79.9999999999999,4,3,8,70,0,0
247555,297.029702970297,4,3,1,80,1,0
247852,-66.6666666666667,4,3,1,60,0,0
248149,294.117647058824,4,3,1,80,1,0
248149,-66.6666666666667,4,3,1,80,0,0
248222,-100,4,3,9,70,0,0
248443,-100,4,3,9,60,0,0
248737,-100,4,3,9,55,0,0
249031,304.568527918782,4,3,1,50,1,0
249335,-66.6666666666667,4,3,1,75,0,0
249944,-66.6666666666667,4,3,1,80,0,0
250249,300,4,3,1,90,1,0
250549,303.030303030303,4,3,2,80,1,1
250549,-66.6666666666667,4,3,1,80,0,1
250700,-66.6666666666667,4,3,1,80,0,1
251761,295.566502463054,4,3,1,80,1,1
252056,-66.6666666666667,4,3,1,80,0,1
252943,300,4,3,1,80,1,1
252943,-66.6666666666667,4,3,1,80,0,1
254143,-100,4,3,1,80,0,1
255193,320.855614973262,4,3,1,80,1,1
255353,300,4,3,1,80,1,1
255353,-133.333333333333,4,3,1,80,0,1
255953,-100,4,3,1,80,0,1
256553,-66.6666666666667,4,3,1,80,0,1
257003,324.324324324324,4,3,1,80,1,1
257003,-66.6666666666667,4,3,1,80,0,1
257165,294.117647058824,4,3,1,80,1,1
257165,-57.1428571428571,4,3,1,80,0,1
257753,300,4,3,1,80,1,1
257753,-66.6666666666667,4,3,1,80,0,1
258353,-57.1428571428571,4,3,1,80,0,1
259853,306.122448979592,4,3,1,80,1,1
260006,-66.6666666666667,4,3,1,80,0,1
260159,300,4,3,1,60,1,0
260159,-200,4,3,1,60,0,0
262484,-100,4,3,1,5,0,0
262559,298.507462686567,4,3,1,70,1,0
262559,-66.6666666666667,4,3,1,70,0,0
262708,-100,4,2,1,5,0,0
262857,-80,4,2,2,60,0,0
263006,-80,4,2,1,5,0,0
263156,-100,4,2,2,60,0,0
263305,-100,4,2,1,5,0,0
263454,-133.333333333333,4,2,2,60,0,0
263603,-133.333333333333,4,2,1,5,0,0
263753,-200,4,2,2,50,0,0
263902,-200,4,2,1,5,0,0
264051,309.278350515464,4,2,2,45,1,0
264051,-250,4,2,2,45,0,0
264205,-100,4,2,1,5,0,0
264360,304.568527918782,4,2,2,40,1,0
264360,-400,4,2,2,40,0,0
264512,-100,4,2,1,5,0,0
264664,-399.999999999997,4,2,2,45,0,0
264816,-100,4,3,1,50,0,0
264969,300,4,3,1,60,1,0
267369,297.029702970297,4,3,1,60,1,0
267963,300,4,3,1,60,1,0
269063,363.636363636364,4,3,1,60,1,0
269184,270.27027027027,4,3,1,60,1,0
269454,300,4,3,1,60,1,0
269604,-100,4,3,1,70,0,0
269754,300,4,3,1,75,1,0
269754,-79.9999999999999,4,3,1,75,0,0
269979,-79.9999999999999,4,3,1,5,0,0
270054,-79.9999999999999,4,3,1,75,0,0
270431,-79.9999999999999,4,3,1,5,0,0
270504,288.461538461538,4,3,1,75,1,0
270648,306.122448979592,4,3,1,60,1,0
270648,-317.460317460317,4,3,1,60,0,0
271566,-317.460317460317,4,3,1,70,0,0
271872,300,4,3,1,60,1,0
272172,300,4,3,1,60,1,0
272172,-133.333333333333,4,3,1,75,0,0
272697,-100,4,3,1,5,0,0
272772,-133.333333333333,4,3,8,55,0,0
273072,-133.333333333333,4,3,9,55,0,0
273372,292.682926829268,4,3,10,50,1,0
273372,-200,4,3,10,50,0,0
273664,-200,4,3,10,40,0,0
273957,297.029702970297,4,3,1,60,1,0
274105,-100,4,3,1,60,0,0
274179,-100,4,3,1,60,0,0
274328,-100,4,3,1,60,0,0
274402,-100,4,3,1,60,0,0
274473,-100,4,3,1,5,0,0
274551,310.880829015544,4,3,1,60,1,1
274551,-79.9999999999999,4,3,1,75,0,1
274784,-100,4,3,1,5,0,1
274861,295.566502463054,4,3,1,75,1,1
275452,-133.333333333333,4,3,1,40,0,1
275599,-100,4,3,1,50,0,1
275747,-79.9999999999999,4,3,1,60,0,1
275895,-66.6666666666667,4,3,1,75,0,1
276338,300,4,3,1,80,1,1
276488,-57.1428571428571,4,3,1,80,0,1
276788,315.789473684211,4,3,1,85,1,1
276945,305.343511450382,4,3,1,85,1,1
276945,-50,4,3,1,85,0,1
277861,300,4,3,1,85,1,1
277861,-50,4,3,1,90,0,1
278161,-50,4,3,1,90,0,1
278536,-66.6666666666667,4,3,1,5,0,1
278611,-50,4,3,1,90,0,1
278986,-66.6666666666667,4,3,1,5,0,1
279061,-66.6666666666667,4,3,1,60,0,0
279661,297.029702970297,4,2,10,35,1,0
279958,300,4,3,1,60,1,0
279958,-400,4,2,10,60,0,0
280558,300,4,3,1,60,1,1
280558,-66.6666666666667,4,3,1,70,0,1
281158,-100,4,3,1,75,0,1
281608,294.117647058824,4,3,1,80,1,1
281608,-66.6666666666667,4,3,1,80,0,1
282049,304.568527918782,4,3,1,80,1,1
282049,-57.1428571428571,4,3,1,80,0,1
282278,-100,4,3,1,5,0,1
282353,300,4,3,1,60,1,1
282653,-100,4,3,8,80,0,1
282953,-100,4,3,9,60,0,1
283253,-100,4,3,10,40,0,1
283553,294.117647058824,4,3,1,75,1,1
284435,300,4,3,1,75,1,1
284735,315.789473684211,4,3,1,60,1,0
284971,-100,4,3,1,70,0,0
285050,-79.9999999999999,4,3,1,70,0,0
285366,285.714285714286,4,3,1,70,1,0
285651,-66.6666666666667,4,3,1,70,0,0
285937,315.789473684211,4,3,1,70,1,0
285937,-66.6666666666667,4,3,1,60,0,0
286094,-66.6666666666667,4,3,1,80,0,0
286252,283.018867924528,4,3,1,80,1,0
286535,-100,4,3,8,70,0,0
286818,315.789473684211,4,3,8,60,1,0
287133,307.692307692308,4,3,1,80,1,1
287748,300,4,3,1,80,1,1
288048,285.714285714286,4,3,1,80,1,1
288333,324.324324324324,4,3,1,80,1,1
288333,-57.1428571428571,4,3,1,80,0,1
288495,-57.1428571428571,4,3,1,5,0,1
288549,-57.1428571428571,4,3,1,80,0,1
288711,-57.1428571428571,4,3,1,5,0,1
288765,300,4,3,1,80,1,1
288765,-57.1428571428571,4,3,1,80,0,1
288915,-100,4,3,1,5,0,1
288965,294.117647058824,4,3,1,90,1,0
288965,-50,4,3,1,90,0,0
289112,-100,4,3,1,5,0,0
289161,-50,4,3,1,90,0,0
289308,-100,4,3,1,5,0,0
289357,300,4,3,1,90,1,0
289357,-50,4,3,1,90,0,0
289507,-100,4,3,1,5,0,0
289557,293.757649938801,4,3,1,80,1,1
289557,-66.6666666666667,4,3,1,80,0,1
290438,307.692307692308,4,3,1,80,1,1
290438,-66.6666666666667,4,3,1,80,0,1
290738,303.030303030303,4,3,1,80,1,1
291950,300,4,3,1,80,1,1
291950,-66.6666666666667,4,3,1,80,0,1
293150,-66.6666666666667,4,3,1,85,0,1
293750,289.855072463768,4,3,1,85,1,1
294039,300,4,3,1,85,1,1
294039,-66.6666666666667,4,3,1,60,0,1
294339,300,4,3,1,90,1,1
294639,-100,4,3,1,80,0,1
295239,294.117647058824,4,3,1,80,1,1
295533,306.122448979592,4,3,1,80,1,1
295839,303.030303030303,4,3,1,80,1,1
296748,300,4,3,1,85,1,1
297648,294.117647058824,4,3,1,85,1,1
297942,300,4,3,1,95,1,1
297942,-50,4,3,1,95,0,1
298767,-100,4,3,8,85,0,1
298842,-100,4,3,9,75,0,1
298917,-100,4,3,9,65,0,1
298992,-100,4,3,10,55,0,1
299067,-100,4,3,10,45,0,1
299142,-79.9999999999999,4,3,1,70,0,0
299742,304.568527918782,4,3,1,70,1,0
299742,-79.9999999999999,4,3,1,70,0,0
300351,300,4,3,1,70,1,0
300951,300,4,3,1,70,1,0
301551,297.029702970297,4,3,1,70,1,0
301551,-79.9999999999999,4,3,1,70,0,0
302739,306.122448979592,4,3,1,70,1,0
303963,291.26213592233,4,3,1,70,1,0
304545,309.278350515464,4,3,1,70,1,0
304854,-79.9999999999999,4,3,1,70,0,0
305163,297.029702970297,4,3,1,70,1,0
305460,-79.9999999999999,4,3,1,70,0,0
305757,300,4,3,1,80,1,0
306357,300,4,3,1,70,1,0
306657,-79.9999999999999,4,3,1,70,0,0
307857,284.36018957346,4,3,1,70,1,0
307999,329.67032967033,4,3,1,70,1,0
308163,291.26213592233,4,3,1,70,1,0
308163,-80,4,3,1,70,0,0
308454,-133.333333333333,4,3,10,55,0,0
308745,303.79746835443,4,3,1,85,1,1
308745,-66.6666666666667,4,3,1,85,0,1
309656,300,4,3,1,85,1,1
309956,300,4,3,1,85,1,1
310556,-57.1428571428571,4,3,1,85,0,1
311156,294.117647058824,4,3,1,85,1,1
311450,315.789473684211,4,3,1,85,1,1
311765,292.682926829268,4,3,1,85,1,1
312643,304.568527918782,4,3,1,85,1,1
312947,300,4,3,1,85,1,1
312947,-50,4,3,1,85,0,1
313547,307.692307692308,4,3,1,90,1,1
314008,300,4,3,1,95,1,1
314458,300,4,3,1,100,1,0
315658,288.461538461538,4,3,1,60,1,0
315946,300,4,3,1,60,1,0
315946,-200,4,3,1,80,0,0
317296,-80,4,3,1,75,0,0
317746,306.122448979592,4,3,1,60,1,0
317746,-100,4,3,1,60,0,0
317899,-133.333333333333,4,3,1,40,0,0
318052,295.566502463054,4,3,1,80,1,0
318347,303.030303030303,4,3,1,75,1,0
318347,-80,4,3,1,75,0,0
319559,300,4,3,1,75,1,0
320159,297.029702970297,4,3,1,75,1,0
320753,301.507537688442,4,3,1,75,1,0
320753,-79.9999999999999,4,3,1,75,0,0
321959,300,4,3,1,75,1,0
322559,297.029702970297,4,3,1,75,1,0
323153,297.029702970297,4,3,1,75,1,0
323450,300,4,3,1,70,1,0
324650,294.117647058824,4,3,1,70,1,0
325532,304.568527918782,4,3,1,75,1,0
326141,-80,4,3,1,75,0,0
326597,300,4,3,1,75,1,0
326597,-79.9999999999999,4,3,1,75,0,0
326747,307.692307692308,4,3,1,60,1,0
326900,-100,4,3,2,80,0,0
327054,-66.6666666666667,4,3,1,75,0,0
327362,300,4,3,1,60,1,0
327662,309.278350515464,4,3,1,75,1,0
327971,289.855072463768,4,3,1,80,1,1
327971,-200,4,3,1,80,0,1
328550,297.029702970297,4,3,1,80,1,1
328550,-133.333333333333,4,3,1,80,0,1
328847,-100,4,3,1,80,0,1
329144,300,4,3,1,80,1,1
329144,-66.6666666666667,4,3,1,80,0,1
329744,303.030303030303,4,3,1,80,1,1
329744,-80,4,3,1,80,0,1
330350,-100,4,3,1,80,0,1
330653,295.566502463054,4,3,1,80,1,1
330948,-133.333333333333,4,3,1,80,0,1
331539,306.122448979592,4,3,1,80,1,1
331539,-200,4,3,1,80,0,1
332151,300,4,3,1,80,1,1
332151,-200,4,3,1,80,0,1
332301,-66.6666666666667,4,3,1,80,0,1
332751,300,4,3,1,60,1,0
333651,297.029702970297,4,3,1,60,1,0
334245,307.692307692308,4,3,1,60,1,0
334860,300,4,3,1,60,1,0
335160,304.568527918782,4,3,1,70,1,0
335769,300,4,3,1,80,1,0
336369,298.507462686567,4,3,1,85,1,0
336369,-50,4,3,1,85,0,0
337264,-100,4,3,8,80,0,0
337339,-100,4,3,9,60,0,0
337413,-100,4,3,10,40,0,0
337563,288.461538461538,4,3,1,60,1,0
337563,-79.9999999999999,4,3,1,60,0,0
337707,-79.9999999999999,4,3,1,20,0,0
337738,-79.9999999999999,4,3,8,60,0,0
337899,-79.9999999999999,4,3,8,20,0,0
337947,314.13612565445,4,3,1,60,1,0
337947,-79.9999999999999,4,3,1,60,0,0
338104,-100,4,3,8,20,0,0
338156,302.267002518892,4,3,1,70,1,0
338156,-66.6666666666667,4,3,1,70,0,0
338206,-66.6666666666667,4,3,9,70,0,0
338307,-66.6666666666667,4,3,9,20,0,0
338357,-66.6666666666667,4,3,9,70,0,0
338508,-100,4,3,9,20,0,0
338559,-66.6666666666667,4,3,9,70,0,0
338710,-100,4,3,9,20,0,0
338760,292.682926829268,4,3,1,80,1,0
338760,-57.1428571428571,4,3,1,80,0,0
338857,-57.1428571428571,4,3,10,80,0,0
338906,-57.1428571428571,4,3,10,20,0,0
338955,-57.1428571428571,4,3,10,80,0,0
339101,-57.1428571428571,4,3,10,20,0,0
339150,348.837209302326,4,3,10,80,1,0
339150,-57.1428571428571,4,3,10,80,0,0
339324,-100,4,3,10,20,0,0
339382,314.13612565445,4,3,1,90,1,0
339382,-50,4,3,1,90,0,0
339539,-100,4,3,1,5,0,0
339591,-50,4,3,1,90,0,0
339750,-100,4,3,1,5,0,0
339800,300,4,3,1,60,1,0
339800,-400,4,3,1,60,0,0
341000,-100,4,3,1,5,0,0

[Colours]
Combo1 : 255,85,85
Combo2 : 192,192,192
Combo3 : 128,64,64
Combo4 : 128,128,128

[HitObjects]
256,192,11900,12,0,16850,0:0:0:0:
154,214,17150,6,0,B|153:179|171:171|171:171|186:155|175:115,1,95,0|2,0:0|0:0,0:0:0:0:
72,24,17450,2,0,B|63:51|78:67|78:67|96:75|95:110,1,95,0|2,0:0|0:0,0:0:0:0:
258,26,17750,6,0,L|259:73,1,47.5
271,32,17900,2,0,L|272:79,1,47.5,2|0,0:0|0:0,0:0:0:0:
395,145,18050,6,0,L|394:192,1,47.5
382,151,18200,2,0,L|381:198,1,47.5,2|0,0:0|0:0,0:0:0:0:
315,339,18350,6,0,L|262:339,1,47.5,12|0,0:0|0:0,0:0:0:0:
164,226,18500,1,0,0:0:0:0:
172,225,18575,1,0,0:0:0:0:
180,225,18650,1,0,0:0:0:0:
189,225,18725,1,0,0:0:0:0:
228,226,18800,6,0,L|282:224,1,47.5,12|0,0:0|0:0,0:0:0:0:
172,342,18947,1,0,0:0:0:0:
163,340,19020,1,0,0:0:0:0:
155,339,19094,1,0,0:0:0:0:
146,339,19169,1,0,0:0:0:0:
96,330,19244,5,10,0:0:0:0:
68,277,19319,1,8,0:0:0:0:
61,218,19394,1,8,0:0:0:0:
74,161,19472,1,8,0:0:0:0:
103,110,19551,6,0,B|146:89|188:119|188:119|208:96|235:104|235:104|268:151|321:130,1,237.5,12|10,3:3|0:0,0:0:0:0:
472,23,20000,1,0,0:0:0:0:
392,301,20150,1,10,0:0:0:0:
318,28,20300,1,0,0:0:0:0:
399,322,20450,1,10,0:0:0:0:
497,145,20600,1,0,0:0:0:0:
198,221,20750,5,10,0:0:0:0:
440,102,20900,1,0,0:0:0:0:
313,340,21050,1,10,0:0:0:0:
276,73,21200,1,0,0:0:0:0:
462,266,21350,1,10,0:0:0:0:
164,140,21500,1,0,0:0:0:0:
164,140,21575,1,0,0:0:0:0:
164,140,21650,1,10,0:0:0:0:
211,360,21804,1,0,0:0:0:0:
386,216,21959,6,0,B|421:240|408:296|408:296|399:304|399:304|399:324,1,118.75,10|0,0:0|0:0,0:0:0:0:
114,297,22259,2,0,B|79:273|92:217|92:217|101:209|101:209|101:189,1,118.75,10|0,0:0|0:0,0:0:0:0:
300,32,22559,2,0,B|319:60|319:60|328:90|307:178,1,118.75,10|0,0:0|0:0,0:0:0:0:
211,360,22859,2,0,B|192:332|192:332|183:302|204:214,1,118.75,10|0,0:0|0:0,0:0:0:0:
431,93,23159,5,10,0:0:0:0:
315,282,23306,1,0,0:0:0:0:
314,144,23454,1,10,0:0:0:0:
386,343,23602,1,0,0:0:0:0:
341,359,23677,1,0,0:0:0:0:
294,354,23750,1,10,0:0:0:0:
114,192,23900,1,0,0:0:0:0:
158,175,23975,1,0,0:0:0:0:
205,180,24050,1,10,0:0:0:0:
205,185,24125,1,0,0:0:0:0:
205,191,24200,1,0,0:0:0:0:
205,197,24275,1,0,0:0:0:0:
193,252,24350,5,10,0:1:0:0:
161,273,24425,1,0,0:0:0:0:
125,279,24500,1,0,0:0:0:0:
89,270,24575,1,0,0:0:0:0:
60,246,24650,1,8,0:0:0:0:
44,213,24725,1,0,0:0:0:0:
43,176,24800,1,0,0:0:0:0:
57,141,24875,1,0,0:0:0:0:
85,117,24950,1,8,0:0:0:0:
116,98,25025,1,0,0:0:0:0:
153,91,25100,1,0,0:0:0:0:
190,97,25175,1,0,0:0:0:0:
221,116,25250,1,8,0:0:0:0:
253,135,25325,1,0,0:0:0:0:
290,141,25400,1,0,0:0:0:0:
327,134,25475,1,0,0:0:0:0:
359,114,25550,5,8,0:0:0:0:
339,76,25625,1,0,0:0:0:0:
303,52,25700,1,0,0:0:0:0:
259,51,25775,1,0,0:0:0:0:
221,72,25848,1,8,0:0:0:0:
199,109,25922,1,0,0:0:0:0:
199,152,25997,1,0,0:0:0:0:
220,189,26071,1,0,0:0:0:0:
258,210,26145,1,8,0:0:0:0:
300,216,26219,1,0,0:0:0:0:
331,246,26294,1,0,0:0:0:0:
339,289,26369,1,0,0:0:0:0:
321,328,26444,1,8,0:0:0:0:
285,350,26519,1,0,0:0:0:0:
242,347,26594,1,0,0:0:0:0:
208,319,26669,1,0,0:0:0:0:
209,283,26744,6,0,P|228:295|243:314,1,47.5,12|0,0:1|0:0,0:0:0:0:
129,327,26894,2,0,P|109:314|94:295,1,47.5
213,294,27044,2,0,P|229:311|238:333,1,47.5,8|0,0:0|0:0,0:0:0:0:
124,315,27194,2,0,P|108:298|99:276,1,47.5
221,146,27344,6,0,P|239:181|227:228,1,71.2500027179719,12|0,0:1|0:0,0:0:0:0:
40,212,27494,2,0,P|35:172|62:132,1,71.2500027179719
241,152,27644,2,0,P|249:190|225:232,1,71.2500027179719,8|0,0:0|0:0,0:0:0:0:
49,168,27794,2,0,P|54:129|91:97,1,71.2500027179719
340,162,27944,6,0,P|330:227|313:258,1,95,12|0,0:1|0:0,0:0:0:0:
148,124,28094,2,0,P|152:76|171:33,1,95
363,71,28244,2,0,P|353:136|336:167,1,95,8|0,0:0|0:0,0:0:0:0:
124,214,28399,2,0,P|134:149|151:118,1,95
436,145,28554,5,10,0:0:0:0:
423,190,28629,1,8,0:0:0:0:
410,236,28704,2,0,L|394:289,1,47.5,8|0,0:0|0:0,0:0:0:0:
239,303,28854,5,8,0:0:0:0:
237,246,28929,1,8,0:0:0:0:
236,190,29004,1,8,0:0:0:0:
234,134,29079,1,8,0:0:0:0:
234,81,29154,6,0,B|211:134|177:139|177:139|180:155|192:172|192:172|156:205|182:300,1,237.5,10|10,0:0|0:0,0:0:0:0:
67,163,29604,1,0,0:0:0:0:
339,161,29755,1,10,0:0:0:0:
177,282,29905,1,0,0:0:0:0:
357,161,30055,1,10,0:0:0:0:
155,38,30205,1,0,0:0:0:0:
343,249,30350,5,10,0:0:0:0:
267,58,30500,1,0,0:0:0:0:
261,323,30651,1,10,0:0:0:0:
356,93,30802,1,0,0:0:0:0:
177,282,30953,1,10,0:0:0:0:
76,109,31103,1,0,0:0:0:0:
63,87,31179,1,0,0:0:0:0:
50,64,31255,1,10,0:0:0:0:
255,191,31405,1,0,0:0:0:0:
98,353,31556,6,0,B|82:349|82:349|63:305|85:247,1,118.75,10|0,0:0|0:0,0:0:0:0:
356,93,31857,2,0,B|372:97|372:97|391:141|368:196,1,118.75,10|0,0:0|0:0,0:0:0:0:
150,164,32159,2,0,B|121:111|154:69|154:69|161:90,1,118.75,10|0,0:0|0:0,0:0:0:0:
322,277,32460,2,0,B|351:330|318:372|318:372|312:355,1,118.75,10|0,0:0|0:0,0:0:0:0:
255,191,32762,5,10,0:0:0:0:
461,226,32912,1,0,0:0:0:0:
225,317,33062,1,10,0:0:0:0:
356,93,33212,1,0,0:0:0:0:
360,47,33287,1,0,0:0:0:0:
334,8,33362,1,10,0:0:0:0:
109,83,33512,1,0,0:0:0:0:
105,129,33587,1,0,0:0:0:0:
131,168,33662,1,10,0:0:0:0:
137,169,33736,1,0,0:0:0:0:
141,169,33810,1,0,0:0:0:0:
145,170,33884,1,0,0:0:0:0:
184,210,33959,5,10,0:1:0:0:
192,247,34033,1,0,0:0:0:0:
186,283,34107,1,0,0:0:0:0:
165,313,34181,1,0,0:0:0:0:
132,332,34256,1,8,0:0:0:0:
96,336,34330,1,0,0:0:0:0:
61,324,34404,1,0,0:0:0:0:
33,299,34478,1,0,0:0:0:0:
20,265,34553,1,8,0:0:0:0:
12,229,34627,1,0,0:0:0:0:
19,192,34701,1,0,0:0:0:0:
37,159,34775,1,0,0:0:0:0:
65,137,34850,1,8,0:0:0:0:
94,113,34925,1,0,0:0:0:0:
112,80,34998,1,0,0:0:0:0:
118,43,35072,1,0,0:0:0:0:
104,9,35147,5,8,0:0:0:0:
83,40,35222,1,0,0:0:0:0:
76,77,35297,1,0,0:0:0:0:
82,114,35372,1,0,0:0:0:0:
102,147,35447,1,8,0:0:0:0:
132,169,35522,1,0,0:0:0:0:
168,180,35597,1,0,0:0:0:0:
206,176,35672,1,0,0:0:0:0:
239,159,35747,1,8,0:0:0:0:
271,138,35822,1,0,0:0:0:0:
308,134,35897,1,0,0:0:0:0:
343,148,35972,1,0,0:0:0:0:
368,176,36047,2,0,P|373:194|369:230,3,47.5,8|0|0|0,0:0|0:0|0:0|0:0,0:0:0:0:
391,306,36354,6,0,B|375:324|375:324|331:317|314:291,1,95,4|8,0:0|0:0,0:0:0:0:
499,172,36504,6,0,P|510:208|484:269,1,95,2|8,0:2|0:0,0:0:0:0:
319,384,36655,2,0,P|282:375|242:322,1,95,2|8,0:2|0:0,0:0:0:0:
225,122,36806,2,0,P|250:94|316:86,1,95,2|8,0:0|0:0,0:0:0:0:
290,178,36957,6,0,P|235:206|210:209,1,71.2500027179719,4|8,0:2|0:0,0:0:0:0:
98,147,37107,2,0,P|70:92|67:67,1,71.2500027179719,2|8,0:2|0:0,0:0:0:0:
237,52,37258,6,0,P|235:87|224:121,1,71.2500027179719,2|8,0:2|0:0,0:0:0:0:
125,229,37405,2,0,P|89:227|55:216,1,71.2500027179719,2|8,0:2|0:0,0:0:0:0:
123,11,37550,6,0,B|144:12|144:12|157:40|150:97,1,95,10|0,0:0|0:0,0:0:0:0:
58,309,37700,2,0,P|49:253|58:209,1,95,10|0,0:0|0:0,0:0:0:0:
304,83,37850,2,0,B|324:89|324:89|329:119|307:173,1,95,10|0,0:0|0:0,0:0:0:0:
164,354,38000,2,0,P|169:297|189:257,1,95,10|0,0:0|0:0,0:0:0:0:
450,42,38150,5,8,0:0:0:0:
412,96,38225,1,8,0:0:0:0:
443,147,38300,1,0,0:0:0:0:
456,151,38375,1,0,0:0:0:0:
466,157,38450,6,0,P|469:195|467:213,1,47.5
484,162,38600,2,0,P|487:200|485:218,1,47.5
376,273,38750,6,0,B|395:282|395:282|357:310|308:279,1,95,4|0,0:0|0:0,0:0:0:0:
207,110,38936,2,0,B|204:86|204:86|247:106|245:163,1,95,8|0,0:0|0:0,0:0:0:0:
149,321,39149,2,0,B|131:333|131:333|126:286|177:259,1,95
348,157,39349,6,0,P|334:181|311:195,3,31.6666666666667,12|0|0|0,0:0|0:0|0:0|0:0,0:0:0:0:
276,371,39552,2,0,P|244:319|243:259,1,95
93,187,39755,2,0,P|153:185|205:215,1,95
402,301,39958,6,0,B|423:327|423:327|366:335|372:283|308:288,1,142.500005435944,12|0,0:0|0:0,0:0:0:0:
217,70,40155,2,0,B|228:38|228:38|264:83|216:104|252:156,1,142.500005435944
111,330,40352,2,0,B|77:335|77:335|99:281|140:313|168:255,1,142.500005435944
365,69,40549,6,0,B|370:22|456:43|416:164|343:155,1,190,10|0,0:1|0:0,0:0:0:0:
100,227,40749,2,0,B|57:245|32:160|156:134|185:201,1,190,10|0,0:0|0:0,0:0:0:0:
392,346,40949,2,0,B|429:373|367:437|283:343|327:284,1,190,10|0,0:0|0:0,0:0:0:0:
491,199,41159,5,6,0:1:0:0:
132,337,43571,1,4,0:0:0:0:
132,337,44732,6,0,P|206:326|111:239,1,285
124,244,45460,5,0,0:0:0:0:
124,244,45518,1,0,0:0:0:0:
124,244,45576,2,0,L|122:283,1,31.6666666666667,0|8,0:0|0:0,0:0:0:0:
253,117,45791,1,8,0:0:0:0:
197,100,45868,1,8,0:0:0:0:
139,109,45945,5,12,0:0:0:0:
368,1,46097,1,8,0:0:0:0:
342,25,46172,1,0,0:0:0:0:
328,57,46249,1,0,0:0:0:0:
327,93,46325,1,0,0:0:0:0:
340,126,46401,1,8,0:0:0:0:
413,203,46554,2,0,P|424:129|415:110,1,95,0|8,0:0|0:0,0:0:0:0:
408,87,46782,1,0,0:0:0:0:
398,68,46858,2,0,P|370:50|331:38,1,47.5,0|0,0:2|0:0,0:0:0:0:
319,227,47005,5,8,0:0:0:0:
497,98,47152,1,0,0:0:0:0:
397,302,47302,1,8,0:0:0:0:
254,117,47452,1,0,0:0:0:0:
254,117,47527,1,0,0:0:0:0:
254,117,47602,1,8,0:0:0:0:
224,318,47752,1,0,0:0:0:0:
171,38,47902,1,8,0:0:0:0:
169,45,47977,2,0,P|158:70|156:99,1,47.5
112,271,48127,1,0,0:0:0:0:
105,284,48202,2,0,P|94:259|92:230,1,47.5,8|0,0:0|0:0,0:0:0:0:
74,66,48368,5,0,0:0:0:0:
253,221,48512,1,8,0:0:0:0:
9,176,48656,1,0,0:0:0:0:
9,176,48728,1,0,0:0:0:0:
9,176,48800,1,8,0:0:0:0:
325,90,48944,2,0,L|300:146,1,47.5
224,318,49094,1,8,0:0:0:0:
163,164,49244,1,0,0:0:0:0:
158,117,49319,1,0,0:0:0:0:
177,74,49394,1,8,0:0:0:0:
335,238,49545,5,0,0:0:0:0:
134,240,49697,1,8,0:0:0:0:
391,92,49848,1,2,0:0:0:0:
357,344,50000,1,8,0:0:0:0:
268,94,50151,6,0,L|272:36,1,47.5,4|0,0:0|0:0,0:0:0:0:
435,175,50290,1,8,0:0:0:0:
447,183,50360,2,0,L|442:237,1,47.5,0|0,0:1|0:0,0:0:0:0:
204,293,50499,1,0,0:0:0:0:
192,285,50569,2,0,L|197:231,1,47.5,8|0,0:0|0:0,0:0:0:0:
364,40,50745,6,0,B|382:52|385:74|385:74|368:96|371:132,1,95,4|8,0:1|0:0,0:0:0:0:
364,277,51046,1,0,0:0:0:0:
364,277,51121,1,0,0:0:0:0:
364,277,51196,1,8,0:0:0:0:
198,123,51348,1,0,0:0:0:0:
240,144,51423,1,0,0:0:0:0:
268,181,51498,1,8,0:0:0:0:
278,227,51574,1,0,0:0:0:0:
267,273,51650,2,0,P|255:300|238:324,1,47.5
119,156,51800,6,0,P|144:218|140:256,1,95,8|0,0:0|0:0,0:0:0:0:
0,127,52101,1,8,0:0:0:0:
185,82,52252,1,0,0:0:0:0:
201,90,52325,1,0,0:0:0:0:
212,95,52398,2,0,P|220:73|222:50,2,47.5,8|0|0,0:0|0:0|0:0,0:0:0:0:
61,287,52696,1,8,0:0:0:0:
48,276,52772,2,0,P|52:244|62:223,1,47.5
268,181,52924,1,0,0:0:0:0:
281,192,53000,2,0,P|277:224|267:245,1,47.5,8|0,0:0|0:0,0:0:0:0:
177,356,53153,6,0,B|151:337|151:337|142:308|160:264,1,95,0|8,0:0|0:0,0:0:0:0:
361,221,53451,1,0,0:0:0:0:
347,266,53526,1,0,0:0:0:0:
313,299,53600,1,8,0:0:0:0:
186,102,53750,1,0,0:0:0:0:
233,300,53899,1,8,0:0:0:0:
354,92,54047,1,0,0:0:0:0:
365,72,54122,1,0,0:0:0:0:
377,54,54197,1,8,0:0:0:0:
133,239,54347,5,0,0:0:0:0:
354,166,54497,1,8,0:0:0:0:
118,126,54647,1,0,0:0:0:0:
118,126,54722,1,0,0:0:0:0:
118,126,54797,1,8,0:0:0:0:
233,300,54947,2,0,P|245:247|224:191,1,95,0|8,0:0|0:0,0:0:0:0:
314,61,55172,1,0,0:0:0:0:
307,70,55247,2,0,P|302:93|306:116,1,47.5
370,279,55397,2,0,P|365:255|369:232,1,47.5,8|0,0:0|0:0,0:0:0:0:
434,27,55558,6,0,P|455:68|443:117,1,95,4|8,0:0|0:0,0:0:0:0:
370,279,55838,2,0,P|373:255|368:232,1,47.5
306,116,55978,1,8,0:0:0:0:
231,348,56157,1,0,0:0:0:0:
233,300,56230,1,0,0:0:0:0:
218,256,56304,1,8,0:0:0:0:
188,220,56377,1,0,0:0:0:0:
146,198,56451,2,0,P|119:190|82:192,1,47.5
104,355,56598,2,0,P|127:353|150:346,1,47.5,8|0,0:0|0:0,0:0:0:0:
277,172,56745,5,4,0:0:0:0:
61,286,56898,1,8,0:0:0:0:
314,297,57051,1,0,0:0:0:0:
314,297,57127,1,0,0:0:0:0:
314,297,57204,1,8,0:0:0:0:
125,77,57357,1,0,0:0:0:0:
188,220,57510,1,8,0:0:0:0:
268,14,57663,1,0,0:0:0:0:
268,14,57736,1,0,0:0:0:0:
268,14,57809,1,8,0:0:0:0:
105,210,57955,6,0,L|66:251,1,56.9999982604981,4|0,0:0|0:0,0:0:0:0:
277,172,58105,1,10,0:0:0:0:
277,172,58180,1,0,0:0:0:0:
277,172,58255,2,0,L|332:184,1,56.9999982604981
229,352,58405,6,0,L|213:287,1,56.9999982604981,10|0,0:0|0:0,0:0:0:0:
161,70,58555,1,0,0:0:0:0:
161,70,58630,1,0,0:0:0:0:
161,70,58705,2,0,L|177:135,1,56.9999982604981,10|0,0:0|0:0,0:0:0:0:
137,371,58855,1,0,0:0:0:0:
137,371,58930,1,0,0:0:0:0:
137,371,59005,2,0,L|121:306,1,56.9999982604981,10|0,0:0|0:0,0:0:0:0:
82,137,59155,5,2,0:0:0:0:
87,126,59230,1,0,0:0:0:0:
90,115,59305,1,0,0:0:0:0:
91,103,59380,1,0,0:0:0:0:
86,90,59455,5,8,0:0:0:0:
31,119,59527,1,8,0:0:0:0:
12,178,59600,1,8,0:0:0:0:
39,234,59673,1,8,0:0:0:0:
97,256,59746,1,0,0:0:0:0:
154,232,59819,1,8,0:0:0:0:
179,175,59891,5,8,0:0:0:0:
229,149,59964,1,8,0:0:0:0:
285,154,60037,1,0,0:0:0:0:
330,187,60115,1,0,0:0:0:0:
352,239,60194,1,0,0:0:0:0:
344,294,60273,1,0,0:0:0:0:
304,342,60352,6,0,B|254:369|219:334|219:334|212:355|212:355|178:313|116:336|116:336|161:248|73:253|146:155,1,380,4|0,0:0|0:0,0:0:0:0:
233,78,61252,6,0,B|263:79|273:114|273:114|258:137|263:220,1,142.5,14|0,0:1|0:0,0:0:0:0:
259,226,61567,1,0,0:0:0:0:
330,326,61704,2,0,B|396:279|366:182|366:182|329:183,1,190,10|0,0:0|0:0,0:0:0:0:
26,257,62167,6,0,B|82:256|82:256|104:271|104:271|149:236|207:256|207:256|250:283|301:257,1,285,6|0,0:1|0:0,0:0:0:0:
296,259,62879,1,0,0:0:0:0:
3,140,63034,5,10,0:1:0:0:
180,339,63340,1,0,0:0:0:0:
226,50,63646,1,12,0:0:0:0:
350,311,63952,6,0,B|365:350|401:358|433:330|433:330|454:279|406:256|406:256|373:212|395:164,1,285,6|0,0:1|0:0,0:0:0:0:
392,169,64702,1,0,0:0:0:0:
267,81,64845,6,0,B|312:58|312:58|356:70,1,95,10|0,0:1|0:0,0:0:0:0:
233,209,65152,2,0,B|190:181|190:181|178:137,1,95
392,169,65452,1,8,0:0:0:0:
221,296,65602,1,0,0:0:0:0:
117,52,65752,6,0,B|103:61|103:61|92:97|102:147,1,95,6|0,0:1|0:0,0:0:0:0:
95,287,66052,1,0,0:0:0:0:
21,111,66194,1,0,0:0:0:0:
21,111,66480,1,0,0:0:0:0:
221,296,66637,6,0,B|238:317|238:317|255:289|245:235,1,95,14|0,0:1|0:0,0:0:0:0:
158,96,66937,5,8,0:0:0:0:
419,183,67087,1,8,0:0:0:0:
146,121,67237,1,8,0:0:0:0:
356,68,67387,1,8,0:0:0:0:
60,100,67537,6,0,B|32:137|63:186|63:186|119:185|153:220,1,190,2|10,0:0|0:0,0:0:0:0:
291,207,67987,1,0,0:0:0:0:
69,360,68137,2,0,P|58:314|80:273,1,95,10|0,0:0|0:0,0:0:0:0:
207,136,68437,5,10,0:0:0:0:
313,356,68587,1,0,0:0:0:0:
282,83,68737,5,10,0:0:0:0:
231,319,68887,1,0,0:0:0:0:
200,45,69037,5,10,0:0:0:0:
306,266,69184,1,0,0:0:0:0:
306,266,69259,1,0,0:0:0:0:
306,266,69334,5,10,0:0:0:0:
152,219,69482,1,0,0:0:0:0:
378,223,69631,1,10,0:0:0:0:
80,273,69779,1,0,0:0:0:0:
280,81,69928,5,10,0:0:0:0:
231,319,70078,1,0,0:0:0:0:
79,134,70229,6,0,P|102:105|155:79,1,95,10|0,0:0|0:0,0:0:0:0:
466,187,70531,2,0,P|443:158|390:132,1,95,10|0,0:0|0:0,0:0:0:0:
280,81,70757,1,0,0:0:0:0:
281,117,70832,1,8,0:0:0:0:
303,334,70983,1,0,0:0:0:0:
342,310,71058,1,0,0:0:0:0:
356,265,71134,6,0,P|345:213|229:235,1,190,6|10,0:1|0:0,0:0:0:0:
195,376,71593,1,0,0:0:0:0:
81,208,71746,2,0,P|127:218|156:256,1,95,10|0,0:0|0:0,0:0:0:0:
62,329,71975,1,0,0:0:0:0:
62,329,72052,5,12,0:3:0:0:
29,106,72205,1,0,0:0:0:0:
233,224,72358,1,10,0:0:0:0:
0,253,72503,1,0,0:0:0:0:
244,42,72649,2,0,L|254:144,1,95,10|0,0:0|0:0,0:0:0:0:
270,313,72876,1,0,0:0:0:0:
272,330,72952,6,0,L|320:323,1,47.5,10|0,0:1|0:0,0:0:0:0:
416,173,73103,1,0,0:0:0:0:
416,173,73179,1,0,0:0:0:0:
416,173,73255,2,0,L|368:180,1,47.5
185,217,73406,1,0,0:0:0:0:
185,217,73482,1,0,0:0:0:0:
185,217,73558,2,0,L|233:224,1,47.5
389,263,73709,1,0,0:0:0:0:
389,263,73785,1,0,0:0:0:0:
389,263,73861,5,8,0:0:0:0:
446,255,73936,1,0,0:0:0:0:
488,214,74011,1,0,0:0:0:0:
496,156,74086,1,0,0:0:0:0:
468,105,74161,2,0,P|444:86|427:78,1,47.5
341,0,74311,2,0,P|309:3|292:9,1,47.5
185,217,74461,1,0,0:0:0:0:
161,199,74536,1,0,0:0:0:0:
147,173,74611,1,0,0:0:0:0:
146,144,74686,1,0,0:0:0:0:
158,117,74761,5,4,0:0:0:0:
174,102,75050,1,0,0:0:0:0:
192,86,75340,1,0,0:0:0:0:
210,70,75630,5,0,0:0:0:0:
214,319,75785,1,12,0:0:0:0:
91,186,75940,5,0,0:0:0:0:
43,83,76096,1,0,0:0:0:0:
196,217,76251,5,0,0:0:0:0:
255,134,76401,1,0,0:0:0:0:
66,286,76551,5,0,0:0:0:0:
20,230,76701,1,0,0:0:0:0:
214,319,76851,5,0,0:0:0:0:
231,293,77001,1,0,0:0:0:0:
310,228,77151,5,4,0:3:0:0:
291,231,77457,1,0,0:0:0:0:
293,249,77763,1,0,0:0:0:0:
312,245,78069,1,0,0:0:0:0:
352,99,78361,6,0,B|382:121|382:121|336:141|297:132|270:111|270:111|235:129|181:121,1,237.5,10|0,0:0|0:0,0:0:0:0:
70,0,78811,2,0,B|106:6|113:52|113:52|63:115|97:191|132:204,1,237.5,12|0,0:0|0:0,0:0:0:0:
254,301,79261,2,0,P|272:246|245:195,1,118.75,10|0,0:0|0:0,0:0:0:0:
396,42,79561,5,2,0:1:0:0:
396,79,79862,1,0,0:0:0:0:
396,116,80164,1,0,0:0:0:0:
396,153,80465,1,0,0:0:0:0:
396,190,80767,5,0,0:0:0:0:
270,55,80917,1,8,0:0:0:0:
230,245,81067,5,0,0:0:0:0:
330,137,81217,1,0,0:0:0:0:
341,271,81367,5,0,0:0:0:0:
275,185,81517,1,0,0:0:0:0:
225,366,81667,5,0,0:0:0:0:
276,315,81817,1,0,0:0:0:0:
47,290,81946,6,0,B|61:314|91:312|91:312|103:299|103:299|152:330|225:308,1,190,2|0,0:1|0:0,0:0:0:0:
219,309,82409,1,0,0:0:0:0:
275,185,82564,6,0,P|292:198|309:222,1,47.5
359,340,82714,2,0,P|362:316|375:287,1,56.9999982604981,4|0,0:1|0:0,0:0:0:0:
452,190,82864,2,0,P|426:200|388:204,1,66.4999979705811,4|0,0:1|0:0,0:0:0:0:
200,237,83014,1,0,0:0:0:0:
200,237,83164,6,0,B|195:206|176:189|176:189|169:191|169:191|117:121|153:63,1,199.499993911743,10|0,0:1|0:0,0:0:0:0:
293,10,83464,1,0,0:0:0:0:
292,21,83539,1,0,0:0:0:0:
291,34,83614,1,0,0:0:0:0:
290,46,83689,1,0,0:0:0:0:
290,59,83764,5,2,0:0:0:0:
285,353,84056,1,0,0:0:0:0:
285,353,84338,6,0,B|244:319|245:273|255:241|255:241|291:237,1,142.500005435944,10|2,0:0|0:2,0:0:0:0:
433,169,84641,1,0,0:0:0:0:
131,117,84792,2,0,B|173:163|225:170|225:170|262:158,1,142.500005435944,2|0,0:2|0:0,0:0:0:0:
450,165,85095,1,0,0:0:0:0:
207,40,85247,5,10,0:0:0:0:
381,332,85398,1,2,0:2:0:0:
68,182,85550,5,0,0:0:0:0:
255,160,85700,1,2,0:2:0:0:
118,297,85850,1,0,0:0:0:0:
39,72,86000,1,0,0:0:0:0:
228,283,86150,5,10,0:0:0:0:
321,52,86300,1,0,0:0:0:0:
311,350,86450,5,10,0:0:0:0:
236,67,86600,1,0,0:0:0:0:
436,286,86750,6,0,B|458:288|458:288|483:235|457:166,1,142.500005435944,10|2,0:0|0:2,0:0:0:0:
321,52,87047,1,0,0:0:0:0:
228,283,87195,2,0,B|206:285|206:285|181:232|207:163,1,142.500005435944,2|0,0:2|0:0,0:0:0:0:
320,25,87492,1,0,0:0:0:0:
331,311,87641,2,0,B|277:362|277:362|209:363,1,142.500005435944,10|2,0:0|0:2,0:0:0:0:
85,109,87938,5,0,0:0:0:0:
85,109,88241,1,0,0:0:0:0:
286,241,88392,1,0,0:0:0:0:
389,92,88544,6,0,B|400:52|386:13|386:13|353:-6|321:16,1,142.500005435944,10|0,0:0|0:0,0:0:0:0:
147,172,88847,2,0,P|142:219|217:286,1,142.500005435944,10|0,0:0|0:0,0:0:0:0:
384,337,89150,5,2,0:0:0:0:
384,337,89450,1,8,0:0:0:0:
291,226,89600,1,8,0:0:0:0:
298,363,89750,1,8,0:0:0:0:
381,178,89900,1,8,0:0:0:0:
183,194,90050,1,8,0:0:0:0:
447,268,90200,1,8,0:0:0:0:
221,53,90350,5,8,0:0:0:0:
185,360,90500,1,8,0:0:0:0:
415,54,90650,1,8,0:0:0:0:
94,163,90800,1,8,0:0:0:0:
466,156,90950,5,8,0:0:0:0:
79,58,91100,1,8,0:0:0:0:
447,268,91250,1,8,0:0:0:0:
34,315,91400,1,8,0:0:0:0:
291,331,91550,6,0,B|227:343|215:282|215:282|221:283|221:283|230:265|221:228,1,166.25,4|0,0:0|0:0,0:0:0:0:
250,63,92141,6,0,P|221:94|304:143,1,166.25,4|0,0:0|0:0,0:0:0:0:
449,36,92750,6,0,B|460:62|451:82|451:82|424:60|378:53|339:80,1,166.25,4|0,0:0|0:0,0:0:0:0:
360,246,93350,6,0,B|394:253|419:240|444:197|429:152|429:152|407:150|381:162,1,190,4|0,0:0|0:0,0:0:0:0:
382,161,94972,5,0,0:0:0:0:
382,161,95050,1,0,0:0:0:0:
382,161,95129,2,0,B|359:234|314:238|314:238|294:223,1,118.75,8|0,0:0|0:0,0:0:0:0:
161,141,95345,2,0,B|231:111|263:143|263:143|265:168,1,118.75,4|0,0:0|0:0,0:0:0:0:
225,308,95561,5,0,0:0:0:0:
225,308,95661,1,0,0:0:0:0:
225,308,95761,2,0,B|297:311|318:256|318:256|302:224,1,142.500005435944,10|0,0:0|0:0,0:0:0:0:
133,102,95952,2,0,B|94:162|132:208|132:208|167:209,1,142.500005435944,10|0,0:0|0:0,0:0:0:0:
357,126,96149,2,0,B|323:62|265:71|265:71|245:101,1,142.500005435944,10|0,0:0|0:0,0:0:0:0:
365,264,96355,6,0,B|412:265|425:221|425:221|424:173,1,118.75,4|8,0:0|0:0,0:0:0:0:
489,73,96578,1,0,0:0:0:0:
489,73,96653,2,0,L|489:136,1,59.375
497,298,96802,1,8,0:0:0:0:
357,126,96952,1,0,0:0:0:0:
315,351,97101,1,8,0:0:0:0:
249,93,97250,2,0,P|215:119|206:142,1,59.375
138,285,97399,1,8,0:0:0:0:
357,126,97549,5,0,0:0:0:0:
127,68,97698,1,8,0:0:0:0:
233,296,97848,1,0,0:0:0:0:
239,273,97923,1,0,0:0:0:0:
245,250,97997,1,8,0:0:0:0:
51,86,98147,1,0,0:0:0:0:
21,122,98221,1,0,0:0:0:0:
13,169,98296,1,8,0:0:0:0:
28,213,98371,1,0,0:0:0:0:
63,245,98446,1,0,0:0:0:0:
108,256,98521,1,0,0:0:0:0:
153,237,98596,2,0,P|163:216|169:187,1,47.5,8|0,0:0|0:0,0:0:0:0:
241,54,98746,5,2,0:1:0:0:
328,283,98895,1,8,0:0:0:0:
368,77,99045,1,0,0:0:0:0:
368,77,99120,1,0,0:0:0:0:
368,77,99194,1,8,0:0:0:0:
239,253,99344,2,0,P|204:272|127:257,1,118.75,0|8,0:0|0:0,0:0:0:0:
74,152,99568,1,0,0:0:0:0:
74,152,99643,2,0,P|107:147|139:154,1,59.375
302,175,99793,1,8,0:0:0:0:
129,259,99943,5,2,0:0:0:0:
76,46,100092,1,8,0:0:0:0:
224,310,100242,6,0,L|241:243,1,59.375,2|0,0:0|0:0,0:0:0:0:
285,69,100391,1,8,0:0:0:0:
375,309,100541,5,2,0:0:0:0:
181,65,100691,1,8,0:0:0:0:
390,131,100840,6,0,P|389:178|372:205,1,59.375,2|0,0:0|0:0,0:0:0:0:
129,259,100990,2,0,P|130:212|147:185,1,59.375,8|0,0:0|0:0,0:0:0:0:
470,56,101140,5,6,0:1:0:0:
470,103,101215,1,0,0:0:0:0:
470,150,101290,1,10,0:0:0:0:
470,198,101365,1,0,0:0:0:0:
470,245,101438,1,0,0:0:0:0:
443,283,101511,1,0,0:0:0:0:
399,300,101584,1,10,0:0:0:0:
354,289,101657,1,0,0:0:0:0:
322,255,101730,1,0,0:0:0:0:
271,229,101803,1,0,0:0:0:0:
221,256,101876,1,10,0:0:0:0:
213,312,101949,1,0,0:0:0:0:
240,355,102023,1,0,0:0:0:0:
280,298,102096,1,0,0:0:0:0:
271,229,102169,1,10,0:0:0:0:
218,184,102242,1,0,0:0:0:0:
149,186,102318,6,0,P|126:195|102:219,1,59.375
43,62,102469,1,10,0:0:0:0:
80,90,102544,1,0,0:0:0:0:
125,103,102620,1,0,0:0:0:0:
172,97,102696,1,0,0:0:0:0:
214,75,102772,2,0,P|236:67|273:69,1,59.375,10|0,0:0|0:0,0:0:0:0:
409,128,102924,5,0,0:0:0:0:
405,151,103001,1,0,0:0:0:0:
402,174,103078,1,10,0:0:0:0:
399,197,103155,1,0,0:0:0:0:
396,220,103233,1,0,0:0:0:0:
393,243,103310,1,0,0:0:0:0:
390,266,103387,1,10,0:0:0:0:
387,290,103465,1,0,0:0:0:0:
381,316,103542,5,4,0:3:0:0:
345,347,103618,1,0,0:0:0:0:
300,358,103695,1,10,0:0:0:0:
254,346,103771,1,0,0:0:0:0:
219,314,103848,1,0,0:0:0:0:
203,270,103924,1,0,0:0:0:0:
209,224,104001,1,10,0:0:0:0:
236,185,104077,1,0,0:0:0:0:
278,164,104154,6,0,P|281:201|266:234,1,59.375,4|0,0:2|0:0,0:0:0:0:
104,233,104304,2,0,P|100:197|114:165,1,59.375,10|0,0:0|0:0,0:0:0:0:
224,31,104454,2,0,L|216:101,1,59.375
300,358,104604,2,0,L|307:287,1,59.375,10|0,0:0|0:0,0:0:0:0:
334,40,104738,6,0,B|348:70|348:70|342:131,1,95,10|0,0:1|0:0,0:0:0:0:
114,325,104888,1,0,0:0:0:0:
114,325,104963,2,0,B|99:294|99:294|105:233,1,95,10|0,0:1|0:0,0:0:0:0:
438,101,105112,1,0,0:0:0:0:
438,101,105188,2,0,B|452:131|452:131|446:192,1,95,10|0,0:1|0:0,0:0:0:0:
238,299,105338,5,0,0:0:0:0:
197,235,105413,1,0,0:0:0:0:
229,168,105488,1,0,0:0:0:0:
303,160,105567,1,0,0:0:0:0:
349,219,105646,1,6,0:1:0:0:
349,219,105964,6,0,B|342:255|365:279|365:279|369:310|356:336,1,118.75,4|8,0:0|0:0,0:0:0:0:
185,206,106258,1,0,0:0:0:0:
229,168,106331,1,0,0:0:0:0:
286,176,106405,1,8,0:0:0:0:
482,308,106552,1,0,0:0:0:0:
238,299,106702,1,8,0:0:0:0:
479,182,106852,2,0,L|419:203,1,59.375
141,293,107002,1,8,0:0:0:0:
249,73,107152,6,0,B|259:51|259:51|306:53|335:107,1,118.75,0|8,0:0|0:0,0:0:0:0:
118,130,107450,1,0,0:0:0:0:
109,98,107524,1,0,0:0:0:0:
117,70,107599,1,8,0:0:0:0:
238,299,107749,1,0,0:0:0:0:
28,147,107898,1,8,0:0:0:0:
332,103,108047,1,0,0:0:0:0:
326,162,108121,1,0,0:0:0:0:
321,221,108196,1,8,0:0:0:0:
197,29,108346,5,0,0:0:0:0:
406,219,108496,1,8,0:0:0:0:
396,264,108571,1,0,0:0:0:0:
361,296,108646,1,0,0:0:0:0:
315,302,108721,1,0,0:0:0:0:
274,281,108796,1,8,0:0:0:0:
118,95,108946,1,0,0:0:0:0:
101,314,109096,1,8,0:0:0:0:
261,73,109246,1,0,0:0:0:0:
261,73,109321,1,0,0:0:0:0:
261,73,109396,1,8,0:0:0:0:
37,187,109536,5,2,0:0:0:0:
253,261,109690,1,8,0:0:0:0:
87,104,109845,6,0,P|131:127|142:144,1,59.375,2|0,0:0|0:0,0:0:0:0:
200,346,109999,1,8,0:0:0:0:
214,58,110154,5,2,0:0:0:0:
101,314,110299,1,8,0:0:0:0:
288,111,110445,6,0,P|293:141|289:174,1,59.375,2|0,0:0|0:0,0:0:0:0:
39,245,110590,2,0,P|33:214|37:181,1,59.375,8|0,0:0|0:0,0:0:0:0:
214,58,110747,5,6,0:1:0:0:
276,21,110826,1,0,0:0:0:0:
347,34,110905,1,10,0:0:0:0:
392,91,110980,1,0,0:0:0:0:
389,163,111055,1,0,0:0:0:0:
371,207,111130,1,0,0:0:0:0:
378,253,111205,1,10,0:0:0:0:
408,289,111280,1,0,0:0:0:0:
458,297,111355,1,0,0:0:0:0:
424,264,111430,1,0,0:0:0:0:
378,253,111505,1,10,0:0:0:0:
334,268,111580,1,0,0:0:0:0:
303,303,111655,1,0,0:0:0:0:
241,331,111731,1,0,0:0:0:0:
185,291,111807,1,10,0:0:0:0:
191,224,111883,1,0,0:0:0:0:
252,194,111959,6,0,P|254:237|251:255,1,59.375
99,361,112111,1,10,0:0:0:0:
99,301,112187,1,0,0:0:0:0:
100,242,112263,1,0,0:0:0:0:
101,182,112339,1,0,0:0:0:0:
101,123,112414,2,0,L|104:62,1,59.375,10|0,0:0|0:0,0:0:0:0:
328,105,112564,5,0,0:0:0:0:
321,126,112639,1,0,0:0:0:0:
307,143,112714,1,10,0:0:0:0:
289,156,112789,1,0,0:0:0:0:
268,162,112864,1,0,0:0:0:0:
246,161,112939,1,0,0:0:0:0:
225,153,113014,1,10,0:0:0:0:
208,139,113089,1,0,0:0:0:0:
195,119,113164,5,4,0:0:0:0:
232,90,113239,1,0,0:0:0:0:
278,79,113314,1,10,0:0:0:0:
323,90,113389,1,0,0:0:0:0:
360,120,113464,1,0,0:0:0:0:
380,162,113539,1,0,0:0:0:0:
380,210,113614,1,10,0:0:0:0:
359,252,113689,1,0,0:0:0:0:
322,281,113764,6,0,P|316:259|321:223,1,59.375,4|0,0:1|0:0,0:0:0:0:
474,129,113914,2,0,P|479:171|464:203,1,59.375,10|0,0:0|0:0,0:0:0:0:
208,172,114064,2,0,P|214:200|228:226,1,59.375
470,297,114206,2,0,P|446:340|429:351,1,59.375,10|0,0:0|0:0,0:0:0:0:
159,298,114348,6,0,B|126:275|122:238|122:238|129:212,1,95,10|0,0:1|0:0,0:0:0:0:
334,71,114498,1,0,0:0:0:0:
340,87,114573,2,0,B|336:127|306:149|306:149|281:146,1,95
54,39,114723,1,0,0:0:0:0:
65,26,114798,2,0,B|101:8|135:23|135:23|134:52,1,95
49,295,114948,5,10,0:0:0:0:
26,229,115023,1,8,0:0:0:0:
53,165,115098,1,8,0:0:0:0:
116,136,115173,1,0,0:0:0:0:
183,157,115248,5,0,0:0:0:0:
191,165,115321,1,0,0:0:0:0:
197,175,115395,1,0,0:0:0:0:
202,186,115468,1,0,0:0:0:0:
200,235,115542,5,4,0:0:0:0:
373,120,115695,1,0,0:0:0:0:
253,322,115849,5,10,0:0:0:0:
320,33,116002,1,0,0:2:0:0:
354,324,116157,5,10,0:0:0:0:
219,31,116307,1,0,0:0:0:0:
128,266,116457,5,10,0:0:0:0:
431,186,116607,1,0,0:0:0:0:
105,122,116757,5,10,0:0:0:0:
188,384,116907,1,0,0:2:0:0:
276,122,117057,5,10,0:0:0:0:
0,234,117207,1,0,0:0:0:0:
0,234,117282,1,0,0:0:0:0:
0,234,117357,6,0,B|40:237|69:223|69:223|66:233|66:233|106:214|150:213,1,142.500005435944,12|0,0:0|0:0,0:0:0:0:
292,327,117578,1,0,0:0:0:0:
270,328,117652,6,0,B|220:281|248:227|248:227|281:225,1,142.500005435944,12|0,0:0|0:0,0:0:0:0:
355,139,117874,1,0,0:0:0:0:
355,152,117948,5,10,0:0:0:0:
403,372,118099,1,0,0:0:0:0:
437,58,118251,5,10,0:0:0:0:
279,225,118402,1,0,0:2:0:0:
288,1,118554,5,10,0:0:0:0:
462,285,118705,1,0,0:0:0:0:
162,150,118857,5,10,0:0:0:0:
475,133,119007,1,0,0:0:0:0:
164,291,119157,5,10,0:0:0:0:
381,4,119307,1,0,0:2:0:0:
302,338,119457,5,10,0:0:0:0:
159,27,119607,1,0,0:0:0:0:
159,27,119682,1,0,0:0:0:0:
159,27,119757,6,0,B|121:15|94:39|94:39|93:128,1,142.500005435944,12|0,0:0|0:0,0:0:0:0:
143,291,119982,1,0,0:0:0:0:
164,291,120057,6,0,B|166:239|160:211|160:211|165:190|165:190|161:145,1,142.500005435944,12|0,0:0|0:0,0:0:0:0:
44,275,120282,1,0,0:0:0:0:
55,298,120357,5,14,0:1:0:0:
302,338,120510,1,0,0:0:0:0:
406,120,120664,1,0,0:0:0:0:
19,111,120818,5,6,0:1:0:0:
310,63,120964,1,0,0:0:0:0:
432,320,121130,1,0,0:0:0:0:
512,0,121268,5,14,0:0:0:0:
512,0,122760,5,4,0:0:0:0:
256,192,122833,12,0,124223,0:0:0:0:
366,105,124369,5,0,0:0:0:0:
366,105,124452,1,0,0:0:0:0:
366,105,124535,1,12,0:3:0:0:
183,344,124702,1,12,0:3:0:0:
183,344,125147,6,0,B|239:327|277:362|277:362|275:348|275:348|321:307|288:236,1,237.5,10|10,0:0|0:0,0:0:0:0:
204,88,125599,1,0,0:0:0:0:
127,258,125750,1,10,0:0:0:0:
366,105,125900,1,0,0:0:0:0:
121,281,126051,1,10,0:0:0:0:
406,239,126202,1,0,0:0:0:0:
104,74,126353,5,10,0:0:0:0:
287,235,126503,1,0,0:0:0:0:
283,45,126653,1,10,0:0:0:0:
198,308,126803,1,0,0:0:0:0:
406,239,126953,1,10,0:0:0:0:
101,199,127103,1,0,0:0:0:0:
101,199,127178,1,0,0:0:0:0:
101,199,127253,1,10,0:0:0:0:
366,105,127403,1,0,0:0:0:0:
277,359,127553,6,0,B|245:348|234:322|234:322|234:248,1,118.75,10|0,0:0|0:0,0:0:0:0:
414,36,127853,2,0,B|446:47|457:73|457:73|457:147,1,118.75,10|0,0:0|0:0,0:0:0:0:
365,366,128153,2,0,B|361:307|361:307|364:304|364:304|362:245,1,118.75,10|0,0:0|0:0,0:0:0:0:
225,25,128453,2,0,B|229:84|229:84|226:87|226:87|220:145,1,118.75,10|0,0:0|0:0,0:0:0:0:
173,330,128753,5,10,0:0:0:0:
314,30,128903,1,0,0:0:0:0:
279,274,129053,1,10,0:0:0:0:
104,64,129203,1,0,0:0:0:0:
86,111,129278,1,0,0:0:0:0:
111,148,129353,1,10,0:0:0:0:
384,176,129500,1,0,0:0:0:0:
402,129,129575,1,0,0:0:0:0:
377,92,129648,1,10,0:0:0:0:
365,95,129724,1,0,0:0:0:0:
355,99,129800,1,0,0:0:0:0:
346,103,129876,1,0,0:0:0:0:
307,118,129952,5,10,0:1:0:0:
292,162,130025,1,0,0:0:0:0:
302,208,130099,1,0,0:0:0:0:
333,244,130172,1,0,0:0:0:0:
377,260,130246,1,8,0:0:0:0:
423,252,130319,1,0,0:0:0:0:
460,222,130393,1,0,0:0:0:0:
477,179,130466,1,0,0:0:0:0:
471,132,130540,1,8,0:0:0:0:
447,91,130615,1,0,0:0:0:0:
412,60,130690,1,0,0:0:0:0:
369,41,130765,1,0,0:0:0:0:
321,36,130840,1,8,0:0:0:0:
275,46,130915,1,0,0:0:0:0:
234,69,130990,1,0,0:0:0:0:
203,104,131065,1,0,0:0:0:0:
183,147,131140,5,8,0:0:0:0:
200,191,131215,1,0,0:0:0:0:
191,237,131290,1,0,0:0:0:0:
159,271,131365,1,0,0:0:0:0:
113,282,131440,1,8,0:0:0:0:
69,267,131515,1,0,0:0:0:0:
40,230,131590,1,0,0:0:0:0:
35,183,131665,1,0,0:0:0:0:
57,141,131740,1,8,0:0:0:0:
112,121,131815,1,0,0:0:0:0:
169,132,131890,1,0,0:0:0:0:
214,170,131965,1,0,0:0:0:0:
232,226,132040,1,8,0:0:0:0:
279,259,132115,1,0,0:0:0:0:
337,263,132190,1,0,0:0:0:0:
391,238,132265,1,0,0:0:0:0:
423,189,132340,6,0,P|418:169|401:148,1,47.5,12|0,0:1|0:0,0:0:0:0:
298,149,132490,2,0,P|303:169|320:190,1,47.5
426,172,132640,2,0,P|416:154|394:138,1,47.5,8|0,0:0|0:0,0:0:0:0:
294,165,132790,2,0,P|304:183|326:199,1,47.5
499,146,132940,6,0,P|482:110|448:88,1,71.2500027179719,12|0,0:1|0:0,0:0:0:0:
224,203,133090,2,0,P|241:239|275:261,1,71.2500027179719
495,134,133240,2,0,P|475:99|440:80,1,71.2500027179719,8|0,0:0|0:0,0:0:0:0:
227,214,133390,2,0,P|247:249|282:268,1,71.2500027179719
423,347,133544,6,0,P|434:318|422:252,1,95,0|8,0:0|0:0,0:0:0:0:
144,137,133672,2,0,P|132:165|144:231,1,95
296,345,133845,5,0,0:0:0:0:
296,365,133920,1,0,0:0:0:0:
290,90,134070,5,0,0:0:0:0:
289,71,134145,1,12,0:1:0:0:
166,352,134353,5,8,0:3:0:0:
476,170,134561,5,0,0:0:0:0:
144,137,134757,6,0,P|176:162|175:213,1,83.1250007927418,4|0,0:3|0:0,0:0:0:0:
209,101,135218,2,0,P|184:133|133:132,1,83.1250007927418,4|0,0:1|0:0,0:0:0:0:
244,166,135653,2,0,P|212:141|213:90,1,83.1250007927418,4|0,0:1|0:0,0:0:0:0:
179,202,136103,2,0,P|204:170|255:171,1,83.1250007927418,4|0,0:1|0:0,0:0:0:0:
244,166,137153,6,0,B|288:166|288:166|314:195,1,83.1250007927418,4|0,0:3|0:0,0:0:0:0:
365,139,137603,2,0,B|324:158|324:158|313:195,1,83.1250007927418,4|0,0:1|0:0,0:0:0:0:
160,166,138053,2,0,L|266:166,1,83.1250007927418,4|0,0:1|0:0,0:0:0:0:
440,104,138503,2,0,L|343:149,1,83.1250007927418,4|0,0:1|0:0,0:0:0:0:
212,297,138953,5,2,0:3:0:0:
226,299,139103,1,2,0:2:0:0:
345,308,139253,1,2,0:1:0:0:
228,110,139528,6,0,B|201:128|201:128|227:171,1,83.1250007927418,4|0,0:2|0:0,0:0:0:0:
289,110,140003,2,0,B|271:83|271:83|227:109,1,83.1250007927418,4|0,0:1|0:0,0:0:0:0:
288,171,140464,2,0,B|315:153|315:153|288:109,1,83.1250007927418,4|0,0:1|0:0,0:0:0:0:
227,171,140914,2,0,B|245:198|245:198|288:171,1,83.1250007927418,4|0,0:1|0:0,0:0:0:0:
287,171,141953,6,0,B|322:167|347:180|347:180|353:207,1,83.1250007927418,4|0,0:1|0:0,0:0:0:0:
351,200,142392,2,0,B|316:204|290:190|290:190|285:164,1,83.1250007927418,4|0,0:1|0:0,0:0:0:0:
427,146,142853,2,0,L|426:230,1,83.1250007927418,4|0,0:1|0:2,0:0:0:0:
206,186,143303,2,0,L|205:103,1,83.1250007927418,4|0,0:1|0:0,0:0:0:0:
70,77,143771,5,8,0:0:0:0:
241,23,143980,5,8,0:0:0:0:
70,77,144189,5,8,0:0:0:0:
70,91,144264,1,8,0:0:0:0:
70,105,144339,1,0,0:0:0:0:
94,270,144489,1,8,0:0:0:0:
191,123,144640,1,0,0:0:0:0:
191,123,144715,1,0,0:0:0:0:
191,123,144791,1,8,0:0:0:0:
19,188,144942,1,0,0:0:0:0:
234,215,145092,1,8,0:0:0:0:
94,270,145243,2,0,L|38:296,2,47.5,0|0|8,0:0|0:0|0:0,0:0:0:0:
223,337,145545,5,0,0:0:0:0:
186,120,145695,1,8,0:0:0:0:
346,265,145846,2,0,L|366:211,1,47.5
405,83,145996,1,8,0:0:0:0:
234,215,146146,1,0,0:0:0:0:
443,228,146296,1,8,0:0:0:0:
249,73,146446,1,0,0:0:0:0:
244,120,146521,1,0,0:0:0:0:
239,167,146596,2,0,L|233:222,1,47.5,8|0,0:0|0:0,0:0:0:0:
130,300,146746,6,0,P|110:263|112:199,1,95,0|8,0:0|0:0,0:0:0:0:
357,112,147047,1,0,0:0:0:0:
356,159,147122,1,0,0:0:0:0:
335,201,147197,1,8,0:0:0:0:
247,334,147349,1,0,0:0:0:0:
163,146,147499,1,8,0:0:0:0:
250,359,147650,2,0,L|261:299,1,47.5
290,148,147801,1,8,0:0:0:0:
130,300,147952,5,0,0:0:0:0:
322,255,148102,1,8,0:0:0:0:
102,170,148253,1,0,0:0:0:0:
68,157,148328,1,0,0:0:0:0:
35,144,148403,1,8,0:0:0:0:
192,120,148553,1,0,0:0:0:0:
177,86,148628,1,0,0:0:0:0:
163,54,148703,1,8,0:0:0:0:
290,148,148853,1,0,0:0:0:0:
304,113,148928,1,0,0:0:0:0:
317,81,149003,1,8,0:0:0:0:
339,237,149153,5,4,0:1:0:0:
158,340,149300,1,8,0:0:0:0:
345,322,149447,1,0,0:0:0:0:
390,309,149521,1,0,0:0:0:0:
420,273,149594,1,8,0:0:0:0:
426,226,149668,1,0,0:0:0:0:
405,185,149741,1,0,0:0:0:0:
237,331,149888,1,8,0:0:0:0:
174,126,150035,2,0,L|207:163,1,47.5
292,255,150182,5,8,0:0:0:0:
80,210,150329,1,0,0:0:0:0:
293,115,150485,1,8,0:0:0:0:
45,88,150641,1,0,0:0:0:0:
45,88,150719,1,0,0:0:0:0:
45,88,150797,2,0,P|48:111|65:141,1,47.5,8|0,0:0|0:0,0:0:0:0:
164,280,150954,5,0,0:0:0:0:
147,87,151104,1,8,0:0:0:0:
285,302,151254,2,0,L|296:229,1,47.5
330,78,151404,1,8,0:0:0:0:
426,171,151554,6,0,P|395:180|359:172,1,59.375,4|0,0:2|0:0,0:0:0:0:
198,162,151704,1,2,0:0:0:0:
198,162,151779,1,0,0:0:0:0:
198,162,151854,2,0,P|229:153|265:161,1,59.375
437,263,152004,6,0,P|398:269|371:264,1,59.375,10|0,0:0|0:0,0:0:0:0:
271,81,152154,1,0,0:0:0:0:
271,81,152229,1,0,0:0:0:0:
271,81,152304,2,0,P|310:75|337:80,1,59.375,10|0,0:0|0:0,0:0:0:0:
435,360,152454,1,0,0:0:0:0:
435,360,152529,1,0,0:0:0:0:
435,360,152604,2,0,P|396:366|369:361,1,59.375,12|0,0:0|0:0,0:0:0:0:
166,290,152754,5,0,0:0:0:0:
147,299,152829,1,0,0:0:0:0:
127,303,152904,1,0,0:0:0:0:
106,300,152979,1,0,0:0:0:0:
86,279,153054,5,8,0:0:0:0:
136,250,153129,1,8,0:0:0:0:
194,257,153204,1,0,0:0:0:0:
220,276,153279,1,0,0:0:0:0:
232,295,153354,5,8,0:0:0:0:
294,330,153429,1,0,0:0:0:0:
367,321,153504,1,0,0:0:0:0:
399,298,153579,1,0,0:0:0:0:
414,275,153654,5,0,0:0:0:0:
468,17,153801,1,0,0:0:0:0:
344,149,153948,5,4,0:1:0:0:
313,199,154023,1,0,0:0:0:0:
260,223,154098,1,0,0:0:0:0:
203,211,154173,1,0,0:0:0:0:
164,167,154248,1,0,0:0:0:0:
132,133,154323,1,0,0:0:0:0:
87,122,154398,1,0,0:0:0:0:
43,136,154473,1,0,0:0:0:0:
14,174,154548,1,0,0:0:0:0:
11,221,154623,1,0,0:0:0:0:
33,261,154698,1,0,0:0:0:0:
74,283,154773,1,0,0:0:0:0:
122,279,154848,5,12,0:0:0:0:
265,96,155154,1,2,0:0:0:0:
36,64,155460,1,2,0:0:0:0:
284,198,155766,5,4,0:1:0:0:
330,162,155839,1,0,0:0:0:0:
350,107,155913,1,0,0:0:0:0:
336,50,155987,1,0,0:0:0:0:
293,6,156061,1,0,0:0:0:0:
269,46,156134,1,0,0:0:0:0:
269,93,156208,1,0,0:0:0:0:
290,135,156282,1,0,0:0:0:0:
330,162,156357,1,0,0:0:0:0:
352,190,156430,1,0,0:0:0:0:
361,224,156504,1,0,0:0:0:0:
356,259,156578,1,0,0:0:0:0:
334,288,156652,6,0,B|269:282|235:333|235:333|164:363|118:304,2,237.5,12|4|4,0:0|0:2|0:2,0:0:0:0:
375,118,157552,5,8,0:0:0:0:
324,111,157627,1,0,0:0:0:0:
283,139,157702,1,0,0:0:0:0:
175,133,157852,1,0,0:0:0:0:
193,181,157927,1,0,0:0:0:0:
238,202,158002,1,0,0:0:0:0:
327,240,158152,6,0,P|346:229|362:179,1,71.25,2|0,0:0|0:0,0:0:0:0:
379,80,158452,5,4,0:0:0:0:
318,87,158527,1,0,0:0:0:0:
279,133,158602,1,0,0:0:0:0:
152,159,158752,1,0,0:0:0:0:
188,208,158827,1,0,0:0:0:0:
247,219,158902,1,0,0:0:0:0:
355,233,159052,6,0,P|367:215|360:162,1,71.25,2|0,0:0|0:0,0:0:0:0:
136,73,159352,5,4,0:0:0:0:
82,96,159427,1,0,0:0:0:0:
51,145,159502,1,0,0:0:0:0:
54,204,159577,1,0,0:0:0:0:
88,250,159652,2,0,P|110:269|130:275,3,47.5
244,238,159952,6,0,L|238:155,1,71.2500027179719
264,247,160102,2,0,L|258:164,1,71.2500027179719
237,59,160252,5,8,0:0:0:0:
243,362,160398,1,8,0:0:0:0:
365,96,160544,1,8,0:0:0:0:
338,339,160691,1,8,0:0:0:0:
121,96,160837,1,8,0:0:0:0:
148,339,160992,1,8,0:0:0:0:
428,173,161148,5,6,0:3:0:0:
458,120,161222,1,8,0:0:0:0:
452,59,161296,1,2,0:2:0:0:
412,13,161370,1,8,0:0:0:0:
352,0,161445,1,2,0:2:0:0:
296,24,161519,1,8,0:0:0:0:
264,77,161593,1,2,0:2:0:0:
270,138,161667,1,8,0:0:0:0:
311,184,161742,1,2,0:2:0:0:
329,234,161816,1,8,0:0:0:0:
322,286,161890,1,2,0:2:0:0:
293,330,161964,1,8,0:0:0:0:
246,356,162039,6,0,P|210:353|181:331,1,71.2500027179719,2|8,0:2|0:0,0:0:0:0:
100,359,162187,1,2,0:2:0:0:
100,359,162261,1,8,0:0:0:0:
100,359,162336,2,0,P|84:325|88:289,1,71.2500027179719,2|8,0:2|0:0,0:0:0:0:
24,233,162484,1,2,0:2:0:0:
24,233,162558,1,8,0:0:0:0:
24,233,162633,2,0,P|45:202|78:188,1,71.2500027179719,2|8,0:2|0:0,0:0:0:0:
95,104,162781,1,2,0:2:0:0:
95,104,162855,1,8,0:0:0:0:
95,104,162930,5,6,0:2:0:0:
144,67,163004,1,8,0:0:0:0:
204,52,163078,1,2,0:2:0:0:
266,61,163152,1,8,0:0:0:0:
319,93,163227,1,2,0:2:0:0:
355,143,163303,1,8,0:0:0:0:
370,203,163380,1,2,0:2:0:0:
360,264,163456,1,8,0:0:0:0:
328,317,163533,5,2,0:2:0:0:
262,293,163606,1,8,0:0:0:0:
201,326,163680,2,0,P|172:336|125:323,1,71.2500027179719,2|8,0:2|0:0,0:0:0:0:
20,148,163827,5,6,0:3:0:0:
67,85,163900,1,8,0:0:0:0:
144,67,163974,1,2,0:2:0:0:
214,102,164047,1,8,0:0:0:0:
246,174,164121,1,2,0:2:0:0:
287,220,164194,1,8,0:0:0:0:
350,229,164268,1,2,0:2:0:0:
404,196,164341,1,8,0:0:0:0:
425,136,164415,1,2,0:2:0:0:
369,154,164493,1,8,0:0:0:0:
334,201,164572,1,2,0:2:0:0:
334,259,164651,1,8,0:0:0:0:
372,312,164730,5,4,0:2:0:0:
372,312,165046,1,0,0:0:0:0:
202,55,165196,1,0,0:0:0:0:
249,30,165271,1,0,0:0:0:0:
289,47,165346,1,0,0:0:0:0:
288,70,165421,1,0,0:0:0:0:
287,94,165496,1,0,0:0:0:0:
287,118,165571,1,0,0:0:0:0:
286,148,165646,5,12,0:0:0:0:
286,148,165946,2,0,L|287:240,1,71.2500027179719
125,113,166092,2,0,L|126:205,1,71.2500027179719
43,329,166238,1,0,0:0:0:0:
92,347,166311,1,0,0:0:0:0:
143,335,166385,1,0,0:0:0:0:
179,296,166458,1,0,0:0:0:0:
187,241,166545,5,12,0:0:0:0:
381,338,166695,1,0,0:0:0:0:
97,262,166845,1,0,0:0:0:0:
427,259,166995,5,8,0:0:0:0:
143,335,167145,1,0,0:0:0:0:
332,222,167295,1,0,0:0:0:0:
280,384,167445,6,0,B|258:362|258:362|250:320|256:271,1,118.75,12|0,0:0|0:0,0:0:0:0:
227,42,167745,5,0,0:0:0:0:
54,97,167896,1,0,0:0:0:0:
277,120,168048,1,0,0:0:0:0:
133,121,168199,1,0,0:0:0:0:
304,182,168351,1,0,0:0:0:0:
190,156,168502,1,0,0:0:0:0:
309,238,168654,1,2,0:0:0:0:
309,238,168957,6,0,B|323:264|326:309|299:336|264:345|264:345|217:318|203:276|203:276|172:325|99:321,1,332.500003170967,12|0,0:0|0:0,0:0:0:0:
38,47,169400,2,0,B|12:114|61:131|61:131|101:111|138:113|138:113|176:143|214:143|214:143|238:120|276:118,1,332.500003170967,10|0,0:0|0:0,0:0:0:0:
449,94,169843,6,0,B|458:34|404:22|404:22|362:60|355:110|408:149|408:149|401:154|401:154|416:194|403:230,1,332.500003170967,12|0,0:0|0:0,0:0:0:0:
281,356,170287,1,0,0:0:0:0:
277,119,170456,5,0,0:0:0:0:
379,338,170606,1,0,0:0:0:0:
227,239,170756,1,0,0:0:0:0:
403,229,170906,1,0,0:0:0:0:
145,343,171056,5,8,0:0:0:0:
112,293,171131,1,8,0:0:0:0:
102,235,171206,1,8,0:0:0:0:
115,178,171281,1,8,0:0:0:0:
149,130,171356,5,4,0:0:0:0:
379,338,171501,1,0,0:0:0:0:
199,70,171647,1,10,0:0:0:0:
281,384,171798,1,0,0:0:0:0:
309,64,171950,1,10,0:0:0:0:
145,343,172101,1,0,0:0:0:0:
385,121,172253,1,10,0:0:0:0:
49,287,172404,1,0,0:0:0:0:
391,239,172556,5,10,0:1:0:0:
81,47,172706,1,0,0:0:0:0:
145,343,172856,1,10,0:1:0:0:
362,33,173006,1,0,0:0:0:0:
324,274,173156,1,10,0:1:0:0:
59,30,173306,1,0,0:0:0:0:
136,361,173456,1,10,0:1:0:0:
258,1,173602,5,0,0:0:0:0:
276,73,173675,1,0,0:0:0:0:
230,129,173748,2,0,B|210:155|169:157|169:157|142:142,1,95,10|0,0:0|0:0,0:0:0:0:
37,13,173910,2,0,B|14:37|20:77|20:77|39:101,1,95
238,267,174072,2,0,B|213:244|173:250|173:250|149:269,1,95
49,287,174200,6,0,P|31:330|47:375,1,95,12|0,0:0|0:0,0:0:0:0:
324,240,174652,5,10,0:0:0:0:
324,240,174727,1,8,0:0:0:0:
324,240,174803,2,0,B|296:229|279:228|279:228|283:210|273:162,1,95
401,116,174953,2,0,B|443:99|443:99|411:137,1,95
205,289,175104,6,0,L|168:319,1,47.5,12|0,0:0|0:0,0:0:0:0:
47,375,175479,5,0,0:0:0:0:
47,375,175554,2,0,P|32:330|50:287,1,95,8|0,0:0|0:0,0:0:0:0:
82,65,175704,6,0,B|50:78|18:73|18:73|44:126|122:125|122:125|172:68|256:76|256:76|316:123|387:81,1,475,12|0,0:1|0:0,0:0:0:0:
417,292,176154,6,0,B|449:265|436:231|436:231|440:228|440:228|433:171,1,118.75,4|8,0:0|0:0,0:0:0:0:
301,217,176379,1,0,0:0:0:0:
301,217,176454,2,0,P|300:263|306:286,1,59.375
349,363,176604,1,8,0:0:0:0:
461,113,176754,1,0,0:0:0:0:
176,181,176904,1,8,0:0:0:0:
306,17,177054,1,0,0:0:0:0:
306,17,177129,1,0,0:0:0:0:
306,17,177204,1,8,0:0:0:0:
302,275,177354,5,0,0:0:0:0:
138,81,177500,1,8,0:0:0:0:
151,358,177646,1,0,0:0:0:0:
114,328,177721,1,0,0:0:0:0:
97,284,177796,1,8,0:0:0:0:
104,237,177871,1,0,0:0:0:0:
133,200,177946,1,0,0:0:0:0:
176,181,178021,1,0,0:0:0:0:
222,186,178096,1,8,0:0:0:0:
373,309,178246,2,0,P|351:329|325:342,1,59.375
42,371,178396,1,8,0:0:0:0:
302,275,178546,5,2,0:1:0:0:
1,212,178696,1,0,0:0:0:0:
248,102,178846,1,0,0:0:0:0:
248,102,178921,1,0,0:0:0:0:
248,102,178996,1,8,0:0:0:0:
191,368,179146,2,0,P|159:338|163:259,1,118.75,0|8,0:0|0:0,0:0:0:0:
361,112,179446,1,0,0:0:0:0:
361,129,179521,1,0,0:0:0:0:
362,148,179596,2,0,L|365:216,1,59.375,8|0,0:0|0:0,0:0:0:0:
183,147,179746,5,2,0:0:0:0:
334,325,179896,1,8,0:0:0:0:
99,272,180046,6,0,L|186:263,1,59.375,2|0,0:0|0:0,0:0:0:0:
447,243,180196,1,8,0:0:0:0:
174,369,180346,6,0,L|229:301,1,59.375,2|0,0:0|0:0,0:0:0:0:
362,148,180492,1,0,0:0:0:0:
335,384,180638,6,0,P|339:343|330:314,1,59.375,2|0,0:0|0:0,0:0:0:0:
176,92,180785,2,0,P|172:133|181:162,1,59.375,8|0,0:0|0:0,0:0:0:0:
376,237,180940,5,6,0:1:0:0:
424,204,181014,1,0,0:0:0:0:
442,149,181089,1,10,0:0:0:0:
423,94,181163,1,0,0:0:0:0:
374,62,181238,1,0,0:0:0:0:
323,45,181312,1,0,0:0:0:0:
270,45,181387,1,10,0:0:0:0:
219,61,181461,1,0,0:0:0:0:
176,92,181537,1,0,0:0:0:0:
141,138,181611,1,0,0:0:0:0:
84,136,181686,1,10,0:0:0:0:
52,89,181760,1,0,0:0:0:0:
75,34,181835,1,0,0:0:0:0:
124,76,181909,1,0,0:0:0:0:
141,138,181984,1,10,0:0:0:0:
121,199,182058,1,0,0:0:0:0:
70,239,182134,6,0,P|35:244|3:241,1,59.375
179,323,182283,1,10,0:0:0:0:
227,325,182357,1,0,0:0:0:0:
276,327,182432,1,0,0:0:0:0:
325,330,182506,1,0,0:0:0:0:
374,332,182581,2,0,L|375:271,1,59.375,10|0,0:0|0:0,0:0:0:0:
400,100,182731,5,0,0:0:0:0:
374,86,182807,1,0,0:0:0:0:
344,80,182884,1,10,0:0:0:0:
315,85,182961,1,0,0:0:0:0:
289,99,183038,1,0,0:0:0:0:
262,112,183114,1,0,0:0:0:0:
233,118,183191,1,10,0:0:0:0:
204,113,183268,1,0,0:0:0:0:
177,99,183346,5,4,0:0:0:0:
129,118,183421,1,0,0:0:0:0:
93,155,183496,1,10,0:0:0:0:
76,204,183571,1,0,0:0:0:0:
81,255,183646,1,0,0:0:0:0:
107,300,183721,1,0,0:0:0:0:
148,330,183796,1,10,0:0:0:0:
199,340,183871,1,0,0:0:0:0:
249,328,183946,6,0,P|266:316|285:273,1,59.375,4|0,0:3|0:0,0:0:0:0:
417,233,184096,2,0,P|394:214|383:188,1,59.375,10|0,0:0|0:0,0:0:0:0:
208,176,184246,2,0,P|181:186|152:184,1,59.375
432,105,184396,2,0,P|459:115|488:112,1,59.375,10|0,0:0|0:0,0:0:0:0:
226,45,184546,6,0,P|169:69|125:63,1,95,10|0,0:1|0:0,0:0:0:0:
286,302,184700,1,0,0:0:0:0:
283,282,184777,2,0,P|284:234|307:193,1,95,10|0,0:1|0:0,0:0:0:0:
25,208,184930,1,0,0:0:0:0:
49,212,185005,2,0,P|88:236|113:277,1,95,10|0,0:1|0:0,0:0:0:0:
206,340,185155,5,0,0:0:0:0:
211,266,185230,1,0,0:0:0:0:
216,192,185305,1,0,0:0:0:0:
221,119,185380,1,0,0:0:0:0:
226,45,185455,1,6,0:1:0:0:
226,45,185755,5,4,0:0:0:0:
324,259,185905,1,8,0:0:0:0:
383,43,186055,2,0,L|329:95,1,47.5
216,192,186205,1,8,0:0:0:0:
419,178,186355,2,0,P|474:196|512:241,1,118.75,0|8,0:0|0:0,0:0:0:0:
280,372,186655,2,0,P|275:342|276:312,1,59.375
267,92,186805,1,8,0:0:0:0:
400,309,186955,1,0,0:0:0:0:
183,115,187105,5,8,0:0:0:0:
182,75,187180,1,0,0:0:0:0:
199,40,187255,1,0,0:0:0:0:
230,16,187330,1,0,0:0:0:0:
268,8,187405,1,8,0:0:0:0:
306,17,187480,1,0,0:0:0:0:
336,43,187555,2,0,P|352:74|351:117,1,59.375
350,268,187705,1,8,0:0:0:0:
104,131,187855,1,0,0:0:0:0:
103,73,187930,1,0,0:0:0:0:
129,19,188005,1,8,0:0:0:0:
282,204,188155,5,2,0:1:0:0:
52,216,188305,1,0,0:0:0:0:
354,98,188455,1,0,0:0:0:0:
366,124,188530,1,0,0:0:0:0:
371,153,188605,1,8,0:0:0:0:
202,339,188755,6,0,L|183:217,1,118.75,0|8,0:0|0:0,0:0:0:0:
165,105,188980,1,0,0:0:0:0:
165,105,189055,2,0,L|156:46,1,59.375
282,204,189205,2,0,L|291:145,1,59.375,8|0,0:0|0:0,0:0:0:0:
89,164,189355,5,2,0:0:0:0:
384,151,189505,1,8,0:0:0:0:
142,264,189655,6,0,L|197:207,1,59.375,2|0,0:0|0:0,0:0:0:0:
315,67,189805,1,8,0:0:0:0:
262,344,189955,6,0,L|256:281,1,59.375,2|0,0:0|0:0,0:0:0:0:
234,25,190105,1,8,0:0:0:0:
347,289,190255,6,0,P|376:287|400:269,1,59.375,2|0,0:0|0:0,0:0:0:0:
146,28,190405,2,0,P|148:57|166:80,1,59.375,8|0,0:0|0:0,0:0:0:0:
384,151,190562,5,6,0:0:0:0:
448,129,190635,1,0,0:0:0:0:
463,63,190708,1,10,0:0:0:0:
414,15,190781,1,0,0:0:0:0:
348,33,190854,1,0,0:0:0:0:
315,67,190927,1,0,0:0:0:0:
297,111,191000,1,10,0:0:0:0:
296,158,191073,1,0,0:0:0:0:
311,203,191147,1,0,0:0:0:0:
337,241,191220,1,0,0:0:0:0:
329,287,191293,1,10,0:0:0:0:
292,314,191366,1,0,0:0:0:0:
246,308,191440,1,0,0:0:0:0:
279,247,191515,1,0,0:0:0:0:
346,227,191590,1,10,0:0:0:0:
407,259,191665,1,0,0:0:0:0:
429,325,191740,6,0,P|423:349|388:382,1,59.375
184,375,191890,1,10,0:0:0:0:
164,319,191965,1,0,0:0:0:0:
162,260,192040,1,0,0:0:0:0:
177,202,192111,1,0,0:0:0:0:
208,152,192182,6,0,P|231:139|267:136,1,59.375,10|0,0:0|0:0,0:0:0:0:
418,23,192325,1,0,0:0:0:0:
388,27,192401,1,0,0:0:0:0:
358,31,192477,1,10,0:0:0:0:
328,35,192553,1,0,0:0:0:0:
298,39,192629,1,0,0:0:0:0:
268,43,192705,1,0,0:0:0:0:
238,47,192781,1,10,0:0:0:0:
208,51,192857,1,0,0:0:0:0:
178,56,192934,5,4,0:0:0:0:
148,99,193011,1,0,0:0:0:0:
142,152,193089,1,10,0:0:0:0:
161,201,193167,1,0,0:0:0:0:
200,236,193244,1,0,0:0:0:0:
252,249,193322,1,0,0:0:0:0:
303,237,193400,1,10,0:0:0:0:
343,202,193478,1,0,0:0:0:0:
362,153,193555,6,0,P|360:119|334:89,1,59.375,4|0,0:1|0:0,0:0:0:0:
238,47,193705,2,0,P|223:72|222:101,1,59.375,10|0,0:0|0:0,0:0:0:0:
427,203,193855,2,0,P|441:177|442:148,1,59.375
161,201,194005,2,0,P|161:230|176:255,1,59.375,10|0,0:0|0:0,0:0:0:0:
321,370,194155,6,0,B|344:336|344:336|345:277,1,95,10|0,0:1|0:0,0:0:0:0:
110,323,194301,1,0,0:0:0:0:
99,302,194374,2,0,B|78:280|78:280|75:209,1,95
351,168,194520,1,0,0:0:0:0:
362,153,194594,2,0,B|385:148|385:148|369:79,1,95
109,0,194740,5,10,0:0:0:0:
74,59,194813,1,8,0:0:0:0:
99,123,194886,1,8,0:0:0:0:
165,142,194959,1,0,0:0:0:0:
221,102,195033,5,0,0:0:0:0:
229,93,195111,1,0,0:0:0:0:
238,85,195190,1,0,0:0:0:0:
246,77,195269,1,0,0:0:0:0:
255,68,195348,5,4,0:0:0:0:
38,208,195498,1,0,0:0:0:0:
317,263,195648,5,10,0:0:0:0:
99,123,195798,1,0,0:0:0:0:
384,70,195948,5,10,0:0:0:0:
166,211,196098,1,0,0:0:0:0:
447,204,196248,5,10,0:0:0:0:
155,32,196398,1,0,0:0:0:0:
240,292,196548,5,10,0:0:0:0:
439,17,196698,1,0,0:0:0:0:
379,338,196848,5,10,0:0:0:0:
255,68,196998,1,0,0:0:0:0:
255,68,197073,1,0,0:0:0:0:
255,68,197148,6,0,B|281:110|340:101|340:101|376:122|349:162,1,166.250001585484,12|0,0:0|0:0,0:0:0:0:
316,297,197368,1,0,0:0:0:0:
310,323,197442,6,0,B|299:341|267:350|267:350|206:328|200:263,1,166.250001585484,12|0,0:0|0:0,0:0:0:0:
165,103,197670,1,0,0:0:0:0:
165,103,197746,5,10,0:0:0:0:
84,328,197900,1,0,0:0:0:0:
81,63,198055,5,10,0:0:0:0:
174,344,198209,1,0,0:0:0:0:
230,34,198364,5,10,0:0:0:0:
17,241,198519,1,0,0:0:0:0:
337,164,198673,5,10,0:0:0:0:
81,63,198823,1,0,0:0:0:0:
249,256,198973,5,10,0:0:0:0:
385,8,199123,1,0,0:0:0:0:
130,184,199273,5,10,0:0:0:0:
408,293,199423,1,0,0:0:0:0:
408,293,199498,1,0,0:0:0:0:
408,293,199573,6,0,B|377:332|377:332|254:329,1,166.250001585484,12|0,0:0|0:0,0:0:0:0:
130,184,199798,1,0,0:0:0:0:
130,184,199873,6,0,P|163:218|87:306,1,166.250001585484,12|0,0:0|0:0,0:0:0:0:
22,343,200098,1,0,0:0:0:0:
22,343,200173,5,12,0:0:0:0:
286,164,200323,1,0,0:0:0:0:
36,14,200473,1,0,0:0:0:0:
408,293,200623,5,12,0:0:0:0:
258,20,200773,1,0,0:0:0:0:
0,233,200923,1,0,0:0:0:0:
407,384,201073,5,14,0:1:0:0:
407,384,202562,5,4,0:0:0:0:
373,116,202711,2,0,B|348:138|318:142|318:142|285:179|285:179|261:180|203:212,1,190
321,39,203484,5,4,0:0:0:0:
111,160,203636,2,0,B|113:122|91:93|91:93|54:76|46:40,1,142.5
184,38,204203,5,0,0:0:0:0:
184,38,204270,1,0,0:0:0:0:
184,38,204338,1,10,0:0:0:0:
212,207,204491,1,0,0:0:0:0:
212,207,204946,5,4,0:0:0:0:
388,35,205096,2,0,B|425:51|425:51|442:72|442:72|432:87|432:87|446:124|446:124|438:206,1,190
431,303,205850,5,4,0:0:0:0:
255,131,206000,2,0,B|219:141|201:168|201:168|211:183|211:183|186:217|201:285,1,190
269,353,206643,1,0,0:0:0:0:
269,353,206718,1,8,0:0:0:0:
112,258,206954,5,0,0:0:0:0:
307,252,207184,5,0,0:0:0:0:
37,334,207354,5,4,0:0:0:0:
185,160,207504,2,0,P|151:86|82:66,1,142.5
349,65,208254,5,4,0:0:0:0:
199,240,208404,2,0,B|172:254|179:297|206:345,1,95
285,362,208854,5,0,0:0:0:0:
327,316,208954,1,0,0:0:0:0:
331,254,209054,1,0,0:0:0:0:
295,203,209154,5,0,0:0:0:0:
267,173,209254,1,0,0:0:0:0:
261,132,209354,1,0,0:0:0:0:
281,96,209454,5,0,0:0:0:0:
289,115,209553,1,0,0:0:0:0:
291,136,209652,1,0,0:0:0:0:
267,173,209749,5,12,0:0:0:0:
194,76,209933,2,0,B|160:94|124:87|124:87|141:115|162:160|116:160|136:219|169:232|169:232|166:241|166:241|218:209|253:256|272:254|272:254|238:308|168:288,1,475,0|4,0:0|0:0,0:0:0:0:
331,340,210811,1,0,0:0:0:0:
61,347,211396,5,0,0:0:0:0:
61,347,211471,1,0,0:0:0:0:
61,347,211547,1,8,0:0:0:0:
76,197,211757,5,4,0:1:0:0:
163,98,211965,5,4,0:2:0:0:
272,51,212160,6,0,P|325:71|351:101,2,95,4|0|0,0:2|0:0|0:0,0:0:0:0:
163,98,212588,2,0,P|110:78|84:48,2,95,0|0|0,3:0|0:0|0:0,0:0:0:0:
146,228,213045,1,0,3:0:0:0:
277,124,213195,1,0,3:0:0:0:
138,304,213354,5,8,3:0:0:0:
279,276,213503,2,0,L|392:300,1,95,0|0,3:0|0:0,0:0:0:0:
129,310,213801,1,8,3:0:0:0:
270,188,213951,2,0,L|383:164,2,95,0|0|0,3:0|0:0|0:0,0:0:0:0:
146,228,214416,1,0,3:0:0:0:
161,108,214565,6,0,P|133:82|64:70,2,95,0|0|0,3:0|0:0|0:0,0:0:0:0:
146,228,215012,2,0,P|99:237|64:267,2,95,0|0|0,3:0|0:0|0:0,0:0:0:0:
221,307,215457,1,0,3:0:0:0:
216,319,215606,1,0,3:0:0:0:
233,193,215755,5,8,3:1:0:0:
306,360,215904,1,8,3:1:0:0:
374,167,216054,1,0,3:0:0:0:
146,228,216203,2,0,P|98:234|51:228,1,95,8|2,0:1|0:0,0:0:0:0:
198,105,216501,1,0,0:0:0:0:
216,319,216651,1,2,0:0:0:0:
86,100,216789,1,4,0:0:0:0:
325,97,216938,6,0,B|361:107|375:141|375:141|372:187,2,95,4|0|0,3:1|0:0|0:0,0:0:0:0:
512,206,217390,2,0,B|476:216|462:250|462:250|465:296,2,95,0|0|0,3:0|0:0|0:0,0:0:0:0:
330,354,217842,2,0,P|336:294|319:261,1,95
152,363,218144,6,0,P|123:313|119:265,2,95,8|0|0,3:0|3:0|0:0,0:0:0:0:
79,92,218596,2,0,P|108:142|112:190,2,95,8|2|0,3:0|3:2|0:0,0:0:0:0:
198,279,219039,1,2,2:1:0:0:
40,279,219182,1,0,2:1:0:0:
112,178,219363,5,0,3:0:0:0:
276,222,219513,2,0,P|312:258|328:314,1,95,8|2,0:3|0:0,0:0:0:0:
90,190,219806,1,0,3:0:0:0:
263,129,219956,2,0,P|299:93|315:37,1,95,8|0,0:1|0:0,0:0:0:0:
198,279,220258,1,0,3:0:0:0:
141,72,220409,1,0,3:0:0:0:
122,330,220559,6,0,B|194:375|249:343|249:343|270:344|268:352|285:352|285:352|328:324|400:356,1,285,0|8,0:0|0:0,0:0:0:0:
444,132,221138,5,8,0:0:0:0:
480,362,221291,1,8,0:0:0:0:
309,198,221445,1,8,0:0:0:0:
486,384,221598,1,8,0:0:0:0:
220,312,221753,5,4,0:0:0:0:
397,185,221902,1,0,0:0:0:0:
288,373,222051,1,0,0:0:0:0:
190,222,222200,1,0,0:0:0:0:
405,96,222350,6,0,P|463:141|480:186,1,113.999996520996,8|0,0:0|0:0,0:0:0:0:
270,236,222648,1,0,0:0:0:0:
268,51,222797,1,0,0:0:0:0:
120,293,222947,6,0,B|161:296|191:260|191:260|190:216,1,118.75,0|0,0:1|0:0,0:0:0:0:
268,33,223247,1,0,0:0:0:0:
424,300,223397,2,0,B|383:303|353:267|353:267|354:223,1,118.75,0|8,0:0|0:0,0:0:0:0:
268,16,223697,1,0,0:0:0:0:
274,180,223847,2,0,L|273:311,1,118.75
158,141,224147,5,0,0:0:0:0:
376,90,224296,1,0,0:0:0:0:
140,143,224445,1,0,0:1:0:0:
353,229,224594,1,0,0:0:0:0:
124,57,224744,5,8,0:0:0:0:
196,293,224893,1,0,0:0:0:0:
376,90,225042,1,0,0:0:0:0:
334,298,225191,1,0,0:0:0:0:
124,57,225341,5,0,0:1:0:0:
75,233,225490,1,0,0:0:0:0:
254,186,225639,1,0,0:0:0:0:
123,80,225788,5,0,0:0:0:0:
96,223,225937,1,12,0:0:0:0:
236,173,226086,1,0,0:0:0:0:
120,108,226236,5,0,0:0:0:0:
194,292,226385,1,0,0:0:0:0:
310,110,226535,6,0,P|230:77|197:90,1,118.75,6|0,0:1|0:0,0:0:0:0:
310,271,226841,2,0,P|367:278|416:246,1,118.75,0|0,0:1|0:0,0:0:0:0:
386,45,227147,5,8,0:0:0:0:
236,173,227297,1,0,0:0:0:0:
440,142,227447,1,0,0:0:0:0:
221,205,227597,1,0,0:0:0:0:
287,11,227747,5,2,0:0:0:0:
237,318,227897,1,0,0:0:0:0:
161,82,228047,1,0,0:0:0:0:
358,139,228197,1,0,0:0:0:0:
140,228,228347,5,8,0:3:0:0:
93,21,228497,1,0,0:0:0:0:
339,254,228647,1,0,0:0:0:0:
369,60,228797,1,0,0:0:0:0:
41,186,228959,5,4,0:0:0:0:
35,190,229259,1,8,0:0:0:0:
84,361,229559,5,8,0:0:0:0:
153,338,229701,5,8,0:0:0:0:
200,254,229844,5,8,0:0:0:0:
159,138,229994,5,8,0:0:0:0:
77,82,230144,5,8,0:1:0:0:
112,47,230217,1,0,0:0:0:0:
161,39,230290,1,0,0:0:0:0:
206,60,230363,1,8,0:0:0:0:
234,92,230436,1,8,0:1:0:0:
279,143,230509,1,0,0:0:0:0:
346,134,230582,1,8,0:0:0:0:
377,73,230655,1,8,0:0:0:0:
342,13,230729,6,0,B|326:43|326:43|330:88,1,71.2500027179719,8|0,0:1|0:0,0:0:0:0:
460,298,230875,2,0,B|474:270|474:270|465:231,1,71.2500027179719,8|0,0:0|0:0,0:0:0:0:
234,92,231022,2,0,L|240:171,1,71.2500027179719,8|0,0:0|0:0,0:0:0:0:
242,305,231166,6,0,B|245:364|245:364|232:381|232:381|202:350|154:351|154:351|160:277|99:270|129:190,1,332.500003170967,4|0,0:0|0:0,0:0:0:0:
15,39,231632,2,0,B|85:21|89:62|165:38,1,142.500005435944,10|0,0:0|0:0,0:0:0:0:
454,120,231932,1,0,0:0:0:0:
239,163,232077,1,0,0:0:0:0:
419,18,232223,1,10,0:0:0:0:
337,200,232368,6,0,B|324:220|324:220|330:243|319:276,1,71.2500027179719,2|0,0:2|0:0,0:0:0:0:
366,368,232521,2,0,P|379:302|322:267,1,142.500005435944
222,329,232846,5,10,0:0:0:0:
209,349,232920,1,0,0:0:0:0:
190,363,232993,1,0,0:0:0:0:
167,368,233067,1,0,0:0:0:0:
145,364,233140,1,0,0:0:0:0:
105,321,233213,1,0,0:0:0:0:
88,265,233287,1,0,0:0:0:0:
98,207,233360,1,0,0:0:0:0:
132,159,233434,1,10,0:0:0:0:
322,267,233581,6,0,B|326:317|326:317|382:276|327:210|327:210|329:204|329:204|300:163|320:96,1,285.000010871888,4|0,0:0|0:0,0:0:0:0:
430,58,234054,5,10,0:0:0:0:
375,19,234129,1,0,0:0:0:0:
308,8,234204,1,0,0:0:0:0:
244,27,234279,1,0,0:0:0:0:
194,73,234354,1,0,0:0:0:0:
173,134,234429,1,0,0:0:0:0:
111,149,234504,1,0,0:0:0:0:
65,103,234579,1,0,0:0:0:0:
81,39,234654,1,10,0:0:0:0:
120,84,234729,1,0,0:0:0:0:
134,141,234804,1,0,0:0:0:0:
121,198,234879,1,0,0:0:0:0:
82,243,234954,5,0,0:0:0:0:
73,308,235029,1,0,0:0:0:0:
117,358,235104,1,0,0:0:0:0:
183,357,235179,1,0,0:0:0:0:
226,306,235254,1,8,0:0:0:0:
260,249,235329,1,0,0:0:0:0:
324,232,235404,1,0,0:0:0:0:
382,263,235479,1,0,0:0:0:0:
402,326,235554,1,2,0:0:0:0:
355,278,235629,1,0,0:0:0:0:
336,214,235704,1,0,0:0:0:0:
351,148,235779,1,0,0:0:0:0:
395,96,235854,1,8,0:0:0:0:
223,43,236004,6,0,B|131:8|50:97|101:199|193:177|192:114,1,285.000010871888,4|0,0:0|0:0,0:0:0:0:
98,295,236445,2,0,B|34:286|34:286|115:233|185:291|185:291|217:280|252:287,1,285.000010871888,10|0,0:0|0:0,0:0:0:0:
431,126,236895,2,0,P|347:235|383:368,1,285.000010871888
391,39,237345,2,0,B|303:64|250:46|250:46|216:71|171:69|171:69|125:53|77:76,1,285.000010871888,2|10,0:0|0:0,0:0:0:0:
89,285,237795,1,0,0:0:0:0:
53,150,237945,5,0,0:0:0:0:
217,350,238095,1,0,0:0:0:0:
252,45,238245,1,10,0:0:0:0:
361,296,238395,6,0,B|401:353|401:353|443:282|410:136,1,285.000010871888,4|0,0:0|0:0,0:0:0:0:
152,51,238859,2,0,B|203:12|269:37|269:37|244:48,1,142.500005435944,10|0,0:0|0:0,0:0:0:0:
512,149,239156,2,0,B|461:110|395:135|395:135|420:146,1,142.500005435944
152,243,239453,2,0,B|203:204|269:229|269:229|244:240,1,142.500005435944,10|0,0:0|0:0,0:0:0:0:
68,298,239756,5,0,0:0:0:0:
131,98,239907,1,0,0:0:0:0:
182,368,240059,1,10,0:0:0:0:
46,185,240209,1,0,0:0:0:0:
303,359,240359,5,0,0:0:0:0:
251,44,240509,1,12,0:1:0:0:
25,383,240659,1,0,0:0:0:0:
43,111,240809,1,10,0:0:0:0:
43,111,241124,5,0,0:0:0:0:
110,356,241282,1,12,0:1:0:0:
131,98,241427,1,0,0:0:0:0:
12,197,241573,1,0,0:0:0:0:
247,218,241718,5,0,0:0:0:0:
55,22,241864,1,12,0:1:0:0:
221,301,242010,1,0,0:0:0:0:
236,103,242155,5,0,0:0:0:0:
110,356,242302,1,0,0:0:0:0:
235,89,242450,1,12,0:0:0:0:
346,366,242597,1,0,0:0:0:0:
131,98,242746,5,0,0:0:0:0:
165,37,242819,1,0,0:0:0:0:
231,15,242893,1,0,0:0:0:0:
295,43,242967,1,0,0:0:0:0:
324,106,243041,2,0,P|325:142|314:176,1,71.2500027179719,8|0,0:1|0:0,0:0:0:0:
438,325,243189,6,0,B|447:308|437:279|437:279|447:268|447:268|410:238|396:171|439:117,1,213.750008153916,4|0,0:0|0:0,0:0:0:0:
478,54,243485,5,0,0:0:0:0:
244,252,243642,1,12,0:1:0:0:
512,204,243787,1,0,0:0:0:0:
281,15,243933,5,0,0:1:0:0:
397,302,244085,1,0,0:0:0:0:
150,95,244237,1,12,0:1:0:0:
512,204,244389,1,0,0:0:0:0:
120,180,244542,6,0,L|33:178,1,71.2500027179719
397,302,244694,2,0,L|469:300,1,71.2500027179719
221,97,244846,1,12,0:1:0:0:
186,96,244920,1,0,0:0:0:0:
150,95,244994,1,0,0:0:0:0:
115,95,245068,1,0,0:0:0:0:
79,94,245143,5,0,0:0:0:0:
383,142,245291,1,0,0:0:0:0:
109,282,245440,1,8,0:0:0:0:
248,9,245597,1,0,0:0:0:0:
295,313,245755,1,12,0:0:0:0:
295,313,246055,5,0,0:0:0:0:
256,333,246130,1,0,0:0:0:0:
215,319,246205,1,0,0:0:0:0:
196,280,246280,1,0,0:0:0:0:
211,240,246355,1,0,0:0:0:0:
226,184,246430,1,0,0:0:0:0:
199,133,246505,1,0,0:0:0:0:
144,115,246580,1,0,0:0:0:0:
92,140,246655,2,0,P|86:172|92:200,1,59.375
332,238,246805,2,0,P|338:206|332:178,1,59.375
125,26,246955,5,0,0:0:0:0:
70,47,247030,1,0,0:0:0:0:
28,89,247105,1,0,0:0:0:0:
8,144,247180,1,0,0:0:0:0:
11,203,247255,1,0,0:0:0:0:
38,256,247330,1,0,0:0:0:0:
84,293,247405,2,0,P|115:309|153:313,1,59.375
244,217,247555,5,8,0:0:0:0:
249,274,247629,1,8,0:0:0:0:
288,316,247703,1,8,0:0:0:0:
345,324,247777,1,0,0:0:0:0:
395,293,247852,2,0,P|406:255|399:212,1,71.2500027179719
506,148,248000,2,0,P|488:113|452:87,1,71.2500027179719
254,36,248149,5,10,0:0:0:0:
207,71,248222,1,0,0:0:0:0:
202,129,248296,1,0,0:0:0:0:
241,173,248369,1,0,0:0:0:0:
299,173,248443,1,0,0:0:0:0:
352,195,248516,1,0,0:0:0:0:
373,250,248590,1,0,0:0:0:0:
345,302,248663,1,0,0:0:0:0:
288,316,248737,1,0,0:0:0:0:
248,273,248810,1,0,0:0:0:0:
190,256,248884,1,0,0:0:0:0:
133,271,248957,1,0,0:0:0:0:
89,312,249031,1,0,0:0:0:0:
89,323,249107,1,0,0:0:0:0:
92,335,249183,1,0,0:0:0:0:
98,345,249259,1,0,0:0:0:0:
109,358,249335,5,10,0:0:0:0:
160,325,249411,1,0,0:0:0:0:
173,266,249487,1,0,0:0:0:0:
140,215,249563,1,0,0:0:0:0:
80,204,249640,1,10,0:0:0:0:
28,173,249716,1,0,0:0:0:0:
16,113,249792,1,0,0:0:0:0:
52,65,249868,1,0,0:0:0:0:
113,59,249944,5,10,0:0:0:0:
181,88,250020,1,0,0:0:0:0:
253,91,250096,1,10,0:0:0:0:
320,66,250172,1,0,0:0:0:0:
367,21,250249,5,8,0:0:0:0:
371,99,250324,1,8,0:0:0:0:
376,176,250399,1,8,0:0:0:0:
381,254,250474,1,8,0:0:0:0:
386,331,250549,6,0,B|352:323|328:339|328:339|306:313|309:256,1,142.500005435944,4|10,0:3|0:0,0:0:0:0:
253,91,250776,1,0,0:0:0:0:
254,74,250852,2,0,P|235:114|234:155,1,71.2500027179719
213,338,251003,1,10,0:0:0:0:
106,105,251155,5,0,0:0:0:0:
308,260,251306,1,10,0:0:0:0:
30,188,251458,1,0,0:0:0:0:
30,188,251533,1,0,0:0:0:0:
30,188,251609,1,10,0:0:0:0:
112,311,251761,5,0,0:0:0:0:
0,72,251908,1,10,0:0:0:0:
213,338,252056,6,0,L|204:264,1,71.2500027179719
174,49,252204,1,10,0:0:0:0:
306,357,252352,5,0,0:0:0:0:
318,52,252499,1,10,0:0:0:0:
403,384,252647,6,0,L|419:305,1,71.2500027179719
470,79,252795,1,10,0:0:0:0:
291,203,252943,6,0,B|247:229|247:229|149:222,1,142.500005435944,0|10,0:0|0:0,0:0:0:0:
56,60,253243,5,2,0:1:0:0:
115,54,253318,1,0,0:0:0:0:
174,49,253393,1,10,0:0:0:0:
233,44,253468,1,0,0:0:0:0:
254,96,253543,5,2,0:1:0:0:
313,102,253618,1,0,0:0:0:0:
372,107,253693,1,10,0:0:0:0:
431,112,253768,1,0,0:0:0:0:
470,79,253843,5,2,0:1:0:0:
464,138,253918,1,0,0:0:0:0:
459,197,253993,1,10,0:0:0:0:
454,256,254068,1,0,0:0:0:0:
447,319,254143,5,2,0:1:0:0:
122,245,254293,1,10,0:0:0:0:
313,102,254443,1,0,0:0:0:0:
325,141,254518,1,0,0:0:0:0:
308,173,254593,1,10,0:0:0:0:
138,359,254743,5,2,0:1:0:0:
93,92,254893,1,10,0:0:0:0:
266,281,255043,1,0,0:0:0:0:
266,281,255118,1,0,0:0:0:0:
266,281,255193,1,10,0:0:0:0:
193,189,255353,6,0,L|181:222,1,35.625001358986,6|0,0:1|0:0,0:0:0:0:
267,110,255503,2,0,L|255:76,1,35.625001358986,10|0,0:0|0:0,0:0:0:0:
199,211,255653,2,0,L|187:244,1,35.625001358986
273,88,255803,2,0,L|261:54,1,35.625001358986,10|0,0:0|0:0,0:0:0:0:
139,142,255953,6,0,L|87:150,1,47.5,6|0,0:1|0:0,0:0:0:0:
321,173,256103,2,0,L|373:165,1,47.5,10|0,0:0|0:0,0:0:0:0:
120,127,256253,2,0,L|68:135,1,47.5
340,188,256403,2,0,L|392:180,1,47.5,10|0,0:0|0:0,0:0:0:0:
416,41,256553,6,0,P|381:67|370:106,1,71.2500027179719,6|0,0:1|0:0,0:0:0:0:
435,314,256703,2,0,P|400:288|389:249,1,71.2500027179719,10|0,0:0|0:0,0:0:0:0:
424,33,256853,2,0,P|383:49|362:83,1,71.2500027179719
324,327,257003,2,0,P|306:286|316:247,1,71.2500027179719,10|0,0:0|0:0,0:0:0:0:
284,45,257165,6,0,P|242:39|201:61,1,83.1250007927418,6|0,0:1|0:0,0:0:0:0:
15,124,257312,2,0,P|57:118|98:140,1,83.1250007927418,10|0,0:0|0:0,0:0:0:0:
357,197,257459,2,0,P|323:222|309:267,1,83.1250007927418,4|0,0:1|0:0,0:0:0:0:
31,308,257606,2,0,P|64:333|78:378,1,83.1250007927418,10|0,0:0|0:0,0:0:0:0:
265,375,257753,6,0,P|245:343|242:300,1,71.2500027179719,6|0,0:1|0:0,0:0:0:0:
199,110,257903,2,0,P|219:142|222:185,1,71.2500027179719,10|0,0:0|0:0,0:0:0:0:
231,378,258053,2,0,P|219:341|228:299,1,71.2500027179719
233,107,258203,2,0,P|244:143|235:185,1,71.2500027179719,10|0,0:0|0:0,0:0:0:0:
108,222,258353,6,0,P|80:228|25:216,1,83.1250007927418,6|0,0:1|0:0,0:0:0:0:
359,215,258503,2,0,P|387:209|442:221,1,83.1250007927418,10|0,0:0|0:0,0:0:0:0:
100,211,258653,2,0,P|71:209|21:183,1,83.1250007927418
367,226,258803,2,0,P|395:227|445:253,1,83.1250007927418,10|0,0:0|0:0,0:0:0:0:
165,27,258953,5,6,0:1:0:0:
370,81,259103,1,10,0:0:0:0:
100,211,259253,2,0,B|139:217|139:217|183:207,1,83.1250007927418
467,356,259403,2,0,B|431:346|431:346|362:352,1,83.1250007927418,10|0,0:0|0:0,0:0:0:0:
258,375,259553,5,6,0:1:0:0:
308,339,259628,1,8,0:0:0:0:
329,281,259703,1,8,0:0:0:0:
313,222,259778,1,8,0:0:0:0:
266,182,259853,1,8,0:0:0:0:
241,126,259929,1,8,0:0:0:0:
256,69,260006,2,0,P|266:35|294:11,1,71.2500027179719,8|8,0:0|0:0,0:0:0:0:
389,118,260159,6,0,B|460:81|503:127|503:127|427:122|399:187|399:187|404:189|404:189|389:227|337:230|337:230|304:211|267:225|267:225|286:291|222:321|222:321|160:286|182:205,1,665,6|0,0:0|0:0,0:0:0:0:
83,67,262559,6,0,P|174:74|215:110,1,142.500005435944,4|0,0:3|0:0,0:0:0:0:
257,9,262857,2,0,P|302:48|322:103,1,118.75,2|0,0:0|0:0,0:0:0:0:
420,91,263156,2,0,P|426:138|413:184,1,95,2|0,0:0|0:0,0:0:0:0:
477,263,263454,2,0,P|456:293|428:314,1,71.2500027179719,2|0,0:0|0:0,0:0:0:0:
347,357,263753,6,0,P|351:334|350:310,1,47.5,2|0,0:0|0:0,0:0:0:0:
238,339,264051,2,0,P|257:326|273:309,1,38,2|0,0:0|0:0,0:0:0:0:
185,261,264360,2,0,P|196:264|208:266,1,23.75,2|0,0:0|0:0,0:0:0:0:
128,313,264664,6,0,P|116:317|105:319,1,23.75,2|0,0:2|0:0,0:0:0:0:
25,283,264892,1,0,0:0:0:0:
28,273,264969,1,2,0:2:0:0:
28,273,265269,5,0,0:2:0:0:
37,236,265369,1,0,0:2:0:0:
46,199,265469,1,0,0:2:0:0:
55,162,265569,1,2,0:2:0:0:
39,271,265869,5,0,0:2:0:0:
48,234,265969,1,0,0:2:0:0:
57,197,266069,1,0,0:2:0:0:
66,160,266169,1,2,0:2:0:0:
84,49,266469,5,0,0:2:0:0:
84,49,266569,1,0,0:2:0:0:
84,49,266669,1,0,0:2:0:0:
131,82,266769,5,2,0:2:0:0:
131,129,266869,1,0,0:2:0:0:
131,177,266969,1,0,0:2:0:0:
172,203,267069,5,2,0:2:0:0:
172,250,267169,1,0,0:2:0:0:
172,298,267269,1,0,0:2:0:0:
209,343,267369,5,2,0:2:0:0:
209,343,267666,6,0,P|170:350|150:365,2,63.3333333333333,0|0|0,0:2|0:2|0:2,0:0:0:0:
315,350,267963,1,2,0:2:0:0:
315,350,268263,6,0,L|321:278,1,63.3333333333333,0|0,0:2|0:2,0:0:0:0:
331,196,268463,1,0,0:2:0:0:
333,169,268563,1,2,0:2:0:0:
338,96,268863,5,0,0:2:0:0:
338,89,268963,1,0,0:2:0:0:
343,92,269063,1,0,0:2:0:0:
400,47,269184,6,0,B|429:17|429:17|441:68|441:68|426:90|426:90|428:162,1,190,2|0,0:0|0:0,0:0:0:0:
401,265,269604,5,0,0:0:0:0:
348,268,269679,1,0,0:0:0:0:
295,271,269754,2,0,B|223:266|210:191|210:191|226:132,1,178.125,14|0,0:0|0:0,0:0:0:0:
223,142,270054,1,0,0:0:0:0:
161,16,270204,6,0,B|192:80|134:129|134:129|75:145,1,178.125,14|0,0:0|0:0,0:0:0:0:
85,142,270504,1,0,0:0:0:0:
8,260,270648,6,0,B|48:200|119:226|119:226|156:263,1,179.549994520569,12|2,0:0|0:3,0:0:0:0:
156,263,272172,5,4,0:0:0:0:
242,94,272772,5,0,0:0:0:0:
242,94,272847,1,0,0:0:0:0:
242,94,272922,2,0,L|206:94,1,35.625001358986
366,174,273072,1,0,0:0:0:0:
366,174,273147,1,0,0:0:0:0:
366,174,273222,2,0,L|402:174,1,35.625001358986
249,228,273372,6,0,L|213:228,3,23.75
330,294,273664,2,0,L|366:294,3,23.75
231,344,273957,6,0,L|180:307,1,47.5,8|0,0:0|0:0,0:0:0:0:
114,355,274105,1,0,0:0:0:0:
114,355,274179,2,0,L|104:293,1,47.5,8|0,0:0|0:0,0:0:0:0:
23,280,274328,1,0,0:0:0:0:
23,280,274402,2,0,L|59:229,1,47.5,8|0,0:0|0:0,0:0:0:0:
86,116,274551,6,0,B|64:122|42:110|42:110|103:57|170:95,1,178.125,4|0,0:0|0:0,0:0:0:0:
257,181,274861,5,8,0:0:0:0:
304,215,274934,1,0,0:0:0:0:
362,215,275008,1,8,0:0:0:0:
410,182,275082,1,0,0:0:0:0:
429,127,275156,1,8,0:0:0:0:
413,71,275230,1,0,0:0:0:0:
366,35,275304,1,8,0:0:0:0:
308,32,275378,1,0,0:0:0:0:
259,64,275452,6,0,P|257:82|264:98,1,35.625001358986,8|0,0:0|0:0,0:0:0:0:
221,323,275599,2,0,P|232:302|236:279,1,47.5,8|0,0:0|0:0,0:0:0:0:
153,24,275747,2,0,P|148:54|157:82,1,59.375,8|0,0:0|0:0,0:0:0:0:
140,362,275895,5,8,0:0:0:0:
140,362,275969,1,0,0:0:0:0:
139,362,276043,2,0,B|149:328|149:328|140:294,1,71.2500027179719,10|0,0:0|0:0,0:0:0:0:
54,36,276191,2,0,B|43:69|43:69|52:103,1,71.2500027179719,10|0,0:0|0:0,0:0:0:0:
303,93,276338,5,0,0:0:0:0:
353,88,276413,1,0,0:0:0:0:
405,81,276488,2,0,B|443:73|443:73|448:76|448:76|492:69,1,83.1250007927418,12|0,0:0|0:0,0:0:0:0:
133,206,276638,2,0,B|95:198|95:198|90:201|90:201|46:194,1,83.1250007927418,12|0,0:0|0:0,0:0:0:0:
349,333,276788,1,0,0:0:0:0:
423,333,276867,1,0,0:0:0:0:
478,280,276945,6,0,B|497:200|444:149|444:149|348:142|271:224|283:294,1,380,4|0,0:0|0:0,0:0:0:0:
0,144,277403,6,0,B|-19:64|34:13|34:13|130:6|207:88|195:158,1,380,4|0,0:1|0:0,0:0:0:0:
512,38,277861,6,0,B|526:-1|502:-22|502:-22|437:-12|408:56,1,190,6|0,0:1|0:0,0:0:0:0:
0,230,278161,6,0,B|34:234|46:268|46:268|55:266|55:266|71:299|60:295|59:326|59:326|68:328|68:328|109:370|151:357|170:326|231:329|231:329|226:270|173:240|127:256|127:256|139:265,1,475,10|0,0:1|0:1,0:0:0:0:
512,277,278611,6,0,B|478:273|466:239|466:239|457:241|457:241|440:207|451:211|452:180|452:180|443:178|443:178|402:136|360:149|341:180|280:177|280:177|286:237|339:267|384:250|384:250|335:219,1,475,10|0,0:1|0:1,0:0:0:0:
252,69,279061,5,12,0:1:0:0:
234,89,279661,5,0,0:0:0:0:
277,63,279760,1,0,0:0:0:0:
234,38,279859,1,0,0:0:0:0:
252,69,279958,6,0,B|259:80|257:91|257:91|251:97|251:97|248:115|254:144,1,71.25,2|0,0:0|0:0,0:0:0:0:
192,293,280558,6,0,B|238:320|219:427|79:405|54:248|159:236|137:174|137:174|147:171|147:171|131:128|144:77,1,427.500016307831,4|0,0:0|0:0,0:0:0:0:
78,34,281158,6,0,B|112:0|180:-10|196:51|237:37|237:37|238:55,1,190,4|0,0:0|0:0,0:0:0:0:
440,120,281608,6,0,B|455:78|417:39|417:39|412:149|349:108|343:222,1,285.000010871888,6|0,0:1|0:0,0:0:0:0:
251,361,282049,6,0,B|293:364|304:324|304:324|253:228|144:304,1,249.375002378225,6|0,0:2|0:0,0:0:0:0:
50,349,282353,5,6,0:1:0:0:
50,349,282653,1,0,0:0:0:0:
102,350,282728,1,0,0:0:0:0:
159,345,282803,2,0,L|153:292,1,47.5
3,202,282953,5,0,0:0:0:0:
26,198,283028,1,0,0:0:0:0:
49,194,283103,1,0,0:0:0:0:
73,190,283178,1,0,0:0:0:0:
108,148,283253,5,0,0:0:0:0:
119,150,283328,1,0,0:0:0:0:
131,152,283403,1,0,0:0:0:0:
143,154,283478,1,0,0:0:0:0:
178,195,283553,5,12,0:0:0:0:
239,187,283626,1,8,0:0:0:0:
279,140,283700,1,8,0:0:0:0:
276,78,283773,1,8,0:0:0:0:
232,34,283847,1,8,0:0:0:0:
171,32,283920,1,8,0:0:0:0:
123,72,283994,5,12,0:0:0:0:
125,133,284067,1,8,0:0:0:0:
151,188,284141,1,8,0:0:0:0:
198,227,284214,1,8,0:0:0:0:
258,243,284288,1,8,0:0:0:0:
318,232,284361,1,8,0:0:0:0:
368,197,284435,5,10,0:1:0:0:
420,153,284510,1,0,0:0:0:0:
482,180,284585,1,0,0:0:0:0:
485,247,284660,1,0,0:0:0:0:
426,280,284735,1,4,0:1:0:0:
348,364,284971,5,8,0:0:0:0:
348,364,285050,2,0,P|325:358|291:329,3,59.375,8|0|0|0,0:0|0:0|0:0|0:0,0:0:0:0:
244,170,285366,5,0,0:0:0:0:
184,176,285437,1,8,0:0:0:0:
125,182,285508,1,0,0:0:0:0:
66,188,285580,1,0,0:0:0:0:
7,194,285651,2,0,L|-9:119,1,71.2500027179719
323,106,285794,5,8,0:0:0:0:
348,170,285865,1,8,0:0:0:0:
318,232,285937,2,0,P|282:257|250:265,1,71.2500027179719,4|0,0:0|0:0,0:0:0:0:
125,182,286094,5,0,0:0:0:0:
139,112,286172,1,8,0:0:0:0:
183,57,286251,1,8,0:0:0:0:
247,27,286322,1,8,0:0:0:0:
317,28,286393,1,8,0:0:0:0:
380,60,286464,1,0,0:0:0:0:
422,116,286535,5,0,0:0:0:0:
423,164,286605,1,0,0:0:0:0:
424,211,286676,1,0,0:0:0:0:
425,259,286747,1,0,0:0:0:0:
425,306,286818,1,0,0:0:0:0:
389,285,286896,1,0,0:0:0:0:
348,279,286975,1,0,0:0:0:0:
307,288,287054,1,0,0:0:0:0:
273,311,287133,5,10,0:0:0:0:
454,16,287286,1,0,0:0:0:0:
166,177,287440,5,10,0:0:0:0:
466,0,287593,1,0,0:0:0:0:
135,57,287748,5,10,0:0:0:0:
425,306,287898,1,0,0:0:0:0:
63,211,288048,5,10,0:0:0:0:
441,319,288190,1,0,0:0:0:0:
117,333,288333,6,0,B|110:358|110:358|84:282|155:239,1,166.250001585484,8|0,0:0|0:0,0:0:0:0:
256,225,288549,2,0,B|281:217|281:217|228:277|155:238,1,166.250001585484,8|0,0:0|0:0,0:0:0:0:
93,161,288765,2,0,B|73:142|73:142|153:157|155:239,1,166.250001585484,8|0,0:0|0:0,0:0:0:0:
117,333,288965,6,0,B|40:334|16:227|16:227|46:207,1,190,4|0,0:0|0:0,0:0:0:0:
347,181,289161,2,0,B|386:246|306:320|306:320|278:308,1,190,12|0,0:0|0:0,0:0:0:0:
119,78,289357,2,0,B|172:22|263:81|263:81|259:112,1,190,12|0,0:0|0:0,0:0:0:0:
117,333,289557,6,0,B|83:342|49:317|49:317|35:285|60:247,1,142.500005435944,4|8,0:0|0:0,0:0:0:0:
256,225,289777,1,0,0:0:0:0:
226,230,289850,2,0,L|147:240,1,71.2500027179719
425,187,289997,1,8,0:0:0:0:
228,356,290144,1,0,0:0:0:0:
281,113,290291,1,8,0:0:0:0:
414,338,290438,2,0,L|343:338,1,71.2500027179719
117,333,290591,1,8,0:0:0:0:
425,187,290738,5,0,0:0:0:0:
156,239,290889,1,8,0:0:0:0:
253,40,291041,1,0,0:0:0:0:
300,49,291116,1,0,0:0:0:0:
333,82,291192,1,8,0:0:0:0:
344,128,291268,1,0,0:0:0:0:
329,172,291344,1,0,0:0:0:0:
292,202,291419,1,0,0:0:0:0:
245,206,291495,1,8,0:0:0:0:
47,204,291647,1,0,0:0:0:0:
74,165,291722,1,0,0:0:0:0:
117,147,291798,1,8,0:0:0:0:
197,351,291950,6,0,B|173:351|173:351|135:308|157:232,1,142.500005435944,2|8,0:1|0:0,0:0:0:0:
253,40,292250,2,0,B|264:69|264:69|265:121,1,71.2500027179719
267,290,292400,1,8,0:0:0:0:
149,103,292550,1,0,0:0:0:0:
377,251,292700,1,8,0:0:0:0:
51,168,292850,1,0,0:0:0:0:
51,168,292925,1,0,0:0:0:0:
51,168,293000,1,8,0:0:0:0:
338,45,293150,5,2,0:0:0:0:
340,353,293300,1,8,0:0:0:0:
214,58,293450,6,0,L|269:114,1,71.2500027179719,2|0,0:0|0:0,0:0:0:0:
470,313,293600,1,8,0:0:0:0:
141,146,293750,5,2,0:0:0:0:
459,104,293894,1,8,0:0:0:0:
165,344,294039,6,0,L|203:282,1,71.2500027179719,2|0,0:0|0:0,0:0:0:0:
338,45,294189,1,8,0:0:0:0:
141,146,294339,5,4,0:0:0:0:
180,195,294414,1,0,0:0:0:0:
243,211,294489,1,10,0:0:0:0:
303,189,294564,1,0,0:0:0:0:
340,136,294639,1,0,0:0:0:0:
289,105,294714,1,0,0:0:0:0:
230,103,294789,1,10,0:0:0:0:
178,129,294864,1,0,0:0:0:0:
144,177,294939,1,0,0:0:0:0:
119,217,295014,1,0,0:0:0:0:
76,232,295089,1,10,0:0:0:0:
31,218,295164,1,0,0:0:0:0:
3,176,295239,1,0,0:0:0:0:
71,167,295312,1,0,0:0:0:0:
119,217,295386,1,10,0:0:0:0:
109,285,295459,1,0,0:0:0:0:
48,317,295533,5,0,0:0:0:0:
105,304,295609,1,0,0:0:0:0:
165,300,295686,1,10,0:0:0:0:
224,304,295762,1,0,0:0:0:0:
282,320,295839,1,0,0:0:0:0:
337,340,295914,1,0,0:0:0:0:
387,308,295990,1,10,0:0:0:0:
390,248,296066,1,0,0:0:0:0:
344,211,296142,5,0,0:0:0:0:
297,203,296217,1,0,0:0:0:0:
263,172,296293,1,10,0:0:0:0:
251,126,296369,1,0,0:0:0:0:
267,82,296445,1,0,0:0:0:0:
304,54,296520,1,0,0:0:0:0:
351,51,296596,1,10,0:0:0:0:
392,75,296672,1,0,0:0:0:0:
411,117,296748,5,6,0:1:0:0:
387,171,296823,1,0,0:0:0:0:
344,211,296898,1,10,0:0:0:0:
288,230,296973,1,0,0:0:0:0:
229,225,297048,1,2,0:1:0:0:
177,198,297123,1,0,0:0:0:0:
139,153,297198,1,10,0:0:0:0:
123,96,297273,1,0,0:0:0:0:
131,37,297348,5,6,0:1:0:0:
185,57,297423,1,0,0:0:0:0:
212,108,297498,1,10,0:0:0:0:
199,165,297573,1,0,0:0:0:0:
152,199,297648,1,2,0:1:0:0:
97,219,297721,1,0,0:0:0:0:
70,270,297796,1,10,0:0:0:0:
83,327,297868,1,0,0:0:0:0:
129,360,297942,6,0,P|177:357|212:329,1,95,10|0,0:1|0:0,0:0:0:0:
245,42,298092,1,0,0:0:0:0:
269,62,298167,2,0,P|298:97|301:144,1,95,10|0,0:1|0:0,0:0:0:0:
316,379,298317,1,0,0:0:0:0:
313,347,298392,2,0,P|317:300|348:265,1,95,10|0,0:1|0:0,0:0:0:0:
467,191,298542,5,8,0:0:0:0:
501,130,298617,1,8,0:0:0:0:
484,63,298692,1,8,0:0:0:0:
424,28,298767,1,0,0:0:0:0:
357,46,298842,5,0,0:0:0:0:
337,59,298917,1,0,0:0:0:0:
314,66,298992,1,0,0:0:0:0:
291,67,299067,1,0,0:0:0:0:
268,61,299142,5,6,0:0:0:0:
175,270,299292,1,8,0:0:0:0:
111,66,299442,1,0,0:0:0:0:
111,66,299517,1,0,0:0:0:0:
111,66,299592,1,8,0:0:0:0:
269,218,299742,2,0,L|269:342,1,118.75,0|8,0:0|0:0,0:0:0:0:
68,174,300046,2,0,L|62:113,2,59.375,0|0|8,0:0|0:0|0:0,0:0:0:0:
172,34,300351,5,0,0:0:0:0:
331,41,300501,1,8,0:0:0:0:
156,29,300651,2,0,L|207:54,1,47.5
331,121,300801,1,8,0:0:0:0:
147,107,300951,5,0,0:0:0:0:
331,203,301101,1,8,0:0:0:0:
130,104,301251,2,0,L|178:145,1,47.5
331,283,301401,1,8,0:0:0:0:
155,238,301551,6,0,P|96:243|49:278,1,118.75,0|8,0:0|0:0,0:0:0:0:
38,133,301848,1,0,0:0:0:0:
38,133,301922,1,0,0:0:0:0:
38,133,301996,1,8,0:0:0:0:
225,281,302145,2,0,P|229:211|199:165,1,118.75,0|8,0:0|0:0,0:0:0:0:
95,71,302442,1,0,0:0:0:0:
95,71,302516,1,0,0:0:0:0:
95,71,302590,1,8,0:0:0:0:
275,98,302739,5,0,0:0:0:0:
110,170,302892,1,8,0:0:0:0:
290,4,303045,2,0,P|308:18|321:40,1,47.5
379,198,303198,1,8,0:0:0:0:
197,88,303351,1,0,0:0:0:0:
424,81,303504,1,8,0:0:0:0:
242,218,303657,1,0,0:0:0:0:
222,231,303733,1,0,0:0:0:0:
202,244,303810,1,8,0:0:0:0:
183,257,303886,1,0,0:0:0:0:
163,271,303963,5,4,0:0:0:0:
197,88,304108,1,8,0:0:0:0:
267,337,304254,1,0,0:0:0:0:
284,293,304326,1,0,0:0:0:0:
323,268,304399,1,8,0:0:0:0:
456,176,304545,5,0,0:0:0:0:
191,173,304699,1,8,0:0:0:0:
444,268,304854,6,0,L|387:227,1,59.375
197,88,305008,1,8,0:0:0:0:
323,268,305163,5,0,0:1:0:0:
310,10,305311,1,8,0:0:0:0:
251,214,305460,6,0,L|294:166,1,59.375,0|0,0:1|0:0,0:0:0:0:
424,16,305608,1,8,0:0:0:0:
377,325,305757,5,2,0:1:0:0:
254,49,305907,1,8,0:0:0:0:
133,269,306057,1,2,0:1:0:0:
139,321,306132,1,0,0:0:0:0:
147,372,306207,1,8,0:0:0:0:
13,119,306357,5,4,0:0:0:0:
276,304,306507,1,8,0:0:0:0:
7,280,306657,2,0,L|52:233,1,59.375
181,97,306807,1,8,0:0:0:0:
334,369,306957,2,0,P|352:312|336:256,1,118.75,0|8,0:0|0:0,0:0:0:0:
276,122,307257,1,0,0:0:0:0:
276,122,307332,1,0,0:0:0:0:
276,122,307407,2,0,P|267:93|269:64,1,59.375,8|0,0:0|0:0,0:0:0:0:
395,143,307557,5,0,0:0:0:0:
199,190,307707,1,8,0:0:0:0:
355,37,307857,1,0,0:0:0:0:
355,37,307928,1,0,0:0:0:0:
355,37,307999,1,8,0:0:0:0:
131,155,308163,6,0,P|123:212|160:256,1,118.75,0|8,0:0|0:0,0:0:0:0:
321,355,308454,1,0,0:0:0:0:
321,355,308527,1,0,0:0:0:0:
321,355,308599,1,0,0:0:0:0:
321,355,308672,1,0,0:0:0:0:
321,355,308745,6,0,B|290:329|251:335|251:335|225:355|171:340,1,142.500005435944,12|0,0:0|0:0,0:0:0:0:
29,160,309048,5,10,0:0:0:0:
361,258,309200,1,0,0:2:0:0:
11,162,309352,5,10,0:0:0:0:
374,86,309504,1,0,0:0:0:0:
51,331,309656,5,10,0:0:0:0:
218,59,309806,1,0,0:0:0:0:
186,343,309956,5,10,0:0:0:0:
61,31,310106,1,0,0:2:0:0:
321,355,310256,5,10,0:0:0:0:
374,86,310406,1,0,0:0:0:0:
374,86,310481,1,0,0:0:0:0:
374,86,310556,6,0,B|430:92|442:130|442:130|439:141|439:141|449:168|437:216,1,166.250001585484,12|0,0:0|0:0,0:0:0:0:
221,144,310781,1,0,0:0:0:0:
221,144,310856,6,0,B|179:104|187:46|216:26|216:26|223:45|214:70,1,166.250001585484,12|0,0:0|0:0,0:0:0:0:
269,277,311081,1,0,0:0:0:0:
269,277,311156,5,10,0:0:0:0:
0,32,311303,1,0,0:0:0:0:
327,174,311450,5,10,0:0:0:0:
0,178,311607,1,0,0:0:0:0:
306,43,311765,5,10,0:0:0:0:
67,309,311911,1,0,0:0:0:0:
183,24,312057,5,10,0:0:0:0:
409,330,312204,1,0,0:0:0:0:
97,178,312350,5,10,0:0:0:0:
486,173,312496,1,0,0:0:0:0:
198,349,312643,5,10,0:0:0:0:
306,43,312795,1,0,0:0:0:0:
306,43,312871,1,0,0:0:0:0:
306,43,312947,6,0,B|348:46|363:78|363:78|361:117,1,95,12|0,0:0|0:0,0:0:0:0:
152,237,313097,1,0,0:0:0:0:
152,237,313173,1,0,0:0:0:0:
152,237,313247,6,0,B|110:234|95:202|95:202|97:163,1,95,12|0,0:0|0:0,0:0:0:0:
434,96,313397,1,0,0:0:0:0:
435,141,313472,1,0,0:0:0:0:
436,186,313547,5,14,0:1:0:0:
170,67,313700,1,0,0:0:0:0:
41,327,313854,1,0,0:0:0:0:
420,8,314008,5,6,0:1:0:0:
299,346,314158,1,0,0:0:0:0:
15,125,314308,1,0,0:0:0:0:
511,232,314458,5,14,0:0:0:0:
511,232,315946,6,0,B|463:255|426:231|426:231|422:244|422:244|383:214|336:225|305:279|305:279|348:253|398:284,1,332.5,6|10,0:0|0:0,0:0:0:0:
415,124,317296,5,8,0:0:0:0:
370,128,317371,1,8,0:0:0:0:
326,133,317446,1,0,0:0:0:0:
282,137,317521,1,8,0:0:0:0:
237,142,317596,2,0,L|172:148,1,59.375,2|0,0:2|0:0,0:0:0:0:
79,70,317746,6,0,L|142:83,1,47.5,2|0,0:2|0:0,0:0:0:0:
263,246,317899,6,0,L|228:253,1,35.625001358986,2|0,0:2|0:0,0:0:0:0:
100,308,318052,5,8,0:0:0:0:
151,344,318125,1,8,0:0:0:0:
213,358,318199,1,8,0:0:0:0:
275,346,318273,1,8,0:0:0:0:
337,320,318347,6,0,B|341:290|363:278|363:278|370:260|364:242|364:242|372:220|391:209|391:209|385:184|394:165|394:165|416:150|422:112,1,237.5,10|10,0:0|0:0,0:0:0:0:
186,60,318801,1,0,0:0:0:0:
403,3,318953,1,10,0:0:0:0:
161,69,319104,1,0,0:0:0:0:
422,113,319256,1,10,0:0:0:0:
136,78,319407,1,0,0:0:0:0:
462,230,319559,5,10,0:0:0:0:
239,53,319709,1,0,0:0:0:0:
337,320,319859,1,10,0:0:0:0:
422,113,320009,1,0,0:0:0:0:
178,242,320159,1,10,0:0:0:0:
469,237,320307,1,0,0:0:0:0:
469,237,320381,1,0,0:0:0:0:
469,237,320456,1,10,0:0:0:0:
321,28,320604,1,0,0:0:0:0:
248,259,320753,6,0,B|242:295|242:295|260:417,1,118.75,10|0,0:0|0:0,0:0:0:0:
357,145,321054,2,0,B|363:181|363:181|345:303,1,118.75,10|0,0:0|0:0,0:0:0:0:
116,215,321356,2,0,B|95:214|95:214|91:253|137:305,1,118.75,10|0,0:0|0:0,0:0:0:0:
463,86,321657,2,0,B|484:85|484:85|488:124|442:176,1,118.75,10|0,0:0|0:0,0:0:0:0:
238,135,321959,5,10,0:0:0:0:
101,37,322109,1,0,0:0:0:0:
278,263,322259,1,10,0:0:0:0:
285,0,322409,1,0,0:0:0:0:
116,215,322559,1,10,0:0:0:0:
371,166,322707,1,0,0:0:0:0:
374,119,322781,1,0,0:0:0:0:
347,80,322855,1,10,0:0:0:0:
342,82,322930,1,0,0:0:0:0:
338,85,323004,1,0,0:0:0:0:
333,88,323078,1,0,0:0:0:0:
299,101,323153,5,10,0:1:0:0:
284,157,323227,1,0,0:0:0:0:
303,213,323301,1,0,0:0:0:0:
349,248,323376,1,0,0:0:0:0:
408,253,323450,1,8,0:0:0:0:
459,224,323525,1,0,0:0:0:0:
486,172,323601,1,0,0:0:0:0:
480,114,323675,1,0,0:0:0:0:
443,69,323750,1,8,0:0:0:0:
386,55,323825,1,0,0:0:0:0:
328,66,323900,1,0,0:0:0:0:
279,99,323975,1,0,0:0:0:0:
247,149,324050,1,8,0:0:0:0:
231,187,324125,1,0,0:0:0:0:
197,209,324200,1,0,0:0:0:0:
156,209,324275,1,0,0:0:0:0:
122,187,324350,5,8,0:0:0:0:
151,158,324425,1,0,0:0:0:0:
192,150,324500,1,0,0:0:0:0:
230,164,324575,1,0,0:0:0:0:
254,197,324650,1,8,0:0:0:0:
257,238,324723,1,0,0:0:0:0:
238,274,324797,1,0,0:0:0:0:
202,294,324870,1,0,0:0:0:0:
161,292,324944,1,8,0:0:0:0:
125,272,325017,1,0,0:0:0:0:
99,240,325091,1,0,0:0:0:0:
86,201,325164,1,0,0:0:0:0:
89,160,325238,1,8,0:0:0:0:
107,122,325311,1,0,0:0:0:0:
138,95,325385,1,0,0:0:0:0:
177,81,325458,1,0,0:0:0:0:
218,82,325532,6,0,P|234:94|250:118,1,47.5,12|0,0:1|0:0,0:0:0:0:
189,218,325684,2,0,P|173:206|157:182,1,47.5
237,69,325836,2,0,P|249:84|258:112,1,47.5,8|0,0:0|0:0,0:0:0:0:
173,192,325988,2,0,P|160:176|151:148,1,47.5
319,176,326141,6,0,P|326:219|322:244,1,59.375,12|0,0:1|0:0,0:0:0:0:
145,355,326293,2,0,P|138:312|142:287,1,59.375
348,179,326445,2,0,P|343:222|333:245,1,59.375,8|0,0:0|0:0,0:0:0:0:
133,306,326597,2,0,P|137:262|147:239,1,59.375
427,112,326747,5,8,0:0:0:0:
510,182,326900,1,4,0:0:0:0:
479,23,327054,1,12,0:0:0:0:
254,89,327208,5,8,0:0:0:0:
254,98,327285,1,8,0:0:0:0:
254,109,327362,1,8,0:0:0:0:
259,370,327512,1,8,0:0:0:0:
179,76,327662,5,8,0:0:0:0:
213,24,327739,1,8,0:0:0:0:
274,16,327816,1,8,0:0:0:0:
320,57,327893,1,8,0:0:0:0:
320,119,327971,6,0,L|317:152,1,23.75,2|0,0:0|0:0,0:0:0:0:
156,220,328115,2,0,L|159:187,1,23.75,8|0,0:0|0:0,0:0:0:0:
392,233,328260,2,0,L|389:209,1,23.75,2|0,0:0|0:0,0:0:0:0:
228,132,328405,2,0,L|230:155,1,23.75,8|0,0:0|0:0,0:0:0:0:
181,302,328550,6,0,P|162:307|138:300,1,35.625001358986,2|0,0:0|0:0,0:0:0:0:
251,235,328698,2,0,P|268:231|285:233,1,35.625001358986,8|0,0:0|0:0,0:0:0:0:
103,370,328847,6,0,P|86:360|72:326,1,47.5,2|0,0:0|0:0,0:0:0:0:
13,223,328995,2,0,P|13:203|35:174,1,47.5,8|0,0:0|0:0,0:0:0:0:
11,51,329144,6,0,P|45:54|71:78,1,71.2500027179719,2|0,0:0|0:0,0:0:0:0:
165,38,329294,2,0,P|179:69|171:104,1,71.2500027179719,8|0,0:0|0:0,0:0:0:0:
283,316,329444,6,0,P|279:281|255:255,1,71.2500027179719,2|0,0:0|0:0,0:0:0:0:
296,162,329594,2,0,P|264:147|229:155,1,71.2500027179719,8|0,0:0|0:0,0:0:0:0:
119,162,329744,6,0,P|125:192|152:221,1,59.375,2|0,0:0|0:0,0:0:0:0:
165,266,329895,2,0,P|159:236|132:207,1,59.375,8|0,0:0|0:0,0:0:0:0:
398,159,330047,6,0,P|381:184|379:224,1,59.375,2|0,0:0|0:0,0:0:0:0:
358,267,330198,2,0,P|374:241|376:201,1,59.375,8|0,0:0|0:0,0:0:0:0:
306,52,330350,6,0,B|276:39|276:39|284:52,1,47.5,2|0,0:0|0:0,0:0:0:0:
431,61,330501,2,0,L|485:40,1,47.5,8|0,0:0|0:0,0:0:0:0:
312,41,330653,2,0,L|258:20,1,47.5,2|0,0:0|0:0,0:0:0:0:
427,43,330800,2,0,L|481:22,1,47.5,8|0,0:0|0:0,0:0:0:0:
232,120,330948,6,0,P|214:117|196:119,1,35.625001358986,2|0,0:0|0:0,0:0:0:0:
233,107,331096,2,0,P|215:104|197:107,1,35.625001358986,8|0,0:0|0:0,0:0:0:0:
53,204,331244,2,0,P|70:201|88:203,1,35.625001358986,2|0,0:0|0:0,0:0:0:0:
52,191,331392,2,0,P|69:188|87:191,1,35.625001358986,8|0,0:0|0:0,0:0:0:0:
231,252,331539,6,0,P|233:263|233:275,1,23.75,4|0,0:0|0:0,0:0:0:0:
255,279,331692,2,0,P|260:267|267:258,1,23.75,8|0,0:0|0:0,0:0:0:0:
252,241,331845,2,0,P|241:248|230:251,1,23.75
232,275,331998,2,0,P|244:275|256:279,1,23.75,8|0,0:0|0:0,0:0:0:0:
268,259,332151,2,0,P|258:251|251:241,1,23.75
221,157,332301,6,0,P|187:167|163:193,1,71.2500027179719,10|0,0:1|0:0,0:0:0:0:
174,327,332451,2,0,P|199:352|234:359,1,71.2500027179719,4|0,0:0|0:0,0:0:0:0:
346,283,332600,2,0,P|354:248|343:215,1,71.2500027179719,10|0,0:0|0:0,0:0:0:0:
293,58,332751,5,2,0:1:0:0:
254,30,332826,1,0,0:0:0:0:
208,18,332901,1,8,0:0:0:0:
161,23,332976,1,0,0:0:0:0:
119,43,333051,1,2,0:1:0:0:
161,63,333126,1,0,0:0:0:0:
208,68,333201,1,8,0:0:0:0:
254,56,333276,1,0,0:0:0:0:
293,28,333351,5,2,0:1:0:0:
338,17,333426,1,0,0:0:0:0:
380,37,333501,1,8,0:0:0:0:
398,80,333576,1,0,0:0:0:0:
386,125,333651,1,2,0:1:0:0:
340,114,333725,1,0,0:0:0:0:
298,134,333800,1,8,0:0:0:0:
280,177,333873,1,0,0:0:0:0:
292,222,333948,5,2,0:1:0:0:
264,271,334022,1,0,0:0:0:0:
207,277,334096,1,8,0:0:0:0:
171,233,334170,1,0,0:0:0:0:
187,178,334245,1,2,0:1:0:0:
154,131,334321,1,0,0:0:0:0:
97,132,334398,1,8,0:0:0:0:
66,180,334475,1,0,0:0:0:0:
88,233,334552,6,0,L|135:232,3,47.5,2|0|8|0,0:1|0:0|0:0|0:0,0:0:0:0:
257,75,334860,2,0,L|210:76,3,47.5,2|0|8|0,0:1|0:0|0:0|0:0,0:0:0:0:
453,148,335160,5,4,0:1:0:0:
402,113,335237,1,0,0:0:0:0:
343,111,335313,1,8,0:0:0:0:
291,141,335389,1,0,0:0:0:0:
267,196,335465,1,0,0:0:0:0:
276,256,335541,1,0,0:0:0:0:
317,301,335617,1,8,0:0:0:0:
374,315,335693,1,0,0:0:0:0:
431,295,335769,5,4,0:3:0:0:
383,242,335844,1,0,0:0:0:0:
311,233,335919,1,8,0:0:0:0:
251,271,335994,1,0,0:0:0:0:
231,340,336069,1,0,0:0:0:0:
173,383,336144,1,0,0:0:0:0:
101,379,336219,1,8,0:0:0:0:
50,330,336294,1,0,0:0:0:0:
27,264,336369,6,0,P|59:213|100:204,1,95,10|0,0:0|0:0,0:0:0:0:
101,0,336518,2,0,P|143:21|161:64,1,95,10|0,0:0|0:0,0:0:0:0:
365,74,336667,2,0,P|343:116|300:134,1,95,10|0,0:0|0:0,0:0:0:0:
290,339,336816,2,0,P|248:318|231:275,1,95,10|0,0:0|0:0,0:0:0:0:
387,0,336966,5,8,0:0:0:0:
446,36,337040,1,8,0:0:0:0:
472,101,337115,1,8,0:0:0:0:
454,169,337189,1,8,0:0:0:0:
399,212,337264,5,0,0:0:0:0:
387,232,337338,1,0,0:0:0:0:
381,255,337413,1,0,0:0:0:0:
382,278,337487,1,0,0:0:0:0:
391,303,337563,6,0,B|391:286|380:271|380:271|339:258|309:303,1,118.75,4|0,0:0|0:0,0:0:0:0:
190,347,337755,2,0,B|204:355|223:353|223:353|254:324|231:275,1,118.75
253,149,337947,2,0,B|238:157|230:174|230:174|240:216|293:220,1,118.75
326,88,338156,6,0,P|307:63|286:51,3,47.5000018119813,4|0|0|0,0:0|0:0|0:0|0:0,0:0:0:0:
166,46,338357,2,0,B|109:68|98:139|98:139|117:154,1,142.500005435944
26,225,338559,2,0,B|16:285|72:330|72:330|95:321,1,142.500005435944
190,347,338760,6,0,B|221:279|163:242|163:242|144:254|118:252,1,166.250001585484,4|0,0:0|0:0,0:0:0:0:
383,199,338955,2,0,B|315:168|278:226|278:226|290:245|288:271,1,166.250001585484
235,6,339150,2,0,B|204:74|262:111|262:111|281:99|307:101,1,166.250001585484
404,91,339382,6,0,B|456:101|465:68|493:70|493:70|466:68|447:33|398:47,1,190,10|0,0:0|0:0,0:0:0:0:
152,125,339591,2,0,B|95:111|62:152|62:152|98:180|148:173,1,190,10|0,0:0|0:0,0:0:0:0:
376,247,339800,6,0,B|414:226|444:243|444:243|461:238|466:225|466:225|426:223|421:189|373:200,1,190,10|0,0:0|0:0,0:0:0:0:
