osu file format v14

[General]
AudioFilename: audio.mp3
AudioLeadIn: 0
PreviewTime: 186884
Countdown: 0
SampleSet: None
StackLeniency: 0.7
Mode: 0
LetterboxInBreaks: 0
WidescreenStoryboard: 1

[Editor]
DistanceSpacing: 1
BeatDivisor: 4
GridSize: 16
TimelineZoom: 1.8

[Metadata]
Title:Kodomo no Youni
TitleUnicode:子供のように
Artist:Fuki
ArtistUnicode:Fuki
Creator:Affirmation
Version:Easy
Source:
Tags:osu mappers' guild mg mpg japanese rock pop fa featured artist childlike like a child female osu!
BeatmapID:2716017
BeatmapSetID:1310206

[Difficulty]
HPDrainRate:3.6
CircleSize:3
OverallDifficulty:3.4
ApproachRate:4
SliderMultiplier:2
SliderTickRate:1

[Events]
//Background and Video events
0,0,"BG.jpg",0,0
//Break Periods
2,88584,95064
2,123250,132397
2,168584,185730
//Storyboard Layer 0 (Background)
//Storyboard Layer 1 (Fail)
//Storyboard Layer 2 (Pass)
//Storyboard Layer 3 (Foreground)
//Storyboard Layer 4 (Overlay)
//Storyboard Sound Samples

[TimingPoints]
384,666.666666666667,4,2,1,40,1,0
384,-111.111111111111,4,2,1,40,0,0
21717,-111.111111111111,4,2,1,40,0,0
32384,-111.111111111111,4,2,1,45,0,0
43050,-111.111111111111,4,2,2,50,0,0
43717,-111.111111111111,4,2,1,50,0,0
45717,-111.111111111111,4,2,2,50,0,0
46384,-111.111111111111,4,2,1,50,0,0
48384,-111.111111111111,4,2,2,50,0,0
49050,-111.111111111111,4,2,1,50,0,0
51050,-111.111111111111,4,2,2,50,0,0
52384,-111.111111111111,4,2,1,50,0,0
53717,-111.111111111111,4,2,2,50,0,0
54384,-111.111111111111,4,2,1,50,0,0
56384,-111.111111111111,4,2,2,50,0,0
57050,-111.111111111111,4,2,1,50,0,0
59050,-111.111111111111,4,2,2,50,0,0
59717,-111.111111111111,4,2,1,50,0,0
61717,-111.111111111111,4,2,3,65,0,0
62384,-111.111111111111,4,2,1,65,0,0
64384,-111.111111111111,4,2,1,80,0,1
85717,-111.111111111111,4,2,1,80,0,0
96050,-111.111111111111,4,2,1,60,0,0
96384,-111.111111111111,4,2,1,75,0,0
123050,-111.111111111111,4,2,2,75,0,0
133717,-111.111111111111,4,2,1,45,0,0
141384,-111.111111111111,4,2,1,55,0,0
144384,-111.111111111111,4,2,1,60,0,0
187050,-111.111111111111,4,2,1,80,0,1
228717,-111.111111111111,4,2,4,80,0,1
229384,-111.111111111111,4,2,1,80,0,0

[Colours]
Combo1 : 237,107,107
Combo2 : 247,217,168
Combo3 : 163,163,163
Combo4 : 81,81,81
Combo5 : 245,123,245

[HitObjects]
66,372,384,22,0,L|155:366,1,89.9999972534181,2|0,0:2|0:0,0:0:0:0:
224,308,1050,2,0,L|358:316,2,134.999995880127,2|2|2,0:2|0:2|0:2,0:0:0:0:
149,256,2384,1,2,0:2:0:0:
195,179,2717,1,0,0:0:0:0:
145,104,3050,6,0,P|187:89|230:97,1,89.9999972534181,2|0,0:2|0:0,0:0:0:0:
311,136,3717,2,0,P|376:143|430:106,2,134.999995880127,2|2|2,0:2|0:2|0:2,0:0:0:0:
262,211,5050,1,2,0:2:0:0:
313,284,5384,1,0,0:0:0:0:
245,343,5717,54,0,L|156:339,1,89.9999972534181,2|0,0:2|0:0,0:0:0:0:
87,278,6384,2,0,P|71:212|77:145,2,134.999995880127,2|2|2,0:2|0:2|0:2,0:0:0:0:
155,338,7717,1,2,0:2:0:0:
235,297,8050,1,0,0:0:0:0:
312,342,8384,6,0,P|324:300|315:256,1,89.9999972534181,2|0,0:2|0:0,0:0:0:0:
369,185,9050,2,0,P|431:205|492:180,2,134.999995880127,2|2|2,0:2|0:2|0:2,0:0:0:0:
296,129,10384,2,0,P|253:122|212:139,1,89.9999972534181,2|0,0:2|0:0,0:0:0:0:
143,196,11050,53,2,0:2:0:0:
191,272,11384,1,0,0:0:0:0:
134,341,11717,2,0,L|-1:332,2,134.999995880127,2|2|2,0:2|0:2|0:2,0:0:0:0:
191,272,13050,2,0,L|280:266,1,89.9999972534181,2|0,0:2|0:0,0:0:0:0:
358,312,13717,5,2,0:2:0:0:
426,253,14050,1,0,0:0:0:0:
348,207,14384,2,0,P|330:143|358:82,2,134.999995880127,2|2|2,0:2|0:2|0:2,0:0:0:0:
280,266,15717,2,0,L|191:272,1,89.9999972534181,2|0,0:2|0:0,0:0:0:0:
104,298,16384,1,2,0:2:0:0:
43,231,16717,1,0,0:0:0:0:
106,167,17050,2,0,P|171:180|237:167,2,134.999995880127,2|2|2,0:2|0:2|0:2,0:0:0:0:
129,78,18384,2,0,P|172:89|215:79,1,89.9999972534181,2|0,0:2|0:0,0:0:0:0:
291,33,19050,53,2,0:2:0:0:
359,90,19384,1,0,0:0:0:0:
326,173,19717,2,0,L|460:183,2,134.999995880127,2|2|2,0:2|0:2|0:2,0:0:0:0:
237,166,21050,1,2,0:2:0:0:
176,232,21384,1,0,0:0:0:0:
93,192,21717,6,0,P|84:149|91:104,1,89.9999972534181,2|0,0:2|0:0,0:0:0:0:
155,41,22384,2,0,P|219:58|274:22,1,134.999995880127,2|2,0:2|0:2,0:0:0:0:
344,80,23217,2,0,P|308:135|324:198,1,134.999995880127,0|2,0:0|0:2,0:0:0:0:
397,252,24050,1,0,0:0:0:0:
327,309,24384,54,0,L|237:304,1,89.9999972534181,2|0,0:2|0:0,0:0:0:0:
175,238,25050,2,0,L|40:245,2,134.999995880127,2|2|2,0:2|0:2|0:2,0:0:0:0:
249,186,26384,1,2,0:2:0:0:
197,111,26717,1,0,0:0:0:0:
265,51,27050,6,0,P|308:43|352:50,1,89.9999972534181,2|0,0:2|0:0,0:0:0:0:
431,95,27717,2,0,L|425:229,1,134.999995880127,2|2,0:2|0:2,0:0:0:0:
483,298,28550,2,0,P|420:319|360:291,1,134.999995880127,0|2,0:0|0:2,0:0:0:0:
282,336,29384,1,0,0:0:0:0:
224,267,29717,54,0,L|134:269,1,89.9999972534181,2|0,0:2|0:0,0:0:0:0:
107,183,30384,2,0,L|286:177,1,179.999994506836,2|2,0:2|0:2,0:0:0:0:
355,235,31384,1,0,0:0:0:0:
431,188,31717,2,0,P|440:144|430:100,1,89.9999972534181,2|0,0:2|0:0,0:0:0:0:
377,27,32384,6,0,L|287:31,1,89.9999972534181,2|0,0:2|0:0,0:0:0:0:
226,98,33050,2,0,L|91:90,2,134.999995880127,2|2|2,0:2|0:2|0:2,0:0:0:0:
293,158,34384,1,2,0:2:0:0:
243,233,34717,1,0,0:0:0:0:
304,298,35050,54,0,P|347:307|391:299,1,89.9999972534181,2|0,0:2|0:0,0:0:0:0:
453,234,35717,2,0,P|481:293|460:356,2,134.999995880127,2|2|2,0:2|0:2|0:2,0:0:0:0:
379,182,37050,1,2,0:2:0:0:
429,107,37384,1,0,0:0:0:0:
368,40,37717,6,0,L|278:44,1,89.9999972534181,2|0,0:2|0:0,0:0:0:0:
210,104,38384,1,2,0:2:0:0:
150,35,38717,2,0,P|121:117|173:186,1,179.999994506836,0|2,0:0|0:2,0:0:0:0:
250,233,39717,1,2,0:2:0:0:
203,309,40050,1,0,0:0:0:0:
270,368,40384,54,0,L|449:354,1,179.999994506836,2|2,0:2|0:2,0:0:0:0:
493,275,41384,1,0,0:0:0:0:
422,216,41717,2,0,P|415:173|429:131,1,89.9999972534181,2|0,0:2|0:0,0:0:0:0:
364,68,42384,2,0,P|321:82|278:74,1,89.9999972534181,2|0,0:2|0:0,0:0:0:0:
203,25,43050,53,2,0:2:0:0:
136,86,43384,1,0,0:0:0:0:
211,135,43717,2,0,L|209:269,2,134.999995880127,2|2|2,0:2|0:2|0:2,0:0:0:0:
278,74,45050,2,0,P|320:59|363:67,1,89.9999972534181,2|0,0:2|0:0,0:0:0:0:
439,115,45717,5,2,0:2:0:0:
391,191,46050,1,0,0:0:0:0:
463,244,46384,2,0,L|458:379,2,134.999995880127,2|2|2,0:2|0:2|0:2,0:0:0:0:
391,191,47717,2,0,P|346:186|305:204,1,89.9999972534181,2|0,0:2|0:0,0:0:0:0:
240,266,48384,53,2,0:2:0:0:
154,238,48717,1,0,0:0:0:0:
86,297,49050,2,0,P|64:234|91:174,2,134.999995880127,2|2|2,0:2|0:2|0:2,0:0:0:0:
149,361,50384,2,0,L|238:356,1,89.9999972534181,2|0,0:2|0:0,0:0:0:0:
327,373,51050,6,0,B|314:320|335:270|350:306|371:256|359:203,1,179.999994506836,2|0,0:2|0:0,0:0:0:0:
296,137,52050,1,0,0:0:0:0:
225,193,52384,2,0,L|135:189,1,89.9999972534181,2|0,0:2|0:0,0:0:0:0:
46,207,53050,2,0,P|36:163|44:119,1,89.9999972534181,2|0,0:2|0:0,0:0:0:0:
100,48,53717,53,2,0:2:0:0:
179,90,54050,1,0,0:0:0:0:
256,43,54384,2,0,L|390:48,1,134.999995880127,2|2,0:2|0:2,0:0:0:0:
480,149,55384,1,2,0:2:0:0:
406,201,55717,2,0,L|316:197,1,89.9999972534181,2|0,0:2|0:0,0:0:0:0:
240,246,56384,5,2,0:2:0:0:
161,201,56717,1,0,0:0:0:0:
96,264,57050,2,0,P|71:202|94:141,1,134.999995880127,2|2,0:2|0:2,0:0:0:0:
205,64,58050,2,0,L|294:67,1,89.9999972534181,2|2,0:2|0:2,0:0:0:0:
359,129,58717,1,0,0:0:0:0:
436,84,59050,54,0,P|447:127|438:170,1,89.9999972534181,2|0,0:2|0:0,0:0:0:0:
397,251,59717,1,2,0:2:0:0:
316,211,60050,2,0,B|265:198|215:211|240:223|190:236|140:223,1,179.999994506836,0|2,0:0|0:2,0:0:0:0:
64,174,61050,2,0,L|68:84,1,89.9999972534181,2|0,0:2|0:0,0:0:0:0:
133,21,61717,53,6,3:2:0:0:
221,34,62050,1,0,3:0:0:0:
309,47,62384,1,8,0:2:0:0:
405,199,63050,2,0,L|315:210,1,89.9999972534181,8|0,0:2|3:0,0:0:0:0:
234,248,63717,1,8,0:2:0:0:
150,215,64050,1,0,3:0:0:0:
70,258,64384,6,0,P|60:214|70:171,1,89.9999972534181,6|0,3:2|3:0,0:0:0:0:
138,111,65050,2,0,P|73:123|20:84,2,134.999995880127,8|0|0,0:2|3:0|3:0,0:0:0:0:
209,56,66384,1,10,0:2:0:0:
285,103,66717,1,2,3:2:0:0:
358,51,67050,54,0,P|373:92|367:136,1,89.9999972534181,2|0,3:2|3:0,0:0:0:0:
319,213,67717,1,10,0:2:0:0:
394,261,68050,2,0,B|345:249|299:269|316:283|271:303|222:291,1,179.999994506836,2|0,3:2|3:0,0:0:0:0:
151,234,69050,1,8,0:2:0:0:
203,160,69384,1,0,3:0:0:0:
161,79,69717,6,0,P|204:68|247:80,1,89.9999972534181,2|0,3:2|3:0,0:0:0:0:
322,130,70384,2,0,P|387:141|448:115,2,134.999995880127,8|0|0,0:2|3:0|3:0,0:0:0:0:
280,209,71717,1,10,0:2:0:0:
332,282,72050,1,2,3:2:0:0:
286,359,72384,54,0,P|330:371|373:361,2,89.9999972534181,2|0|8,3:2|3:0|0:2,0:0:0:0:
211,310,73384,1,2,3:2:0:0:
129,347,73717,2,0,L|129:257,1,89.9999972534181,2|0,3:2|3:0,0:0:0:0:
190,191,74384,1,12,0:2:0:0:
131,122,74717,1,2,3:2:0:0:
196,59,75050,6,0,P|240:53|283:64,1,89.9999972534181,6|0,3:2|3:0,0:0:0:0:
361,110,75717,1,10,0:2:0:0:
296,172,76050,2,0,L|301:351,1,179.999994506836,2|0,0:2|3:0,0:0:0:0:
216,380,77050,1,10,0:2:0:0:
142,327,77384,1,2,3:2:0:0:
61,367,77717,54,0,P|51:323|64:280,1,89.9999972534181,2|0,3:2|3:0,0:0:0:0:
118,208,78384,1,10,0:2:0:0:
41,160,78718,2,0,B|89:171|135:151|118:137|163:117|212:129,1,179.999994506836,2|0,3:2|3:0,0:0:0:0:
291,172,79717,1,8,0:2:0:0:
363,119,80050,1,2,3:2:0:0:
426,183,80384,6,0,P|432:227|426:271,1,89.9999972534181,2|0,3:2|3:0,0:0:0:0:
366,338,81050,1,10,0:2:0:0:
290,287,81384,2,0,P|202:285|141:348,1,179.999994506836,2|0,0:2|3:0,0:0:0:0:
73,288,82384,1,10,0:2:0:0:
128,217,82717,1,2,3:2:0:0:
65,152,83050,53,2,3:2:0:0:
128,87,83384,2,0,P|66:61|5:85,2,134.999995880127,12|8|12,0:2|0:2|0:2,0:0:0:0:
194,148,84717,1,2,3:2:0:0:
271,103,85050,2,0,L|269:13,1,89.9999972534181,8|2,0:2|3:2,0:0:0:0:
356,35,85717,5,6,3:2:0:0:
256,192,85884,12,0,88384,0:0:0:0:
283,355,96384,54,0,L|372:351,1,89.9999972534181,6|2,3:2|3:2,0:0:0:0:
450,305,97050,2,0,P|462:249|445:157,1,134.999995880127,10|10,0:2|0:2,0:0:0:0:
330,111,98050,2,0,P|318:154|319:199,1,89.9999972534181,0|8,3:0|0:2,0:0:0:0:
247,253,98717,1,2,0:2:0:0:
175,198,99050,6,0,L|85:201,1,89.9999972534181,2|2,3:2|3:2,0:0:0:0:
66,113,99717,2,0,L|200:107,1,134.999995880127,10|10,0:2|0:2,0:0:0:0:
320,44,100717,1,0,3:0:0:0:
398,88,101050,2,0,P|405:132|397:176,1,89.9999972534181,8|2,0:2|0:2,0:0:0:0:
358,257,101717,54,0,B|309:245|263:265|280:279|235:299|186:287,1,179.999994506836,2|8,3:2|0:2,0:0:0:0:
121,224,102717,1,2,3:2:0:0:
162,144,103050,2,0,P|118:134|75:146,2,89.9999972534181,0|0|8,3:0|3:0|0:2,0:0:0:0:
245,178,104050,1,0,3:0:0:0:
318,125,104384,6,0,L|407:132,1,89.9999972534181,0|0,3:0|3:0,0:0:0:0:
474,192,105050,2,0,L|466:281,1,89.9999972534181,8|0,0:2|3:0,0:0:0:0:
391,331,105717,1,2,3:2:0:0:
316,280,106050,1,2,3:2:0:0:
246,338,106384,2,0,P|203:348|161:334,1,89.9999972534181,10|6,0:2|0:2,0:0:0:0:
111,258,107050,53,6,3:2:0:0:
170,190,107384,1,2,3:2:0:0:
96,138,107717,2,0,L|90:3,2,134.999995880127,10|10|0,0:2|0:2|3:0,0:0:0:0:
170,190,109050,2,0,L|259:186,1,89.9999972534181,8|2,0:2|0:2,2:0:0:0:
315,115,109717,5,2,3:2:0:0:
393,158,110050,1,2,3:2:0:0:
336,228,110384,2,0,P|399:248|459:219,2,134.999995880127,10|10|0,0:2|0:2|3:0,0:0:0:0:
259,186,111717,2,0,L|170:190,1,89.9999972534181,10|2,0:2|3:2,2:0:0:0:
82,168,112384,53,2,3:2:0:0:
72,257,112717,1,0,3:0:0:0:
61,345,113050,2,0,P|128:342|187:309,1,134.999995880127,8|8,0:2|0:2,0:0:0:0:
311,363,114050,1,0,3:0:0:0:
369,294,114384,2,0,L|458:290,1,89.9999972534181,8|0,0:2|3:0,0:0:0:0:
506,214,115050,5,0,3:0:0:0:
495,124,115384,1,0,3:0:0:0:
484,34,115717,2,0,P|417:35|358:67,1,134.999995880127,8|8,0:2|0:2,0:0:0:0:
232,20,116717,1,0,3:0:0:0:
156,68,117050,2,0,L|160:157,1,89.9999972534181,8|0,0:2|3:0,0:0:0:0:
185,244,117717,53,6,3:2:0:0:
266,208,118050,1,2,3:2:0:0:
351,240,118384,1,10,0:2:0:0:
386,321,118717,2,0,L|393:141,1,179.999994506836,6|2,3:2|3:2,0:0:0:0:
333,73,119717,2,0,L|243:69,1,89.9999972534181,14|8,0:2|0:2,0:0:0:0:
171,123,120384,54,0,L|81:119,2,89.9999972534181,10|0|12,0:2|3:0|0:2,0:0:0:0:
240,180,121384,1,0,3:0:0:0:
172,240,121717,2,0,P|161:283|172:326,1,89.9999972534181,10|0,0:2|3:0,0:0:0:0:
251,369,122384,2,0,P|262:325|251:282,2,89.9999972534181,8|0|2,0:2|3:0|0:2,0:0:0:0:
8,126,133717,38,0,B|105:149|196:109|162:80|253:41|351:64,1,359.999989013672,2|0,0:2|0:0,0:0:0:0:
469,201,135717,1,0,0:0:0:0:
362,346,136384,6,0,P|189:358|76:226,1,359.999989013672,2|0,0:2|0:0,0:0:0:0:
207,103,138384,1,0,0:0:0:0:
320,242,139050,54,0,L|500:232,2,179.999994506836,2|2|0,0:2|0:2|0:0,0:0:0:0:
207,103,141050,2,0,L|117:108,1,89.9999972534181,0|2,0:0|0:3,0:0:0:0:
54,172,141717,37,4,3:2:0:0:
98,250,142050,1,8,0:2:0:0:
141,329,142384,2,0,P|75:343|19:380,2,134.999995880127,8|8|0,0:2|0:3|0:0,0:0:0:0:
223,365,143717,1,8,0:2:0:0:
304,326,144050,1,8,0:3:0:0:
381,371,144384,54,0,P|391:327|382:284,1,89.9999972534181,6|0,3:2|3:0,0:0:0:0:
315,221,145050,2,0,P|381:230|438:196,2,134.999995880127,10|2|2,0:2|3:2|3:2,0:0:0:0:
243,168,146384,1,8,0:2:0:0:
167,216,146717,1,2,3:2:0:0:
86,173,147050,22,0,P|79:130|93:88,1,89.9999972534181,2|0,3:2|3:0,0:0:0:0:
163,31,147717,2,0,L|28:23,2,134.999995880127,10|2|2,0:2|3:2|3:2,0:0:0:0:
232,88,149050,1,8,0:2:0:0:
307,39,149384,1,2,3:2:0:0:
381,89,149717,38,0,P|393:131|386:176,1,89.9999972534181,2|0,3:2|3:0,0:0:0:0:
326,243,150384,2,0,L|330:377,2,134.999995880127,10|2|0,0:2|3:2|3:0,0:0:0:0:
249,195,151717,2,0,L|159:197,1,89.9999972534181,8|0,0:2|3:0,0:0:0:0:
71,217,152384,21,2,3:2:0:0:
78,127,152717,1,0,3:0:0:0:
85,37,153050,2,0,B|135:24|185:37|160:49|210:62|260:49,1,179.999994506836,8|0,0:2|0:0,0:0:0:0:
341,7,154050,2,0,P|385:0|428:12,2,89.9999972534181,2|10|2,3:2|0:2|3:2,0:0:0:0:
261,49,155050,37,6,3:2:0:0:
306,131,155384,1,0,3:0:0:0:
273,214,155717,2,0,P|339:214|387:168,2,134.999995880127,10|2|2,0:2|3:2|3:2,0:0:0:0:
242,299,157050,2,0,P|284:312|329:311,1,89.9999972534181,8|0,0:2|3:0,0:0:0:0:
419,311,157717,21,2,3:2:0:0:
454,228,158050,1,0,3:0:0:0:
387,168,158384,2,0,L|389:33,2,134.999995880127,10|2|2,0:2|3:2|3:2,0:0:0:0:
302,199,159717,2,0,L|303:109,1,89.9999972534181,8|2,0:2|3:2,0:0:0:0:
243,41,160384,38,0,B|193:33|149:57|168:70|124:93|75:86,1,179.999994506836,2|10,3:2|0:2,0:0:0:0:
13,19,161384,2,0,L|21:198,1,179.999994506836,2|2,3:2|3:2,0:0:0:0:
94,251,162384,1,10,0:2:0:0:
172,206,162717,1,0,3:0:0:0:
247,254,163050,22,0,P|260:212|252:168,2,89.9999972534181,6|0|10,3:2|3:0|0:2,0:0:0:0:
323,303,164050,2,0,P|349:217|334:129,1,179.999994506836,6|0,3:2|3:0,0:0:0:0:
265,71,165050,1,10,0:2:0:0:
175,81,165384,1,8,0:2:0:0:
85,92,165717,37,6,3:2:0:0:
256,192,165884,12,0,168384,0:0:0:0:
413,352,187050,5,6,3:2:0:0:
336,304,187384,1,2,3:2:0:0:
262,356,187717,2,0,P|246:292|279:235,1,134.999995880127,10|2,0:2|3:2,0:0:0:0:
390,158,188717,2,0,L|479:160,2,89.9999972534181,2|8|2,3:2|0:2|0:2,0:0:0:0:
323,97,189717,5,2,3:2:0:0:
246,144,190050,1,2,3:2:0:0:
180,81,190384,2,0,P|155:143|179:205,1,134.999995880127,10|2,0:2|3:2,0:0:0:0:
296,272,191384,2,0,L|385:269,2,89.9999972534181,2|8|0,3:2|0:2|0:0,0:0:0:0:
224,326,192384,53,2,3:2:0:0:
141,289,192717,1,2,3:2:0:0:
61,330,193050,2,0,L|58:195,1,134.999995880127,10|2,0:2|3:2,0:0:0:0:
153,99,194050,2,0,B|207:95|252:125|214:133|260:163|314:159,1,179.999994506836,2|2,3:2|0:2,0:0:0:0:
405,160,195050,6,0,L|404:70,2,89.9999972534181,2|2|10,3:2|3:2|0:2,0:0:0:0:
454,333,196384,1,2,3:2:0:0:
365,343,196717,1,2,3:2:0:0:
276,353,197050,2,0,L|186:346,1,89.9999972534181,14|0,0:2|0:0,0:0:0:0:
103,383,197717,53,6,3:2:0:0:
44,314,198050,1,2,3:2:0:0:
127,277,198384,2,0,B|144:241|127:206|109:224|91:188|109:153,1,134.999995880127,10|2,0:2|3:2,0:0:0:0:
233,97,199384,2,0,L|230:7,2,89.9999972534181,2|8|2,3:2|0:2|0:2,0:0:0:0:
295,162,200384,5,2,3:2:0:0:
258,244,200717,1,2,3:2:0:0:
282,330,201050,2,0,P|215:333|155:303,1,134.999995880127,10|2,0:2|3:2,0:0:0:0:
71,197,202050,2,0,L|70:107,2,89.9999972534181,2|8|0,3:2|0:2|0:0,0:0:0:0:
151,156,203050,53,6,3:2:0:0:
218,215,203384,1,2,3:2:0:0:
279,149,203717,2,0,L|413:151,1,134.999995880127,10|2,0:2|3:2,0:0:0:0:
469,275,204717,2,0,L|289:271,1,179.999994506836,2|2,3:2|0:2,0:0:0:0:
218,215,205717,6,0,L|128:216,2,89.9999972534181,2|2|10,3:2|3:2|0:2,0:0:0:0:
364,110,207050,1,2,3:2:0:0:
275,91,207384,1,2,3:2:0:0:
186,72,207717,2,0,L|96:73,1,89.9999972534181,10|0,0:2|3:0,0:0:0:0:
42,146,208384,53,6,3:2:0:0:
85,224,208717,1,2,3:2:0:0:
11,276,209050,2,0,P|77:287|119:338,1,134.999995880127,10|2,0:2|3:2,0:0:0:0:
249,375,210050,2,0,L|246:286,1,89.9999972534181,2|8,3:2|0:2,0:0:0:0:
323,239,210717,1,2,0:2:0:0:
289,155,211050,5,2,3:2:0:0:
352,90,211384,1,2,3:2:0:0:
293,21,211717,2,0,P|226:27|164:53,1,134.999995880127,10|2,0:2|3:2,0:0:0:0:
44,115,212717,2,0,L|38:26,2,89.9999972534181,2|8|0,3:2|0:2|3:0,0:0:0:0:
109,176,213717,53,6,3:2:0:0:
55,248,214050,1,2,3:2:0:0:
123,306,214384,2,0,B|159:308|192:293|182:286|215:271|251:274,1,134.999995880127,10|2,0:2|3:2,0:0:0:0:
373,333,215384,2,0,L|369:153,1,179.999994506836,2|2,3:2|0:2,0:0:0:0:
370,61,216384,6,0,P|326:54|283:66,1,89.9999972534181,2|2,3:2|3:2,0:0:0:0:
217,126,217050,1,10,0:2:0:0:
60,37,217717,1,2,3:2:0:0:
47,126,218050,1,2,3:2:0:0:
35,215,218384,2,0,L|40:304,1,89.9999972534181,14|0,0:2|3:0,0:0:0:0:
109,362,219050,53,6,3:2:0:0:
183,311,219384,1,2,3:2:0:0:
258,359,219717,2,0,L|392:353,1,134.999995880127,10|2,0:2|3:2,0:0:0:0:
458,235,220717,2,0,L|368:231,1,89.9999972534181,2|8,3:2|0:2,0:0:0:0:
291,182,221384,1,2,0:2:0:0:
224,243,221717,5,2,3:2:0:0:
144,200,222050,1,2,3:2:0:0:
71,254,222384,2,0,P|54:190|85:131,1,134.999995880127,10|2,0:2|3:2,0:0:0:0:
213,89,223384,2,0,L|209:-1,2,89.9999972534181,2|8|0,3:2|0:2|3:0,0:0:0:0:
290,135,224384,53,6,3:2:0:0:
234,205,224717,1,2,3:2:0:0:
304,258,225050,2,0,P|370:269|426:233,1,134.999995880127,10|2,0:2|3:2,0:0:0:0:
460,102,226051,2,0,B|406:112|366:76|392:71|352:35|299:46,1,179.999994506836,2|2,3:2|0:2,0:0:0:0:
223,95,227050,6,0,L|133:89,1,89.9999972534181,2|2,3:2|3:2,0:0:0:0:
109,176,227717,2,0,L|198:181,1,89.9999972534181,14|0,0:2|3:0,0:0:0:0:
268,239,228384,1,10,0:2:0:0:
357,226,228717,1,10,0:2:0:0:
446,213,229050,2,0,P|452:257|449:302,1,89.9999972534181,10|0,0:2|3:0,0:0:0:0:
374,353,229717,21,6,3:2:0:0:
