osu file format v14

[General]
AudioFilename: audio.mp3
AudioLeadIn: 0
PreviewTime: 289257
Countdown: 0
SampleSet: Drum
StackLeniency: 0.7
Mode: 2
LetterboxInBreaks: 0
WidescreenStoryboard: 0

[Editor]
Bookmarks: 13161,25548,37935,50322,62709,67354,79741,92128,104515,116903,121548,133935,139644,146322,158709,171096,183483,195870,206709,219096,231483,234580,246967,256257,267096,277935,281419,290322,302709,315096,327483,339870,346064,352257,356128
DistanceSpacing: 0.6
BeatDivisor: 4
GridSize: 8
TimelineZoom: 1.5

[Metadata]
Title:Bloody Rain
TitleUnicode:Bloody Rain
Artist:Fuki
ArtistUnicode:Fuki
Creator:Secre
Version:Minazuki
Source:osu!
Tags:chickenbible crissa metal rock japanese million scarlets fa featured artist mg mappers guild
BeatmapID:2817264
BeatmapSetID:1361523

[Difficulty]
HPDrainRate:5
CircleSize:4.1
OverallDifficulty:9.7
ApproachRate:9.7
SliderMultiplier:2.5
SliderTickRate:1

[Events]
//Background and Video events
0,0,"war criminal.jpg",0,0
//Break Periods
//Storyboard Layer 0 (Background)
//Storyboard Layer 1 (Fail)
//Storyboard Layer 2 (Pass)
//Storyboard Layer 3 (Foreground)
//Storyboard Layer 4 (Overlay)
//Storyboard Sound Samples

[TimingPoints]
780,387.096774193548,4,2,1,50,1,0
6970,-100,4,2,1,60,0,0
8521,-50,4,2,1,60,0,0
8715,-100,4,2,1,60,0,0
10067,-100,4,2,2,60,0,0
10163,-100,4,2,1,60,0,0
13163,-100,4,3,2,70,0,0
13167,-90.9090909090909,4,3,2,70,0,0
13263,-90.9090909090909,4,3,1,70,0,0
16263,-90.9090909090909,4,3,2,70,0,0
16360,-90.9090909090909,4,3,1,70,0,0
19360,-90.9090909090909,4,3,2,70,0,0
19457,-90.9090909090909,4,3,1,70,0,0
22457,-90.9090909090909,4,3,2,70,0,0
22554,-90.9090909090909,4,3,1,70,0,0
25554,-90.9090909090909,4,3,1,75,0,0
31747,-90.9090909090909,4,3,2,75,0,0
31941,-90.9090909090909,4,3,1,75,0,0
33296,-90.9090909090909,4,3,2,75,0,0
33489,-90.9090909090909,4,3,1,75,0,0
37941,-90.9090909090909,4,3,2,65,0,0
38038,-90.9090909090909,4,3,1,65,0,0
44134,-90.9090909090909,4,3,2,65,0,0
44231,-90.9090909090909,4,3,1,65,0,0
50325,-90.9090909090909,4,3,2,70,0,0
50518,-90.9090909090909,4,3,1,70,0,0
56518,-90.9090909090909,4,3,2,70,0,0
56712,-90.9090909090909,4,3,1,70,0,0
61360,-80,4,3,1,70,0,0
62712,-80,4,3,2,70,0,0
62715,-90.9090909090909,4,3,2,70,0,0
62905,-90.9090909090909,4,3,1,70,0,0
64260,-90.9090909090909,4,3,2,70,0,0
64454,-90.9090909090909,4,3,1,70,0,0
65809,-90.9090909090909,4,3,1,80,0,0
67360,-83.3333333333333,4,3,2,85,0,1
67454,-83.3333333333333,4,3,1,85,0,1
68905,-83.3333333333333,4,3,2,85,0,1
69001,-83.3333333333333,4,3,1,85,0,1
70453,-83.3333333333333,4,3,2,85,0,1
70549,-83.3333333333333,4,3,1,85,0,1
72001,-83.3333333333333,4,3,2,85,0,1
72097,-83.3333333333333,4,3,1,85,0,1
72776,-83.3333333333333,4,3,2,85,0,1
72969,-83.3333333333333,4,3,1,85,0,1
73066,-83.3333333333333,4,3,2,85,0,1
73356,-83.3333333333333,4,3,1,85,0,1
73550,-83.3333333333333,4,3,2,85,0,1
73647,-83.3333333333333,4,3,1,85,0,1
74324,-83.3333333333333,4,3,2,85,0,1
74421,-83.3333333333333,4,3,1,85,0,1
75098,-83.3333333333333,4,3,2,85,0,1
75195,-83.3333333333333,4,3,1,85,0,1
75872,-83.3333333333333,4,3,2,85,0,1
75969,-83.3333333333333,4,3,1,85,0,1
76646,-83.3333333333333,4,3,2,85,0,1
76743,-83.3333333333333,4,3,1,85,0,1
78196,-83.3333333333333,4,3,2,85,0,1
78292,-83.3333333333333,4,3,1,85,0,1
79744,-83.3333333333333,4,3,2,85,0,1
79840,-83.3333333333333,4,3,1,85,0,1
81292,-83.3333333333333,4,3,2,85,0,1
81388,-83.3333333333333,4,3,1,85,0,1
82840,-83.3333333333333,4,3,2,85,0,1
82936,-83.3333333333333,4,3,1,85,0,1
84388,-83.3333333333333,4,3,2,85,0,1
84484,-83.3333333333333,4,3,1,85,0,1
85163,-83.3333333333333,4,3,2,85,0,1
85356,-83.3333333333333,4,3,1,85,0,1
85453,-83.3333333333333,4,3,2,85,0,1
85743,-83.3333333333333,4,3,1,85,0,1
86711,-83.3333333333333,4,3,2,85,0,1
86807,-83.3333333333333,4,3,1,85,0,1
87485,-83.3333333333333,4,3,2,85,0,1
87581,-83.3333333333333,4,3,1,85,0,1
88259,-83.3333333333333,4,3,2,85,0,1
88355,-83.3333333333333,4,3,1,85,0,1
89034,-83.3333333333333,4,3,2,85,0,1
89130,-83.3333333333333,4,3,1,85,0,1
90582,-83.3333333333333,4,3,2,85,0,1
90678,-83.3333333333333,4,3,1,85,0,1
92134,-100,4,3,2,70,0,0
92227,-100,4,3,1,70,0,0
95228,-100,4,3,2,70,0,0
95325,-100,4,3,1,70,0,0
98324,-100,4,3,2,70,0,0
98421,-100,4,3,1,70,0,0
101421,-100,4,3,2,70,0,0
101517,-100,4,3,1,70,0,0
103070,-100,4,3,1,80,0,0
104518,-100,4,3,1,65,0,0
109163,-100,4,3,2,65,0,0
109167,-90.9090909090909,4,3,2,65,0,0
109360,-100,4,3,2,65,0,0
109457,-100,4,3,1,65,0,0
110712,-100,4,3,2,75,0,0
110808,-100,4,3,1,75,0,0
111489,-83.3333333333333,4,3,1,75,0,0
112263,-90.9090909090909,4,3,1,75,0,0
115554,-50,4,3,1,75,0,0
116328,-90.9090909090909,4,3,1,75,0,0
116905,-90.9090909090909,4,3,2,70,0,0
117195,-90.9090909090909,4,3,1,70,0,0
118453,-90.9090909090909,4,3,2,70,0,0
118646,-90.9090909090909,4,3,1,70,0,0
120002,-90.9090909090909,4,3,1,80,0,0
121554,-80,4,3,2,85,0,1
121646,-80,4,3,1,85,0,1
123098,-80,4,3,2,85,0,1
123195,-80,4,3,1,85,0,1
124646,-80,4,3,2,85,0,1
124743,-80,4,3,1,85,0,1
126970,-80,4,3,2,85,0,1
127163,-80,4,3,1,85,0,1
127259,-80,4,3,2,85,0,1
127550,-80,4,3,1,85,0,1
127744,-80,4,3,2,85,0,1
127840,-80,4,3,1,85,0,1
128517,-80,4,3,2,85,0,1
128613,-80,4,3,1,85,0,1
129292,-80,4,3,2,85,0,1
129388,-80,4,3,1,85,0,1
130066,-80,4,3,2,85,0,1
130162,-80,4,3,1,85,0,1
130840,-80,4,3,2,85,0,1
130937,-80,4,3,1,85,0,1
132388,-80,4,3,2,85,0,1
132485,-80,4,3,1,85,0,1
133937,-80,4,3,2,85,0,1
134034,-80,4,3,1,85,0,1
135485,-80,4,3,2,85,0,1
135582,-80,4,3,1,85,0,1
137034,-80,4,3,2,85,0,1
137130,-80,4,3,1,85,0,1
139356,-80,4,3,2,85,0,1
139453,-80,4,3,1,85,0,1
139646,-80,4,3,2,85,0,1
139743,-80,4,3,1,85,0,1
140130,-80,4,3,2,85,0,1
140227,-80,4,3,1,85,0,1
140905,-80,4,3,2,85,0,1
141001,-80,4,3,1,85,0,1
141679,-80,4,3,2,85,0,1
141776,-80,4,3,1,85,0,1
142453,-80,4,3,2,85,0,1
142549,-80,4,3,1,85,0,1
143227,-80,4,3,2,85,0,1
143324,-80,4,3,1,85,0,1
144775,-80,4,3,2,85,0,1
144872,-80,4,3,1,85,0,1
145937,-80,4,3,2,85,0,1
146034,-80,4,3,1,85,0,1
146328,-100,4,2,2,85,0,0
146712,-100,4,2,1,60,0,0
147486,-100,4,2,1,60,0,0
147873,-100,4,2,1,60,0,0
149035,-100,4,2,1,60,0,0
149422,-100,4,2,2,60,0,0
149809,-100,4,2,1,60,0,0
150583,-100,4,2,1,60,0,0
150970,-100,4,3,2,60,0,0
151167,-100,4,3,1,60,0,0
151357,-100,4,2,1,60,0,0
152518,-100,4,2,2,65,0,0
152906,-100,4,2,1,60,0,0
155615,-100,4,2,2,60,0,0
155809,-100,4,2,1,60,0,0
157163,387.096774193548,4,2,1,70,1,0
158712,-100,4,3,2,80,0,0
158906,-100,4,3,1,80,0,0
161802,387.096774193548,4,3,2,80,1,0
161993,-100,4,3,1,80,0,0
162576,363.636363636364,4,3,1,80,1,0
163156,363.636363636364,4,3,1,80,1,0
163350,363.636363636364,4,3,1,80,1,0
163713,375,4,3,1,80,1,0
164088,387.096774193548,4,3,1,80,1,0
164908,387.096774193548,4,3,2,80,1,0
165099,-100,4,3,1,80,0,0
168002,-100,4,3,2,80,0,0
168099,-100,4,3,1,80,0,0
169551,-100,4,3,2,80,0,0
169647,-100,4,3,1,80,0,0
170325,-100,4,3,2,80,0,0
170422,-100,4,3,1,80,0,0
171099,-100,4,3,2,80,0,0
171196,-100,4,3,1,80,0,0
174196,-100,4,3,2,80,0,0
174389,-100,4,3,1,80,0,0
177292,-100,4,3,2,80,0,0
177486,-100,4,3,1,80,0,0
180389,-100,4,3,2,80,0,0
180583,-100,4,3,1,80,0,0
181938,-100,4,3,2,80,0,0
182035,-100,4,3,1,80,0,0
183486,-100,4,3,2,80,0,0
183583,-100,4,3,1,80,0,0
184647,-100,4,3,1,80,0,0
185809,-100,4,3,1,80,0,0
186583,-100,4,3,2,80,0,0
186680,-100,4,3,1,80,0,0
188131,-100,4,3,2,80,0,0
188325,-100,4,3,1,80,0,0
191228,-100,4,3,2,80,0,0
191325,-100,4,3,1,80,0,0
192776,-100,4,3,2,80,0,0
192970,-100,4,3,1,80,0,0
194325,-100,4,3,1,80,0,0
195873,-100,4,3,2,80,0,0
195970,-100,4,3,1,80,0,0
197422,-100,4,3,2,80,0,0
197518,-100,4,3,1,80,0,0
198196,-100,4,3,2,80,0,0
198293,-100,4,3,1,80,0,0
198970,-100,4,3,2,80,0,0
199067,-100,4,3,1,80,0,0
199744,-100,4,3,2,80,0,0
199841,-100,4,3,1,80,0,0
200518,-100,4,3,2,80,0,0
200615,-100,4,3,1,80,0,0
206712,-100,4,3,2,70,0,0
206906,-100,4,3,1,70,0,0
212906,-100,4,3,2,70,0,0
213099,-100,4,3,1,70,0,0
216002,-100,4,3,2,70,0,0
216099,-100,4,3,1,70,0,0
217551,-100,4,3,2,70,0,0
217744,-100,4,3,1,70,0,0
218325,-100,4,3,2,70,0,0
218518,-100,4,3,1,70,0,0
219099,-100,4,3,2,70,0,0
219293,-100,4,3,1,70,0,0
222196,-100,4,3,2,70,0,0
222389,-100,4,3,1,70,0,0
225292,-100,4,3,2,70,0,0
225486,-100,4,3,1,70,0,0
226841,-100,4,3,2,70,0,0
226938,-100,4,3,1,70,0,0
228390,-100,4,3,2,70,0,0
228583,-100,4,3,1,70,0,0
231486,-100,4,3,2,70,0,0
231583,-100,4,3,1,70,0,0
233034,-100,4,3,1,75,0,0
233809,-100,4,3,1,65,0,0
234583,-100,4,3,2,75,0,0
234776,-100,4,3,1,65,0,0
237680,-100,4,3,2,65,0,0
237776,-100,4,3,1,65,0,0
240776,-100,4,3,2,65,0,0
240873,-100,4,3,1,65,0,0
243873,-100,4,3,2,65,0,0
243970,-100,4,3,1,65,0,0
246843,-100,4,3,1,70,0,0
246970,-100,4,3,2,70,0,0
247067,-100,4,3,1,70,0,0
250067,-100,4,3,2,70,0,0
250164,-100,4,3,1,70,0,0
252776,-100,4,3,2,70,0,0
252970,-100,4,3,1,70,0,0
256260,-100,4,3,2,75,0,0
256357,-100,4,3,1,75,0,0
257809,-100,4,3,2,75,0,0
257906,-100,4,3,1,75,0,0
259357,-100,4,3,2,75,0,0
259454,-100,4,3,1,75,0,0
260906,-100,4,3,2,75,0,0
261003,-100,4,3,1,75,0,0
262454,-100,4,3,2,75,0,0
262551,-100,4,3,1,75,0,0
264002,-100,4,3,2,75,0,0
264099,-100,4,3,1,75,0,0
265550,-100,4,3,2,75,0,0
265647,-100,4,3,1,75,0,0
268647,-100,4,3,2,75,0,0
268744,-100,4,3,1,75,0,0
270196,-100,4,3,2,75,0,0
270293,-100,4,3,1,75,0,0
271744,-100,4,3,2,75,0,0
271841,-100,4,3,1,75,0,0
272519,-100,4,3,2,75,0,0
272616,-100,4,3,1,75,0,0
273292,-100,4,3,2,75,0,0
273389,-100,4,3,1,75,0,0
274067,-100,4,3,2,75,0,0
274164,-100,4,3,1,75,0,0
274841,-100,4,3,2,75,0,0
274938,-100,4,3,1,75,0,0
280649,-83.3333333333333,4,3,1,75,0,0
281034,-100,4,3,2,70,0,0
281131,-100,4,3,1,70,0,0
282583,-100,4,3,2,70,0,0
282680,-100,4,3,1,70,0,0
284157,394.736842105263,4,3,1,70,1,0
284713,454.545454545455,4,3,1,70,1,0
284940,382.165605095541,4,3,1,70,1,0
285680,387.096774193548,4,3,2,70,1,0
285937,-100,4,3,1,70,0,0
286195,-100,4,3,1,70,0,0
287228,-100,4,3,2,70,0,0
287324,-100,4,3,1,70,0,0
290325,-80,4,3,1,85,0,1
291871,-80,4,3,2,85,0,1
291968,-80,4,3,1,85,0,1
293419,-80,4,3,2,85,0,1
293516,-80,4,3,1,85,0,1
295745,-80,4,3,2,85,0,1
295936,-80,4,3,1,85,0,1
296032,-80,4,3,2,85,0,1
296323,-80,4,3,1,85,0,1
296519,-80,4,3,2,85,0,1
296613,-80,4,3,1,85,0,1
297290,-80,4,3,2,85,0,1
297386,-80,4,3,1,85,0,1
298065,-80,4,3,2,85,0,1
298161,-80,4,3,1,85,0,1
298839,-80,4,3,2,85,0,1
298935,-80,4,3,1,85,0,1
299613,-80,4,3,2,85,0,1
299710,-80,4,3,1,85,0,1
301161,-80,4,3,2,85,0,1
301164,-80,4,3,1,85,0,1
302710,-80,4,3,2,85,0,1
302807,-80,4,3,1,85,0,1
304258,-80,4,3,2,85,0,1
304355,-80,4,3,1,85,0,1
305807,-80,4,3,2,85,0,1
305903,-80,4,3,1,85,0,1
308129,-80,4,3,2,85,0,1
308226,-80,4,3,1,85,0,1
308419,-80,4,3,2,85,0,1
308516,-80,4,3,1,85,0,1
308903,-80,4,3,2,85,0,1
309000,-80,4,3,1,85,0,1
309678,-80,4,3,2,85,0,1
309774,-80,4,3,1,85,0,1
310452,-80,4,3,2,85,0,1
310549,-80,4,3,1,85,0,1
311226,-80,4,3,2,85,0,1
311322,-80,4,3,1,85,0,1
312000,-80,4,3,2,85,0,1
312097,-80,4,3,1,85,0,1
313548,-80,4,3,2,85,0,1
313645,-80,4,3,1,85,0,1
314710,-80,4,3,2,85,0,1
314807,-80,4,3,1,85,0,1
315099,-83.3333333333333,4,3,2,70,0,0
315194,-83.3333333333333,4,3,1,70,0,0
321291,-83.3333333333333,4,3,2,70,0,0
321388,-83.3333333333333,4,3,1,70,0,0
324388,-83.3333333333333,4,3,2,70,0,0
324484,-83.3333333333333,4,3,1,70,0,0
326034,-83.3333333333333,4,3,1,80,0,0
327484,-83.3333333333333,4,3,1,75,0,0
327487,-83.3333333333333,4,3,2,75,0,0
327582,-83.3333333333333,4,3,1,75,0,0
329034,-83.3333333333333,4,3,2,75,0,0
329130,-83.3333333333333,4,3,1,75,0,0
330582,-83.3333333333333,4,3,2,75,0,0
330678,-83.3333333333333,4,3,1,75,0,0
333679,-83.3333333333333,4,3,2,75,0,0
333775,-83.3333333333333,4,3,1,75,0,0
335227,-83.3333333333333,4,3,2,75,0,0
335324,-83.3333333333333,4,3,1,75,0,0
336775,-83.3333333333333,4,3,2,75,0,0
336872,-83.3333333333333,4,3,1,75,0,0
338324,-83.3333333333333,4,3,2,75,0,0
338420,-83.3333333333333,4,3,1,75,0,0
339872,-83.3333333333333,4,3,2,75,0,0
339968,-83.3333333333333,4,3,1,75,0,0
341421,-83.3333333333333,4,3,2,75,0,0
341517,-83.3333333333333,4,3,1,75,0,0
342969,-83.3333333333333,4,3,2,75,0,0
343065,-83.3333333333333,4,3,1,75,0,0
346066,-83.3333333333333,4,3,1,65,0,0
352259,-83.3333333333333,4,3,2,65,0,0
353034,-83.3333333333333,4,3,2,55,0,0
353809,-83.3333333333333,4,3,2,45,0,0
354583,-83.3333333333333,4,3,2,35,0,0
355357,-83.3333333333333,4,3,2,25,0,0
356131,-83.3333333333333,4,3,2,5,0,0

[Colours]
Combo1 : 217,216,166
Combo2 : 251,74,79
Combo3 : 131,103,104

[HitObjects]
350,230,780,6,0,L|356:104,1,125,4|2,0:3|0:0,0:0:0:0:
276,154,1070,1,2,0:0:0:0:
163,157,1167,1,2,0:0:0:0:
106,123,1263,1,0,0:0:0:0:
106,123,1360,1,0,0:0:0:0:
163,157,1457,1,2,0:0:0:0:
276,154,1554,6,0,L|280:227,1,62.5,2|0,0:0|0:0,0:0:0:0:
181,217,1747,2,0,L|171:142,1,62.5,2|0,0:0|0:0,0:0:0:0:
280,145,1941,1,2,0:0:0:0:
268,205,2037,1,0,0:0:0:0:
224,247,2134,1,2,0:0:0:0:
162,254,2231,1,0,0:0:0:0:
343,188,2328,6,0,L|353:259,1,62.5,4|0,0:3|0:0,0:0:0:0:
237,239,2521,2,0,L|224:155,1,62.5,4|0,0:3|0:0,0:0:0:0:
328,125,2715,1,2,0:0:0:0:
385,147,2811,1,0,0:0:0:0:
422,196,2908,1,0,0:0:0:0:
428,257,3005,1,2,0:0:0:0:
311,288,3102,5,2,0:0:0:0:
313,226,3198,1,0,0:0:0:0:
370,185,3295,1,2,0:0:0:0:
310,171,3392,1,2,0:0:0:0:
426,113,3489,1,2,0:0:0:0:
478,141,3585,1,2,0:0:0:0:
478,201,3682,1,2,0:0:0:0:
427,230,3779,1,2,0:0:0:0:
256,170,3876,6,0,L|109:162,1,125,4|0,0:3|0:0,0:0:0:0:
194,101,4167,1,2,0:0:0:0:
313,106,4263,2,0,L|322:184,1,62.5,2|0,0:0|0:0,0:0:0:0:
248,191,4457,2,0,L|237:107,1,62.5,0|2,0:0|0:0,0:0:0:0:
361,96,4650,6,0,L|371:188,1,62.5,2|0,0:0|0:0,0:0:0:0:
299,182,4844,2,0,L|287:102,1,62.5,2|0,0:0|0:0,0:0:0:0:
411,83,5038,1,2,0:0:0:0:
465,107,5134,1,0,0:0:0:0:
465,166,5231,1,2,0:0:0:0:
412,191,5328,1,0,0:0:0:0:
185,228,5425,6,0,L|168:149,1,62.5,4|0,0:3|0:0,0:0:0:0:
285,132,5618,2,0,L|303:217,1,62.5,4|0,0:3|0:0,0:0:0:0:
185,253,5812,1,2,0:0:0:0:
134,222,5908,1,0,0:0:0:0:
136,162,6005,1,0,0:0:0:0:
190,136,6102,1,2,0:0:0:0:
314,130,6199,6,0,L|323:221,1,62.5,2|0,0:0|0:0,0:0:0:0:
86,256,6392,2,0,L|37:256,1,31.25,2|0,0:0|0:0,0:0:0:0:
54,256,6489,2,0,L|86:256,1,31.25,2|0,0:0|0:0,0:0:0:0:
258,212,6586,6,0,L|336:210,1,62.5,2|0,0:0|0:0,0:0:0:0:
209,152,6779,2,0,L|197:68,1,62.5
391,137,6973,6,0,L|257:134,1,125,4|0,0:3|0:0,0:0:0:0:
75,205,7360,2,0,L|150:201,1,62.5,4|0,0:3|0:3,0:0:0:0:
264,185,7554,2,0,L|271:259,1,62.5
80,281,7747,5,4,0:3:0:0:
29,249,7843,1,0,0:0:0:0:
33,190,7940,1,0,0:0:0:0:
88,166,8037,1,0,0:0:0:0:
301,144,8134,2,0,L|382:143,1,62.5,4|0,0:3|0:0,0:0:0:0:
250,93,8328,2,0,L|173:96,1,62.5,8|0,0:3|0:0,0:0:0:0:
401,180,8521,6,0,L|104:184,1,250,4|4,0:3|0:3,0:0:0:0:
340,123,8909,2,0,L|350:198,1,62.5,4|0,0:3|0:0,0:0:0:0:
239,202,9102,2,0,L|230:129,1,62.5
437,211,9296,5,4,0:3:0:0:
445,144,9392,1,0,0:0:0:0:
397,91,9489,1,0,0:0:0:0:
326,83,9586,1,0,0:0:0:0:
243,66,9683,1,4,0:3:0:0:
344,50,9779,1,0,0:0:0:0:
434,37,9876,1,0,0:0:0:0:
327,22,9973,1,0,0:0:0:0:
133,221,10070,6,0,L|116:142,3,62.5,6|0|0|0,0:3|0:0|0:0|0:0,0:0:0:0:
240,152,10457,2,0,L|257:73,3,62.5,4|0|0|0,0:3|0:0|0:0|0:0,0:0:0:0:
141,182,10844,6,0,L|129:98,1,62.5,4|0,0:3|0:0,0:0:0:0:
247,83,11038,2,0,L|262:173,1,62.5
143,214,11231,2,0,L|221:215,1,62.5,4|0,0:3|0:0,0:0:0:0:
391,172,11425,2,0,L|401:262,1,62.5,8|0,0:3|0:0,0:0:0:0:
126,271,11618,6,0,L|206:266,1,62.5,6|0,0:3|0:0,0:0:0:0:
284,231,11812,1,2,0:0:0:0:
192,192,11909,1,2,0:0:0:0:
392,220,12005,1,2,0:0:0:0:
480,212,12102,1,2,0:0:0:0:
392,220,12199,1,2,0:0:0:0:
303,184,12296,1,2,0:0:0:0:
99,172,12392,5,8,0:2:0:0:
193,157,12489,1,8,0:2:0:0:
99,172,12586,1,8,0:2:0:0:
193,157,12683,1,8,0:2:0:0:
389,126,12779,1,8,0:2:0:0:
295,111,12876,1,8,0:2:0:0:
389,126,12973,1,8,0:2:0:0:
295,111,13070,1,8,0:2:0:0:
123,273,13167,5,6,0:3:0:0:
127,193,13263,1,0,0:0:0:0:
192,155,13360,1,8,0:2:0:0:
257,136,13457,1,0,0:0:0:0:
177,145,13554,2,0,L|166:62,1,68.7500020980836,4|4,0:3|0:3,0:0:0:0:
406,97,13747,5,10,0:2:0:0:
403,164,13843,1,0,0:0:0:0:
360,216,13940,1,4,0:3:0:0:
294,230,14037,1,0,0:0:0:0:
213,214,14134,2,0,L|201:130,1,68.7500020980836,8|0,0:2|0:0,0:0:0:0:
441,156,14328,2,0,L|451:237,1,68.7500020980836,6|0,0:3|0:0,0:0:0:0:
373,251,14521,2,0,L|448:246,1,68.7500020980836,8|0,0:2|0:0,0:0:0:0:
269,212,14715,5,6,0:3:0:0:
205,188,14811,1,0,0:0:0:0:
161,136,14908,1,8,0:2:0:0:
150,69,15005,1,0,0:0:0:0:
237,66,15102,2,0,L|243:138,1,68.7500020980836,4|4,0:3|0:3,0:0:0:0:
60,190,15296,2,0,L|138:187,1,68.7500020980836,10|0,0:2|0:0,0:0:0:0:
44,217,15489,6,0,L|35:118,1,68.7500020980836,4|4,0:3|0:3,0:0:0:0:
126,104,15683,2,0,L|53:105,1,68.7500020980836,8|0,0:2|0:0,0:0:0:0:
281,116,15876,2,0,L|290:196,1,68.7500020980836,4|4,0:3|0:3,0:0:0:0:
178,202,16070,2,0,L|165:103,1,68.7500020980836,8|0,0:2|0:0,0:0:0:0:
395,105,16263,5,6,0:3:0:0:
460,126,16359,1,0,0:0:0:0:
404,182,16456,1,8,0:2:0:0:
334,191,16553,1,0,0:0:0:0:
409,281,16650,2,0,L|410:193,1,68.7500020980836,4|4,0:3|0:3,0:0:0:0:
171,221,16844,1,10,0:2:0:0:
116,183,16940,1,0,0:0:0:0:
121,103,17037,5,4,0:3:0:0:
199,76,17134,1,0,0:0:0:0:
285,80,17231,2,0,L|295:166,1,68.7500020980836,8|0,0:2|0:0,0:0:0:0:
59,137,17425,2,0,L|55:205,1,68.7500020980836,6|0,0:3|0:0,0:0:0:0:
254,255,17618,2,0,L|322:247,1,68.7500020980836,8|0,0:2|0:0,0:0:0:0:
133,190,17812,6,0,L|64:189,3,68.7500020980836,6|0|8|0,0:3|0:0|0:2|0:0,0:0:0:0:
271,183,18199,2,0,L|390:179,1,68.7500020980836,4|4,0:3|0:3,0:0:0:0:
179,114,18392,2,0,L|96:114,1,68.7500020980836,10|0,0:2|0:0,0:0:0:0:
334,80,18586,2,0,L|348:167,1,68.7500020980836,4|4,0:3|0:3,0:0:0:0:
165,226,18779,5,12,0:2:0:0:
248,199,18876,1,0,0:0:0:0:
331,193,18973,1,4,0:3:0:0:
144,147,19070,2,0,L|128:61,1,68.7500020980836,12|0,0:2|0:0,0:0:0:0:
206,46,19263,1,8,0:2:0:0:
436,121,19360,5,6,0:3:0:0:
426,187,19456,1,0,0:0:0:0:
379,237,19553,1,8,0:2:0:0:
313,250,19650,1,0,0:0:0:0:
392,298,19747,1,4,0:3:0:0:
478,277,19844,1,4,0:3:0:0:
246,171,19941,1,10,0:2:0:0:
170,138,20038,1,0,0:0:0:0:
246,171,20134,5,4,0:3:0:0:
327,154,20231,1,0,0:0:0:0:
246,171,20328,1,8,0:2:0:0:
170,138,20425,1,0,0:0:0:0:
363,83,20521,1,6,0:3:0:0:
430,84,20617,1,0,0:0:0:0:
481,128,20714,1,8,0:2:0:0:
491,195,20811,1,0,0:0:0:0:
286,257,20909,5,6,0:3:0:0:
296,190,21005,1,0,0:0:0:0:
365,142,21102,1,8,0:2:0:0:
436,138,21199,1,0,0:0:0:0:
356,78,21296,1,4,0:3:0:0:
272,129,21392,1,4,0:3:0:0:
75,199,21489,2,0,L|57:99,1,68.7500020980836,10|0,0:2|0:0,0:0:0:0:
180,87,21683,6,0,L|194:177,1,68.7500020980836,4|4,0:3|0:3,0:0:0:0:
304,76,21876,2,0,L|321:185,1,68.7500020980836,8|0,0:2|0:0,0:0:0:0:
191,233,22070,1,4,0:3:0:0:
213,159,22166,1,0,0:0:0:0:
272,129,22263,1,8,0:2:0:0:
357,127,22360,1,0,0:0:0:0:
121,218,22457,5,6,0:3:0:0:
68,178,22553,1,0,0:0:0:0:
81,113,22650,1,8,0:2:0:0:
144,86,22747,1,0,0:0:0:0:
61,108,22844,2,0,L|48:23,1,68.7500020980836,4|4,0:3|0:3,0:0:0:0:
268,56,23038,1,10,0:2:0:0:
335,62,23134,1,0,0:0:0:0:
383,109,23231,5,4,0:3:0:0:
393,176,23328,1,0,0:0:0:0:
305,189,23425,2,0,L|288:104,1,68.7500020980836,8|0,0:2|0:0,0:0:0:0:
486,125,23618,1,6,0:3:0:0:
477,192,23714,1,0,0:0:0:0:
402,231,23811,1,8,0:2:0:0:
315,238,23908,1,0,0:0:0:0:
142,136,24005,5,6,0:3:0:0:
315,146,24102,2,0,L|462:141,1,137.500004196167,8|4,0:2|0:3,0:0:0:0:
194,217,24392,2,0,L|164:66,1,137.500004196167,8|6,0:2|0:3,0:0:0:0:
242,53,24634,1,0,0:0:0:0:
417,124,24683,6,0,L|501:123,2,68.7500020980836,8|0|8,0:2|0:0|0:2,0:0:0:0:
315,117,24973,1,8,0:2:0:0:
417,124,25070,1,8,0:2:0:0:
166,218,25167,1,8,0:3:0:0:
89,159,25263,1,8,0:3:0:0:
176,152,25360,1,4,0:3:0:0:
267,137,25457,1,4,0:3:0:0:
86,230,25554,6,0,L|71:147,1,68.7500020980836,4|0,0:3|0:0,0:0:0:0:
346,108,25747,1,10,0:2:0:0:
358,139,25795,1,0,0:0:0:0:
356,173,25843,1,0,0:0:0:0:
340,203,25892,1,0,0:0:0:0:
312,223,25940,1,2,0:0:0:0:
278,228,25988,1,0,0:0:0:0:
246,219,26037,1,0,0:0:0:0:
453,154,26134,2,0,L|460:231,1,68.7500020980836,10|0,0:2|0:0,0:0:0:0:
218,161,26328,6,0,L|146:163,1,68.7500020980836,6|0,0:0|0:0,0:0:0:0:
327,114,26521,2,0,L|411:112,1,68.7500020980836,10|2,0:2|0:0,0:0:0:0:
216,95,26715,1,2,0:0:0:0:
302,79,26812,1,0,0:0:0:0:
216,95,26909,1,10,0:2:0:0:
302,79,27005,1,0,0:0:0:0:
117,156,27102,5,6,0:0:0:0:
117,156,27296,1,8,0:2:0:0:
319,124,27392,2,0,P|362:180|301:212,1,137.500004196167,6|4,0:0|0:0,0:0:0:0:
106,135,27683,1,10,0:2:0:0:
91,66,27747,1,0,0:0:0:0:
147,45,27812,1,0,0:0:0:0:
331,89,27876,5,6,0:0:0:0:
391,88,27941,1,0,0:0:0:0:
331,89,28005,1,0,0:0:0:0:
175,101,28070,1,8,0:2:0:0:
118,94,28134,1,0,0:0:0:0:
175,101,28199,1,0,0:0:0:0:
379,147,28263,1,0,0:0:0:0:
211,172,28360,2,0,L|204:121,1,34.3750010490418,4|0,0:0|0:0,0:0:0:0:
333,134,28457,2,0,L|411:135,1,68.7500020980836,10|0,0:2|0:0,0:0:0:0:
176,273,28650,6,0,P|146:210|181:148,1,137.500004196167,6|0,0:0|0:0,0:0:0:0:
249,212,28941,1,0,0:0:0:0:
470,225,29038,2,0,L|304:225,1,137.500004196167,2|0,0:0|0:0,0:0:0:0:
405,168,29328,1,0,0:0:0:0:
148,140,29425,5,6,0:0:0:0:
82,81,29521,1,0,0:0:0:0:
116,81,29569,1,0,0:0:0:0:
150,81,29617,1,10,0:2:0:0:
348,115,29715,1,6,0:0:0:0:
266,103,29812,1,0,0:0:0:0:
348,115,29909,1,4,0:0:0:0:
266,103,30005,1,10,0:2:0:0:
348,115,30102,1,0,0:0:0:0:
110,205,30199,6,0,L|95:126,1,68.7500020980836,6|6,0:0|0:0,0:0:0:0:
281,143,30392,1,10,0:2:0:0:
204,126,30489,1,6,0:0:0:0:
420,126,30586,2,0,L|433:198,1,68.7500020980836,2|4,0:0|0:0,0:0:0:0:
235,272,30779,1,10,0:2:0:0:
218,187,30875,1,0,0:0:0:0:
284,160,30972,5,6,0:0:0:0:
371,134,31069,1,6,0:0:0:0:
456,105,31166,1,8,0:2:0:0:
364,70,31263,1,0,0:0:0:0:
152,160,31360,2,0,L|141:69,1,68.7500020980836,4|4,0:0|0:0,0:0:0:0:
254,59,31554,2,0,L|265:139,1,68.7500020980836,8|0,0:2|0:0,0:0:0:0:
36,251,31747,6,0,L|195:251,1,137.500004196167,6|10,0:0|0:2,0:0:0:0:
100,190,32038,1,0,0:0:0:0:
305,188,32134,2,0,L|389:190,1,68.7500020980836
191,114,32328,2,0,L|93:113,1,68.7500020980836,10|0,0:2|0:0,0:0:0:0:
348,95,32521,6,0,L|498:92,1,137.500004196167,6|8,0:0|0:2,0:0:0:0:
232,162,32812,2,0,L|83:165,1,137.500004196167,6|4,0:0|0:0,0:0:0:0:
325,152,33102,2,0,L|399:152,1,68.7500020980836,10|0,0:2|0:0,0:0:0:0:
155,239,33296,2,0,L|130:140,1,68.7500020980836,6|0,0:0|0:0,0:0:0:0:
375,174,33489,1,10,0:2:0:0:
165,155,33586,6,0,L|159:128,1,17.1875005245209,4|0,0:0|0:0,0:0:0:0:
374,85,33731,2,0,L|377:113,1,17.1875005245209
112,105,33925,2,0,L|107:73,1,17.1875005245209
298,189,34070,1,6,0:0:0:0:
470,146,34167,1,0,0:0:0:0:
271,241,34263,6,0,L|194:243,2,68.7500020980836,10|0|2,0:2|0:0|0:0,0:0:0:0:
360,190,34554,1,4,0:0:0:0:
267,179,34650,1,10,0:2:0:0:
169,164,34747,1,2,0:0:0:0:
385,107,34844,6,0,L|404:247,1,137.500004196167,6|10,0:0|0:2,0:0:0:0:
327,260,35134,1,4,0:0:0:0:
122,221,35231,1,0,0:0:0:0:
296,200,35328,1,4,0:0:0:0:
339,197,35376,1,0,0:0:0:0:
296,200,35425,1,10,0:2:0:0:
122,221,35521,1,0,0:0:0:0:
373,127,35618,5,6,0:0:0:0:
317,89,35715,2,0,L|276:88,1,34.3750010490418,4|0,0:0|0:0,0:0:0:0:
436,108,35812,2,0,L|442:200,1,68.7500020980836,10|4,0:2|0:0,0:0:0:0:
213,209,36005,2,0,L|196:120,1,68.7500020980836,0|4,0:0|0:0,0:0:0:0:
406,131,36199,2,0,L|321:129,1,68.7500020980836,10|0,0:2|0:0,0:0:0:0:
80,227,36392,6,2,P|76:175|74:147,1,68.7500020980836,2|0,0:0|0:0,0:0:0:0:
276,220,36586,2,0,L|350:209,1,68.7500020980836
159,181,36779,2,0,L|146:103,1,68.7500020980836
357,81,36973,2,0,L|369:174,1,68.7500020980836
127,278,37167,5,8,0:0:0:0:
177,252,37215,1,0,0:0:0:0:
228,238,37263,1,0,0:0:0:0:
431,198,37360,2,0,L|443:276,1,68.7500020980836,8|0,0:0|0:0,0:0:0:0:
221,304,37554,1,4,0:0:0:0:
271,278,37602,1,0,0:0:0:0:
322,264,37650,1,4,0:0:0:0:
135,198,37747,2,0,L|127:104,1,68.7500020980836,4|4,0:0|0:0,0:0:0:0:
374,164,37941,6,0,L|465:165,2,68.7500020980836,6|4|8,0:0|0:0|0:2,0:0:0:0:
301,157,38231,1,4,0:0:0:0:
222,138,38328,1,0,0:0:0:0:
427,129,38521,2,0,P|416:240|275:310,1,275.000008392334,10|8,0:2|0:2,0:0:0:0:
80,194,39102,2,0,L|153:195,2,68.7500020980836,2|0|8,0:0|0:0|0:2,0:0:0:0:
404,181,39489,5,6,0:0:0:0:
315,135,39586,1,4,0:0:0:0:
225,122,39683,1,8,0:2:0:0:
136,92,39779,1,4,0:0:0:0:
411,291,40070,2,0,P|476:253|391:120,1,275.000008392334,10|8,0:2|0:2,0:0:0:0:
223,186,40650,2,0,L|216:90,1,68.7500020980836,2|0,0:0|0:0,0:0:0:0:
345,93,40844,2,0,L|356:181,1,68.7500020980836,8|0,0:2|0:0,0:0:0:0:
96,238,41038,5,6,0:0:0:0:
191,189,41135,1,4,0:0:0:0:
279,170,41232,1,8,0:2:0:0:
368,145,41328,1,4,0:0:0:0:
84,275,41618,2,0,P|34:234|114:73,1,275.000008392334,10|8,0:2|0:2,0:0:0:0:
319,131,42199,2,0,L|218:128,2,68.7500020980836,0|0|8,0:0|0:0|0:2,0:0:0:0:
19,220,42586,6,0,L|106:220,3,68.7500020980836,4|4|8|4,0:0|0:0|0:2|0:0,0:0:0:0:
322,118,42973,2,0,L|331:263,1,137.500004196167,2|8,0:0|0:2,0:0:0:0:
55,220,43360,6,0,L|143:216,1,68.7500020980836,10|8,0:0|0:0,0:0:0:0:
301,173,43554,2,0,L|378:174,1,68.7500020980836,8|8,0:2|0:0,0:0:0:0:
191,214,43747,2,0,L|178:106,1,68.7500020980836,6|4,0:0|0:0,0:0:0:0:
396,157,43941,2,0,L|418:259,1,68.7500020980836,8|4,0:2|0:0,0:0:0:0:
160,206,44134,5,6,0:0:0:0:
246,178,44231,1,4,0:0:0:0:
333,158,44328,1,8,0:2:0:0:
420,146,44425,1,4,0:0:0:0:
167,267,44715,2,0,P|90:180|194:73,1,275.000008392334,8|10,0:2|0:2,0:0:0:0:
377,141,45296,2,0,L|289:138,2,68.7500020980836,2|0|8,0:0|0:0|0:2,0:0:0:0:
61,214,45683,5,6,0:0:0:0:
146,185,45779,1,4,0:0:0:0:
238,169,45876,1,8,0:2:0:0:
326,152,45973,1,4,0:0:0:0:
53,140,46263,1,10,0:2:0:0:
130,121,46360,1,0,0:0:0:0:
130,121,46457,1,0,0:0:0:0:
53,140,46554,1,0,0:0:0:0:
130,121,46650,1,8,0:2:0:0:
448,143,46844,2,0,L|460:296,1,137.500004196167,2|10,0:0|0:2,0:0:0:0:
129,252,47231,6,0,L|238:249,4,68.7500020980836,6|4|8|4|0,0:0|0:0|0:2|0:0|0:0,0:0:0:0:
425,200,47812,2,0,P|448:105|289:51,1,275.000008392334,10|8,0:2|0:2,0:0:0:0:
125,150,48392,1,2,0:0:0:0:
223,133,48489,1,0,0:0:0:0:
321,116,48586,1,8,0:2:0:0:
25,218,48779,6,0,L|130:216,1,68.7500020980836,6|4,0:0|0:0,0:0:0:0:
285,202,48973,2,0,L|384:207,1,68.7500020980836,8|4,0:2|0:0,0:0:0:0:
106,141,49167,1,0,0:0:0:0:
368,134,49360,2,0,L|385:219,1,68.7500020980836,10|0,0:2|0:0,0:0:0:0:
140,245,49554,6,0,L|241:244,1,68.7500020980836,6|4,0:0|0:0,0:0:0:0:
396,204,49747,2,0,L|412:315,1,68.7500020980836,8|0,0:2|0:0,0:0:0:0:
228,285,49941,2,0,L|320:289,1,68.7500020980836,4|8,0:0|0:2,0:0:0:0:
133,182,50134,2,0,L|42:175,1,68.7500020980836,8|8,0:2|0:2,0:0:0:0:
313,98,50328,6,0,L|327:187,1,68.7500020980836,6|0,0:0|0:0,0:0:0:0:
217,204,50521,2,0,L|199:110,1,68.7500020980836,8|0,0:2|0:0,0:0:0:0:
314,106,50715,2,0,L|416:107,1,68.7500020980836,0|4,0:0|0:0,0:0:0:0:
168,144,50909,2,0,L|92:145,1,68.7500020980836,10|0,0:2|0:0,0:0:0:0:
310,217,51102,6,0,L|390:214,2,68.7500020980836,4|4|8,0:0|0:0|0:2,0:0:0:0:
202,174,51392,1,4,0:0:0:0:
311,162,51489,2,0,L|396:164,1,68.7500020980836,2|4,0:0|0:0,0:0:0:0:
178,137,51683,2,0,L|165:58,1,68.7500020980836,8|0,0:2|0:2,0:0:0:0:
415,88,51876,5,6,0:0:0:0:
258,210,52070,1,8,0:2:0:0:
326,207,52166,1,0,0:0:0:0:
395,205,52263,1,4,0:0:0:0:
326,207,52360,1,4,0:0:0:0:
121,251,52457,2,0,L|102:155,1,68.7500020980836,10|0,0:2|0:0,0:0:0:0:
346,120,52650,5,4,0:0:0:0:
346,120,52844,1,8,0:2:0:0:
168,150,52941,2,0,L|55:150,2,68.7500020980836,4|0|4,0:0|0:0|0:0,0:0:0:0:
367,190,53231,2,0,L|453:193,1,68.7500020980836,8|0,0:2|0:0,0:0:0:0:
130,227,53425,5,6,0:0:0:0:
272,181,53618,1,8,0:2:0:0:
203,180,53714,1,0,0:0:0:0:
134,180,53811,1,0,0:0:0:0:
203,180,53909,1,4,0:0:0:0:
440,166,54005,2,0,L|451:258,1,68.7500020980836,10|0,0:2|0:0,0:0:0:0:
230,275,54199,5,4,0:0:0:0:
316,241,54296,1,4,0:0:0:0:
401,218,54392,1,8,0:2:0:0:
121,142,54489,1,4,0:0:0:0:
121,142,54683,1,4,0:0:0:0:
335,143,54779,2,0,L|429:143,1,68.7500020980836,8|0,0:2|0:0,0:0:0:0:
146,241,54973,5,4,0:0:0:0:
282,194,55167,2,0,L|206:191,1,68.7500020980836,8|0,0:2|0:0,0:0:0:0:
116,203,55360,2,0,L|118:124,1,68.7500020980836,6|4,0:0|0:0,0:0:0:0:
213,131,55554,2,0,L|117:134,1,68.7500020980836,8|0,0:2|0:0,0:0:0:0:
440,146,55747,5,6,0:0:0:0:
440,146,55941,1,0,0:0:0:0:
241,217,56038,2,0,L|72:215,1,137.500004196167,6|4,0:0|0:0,0:0:0:0:
372,212,56328,2,0,L|481:212,1,68.7500020980836,8|0,0:2|0:0,0:0:0:0:
178,230,56521,6,0,L|170:136,1,68.7500020980836,6|0,0:0|0:0,0:0:0:0:
284,120,56715,2,0,L|292:199,1,68.7500020980836,8|0,0:2|0:0,0:0:0:0:
401,112,56909,2,0,L|414:211,1,68.7500020980836,0|4,0:0|0:0,0:0:0:0:
276,228,57102,2,0,L|370:230,1,68.7500020980836,10|0,0:2|0:0,0:0:0:0:
177,167,57296,6,0,L|26:168,1,137.500004196167,4|8,0:0|0:2,0:0:0:0:
242,244,57586,2,0,L|391:243,1,137.500004196167,4|4,0:0|0:0,0:0:0:0:
199,164,57876,2,0,L|114:161,1,68.7500020980836,8|0,0:2|0:0,0:0:0:0:
355,172,58070,6,0,L|362:78,1,68.7500020980836,6|0,0:0|0:0,0:0:0:0:
242,95,58263,2,0,L|242:10,1,68.7500020980836,8|0,0:2|0:0,0:0:0:0:
116,71,58457,2,0,L|109:-10,1,68.7500020980836,0|4,0:0|0:0,0:0:0:0:
317,126,58650,2,0,L|221:129,1,68.7500020980836,10|0,0:2|0:0,0:0:0:0:
85,109,58844,6,0,L|161:107,2,68.7500020980836,4|4|8,0:0|0:0|0:2,0:0:0:0:
315,213,59134,1,4,0:0:0:0:
121,213,59231,2,0,L|104:112,1,68.7500020980836,2|0,0:0|0:0,0:0:0:0:
346,93,59425,2,0,L|363:199,1,68.7500020980836,10|0,0:2|0:0,0:0:0:0:
108,217,59618,6,0,L|290:216,1,137.500004196167,6|8,0:0|2:0,0:0:0:0:
164,156,59909,1,0,0:0:0:0:
246,152,60005,1,0,0:0:0:0:
324,124,60102,1,4,0:0:0:0:
112,107,60199,1,10,0:2:0:0:
366,228,60392,6,0,P|409:166|350:126,1,137.500004196167,4|8,0:0|0:2,0:0:0:0:
216,160,60683,1,4,0:0:0:0:
386,116,60779,2,0,L|399:202,1,68.7500020980836,0|4,0:0|0:0,0:0:0:0:
292,202,60973,2,0,L|279:95,1,68.7500020980836,8|0,0:2|0:0,0:0:0:0:
494,144,61167,6,0,L|396:146,1,68.7500020980836,6|4,0:0|0:0,0:0:0:0:
199,202,61360,2,0,L|419:202,1,156.25,12|4,0:2|0:0,0:0:0:0:
264,138,61650,1,4,0:0:0:0:
63,156,61747,6,0,L|284:157,1,156.25,12|6,0:2|0:0,0:0:0:0:
128,96,62038,1,0,0:0:0:0:
300,179,62134,2,0,L|436:179,1,78.125,8|0,0:2|0:0,0:0:0:0:
191,123,62328,2,0,L|86:123,3,78.125,8|8|8|8,0:0|0:0|0:0|0:0,0:0:0:0:
429,112,62715,6,0,P|390:207|336:199,1,137.500004196167,6|4,0:0|0:0,0:0:0:0:
110,220,63102,2,0,L|248:217,1,137.500004196167,10|4,0:2|0:0,0:0:0:0:
322,177,63392,1,4,0:0:0:0:
151,163,63489,5,6,0:0:0:0:
160,80,63585,1,4,0:0:0:0:
234,48,63682,1,4,0:0:0:0:
313,43,63779,1,4,0:0:0:0:
153,233,63876,1,10,0:2:0:0:
85,205,63972,1,0,0:0:0:0:
31,147,64069,1,4,0:0:0:0:
30,75,64166,1,4,0:0:0:0:
285,158,64263,5,6,0:0:0:0:
216,157,64359,1,0,0:0:0:0:
147,157,64456,1,0,0:0:0:0:
335,194,64554,2,0,L|451:193,2,68.7500020980836,6|0|0,0:0|0:0|0:0,0:0:0:0:
90,218,64844,2,0,L|80:91,1,68.7500020980836,6|4,0:0|0:0,0:0:0:0:
296,73,65038,5,10,0:2:0:0:
370,87,65134,1,0,0:0:0:0:
445,143,65231,1,4,0:0:0:0:
439,240,65328,1,0,0:0:0:0:
171,265,65425,2,0,P|106:213|168:133,1,206.250006294251,12|0,0:2|0:0,0:0:0:0:
376,137,65812,6,0,L|390:231,1,68.7500020980836,10|0,0:2|0:0,0:0:0:0:
139,268,66005,2,0,L|85:268,1,34.3750010490418,6|0,0:0|0:0,0:0:0:0:
104,268,66102,2,0,L|139:268,1,34.3750010490418
338,210,66199,2,0,L|392:210,1,34.3750010490418,6|0,0:0|0:0,0:0:0:0:
372,210,66296,2,0,L|337:210,1,34.3750010490418
181,154,66392,6,0,L|134:153,1,34.3750010490418,6|0,0:0|0:0,0:0:0:0:
316,106,66489,2,0,L|377:106,1,34.3750010490418
169,96,66586,2,0,L|79:98,1,68.7500020980836,4|8,0:0|0:2,0:0:0:0:
308,163,66779,2,0,L|396:165,1,68.7500020980836,0|4,0:0|0:0,0:0:0:0:
204,158,66973,6,0,L|288:160,1,68.7500020980836,8|8,0:2|0:2,0:0:0:0:
109,106,67167,2,0,L|35:108,1,68.7500020980836,8|8,0:2|0:2,0:0:0:0:
430,98,67360,6,0,L|450:204,1,74.9999977111817,6|0,0:0|0:0,0:0:0:0:
236,229,67554,2,0,L|220:140,1,74.9999977111817,8|0,0:2|0:0,0:0:0:0:
313,115,67747,2,0,L|228:117,1,74.9999977111817,4|4,0:0|0:0,0:0:0:0:
432,217,67941,2,0,L|508:217,1,74.9999977111817,10|0,0:2|0:0,0:0:0:0:
254,166,68134,6,0,L|339:162,1,74.9999977111817,6|4,0:0|0:0,0:0:0:0:
144,88,68328,2,0,L|61:90,1,74.9999977111817,10|0,0:2|0:0,0:0:0:0:
246,202,68521,2,0,L|155:208,1,74.9999977111817,6|4,0:0|0:0,0:0:0:0:
352,154,68715,2,0,L|426:151,1,74.9999977111817,10|0,0:2|0:0,0:0:0:0:
65,228,68909,6,0,L|46:134,1,74.9999977111817,6|4,0:0|0:0,0:0:0:0:
250,120,69102,2,0,L|256:211,1,74.9999977111817,8|0,0:2|0:0,0:0:0:0:
461,93,69296,2,0,L|470:195,1,74.9999977111817,4|4,0:0|0:0,0:0:0:0:
262,120,69489,2,0,L|256:211,1,74.9999977111817,8|0,0:2|0:0,0:0:0:0:
48,217,69683,6,0,L|45:121,1,74.9999977111817,4|4,0:0|0:0,0:0:0:0:
124,114,69876,2,0,L|29:120,1,74.9999977111817,8|0,0:2|0:0,0:0:0:0:
312,189,70070,2,0,L|409:183,1,74.9999977111817,6|4,0:0|0:0,0:0:0:0:
193,99,70263,2,0,L|90:99,1,74.9999977111817,10|0,0:2|0:0,0:0:0:0:
355,107,70457,5,6,0:0:0:0:
428,133,70553,1,4,0:0:0:0:
430,218,70650,1,8,0:2:0:0:
355,238,70747,1,4,0:0:0:0:
175,234,70844,2,0,L|162:144,1,74.9999977111817,6|4,0:0|0:0,0:0:0:0:
280,124,71038,2,0,L|291:211,1,74.9999977111817,8|4,0:2|0:0,0:0:0:0:
70,243,71231,6,0,L|54:164,3,74.9999977111817,6|4|8|4,0:0|0:0|0:2|0:0,0:0:0:0:
282,163,71618,2,0,L|298:84,3,74.9999977111817,6|0|8|4,0:0|0:0|0:2|0:0,0:0:0:0:
92,222,72005,6,0,L|83:132,1,74.9999977111817,6|4,0:0|0:0,0:0:0:0:
184,117,72199,2,0,L|198:212,1,74.9999977111817,8|4,0:2|0:0,0:0:0:0:
92,222,72392,2,0,L|83:132,1,74.9999977111817,4|4,0:0|0:0,0:0:0:0:
167,113,72586,2,0,L|75:114,1,74.9999977111817,8|4,0:2|0:0,0:0:0:0:
371,183,72779,6,0,L|456:182,2,74.9999977111817,6|0|8,0:0|0:0|0:2,0:0:0:0:
186,175,73070,1,6,0:0:0:0:
269,148,73167,1,0,0:0:0:0:
351,132,73263,1,4,0:0:0:0:
138,230,73360,2,0,L|123:127,1,74.9999977111817,12|0,0:2|0:0,0:0:0:0:
437,128,73554,5,6,0:0:0:0:
442,205,73650,1,0,0:0:0:0:
381,271,73747,1,8,0:2:0:0:
305,292,73844,1,0,0:0:0:0:
381,211,73941,1,4,0:0:0:0:
379,137,74038,1,4,0:0:0:0:
194,160,74134,2,0,L|118:158,1,74.9999977111817,10|0,0:2|0:0,0:0:0:0:
294,144,74328,5,6,0:0:0:0:
289,217,74424,1,4,0:0:0:0:
210,276,74521,1,8,0:2:0:0:
138,254,74618,1,0,0:0:0:0:
213,201,74715,1,4,0:0:0:0:
301,187,74812,1,4,0:0:0:0:
479,212,74909,2,0,L|491:308,1,74.9999977111817,10|0,0:2|0:0,0:0:0:0:
236,215,75102,5,6,0:0:0:0:
246,127,75198,1,4,0:0:0:0:
316,81,75295,1,8,0:2:0:0:
401,69,75392,1,0,0:0:0:0:
318,131,75489,2,0,L|291:60,1,74.9999977111817,4|4,0:0|0:0,0:0:0:0:
481,163,75683,2,0,L|397:167,1,74.9999977111817,10|0,0:2|0:0,0:0:0:0:
131,262,75876,5,6,0:0:0:0:
60,219,75972,1,4,0:0:0:0:
63,136,76069,1,8,0:2:0:0:
135,100,76166,1,0,0:0:0:0:
309,164,76263,2,0,L|389:165,1,74.9999977111817,6|4,0:0|0:0,0:0:0:0:
180,93,76457,2,0,L|84:94,1,74.9999977111817,10|0,0:2|0:0,0:0:0:0:
398,114,76650,5,6,0:0:0:0:
402,187,76746,1,4,0:0:0:0:
338,241,76843,1,8,0:2:0:0:
267,248,76940,1,4,0:0:0:0:
71,309,77038,1,6,0:0:0:0:
60,236,77134,1,4,0:0:0:0:
116,177,77231,1,8,0:2:0:0:
191,152,77328,1,4,0:0:0:0:
381,136,77425,6,4,L|397:224,3,74.9999977111817,6|4|8|4,0:0|0:0|0:2|0:0,0:0:0:0:
204,78,77812,2,0,L|190:151,3,74.9999977111817,6|4|8|4,0:0|0:0|0:2|0:0,0:0:0:0:
412,112,78199,5,6,0:0:0:0:
415,149,78247,1,0,0:0:0:0:
419,186,78295,1,0,0:0:0:0:
233,227,78392,2,0,L|316:226,1,74.9999977111817,8|8,0:2|0:2,0:0:0:0:
132,167,78586,2,0,L|40:172,1,74.9999977111817,8|8,0:0|0:0,0:0:0:0:
333,167,78779,2,0,L|409:167,1,74.9999977111817,6|0,0:0|0:0,0:0:0:0:
210,143,78973,5,6,0:0:0:0:
247,143,79021,1,0,0:0:0:0:
285,143,79069,1,12,0:2:0:0:
127,98,79167,2,0,L|44:102,1,74.9999977111817,0|4,0:0|0:0,0:0:0:0:
226,151,79360,2,0,L|236:239,1,74.9999977111817,12|8,0:2|0:2,0:0:0:0:
434,129,79554,2,0,L|446:229,1,74.9999977111817,10|8,0:2|0:2,0:0:0:0:
204,222,79747,6,0,L|191:119,1,74.9999977111817,6|0,0:0|0:0,0:0:0:0:
464,134,79941,2,0,L|477:232,1,74.9999977111817,8|0,0:2|0:0,0:0:0:0:
394,226,80134,2,0,L|481:224,1,74.9999977111817,4|4,0:0|0:0,0:0:0:0:
204,222,80328,2,0,L|111:221,1,74.9999977111817,10|0,0:2|0:0,0:0:0:0:
335,153,80521,6,0,L|437:150,1,74.9999977111817,6|4,0:0|0:0,0:0:0:0:
160,171,80715,2,0,L|62:171,1,74.9999977111817,10|0,0:2|0:0,0:0:0:0:
285,96,80909,2,0,L|200:98,1,74.9999977111817,6|4,0:0|0:0,0:0:0:0:
405,77,81102,2,0,L|492:80,1,74.9999977111817,10|0,0:2|0:0,0:0:0:0:
282,112,81296,6,0,L|274:213,1,74.9999977111817,6|4,0:0|0:0,0:0:0:0:
84,116,81489,2,0,L|70:219,1,74.9999977111817,8|0,0:2|0:0,0:0:0:0:
260,116,81683,2,0,L|264:219,1,74.9999977111817,4|4,0:0|0:0,0:0:0:0:
465,114,81876,2,0,L|473:211,1,74.9999977111817,8|0,0:2|0:0,0:0:0:0:
267,203,82070,6,0,L|265:109,1,74.9999977111817,4|4,0:0|0:0,0:0:0:0:
334,114,82263,2,0,L|408:107,1,74.9999977111817,8|0,0:2|0:0,0:0:0:0:
151,217,82457,2,0,L|139:126,1,74.9999977111817,6|4,0:0|0:0,0:0:0:0:
336,121,82650,2,0,L|430:123,1,74.9999977111817,10|0,0:2|0:0,0:0:0:0:
240,218,82844,5,6,0:0:0:0:
241,137,82940,1,4,0:0:0:0:
302,73,83037,1,8,0:2:0:0:
390,69,83134,1,4,0:0:0:0:
170,195,83231,1,6,0:0:0:0:
98,180,83327,1,4,0:0:0:0:
28,122,83424,1,8,0:2:0:0:
26,48,83521,1,4,0:0:0:0:
262,109,83618,5,6,0:0:0:0:
187,109,83714,1,4,0:0:0:0:
112,109,83811,1,8,0:2:0:0:
187,109,83909,1,4,0:0:0:0:
407,183,84005,2,0,L|417:277,1,74.9999977111817,6|4,0:0|0:0,0:0:0:0:
191,214,84199,2,0,L|100:215,1,74.9999977111817,8|4,0:2|0:0,0:0:0:0:
423,106,84392,6,0,L|436:16,1,74.9999977111817,6|4,0:0|0:0,0:0:0:0:
202,83,84586,2,0,L|191:-2,1,74.9999977111817,8|4,0:2|0:0,0:0:0:0:
271,105,84779,2,0,L|168:113,1,74.9999977111817,4|4,0:0|0:0,0:0:0:0:
271,105,84973,2,0,L|358:104,1,74.9999977111817,8|4,0:2|0:0,0:0:0:0:
106,169,85167,5,6,0:0:0:0:
180,170,85263,1,0,0:0:0:0:
106,169,85360,1,0,0:0:0:0:
292,219,85457,2,0,L|385:220,2,74.9999977111817,6|0|4,0:0|0:0|0:0,0:0:0:0:
59,239,85747,2,0,L|50:147,1,74.9999977111817,12|0,0:2|0:0,0:0:0:0:
345,147,85941,6,0,L|246:151,1,74.9999977111817,6|4,0:0|0:0,0:0:0:0:
69,238,86134,2,0,L|156:237,1,74.9999977111817,10|0,0:2|0:0,0:0:0:0:
429,229,86328,1,6,0:0:0:0:
391,229,86376,1,0,0:0:0:0:
354,229,86424,1,4,0:0:0:0:
185,172,86521,2,0,L|173:72,1,74.9999977111817,10|0,0:2|0:0,0:0:0:0:
442,98,86715,5,6,0:0:0:0:
455,198,86811,1,4,0:0:0:0:
370,247,86908,1,10,0:2:0:0:
451,224,87005,1,0,0:0:0:0:
159,220,87102,2,0,L|149:126,1,74.9999977111817,6|4,0:0|0:0,0:0:0:0:
391,94,87296,2,0,L|401:185,1,74.9999977111817,10|0,0:2|0:0,0:0:0:0:
95,149,87489,5,6,0:0:0:0:
181,120,87586,1,4,0:0:0:0:
266,111,87683,1,10,0:2:0:0:
181,120,87779,1,0,0:0:0:0:
95,149,87876,1,6,0:0:0:0:
181,120,87973,1,4,0:0:0:0:
392,209,88070,2,0,L|297:211,1,74.9999977111817,10|0,0:2|0:0,0:0:0:0:
110,268,88263,5,6,0:0:0:0:
46,236,88359,1,4,0:0:0:0:
46,165,88456,1,10,0:2:0:0:
110,134,88553,1,0,0:0:0:0:
410,178,88650,2,0,L|320:181,1,74.9999977111817,6|4,0:0|0:0,0:0:0:0:
146,142,88844,2,0,L|49:142,1,74.9999977111817,10|0,0:2|0:0,0:0:0:0:
320,105,89038,5,6,0:0:0:0:
411,114,89134,1,4,0:0:0:0:
481,172,89231,1,8,0:2:0:0:
482,269,89328,1,4,0:0:0:0:
260,294,89425,1,6,0:0:0:0:
267,205,89521,1,4,0:0:0:0:
337,160,89618,1,8,0:2:0:0:
409,142,89715,1,4,0:0:0:0:
164,199,89812,5,6,0:0:0:0:
187,103,89909,1,4,0:0:0:0:
274,71,90005,1,8,0:2:0:0:
365,54,90102,1,4,0:0:0:0:
209,238,90199,1,6,0:0:0:0:
130,226,90295,1,4,0:0:0:0:
56,177,90392,1,8,0:2:0:0:
38,95,90489,1,4,0:0:0:0:
276,149,90586,6,0,L|359:146,1,74.9999977111817,6|4,0:0|0:0,0:0:0:0:
158,112,90779,1,8,0:2:0:0:
153,74,90827,1,0,0:0:0:0:
148,37,90875,1,8,0:2:0:0:
321,179,90973,2,0,L|218:183,1,74.9999977111817,8|8,0:0|0:0,0:0:0:0:
416,117,91167,2,0,L|495:114,1,74.9999977111817,4|4,0:0|0:0,0:0:0:0:
224,127,91360,6,0,L|66:133,1,149.999995422363,12|0,0:2|0:0,0:0:0:0:
150,216,91650,1,12,0:2:0:0:
396,217,91747,2,0,L|474:219,1,74.9999977111817,0|4,0:0|0:0,0:0:0:0:
196,139,91941,2,0,L|106:138,1,74.9999977111817,12|0,0:2|0:0,0:0:0:0:
387,111,92134,5,6,0:0:0:0:
458,165,92230,1,0,0:0:0:0:
386,220,92327,1,8,0:2:0:0:
309,209,92424,1,0,0:0:0:0:
386,220,92521,1,4,0:0:0:0:
387,164,92618,1,0,0:0:0:0:
185,221,92715,1,10,0:2:0:0:
193,144,92811,1,0,0:0:0:0:
259,99,92908,5,0,0:0:0:0:
335,102,93005,1,0,0:0:0:0:
255,57,93102,1,8,0:2:0:0:
177,43,93199,1,0,0:0:0:0:
366,108,93296,2,0,L|376:186,1,62.5,6|4,0:0|0:0,0:0:0:0:
264,202,93489,2,0,L|254:127,1,62.5,8|0,0:2|0:0,0:0:0:0:
450,85,93683,5,6,0:0:0:0:
467,144,93779,1,0,0:0:0:0:
437,207,93876,1,8,0:2:0:0:
381,250,93973,1,0,0:0:0:0:
311,275,94070,1,4,0:0:0:0:
228,261,94166,1,0,0:0:0:0:
386,194,94263,1,10,0:2:0:0:
388,120,94359,1,0,0:0:0:0:
327,69,94456,5,4,0:0:0:0:
260,36,94553,1,4,0:0:0:0:
183,18,94650,1,8,0:2:0:0:
96,30,94746,1,0,0:0:0:0:
260,195,94844,2,0,L|333:191,1,62.5,4|4,0:0|0:0,0:0:0:0:
243,129,95038,2,0,L|170:125,1,62.5,8|0,0:2|0:0,0:0:0:0:
402,139,95231,5,6,0:0:0:0:
406,213,95327,1,0,0:0:0:0:
339,243,95424,1,8,0:2:0:0:
264,251,95521,1,0,0:0:0:0:
353,200,95618,2,0,L|358:115,1,62.5,4|0,0:0|0:0,0:0:0:0:
198,180,95812,1,10,0:2:0:0:
203,118,95908,1,0,0:0:0:0:
268,71,96005,5,0,0:0:0:0:
336,72,96102,1,0,0:0:0:0:
252,108,96199,2,0,L|242:31,1,62.5,8|0,0:2|0:0,0:0:0:0:
433,110,96392,2,0,L|354:116,1,62.5,6|4,0:0|0:0,0:0:0:0:
433,110,96586,2,0,L|443:192,1,62.5,8|0,0:2|0:0,0:0:0:0:
226,219,96779,5,6,0:0:0:0:
306,211,96876,1,0,0:0:0:0:
222,192,96973,1,8,0:2:0:0:
143,165,97070,1,0,0:0:0:0:
315,247,97167,1,4,0:0:0:0:
395,229,97263,1,0,0:0:0:0:
222,192,97360,1,10,0:2:0:0:
143,162,97457,1,0,0:0:0:0:
352,132,97554,6,0,L|416:130,1,62.5,0|4,0:0|0:0,0:0:0:0:
173,126,97747,1,12,0:2:0:0:
439,211,97941,1,4,0:0:0:0:
361,169,98038,1,4,0:0:0:0:
176,92,98134,1,8,0:2:0:0:
96,78,98231,1,0,0:0:0:0:
376,106,98328,5,6,0:0:0:0:
443,117,98424,1,0,0:0:0:0:
427,192,98521,1,8,0:2:0:0:
366,216,98618,1,0,0:0:0:0:
450,212,98715,2,0,L|457:284,1,62.5,4|0,0:0|0:0,0:0:0:0:
238,241,98909,2,0,L|231:161,1,62.5,10|0,0:2|0:0,0:0:0:0:
313,145,99102,6,0,L|320:227,1,62.5
235,182,99296,2,0,L|227:95,1,62.5,8|0,0:2|0:0,0:0:0:0:
428,106,99489,1,6,0:0:0:0:
437,166,99585,1,4,0:0:0:0:
388,216,99682,1,8,0:2:0:0:
319,239,99779,1,0,0:0:0:0:
83,202,99876,6,0,L|70:93,1,62.5,6|0,0:0|0:0,0:0:0:0:
179,88,100070,2,0,L|188:166,1,62.5,8|0,0:2|0:0,0:0:0:0:
296,88,100263,2,0,L|306:168,1,62.5,4|0,0:0|0:0,0:0:0:0:
149,249,100457,1,10,0:2:0:0:
160,188,100553,1,0,0:0:0:0:
216,145,100650,5,0,0:0:0:0:
284,137,100747,1,4,0:0:0:0:
200,147,100844,2,0,L|187:50,1,62.5,8|0,0:2|0:0,0:0:0:0:
374,63,101038,2,0,L|380:136,1,62.5,4|4,0:0|0:0,0:0:0:0:
266,206,101231,2,0,L|253:127,1,62.5,8|0,0:2|0:0,0:0:0:0:
474,103,101425,5,6,0:0:0:0:
487,162,101521,1,0,0:0:0:0:
423,214,101618,1,8,0:2:0:0:
353,232,101715,1,0,0:0:0:0:
438,217,101812,2,0,L|444:309,1,62.5,4|0,0:0|0:0,0:0:0:0:
199,240,102005,1,10,0:2:0:0:
140,223,102101,1,0,0:0:0:0:
104,173,102198,5,0,0:0:0:0:
107,112,102295,1,0,0:0:0:0:
148,66,102392,1,8,0:2:0:0:
208,56,102488,1,0,0:0:0:0:
423,156,102586,2,0,L|333:158,1,62.5,6|4,0:0|0:0,0:0:0:0:
160,135,102779,1,8,0:2:0:0:
353,129,102973,6,0,L|352:177,1,31.25,4|4,0:0|0:0,0:0:0:0:
231,193,103070,2,0,L|88:193,1,125,12|0,2:0|0:0,0:0:0:0:
313,231,103360,2,0,L|455:233,1,125,12|4,0:2|0:0,0:0:0:0:
395,178,103602,1,0,0:0:0:0:
221,164,103650,6,0,L|136:164,1,62.5,12|0,0:2|0:0,0:0:0:0:
317,114,103844,2,0,L|397:113,1,62.5,8|8,0:2|0:2,0:0:0:0:
211,189,104038,2,0,L|289:187,1,62.5,8|8,0:2|0:0,0:0:0:0:
86,160,104231,2,0,L|156:160,1,62.5,8|4,0:0|0:0,0:0:0:0:
389,139,104425,1,4,0:0:0:0:
188,223,104521,6,0,L|108:225,4,62.5,10|8|8|4|4,0:0|0:0|0:0|0:0|0:0,0:0:0:0:
386,201,105102,2,4,L|299:206,1,62.5,6|4,0:0|0:0,0:0:0:0:
140,162,105296,5,8,0:0:0:0:
228,152,105392,2,0,L|234:237,1,62.5,8|8,0:0|0:0,0:0:0:0:
140,162,105586,1,4,0:0:0:0:
306,243,105683,2,0,L|373:241,1,62.5,6|4,0:0|0:0,0:0:0:0:
276,183,105876,2,0,L|203:189,1,62.5,8|8,0:0|0:0,0:0:0:0:
420,192,106070,6,0,L|485:193,4,62.5,10|8|8|4|4,0:0|0:0|0:0|0:0|0:0,0:0:0:0:
208,210,106650,2,0,L|199:132,1,62.5,6|4,0:0|0:0,0:0:0:0:
372,141,106844,5,8,0:0:0:0:
286,110,106941,1,8,0:0:0:0:
199,104,107038,1,8,0:0:0:0:
378,216,107134,1,4,0:0:0:0:
465,210,107231,1,6,0:0:0:0:
378,216,107328,1,4,0:0:0:0:
161,244,107425,2,0,L|154:173,1,62.5,8|8,0:0|0:0,0:0:0:0:
365,156,107618,6,0,L|454:153,4,62.5,10|8|8|4|4,0:0|0:0|0:0|0:0|0:0,0:0:0:0:
164,215,108199,2,0,L|156:126,1,62.5,6|4,0:0|0:0,0:0:0:0:
326,163,108392,6,0,L|223:162,2,62.5,8|8|8,0:0|0:0|0:0,0:0:0:0:
118,159,108683,2,0,L|52:159,2,62.5,4|4|4,0:0|0:0|0:0,0:0:0:0:
352,128,108973,2,0,L|359:219,1,62.5,8|8,0:0|0:0,0:0:0:0:
132,248,109167,6,0,L|276:248,1,137.500004196167,6|0,0:0|0:0,0:0:0:0:
331,201,109457,1,10,0:0:0:0:
223,158,109505,1,4,0:0:0:0:
115,139,109554,1,4,0:0:0:0:
308,139,109650,2,0,L|447:141,1,125,0|4,0:0|0:0,0:0:0:0:
152,277,109941,6,0,P|113:237|158:177,1,125,12|4,0:2|0:0,0:0:0:0:
204,164,110183,1,0,0:0:0:0:
381,135,110231,2,0,L|296:134,2,62.5,12|0|4,0:2|0:0|0:0,0:0:0:0:
137,198,110521,2,0,L|123:114,1,62.5,12|0,0:2|0:0,0:0:0:0:
336,118,110715,6,0,L|346:203,1,62.5,6|0,0:0|0:0,0:0:0:0:
245,230,110909,2,0,L|318:223,1,62.5,8|0,0:2|0:0,0:0:0:0:
241,163,111102,2,0,L|166:161,1,62.5,4|4,0:0|0:0,0:0:0:0:
358,121,111296,2,0,L|363:51,1,62.5,10|0,0:2|0:0,0:0:0:0:
114,212,111489,6,0,L|279:212,1,149.999995422363,4|0,0:0|0:0,0:0:0:0:
74,144,111779,2,0,L|232:143,1,149.999995422363,4|4,0:0|0:0,0:0:0:0:
39,85,112070,2,0,L|128:85,1,74.9999977111817,8|0,0:2|0:0,0:0:0:0:
420,143,112263,6,0,L|429:226,1,68.7500020980836,6|0,0:0|0:0,0:0:0:0:
325,212,112457,2,0,L|395:210,1,68.7500020980836,8|4,0:2|0:0,0:0:0:0:
286,149,112650,2,0,L|218:152,1,68.7500020980836,0|4,0:0|0:0,0:0:0:0:
414,126,112844,2,0,L|426:208,1,68.7500020980836,10|0,0:2|0:0,0:0:0:0:
256,255,113038,6,0,L|401:253,1,137.500004196167,4|8,0:0|0:2,0:0:0:0:
180,197,113328,2,0,L|272:197,2,68.7500020980836,4|0|4,0:0|0:0|0:0,0:0:0:0:
375,149,113618,2,0,L|448:149,1,68.7500020980836,10|0,0:2|0:0,0:0:0:0:
196,237,113812,6,0,L|186:145,1,68.7500020980836,6|0,0:0|0:0,0:0:0:0:
286,133,114005,1,8,0:2:0:0:
188,109,114102,1,0,0:0:0:0:
89,99,114199,1,4,0:0:0:0:
188,109,114296,1,4,0:0:0:0:
392,149,114392,2,0,L|407:223,1,68.7500020980836,10|0,0:2|0:0,0:0:0:0:
229,232,114586,6,0,L|322:230,2,68.7500020980836,4|4|8,0:0|0:0|0:2,0:0:0:0:
59,172,114876,1,4,0:0:0:0:
264,127,114973,2,0,L|342:126,2,68.7500020980836,2|4|8,0:0|0:0|0:2,0:0:0:0:
167,78,115263,1,0,0:0:0:0:
402,185,115360,6,0,L|301:187,1,68.7500020980836,6|4,0:0|0:0,0:0:0:0:
148,229,115554,2,0,L|407:229,1,250,12|4,0:2|0:0,0:0:0:0:
298,159,115844,1,4,0:0:0:0:
48,159,115941,2,0,L|303:159,1,250,12|6,0:2|0:0,0:0:0:0:
140,232,116199,6,0,L|127:139,1,83.3333333333333,4|8,0:0|0:0,0:0:0:0:
322,136,116328,2,0,L|406:133,1,68.7500020980836,4|4,0:0|0:0,0:0:0:0:
189,159,116521,1,4,0:0:0:0:
278,125,116618,1,4,0:0:0:0:
189,159,116715,1,4,0:0:0:0:
278,125,116812,1,4,0:0:0:0:
55,250,116909,6,0,P|12:190|89:101,1,206.250006294251,6|4,0:0|0:0,0:0:0:0:
257,221,117296,2,0,L|396:218,1,137.500004196167,10|8,0:2|0:0,0:0:0:0:
308,163,117586,1,8,0:0:0:0:
471,131,117683,1,6,0:0:0:0:
482,197,117779,1,4,0:0:0:0:
417,248,117876,1,4,0:0:0:0:
346,264,117973,1,4,0:0:0:0:
106,206,118070,6,0,L|88:100,1,68.7500020980836,10|0,0:2|0:0,0:0:0:0:
266,110,118263,2,0,L|177:115,1,68.7500020980836,4|0,0:0|0:0,0:0:0:0:
388,147,118457,6,0,L|489:148,2,68.7500020980836,6|0|4,0:0|0:0|0:0,0:0:0:0:
163,148,118747,1,6,0:0:0:0:
259,121,118844,1,0,0:0:0:0:
354,108,118941,1,0,0:0:0:0:
124,211,119038,2,0,L|115:111,1,68.7500020980836,6|4,0:0|0:0,0:0:0:0:
339,77,119231,6,0,P|426:118|440:239,1,206.250006294251,12|0,0:2|0:0,0:0:0:0:
152,257,119618,2,0,P|85:192|155:131,1,206.250006294251,12|0,0:2|0:0,0:0:0:0:
437,129,120005,5,12,0:2:0:0:
402,127,120053,1,0,0:0:0:0:
368,126,120101,1,0,0:0:0:0:
210,157,120199,1,10,0:2:0:0:
297,131,120296,1,0,0:0:0:0:
91,199,120392,2,0,L|81:103,1,68.7500020980836,10|0,0:2|0:0,0:0:0:0:
297,163,120586,1,10,0:2:0:0:
208,128,120683,1,8,0:2:0:0:
451,232,120779,5,6,0:0:0:0:
414,230,120827,1,0,0:0:0:0:
377,231,120875,1,10,0:2:0:0:
219,181,120973,1,0,0:0:0:0:
256,179,121021,1,0,0:0:0:0:
293,179,121069,1,0,0:0:0:0:
112,134,121167,2,0,L|35:133,1,68.7500020980836,10|8,0:2|0:2,0:0:0:0:
309,93,121360,2,0,L|389:91,1,68.7500020980836,10|8,0:2|0:2,0:0:0:0:
156,229,121554,6,0,L|262:217,3,78.125,6|0|8|0,0:0|0:0|0:2|0:0,0:0:0:0:
156,229,121941,2,0,L|149:137,1,78.125,4|4,0:0|0:0,0:0:0:0:
354,149,122134,2,0,L|267:184,1,78.125,10|0,0:2|0:0,0:0:0:0:
458,185,122328,6,0,L|365:217,1,78.125,6|4,0:0|0:0,0:0:0:0:
226,155,122521,2,0,L|305:101,1,78.125,10|0,0:2|0:0,0:0:0:0:
134,99,122715,2,0,L|46:143,1,78.125,6|4,0:0|0:0,0:0:0:0:
298,184,122909,2,0,L|213:223,1,78.125,10|0,0:2|0:0,0:0:0:0:
467,202,123102,6,0,L|374:234,3,78.125,6|4|8|0,0:0|0:0|0:2|0:0,0:0:0:0:
211,132,123489,2,0,L|291:169,3,78.125,4|4|8|0,0:0|0:0|0:2|0:0,0:0:0:0:
107,224,123876,6,0,L|90:137,1,78.125,4|4,0:0|0:0,0:0:0:0:
166,122,124070,2,0,L|76:152,1,78.125,8|0,0:2|0:0,0:0:0:0:
326,144,124263,2,0,L|412:189,1,78.125,6|4,0:0|0:0,0:0:0:0:
228,78,124457,2,0,L|138:122,1,78.125,10|0,0:2|0:0,0:0:0:0:
341,183,124650,5,6,0:0:0:0:
257,148,124747,1,4,0:0:0:0:
341,183,124844,1,8,0:2:0:0:
425,149,124941,1,4,0:0:0:0:
214,221,125038,2,0,L|112:223,3,78.125,6|4|8|4,0:0|0:0|0:2|0:0,0:0:0:0:
346,87,125425,5,6,0:0:0:0:
421,99,125521,1,4,0:0:0:0:
478,151,125618,1,8,0:2:0:0:
495,226,125715,1,4,0:0:0:0:
250,240,125812,1,6,0:0:0:0:
173,229,125908,1,0,0:0:0:0:
111,183,126005,1,8,0:2:0:0:
78,113,126102,1,4,0:0:0:0:
325,120,126199,6,0,L|336:204,1,78.125,6|4,0:0|0:0,0:0:0:0:
259,211,126392,2,0,L|348:207,1,78.125,8|4,0:2|0:0,0:0:0:0:
252,158,126586,2,0,L|168:161,1,78.125,4|4,0:0|0:0,0:0:0:0:
260,119,126779,2,0,L|272:206,1,78.125,8|4,0:2|0:0,0:0:0:0:
96,253,126973,6,0,L|178:251,1,78.125,6|0,0:0|0:0,0:0:0:0:
372,166,127167,1,0,0:0:0:0:
175,169,127263,2,0,L|70:171,1,78.125,6|0,0:0|0:0,0:0:0:0:
300,147,127457,1,4,0:0:0:0:
70,200,127554,2,0,L|179:199,1,78.125,12|0,0:2|0:0,0:0:0:0:
368,212,127747,6,0,L|453:205,1,78.125,6|0,0:0|0:0,0:0:0:0:
360,186,127941,2,0,L|349:100,1,78.125
263,138,128134,2,0,L|248:43,1,78.125,4|4,0:0|0:0,0:0:0:0:
456,93,128328,2,0,L|360:93,1,78.125,10|0,0:2|0:0,0:0:0:0:
189,223,128521,5,6,0:0:0:0:
257,195,128617,1,4,0:0:0:0:
255,122,128714,1,8,0:2:0:0:
186,97,128811,1,0,0:0:0:0:
93,124,128909,2,0,L|80:30,1,78.125,4|0,0:0|0:0,0:0:0:0:
277,161,129102,2,0,L|193:161,1,78.125,10|0,0:2|0:0,0:0:0:0:
406,170,129296,5,6,0:0:0:0:
368,237,129392,1,0,0:0:0:0:
285,273,129489,1,0,0:0:0:0:
196,273,129586,1,0,0:0:0:0:
285,204,129683,1,4,0:0:0:0:
370,161,129779,1,4,0:0:0:0:
189,146,129876,2,0,L|284:143,1,78.125,10|0,0:2|0:0,0:0:0:0:
93,200,130070,5,6,0:0:0:0:
24,171,130166,1,4,0:0:0:0:
23,98,130263,1,8,0:2:0:0:
90,67,130360,1,0,0:0:0:0:
339,95,130457,2,0,L|345:175,1,78.125,6|0,0:0|0:0,0:0:0:0:
127,213,130650,2,0,L|111:123,1,78.125,10|0,0:2|0:0,0:0:0:0:
315,164,130844,6,0,L|208:167,1,78.125,6|4,0:0|0:0,0:0:0:0:
326,227,131038,2,0,L|410:225,1,78.125,8|4,0:2|0:0,0:0:0:0:
218,132,131231,2,0,L|135:137,1,78.125,6|4,0:0|0:0,0:0:0:0:
223,77,131425,2,0,L|302:75,1,78.125,8|4,0:2|0:0,0:0:0:0:
133,222,131618,5,6,0:0:0:0:
168,149,131714,1,4,0:0:0:0:
250,109,131811,1,8,0:2:0:0:
331,103,131908,1,4,0:0:0:0:
160,265,132005,1,6,0:0:0:0:
85,208,132101,1,4,0:0:0:0:
15,139,132198,1,8,0:2:0:0:
13,56,132295,1,4,0:0:0:0:
296,182,132392,5,6,0:0:0:0:
256,182,132440,1,0,0:0:0:0:
217,182,132488,1,0,0:0:0:0:
382,163,132586,2,0,L|461:164,1,78.125,8|8,0:2|0:2,0:0:0:0:
259,141,132779,2,0,L|248:52,1,78.125,8|8,0:0|0:0,0:0:0:0:
85,105,132973,2,0,L|75:7,1,78.125,6|4,0:0|0:0,0:0:0:0:
292,95,133167,5,6,0:0:0:0:
252,94,133215,1,0,0:0:0:0:
213,93,133263,1,8,0:2:0:0:
416,84,133360,2,0,L|430:167,1,78.125,0|4,0:0|0:0,0:0:0:0:
247,211,133554,2,0,L|351:211,1,78.125,10|8,0:2|0:2,0:0:0:0:
111,140,133747,2,0,L|192:142,1,78.125,10|8,0:2|0:2,0:0:0:0:
426,163,133941,6,0,L|444:74,1,78.125,6|4,0:0|0:0,0:0:0:0:
271,82,134134,2,0,L|264:-15,1,78.125,8|0,0:2|0:0,0:0:0:0:
90,76,134328,2,0,L|75:-11,1,78.125,4|4,0:0|0:0,0:0:0:0:
273,167,134521,2,0,L|176:168,1,78.125,10|0,0:2|0:0,0:0:0:0:
402,123,134715,6,0,L|484:124,1,78.125,6|4,0:0|0:0,0:0:0:0:
271,98,134909,2,0,L|366:96,1,78.125,10|0,0:2|0:0,0:0:0:0:
175,61,135102,2,0,L|71:62,1,78.125,6|4,0:0|0:0,0:0:0:0:
322,54,135296,2,0,L|421:53,1,78.125,10|0,0:2|0:0,0:0:0:0:
179,182,135489,6,0,L|72:182,3,78.125,6|4|8|0,0:0|0:0|0:2|0:0,0:0:0:0:
304,133,135876,2,0,L|411:133,3,78.125,4|4|8|0,0:0|0:0|0:2|0:0,0:0:0:0:
196,177,136263,6,0,L|107:176,3,78.125,4|4|8|0,0:0|0:0|0:2|0:0,0:0:0:0:
294,138,136650,2,0,L|303:228,1,78.125,6|4,0:0|0:0,0:0:0:0:
473,129,136844,2,0,L|486:238,1,78.125,10|0,0:2|0:0,0:0:0:0:
262,250,137038,5,6,0:0:0:0:
273,173,137134,1,4,0:0:0:0:
342,119,137231,1,8,0:2:0:0:
419,106,137328,1,4,0:0:0:0:
244,108,137425,1,6,0:0:0:0:
161,61,137521,1,4,0:0:0:0:
247,44,137618,1,8,0:2:0:0:
338,54,137715,1,4,0:0:0:0:
184,254,137812,5,6,0:0:0:0:
108,250,137908,1,4,0:0:0:0:
36,203,138005,1,8,0:2:0:0:
27,128,138102,1,4,0:0:0:0:
226,235,138199,1,6,0:0:0:0:
234,159,138295,1,0,0:0:0:0:
158,97,138392,1,8,0:2:0:0:
74,78,138489,1,4,0:0:0:0:
252,64,138586,6,0,L|268:156,1,78.125,6|4,0:0|0:0,0:0:0:0:
431,72,138779,2,0,L|449:169,1,78.125,8|4,0:2|0:0,0:0:0:0:
256,187,138973,2,0,L|242:81,1,78.125,4|4,0:0|0:0,0:0:0:0:
64,134,139167,2,0,L|52:35,1,78.125,8|4,0:2|0:0,0:0:0:0:
246,151,139360,6,0,L|148:149,2,78.125,6|0|8,0:0|0:0|0:2,0:0:0:0:
406,222,139650,2,0,L|504:220,2,78.125,6|0|4,0:0|0:0|0:0,0:0:0:0:
171,152,139941,2,0,L|73:154,1,78.125,12|0,0:2|0:0,0:0:0:0:
302,164,140134,5,6,0:0:0:0:
341,164,140182,1,0,0:0:0:0:
380,164,140230,1,4,0:0:0:0:
196,247,140328,2,0,L|188:156,1,78.125,10|0,0:2|0:0,0:0:0:0:
275,115,140521,2,0,L|176:115,1,78.125,6|4,0:0|0:0,0:0:0:0:
404,85,140715,2,0,L|304:85,1,78.125,10|0,0:2|0:0,0:0:0:0:
140,246,140909,5,6,0:0:0:0:
159,171,141005,1,4,0:0:0:0:
238,124,141102,1,10,0:2:0:0:
316,126,141199,1,0,0:0:0:0:
159,107,141296,2,0,L|60:108,1,78.125,6|4,0:0|0:0,0:0:0:0:
323,78,141489,2,0,L|409:78,1,78.125,10|0,0:2|0:0,0:0:0:0:
150,47,141683,6,0,L|103:47,2,39.0625,6|0|4,0:0|0:0|0:0,0:0:0:0:
350,130,141876,2,0,L|357:229,1,78.125,10|0,0:2|0:0,0:0:0:0:
277,242,142070,2,0,L|377:242,1,78.125,6|4,0:0|0:0,0:0:0:0:
165,159,142263,2,0,L|251:157,1,78.125,10|0,0:2|0:0,0:0:0:0:
413,80,142457,5,6,0:0:0:0:
489,109,142553,1,4,0:0:0:0:
488,193,142650,1,10,0:2:0:0:
410,227,142747,1,0,0:0:0:0:
171,140,142844,2,0,L|87:139,1,78.125,6|4,0:0|0:0,0:0:0:0:
329,100,143038,2,0,L|412:103,1,78.125,10|0,0:2|0:0,0:0:0:0:
193,249,143231,5,6,0:0:0:0:
201,172,143327,1,4,0:0:0:0:
254,117,143424,1,8,0:2:0:0:
330,105,143521,1,4,0:0:0:0:
63,201,143618,1,6,0:0:0:0:
72,108,143714,1,4,0:0:0:0:
145,42,143811,1,8,0:2:0:0:
227,28,143908,1,4,0:0:0:0:
432,278,144005,5,6,0:0:0:0:
345,278,144101,1,0,0:0:0:0:
269,228,144198,1,8,0:2:0:0:
346,151,144295,1,4,0:0:0:0:
151,171,144392,1,6,0:0:0:0:
58,153,144488,1,4,0:0:0:0:
152,85,144586,1,8,0:2:0:0:
240,83,144683,1,4,0:0:0:0:
480,166,144779,5,6,0:0:0:0:
440,166,144827,1,0,0:0:0:0:
401,166,144875,1,4,0:0:0:0:
209,243,144973,2,0,L|316:243,1,78.125,8|8,0:2|0:2,0:0:0:0:
115,187,145167,2,0,L|106:85,1,78.125,8|8,0:0|0:0,0:0:0:0:
298,97,145360,2,0,L|388:96,1,78.125,4|4,0:0|0:0,0:0:0:0:
136,122,145554,6,0,L|31:122,2,78.125,12|0|0,0:2|0:0|0:0,0:0:0:0:
329,252,145844,1,8,0:2:0:0:
232,175,145941,1,6,0:0:0:0:
136,122,146038,1,0,0:0:0:0:
377,128,146134,2,0,L|466:128,1,78.125,8|8,0:2|0:2,0:0:0:0:
200,272,146328,6,0,P|148:234|241:101,1,250,6|4,0:3|0:3,0:0:0:0:
340,108,146909,1,2,0:0:0:0:
153,234,147102,2,0,L|140:-44,1,250,4|6,0:3|0:3,0:0:0:0:
395,327,147876,6,0,P|447:289|354:156,1,250,6|4,0:3|0:3,0:0:0:0:
255,163,148457,1,2,0:0:0:0:
442,289,148650,2,0,L|455:11,1,250,4|4,0:3|0:3,0:0:0:0:
333,95,149231,2,0,L|420:93,1,62.5
153,297,149425,6,0,P|156:214|305:154,1,250,6|4,0:0|0:3,0:0:0:0:
414,168,150005,1,2,0:0:0:0:
219,271,150199,2,0,P|153:234|239:122,1,250,4|6,0:3|0:3,0:0:0:0:
358,126,150779,1,0,0:0:0:0:
28,192,150973,6,0,L|158:192,2,125,6|0|8,0:3|0:0|0:3,0:0:0:0:
155,132,151554,2,0,L|67:131,1,62.5,10|0,0:3|0:0,0:0:0:0:
315,91,151747,1,6,0:3:0:0:
368,116,151843,1,4,0:3:0:0:
372,175,151940,1,0,0:0:0:0:
322,207,152037,1,0,0:0:0:0:
119,184,152134,1,4,0:3:0:0:
234,144,152328,2,0,L|145:144,1,62.5,4|4,0:3|0:3,0:0:0:0:
386,77,152521,6,0,P|446:101|331:288,1,375,6|0,0:3|0:0,0:0:0:0:
167,260,153296,2,0,L|155:125,1,125,4|0,0:3|0:0,0:0:0:0:
324,125,153683,2,0,L|329:-3,1,125,4|0,0:3|0:0,0:0:0:0:
62,113,154070,6,0,L|193:113,1,125,4|4,0:3|0:3,0:0:0:0:
372,192,154457,2,0,L|379:52,1,125,4|4,0:3|0:3,0:0:0:0:
70,127,154844,2,0,L|201:128,1,125,10|8,0:2|0:2,0:0:0:0:
481,155,155231,2,0,L|355:155,1,125,8|8,0:2|0:2,0:0:0:0:
46,209,155618,5,6,0:0:0:0:
220,177,155812,1,4,3:0:0:0:
46,209,156005,1,4,0:3:0:0:
220,177,156199,1,4,0:3:0:0:
484,219,156392,1,4,0:3:0:0:
310,179,156586,1,4,0:3:0:0:
484,219,156779,1,4,0:3:0:0:
310,179,156973,1,4,0:3:0:0:
32,200,157163,5,12,0:2:0:0:
63,200,157211,1,0,0:0:0:0:
94,200,157259,1,2,0:0:0:0:
264,137,157356,2,0,L|198:137,1,62.5,2|2,0:0|0:0,0:0:0:0:
385,109,157550,2,0,L|392:178,1,62.5,2|2,0:0|0:0,0:0:0:0:
180,212,157743,2,0,L|165:121,1,62.5,2|2,0:0|0:0,0:0:0:0:
384,179,157937,5,8,0:2:0:0:
300,179,158034,1,8,0:2:0:0:
384,179,158130,1,8,0:2:0:0:
300,179,158227,1,8,0:2:0:0:
79,124,158324,1,8,0:2:0:0:
163,124,158421,1,8,0:2:0:0:
79,124,158517,1,8,0:2:0:0:
163,124,158614,1,8,0:2:0:0:
402,197,158711,6,0,L|418:361,1,125,6|0,0:0|0:0,0:0:0:0:
211,278,159001,2,0,L|346:279,1,125,4|4,0:0|0:0,0:0:0:0:
169,177,159292,2,0,L|75:177,1,62.5,8|0,0:2|0:0,0:0:0:0:
309,155,159485,6,0,L|228:155,2,62.5,4|4|8,0:0|0:0|0:2,0:0:0:0:
155,108,159775,2,0,L|21:108,1,125,4|4,0:0|0:0,0:0:0:0:
281,43,160066,2,0,L|347:44,1,62.5,10|0,0:2|0:0,0:0:0:0:
67,139,160259,5,6,0:3:0:0:
60,201,160355,1,0,0:0:0:0:
54,263,160452,1,8,0:2:0:0:
258,220,160549,1,4,0:0:0:0:
195,220,160645,1,2,0:0:0:0:
133,220,160742,1,4,0:0:0:0:
300,119,160840,2,0,L|394:119,1,62.5,10|0,0:2|0:0,0:0:0:0:
117,144,161034,6,0,L|185:143,2,62.5,6|4|10,0:0|0:0|0:2,0:0:0:0:
379,171,161324,2,0,L|457:168,1,62.5,4|2,0:0|0:0,0:0:0:0:
254,65,161517,1,4,0:0:0:0:
74,67,161614,2,0,L|7:68,1,62.5,10|0,0:2|0:0,0:0:0:0:
256,192,161802,6,0,L|419:192,1,125,6|8,0:0|0:2,0:0:0:0:
171,127,162092,2,0,L|320:126,1,125,6|4,0:0|0:0,0:0:0:0:
78,65,162382,2,0,L|161:65,1,62.5,10|0,0:2|0:0,0:0:0:0:
343,222,162576,6,0,L|233:222,2,62.5,6|4|8,0:0|0:0|0:2,0:0:0:0:
159,142,162848,2,0,L|20:142,1,125,6|4,0:0|0:0,0:0:0:0:
220,75,163156,2,0,L|150:75,1,62.5,10|0,0:2|0:0,0:0:0:0:
383,173,163350,5,6,0:0:0:0:
414,173,163395,1,0,0:0:0:0:
445,173,163440,1,0,0:0:0:0:
206,170,163531,2,0,L|126:171,1,62.5,10|0,0:2|0:0,0:0:0:0:
349,132,163713,2,0,L|357:54,1,62.5,6|4,0:0|0:0,0:0:0:0:
138,80,163900,2,0,L|223:81,1,62.5,10|0,0:2|0:0,0:0:0:0:
386,188,164088,6,0,L|483:187,1,62.5,6|4,0:0|0:0,0:0:0:0:
226,130,164281,1,14,0:2:0:0:
38,115,164378,1,0,0:0:0:0:
280,219,164474,2,0,L|381:218,1,62.5,6|0,0:0|0:0,0:0:0:0:
157,159,164668,1,12,0:2:0:0:
349,108,164765,1,2,0:0:0:0:
131,240,164908,6,0,L|111:66,1,125,6|8,0:0|0:2,0:0:0:0:
295,117,165198,2,0,L|149:119,1,125,6|4,0:0|0:0,0:0:0:0:
259,179,165488,1,10,0:2:0:0:
170,118,165585,1,0,0:0:0:0:
326,248,165682,6,0,L|338:83,1,125,6|8,0:0|0:2,0:0:0:0:
144,190,165973,2,0,L|317:190,1,125,6|4,0:0|0:0,0:0:0:0:
93,124,166263,2,0,L|9:127,1,62.5,10|0,0:2|0:0,0:0:0:0:
344,233,166457,6,0,L|364:59,1,125,6|8,0:0|0:2,0:0:0:0:
180,110,166747,2,0,L|326:112,1,125,6|4,0:0|0:0,0:0:0:0:
216,172,167037,1,10,0:2:0:0:
304,111,167134,1,0,0:0:0:0:
149,241,167231,6,0,L|137:76,1,125,6|8,0:0|0:2,0:0:0:0:
331,183,167521,1,6,0:0:0:0:
249,153,167617,1,0,0:0:0:0:
167,151,167714,1,4,0:0:0:0:
382,117,167812,2,0,L|466:120,1,62.5,10|0,0:2|0:0,0:0:0:0:
256,70,168005,5,6,0:0:0:0:
58,71,168102,1,0,0:0:0:0:
257,217,168199,2,0,L|332:218,1,62.5,10|4,0:2|0:0,0:0:0:0:
95,197,168392,2,0,L|90:114,1,62.5,2|4,0:0|0:0,0:0:0:0:
159,104,168586,2,0,L|84:101,1,62.5,10|0,0:2|0:0,0:0:0:0:
303,170,168779,6,0,L|388:167,1,62.5,6|4,0:0|0:0,0:0:0:0:
291,117,168973,2,0,L|284:51,1,62.5,10|4,0:2|0:0,0:0:0:0:
467,115,169167,2,0,L|376:116,1,62.5,2|4,0:0|0:0,0:0:0:0:
175,97,169360,2,0,L|99:98,1,62.5,10|0,0:2|0:2,0:0:0:0:
322,227,169554,5,6,0:0:0:0:
353,227,169602,1,0,0:0:0:0:
384,227,169650,1,4,0:0:0:0:
224,167,169747,1,8,0:2:0:0:
391,156,169844,2,0,L|458:156,2,62.5,4|4|4,0:0|0:0|0:0,0:0:0:0:
167,95,170134,2,0,L|160:9,1,62.5,8|4,0:2|0:0,0:0:0:0:
399,83,170328,5,6,0:0:0:0:
316,59,170425,1,8,0:2:0:0:
399,83,170521,1,0,0:0:0:0:
316,59,170618,1,8,0:2:0:0:
399,83,170715,1,0,0:0:0:0:
316,59,170812,1,8,0:2:0:0:
399,83,170909,1,8,0:2:0:0:
316,59,171005,1,8,0:2:0:0:
152,212,171102,6,0,P|125:133|169:103,1,125,6|8,0:0|0:2,0:0:0:0:
321,180,171392,2,0,L|170:173,1,125,6|4,0:0|0:0,0:0:0:0:
376,123,171683,2,0,L|459:124,1,62.5,10|0,0:2|0:0,0:0:0:0:
167,186,171875,5,6,0:0:0:0:
266,166,172004,1,2,0:0:0:0:
365,155,172133,1,2,0:0:0:0:
95,119,172262,2,0,L|86:32,1,62.5,2|4,0:0|0:0,0:0:0:0:
246,123,172457,2,0,L|338:122,1,62.5,10|0,0:2|0:0,0:0:0:0:
103,174,172650,6,0,L|42:174,2,41.6666666666667,6|0|0,0:0|0:0|0:0,0:0:0:0:
262,170,172844,1,10,0:2:0:0:
422,179,172941,1,4,0:0:0:0:
182,224,173038,6,0,L|169:134,1,62.5,2|0,0:0|0:0,0:0:0:0:
392,78,173231,2,0,L|405:159,1,62.5,10|0,0:2|0:0,0:0:0:0:
197,117,173425,1,6,0:0:0:0:
288,100,173521,1,0,0:0:0:0:
376,87,173618,1,10,0:2:0:0:
191,180,173715,2,0,P|140:150|210:49,1,187.5,6|10,0:0|0:2,0:0:0:0:
461,181,174199,6,0,L|384:179,1,62.5,6|0,0:0|0:0,0:0:0:0:
171,201,174392,2,0,L|160:104,1,62.5,10|4,0:2|0:0,0:0:0:0:
344,133,174586,1,2,0:0:0:0:
255,104,174682,1,0,0:0:0:0:
162,99,174779,1,10,0:2:0:0:
255,104,174876,1,0,0:0:0:0:
415,205,174973,6,0,L|488:206,2,62.5,6|0|10,0:0|0:0|2:0,0:0:0:0:
184,149,175263,1,0,0:0:0:0:
276,127,175360,1,2,0:0:0:0:
361,109,175457,1,0,0:0:0:0:
155,80,175554,2,0,L|63:79,1,62.5,10|0,0:2|0:0,0:0:0:0:
326,210,175747,6,0,L|439:209,2,62.5,6|4|8,0:0|0:0|0:2,0:0:0:0:
101,141,176038,1,4,0:0:0:0:
292,108,176134,1,4,0:0:0:0:
286,202,176230,1,4,0:0:0:0:
114,209,176328,1,8,0:2:0:0:
286,202,176424,1,4,0:0:0:0:
89,266,176521,6,0,L|84:176,1,62.5,6|4,0:0|0:0,0:0:0:0:
281,172,176715,2,0,L|286:84,1,62.5,8|4,0:2|0:0,0:0:0:0:
454,150,176909,2,0,L|471:52,1,62.5,4|4,0:0|0:0,0:0:0:0:
155,97,177102,2,0,L|146:-2,1,62.5,8|4,0:2|0:0,0:0:0:0:
358,263,177296,6,0,L|220:271,1,125,6|10,0:0|0:2,0:0:0:0:
461,180,177586,2,0,L|374:183,2,62.5,0|6|0,0:0|0:3|0:0,0:0:0:0:
200,166,177876,2,0,L|114:170,1,62.5,10|0,0:2|0:0,0:0:0:0:
379,93,178070,6,0,L|387:191,1,62.5,6|0,0:3|0:0,0:0:0:0:
315,186,178263,1,10,0:2:0:0:
129,128,178360,2,0,L|123:40,1,62.5,0|6,0:0|0:3,0:0:0:0:
320,65,178554,1,0,0:0:0:0:
116,33,178650,2,0,L|32:34,1,62.5,10|0,0:2|0:0,0:0:0:0:
247,178,178844,6,0,L|253:93,1,62.5,6|0,0:0|0:0,0:0:0:0:
430,112,179038,2,0,L|439:23,1,62.5,10|4,0:2|0:0,0:0:0:0:
248,70,179231,2,0,L|248:-17,1,62.5,2|4,0:0|0:0,0:0:0:0:
55,66,179425,2,0,L|47:0,1,62.5,10|0,0:2|0:0,0:0:0:0:
299,151,179618,6,0,L|228:147,1,62.5,6|4,0:0|0:0,0:0:0:0:
34,133,179812,2,0,L|115:134,1,62.5,10|4,0:2|0:0,0:0:0:0:
339,206,180005,2,0,L|398:206,2,41.6666666666667,2|0|0,0:0|0:0|0:0,0:0:0:0:
187,115,180199,1,10,0:2:0:0:
21,68,180296,1,0,0:0:0:0:
262,169,180392,6,0,L|409:168,1,125,6|8,0:0|0:2,0:0:0:0:
183,266,180683,2,0,L|335:267,1,125,4|4,0:0|0:0,0:0:0:0:
112,183,180973,2,0,L|197:181,1,62.5,10|0,0:2|0:0,0:0:0:0:
443,188,181167,6,0,L|338:185,2,62.5,6|4|8,0:0|0:0|0:2,0:0:0:0:
235,203,181457,2,0,L|83:199,1,125,4|4,0:0|0:0,0:0:0:0:
361,119,181747,2,0,L|271:120,1,62.5,10|0,0:2|0:0,0:0:0:0:
43,104,181941,5,6,0:0:0:0:
74,102,181989,1,0,0:0:0:0:
105,101,182037,1,4,0:0:0:0:
279,173,182134,2,0,L|192:173,1,62.5,8|4,0:2|0:0,0:0:0:0:
420,127,182328,2,0,L|494:126,1,62.5,4|4,0:0|0:0,0:0:0:0:
307,91,182521,2,0,L|221:92,1,62.5,10|4,0:2|0:0,0:0:0:0:
470,142,182715,6,0,L|479:224,1,62.5,6|8,0:0|0:2,0:0:0:0:
268,231,182907,2,0,L|339:227,1,62.5,0|4,0:0|0:0,0:0:0:0:
133,213,183102,2,0,P|70:184|142:116,1,187.5,8|8,0:0|0:0,0:0:0:0:
374,169,183489,6,0,L|388:315,1,125,6|8,0:0|0:2,0:0:0:0:
175,187,183876,2,0,L|273:189,1,62.5,0|4,0:0|0:0,0:0:0:0:
348,151,184070,1,10,0:2:0:0:
37,236,184262,6,0,L|22:95,1,125,0|8,0:0|2:0,0:0:0:0:
233,110,184650,2,0,L|136:107,1,62.5,6|4,0:0|0:0,0:0:0:0:
53,73,184844,1,8,0:2:0:0:
395,97,185038,6,0,L|406:248,1,125,6|8,0:0|0:2,0:0:0:0:
200,191,185425,2,0,L|282:188,1,62.5,0|4,0:0|0:0,0:0:0:0:
378,145,185618,1,8,0:2:0:0:
96,223,185812,6,0,L|267:222,1,125,6|8,0:0|2:0,0:0:0:0:
35,154,186199,2,0,L|110:154,1,62.5,0|4,0:0|0:0,0:0:0:0:
307,142,186392,2,0,L|403:143,1,62.5,10|0,0:2|0:0,0:0:0:0:
109,198,186586,6,0,L|102:118,1,62.5,6|4,0:0|0:0,0:0:0:0:
181,93,186779,1,10,0:2:0:0:
100,90,186876,1,4,0:0:0:0:
307,142,186973,2,0,L|378:143,1,62.5,6|4,0:0|0:0,0:0:0:0:
148,176,187167,2,0,L|230:180,1,62.5,10|4,0:2|0:0,0:0:0:0:
441,197,187360,6,0,L|440:121,1,62.5,6|4,0:0|0:0,0:0:0:0:
268,84,187554,2,0,L|201:83,1,62.5,10|4,0:2|0:0,0:0:0:0:
377,88,187747,2,0,L|449:89,1,62.5,6|4,0:0|0:0,0:0:0:0:
254,152,187941,2,0,L|327:153,1,62.5,10|4,0:2|0:0,0:0:0:0:
75,272,188134,6,0,L|68:132,1,125,6|8,0:0|0:2,0:0:0:0:
271,111,188521,1,0,0:0:0:0:
171,70,188618,1,4,0:0:0:0:
68,66,188715,1,10,0:2:0:0:
362,195,188907,2,0,L|487:196,1,125,4|8,0:0|0:2,0:0:0:0:
281,121,189294,1,6,0:0:0:0:
381,80,189391,1,4,0:0:0:0:
484,76,189488,1,8,0:2:0:0:
161,241,189681,6,0,L|145:112,1,125,6|8,0:0|2:0,0:0:0:0:
345,138,190068,1,0,0:0:0:0:
245,97,190165,1,4,0:0:0:0:
142,93,190262,1,8,0:2:0:0:
475,82,190457,6,2,L|485:257,1,125,2|8,0:0|2:0,0:0:0:0:
281,189,190844,2,0,L|365:188,1,62.5
175,107,191037,2,2,L|88:109,1,62.5,10|0,2:0|0:0,0:0:0:0:
374,87,191231,6,0,L|382:179,1,62.5,6|4,0:0|0:0,0:0:0:0:
301,180,191425,1,10,0:2:0:0:
381,181,191521,1,4,0:0:0:0:
153,113,191618,2,0,L|88:115,1,62.5,6|4,0:0|0:0,0:0:0:0:
285,107,191812,2,0,L|198:112,1,62.5,10|4,0:2|0:0,0:0:0:0:
390,114,192005,6,0,L|465:113,1,62.5,6|4,0:0|0:0,0:0:0:0:
275,48,192199,2,0,L|211:47,1,62.5,10|4,0:2|0:0,0:0:0:0:
430,44,192392,2,0,L|360:46,1,62.5,6|4,0:0|0:0,0:0:0:0:
138,100,192586,2,0,L|218:98,1,62.5,10|4,0:2|0:0,0:0:0:0:
438,107,192779,6,0,P|476:163|424:200,1,125,6|8,0:0|0:2,0:0:0:0:
250,183,193167,1,0,0:0:0:0:
353,148,193263,2,0,L|360:225,1,62.5,4|10,0:0|0:2,0:0:0:0:
107,234,193554,6,0,L|98:88,1,125,4|8,0:0|0:2,0:0:0:0:
298,152,193941,1,6,0:0:0:0:
196,116,194037,2,0,L|189:193,1,62.5,0|8,0:0|2:0,0:0:0:0:
456,122,194328,6,0,L|465:271,1,125,6|8,0:0|0:2,0:0:0:0:
269,192,194715,1,0,0:0:0:0:
370,157,194812,2,0,L|377:234,1,62.5,4|8,0:0|0:2,0:0:0:0:
119,229,195102,6,0,P|86:162|140:111,1,125,6|8,0:0|2:0,0:0:0:0:
313,128,195489,2,0,L|241:126,1,62.5,0|4,0:0|0:0,0:0:0:0:
41,103,195683,2,0,L|36:26,1,62.5,10|0,0:2|0:0,0:0:0:0:
242,52,195876,5,6,0:0:0:0:
312,52,195973,2,0,L|323:148,1,62.5,0|8,0:0|2:0,0:0:0:0:
240,129,196167,1,4,0:0:0:0:
411,201,196263,2,0,L|477:201,1,62.5,4|4,0:0|0:0,0:0:0:0:
283,210,196457,2,0,L|276:139,1,62.5,10|4,0:2|0:0,0:0:0:0:
73,187,196650,5,6,0:0:0:0:
148,187,196747,1,4,0:0:0:0:
224,190,196844,1,10,0:2:0:0:
148,187,196941,1,4,0:0:0:0:
323,190,197038,2,0,L|328:116,1,62.5,6|4,0:0|0:0,0:0:0:0:
486,132,197231,2,0,L|496:61,1,62.5,10|4,0:2|0:0,0:0:0:0:
245,114,197425,6,0,L|160:112,1,62.5,6|4,0:0|0:0,0:0:0:0:
245,114,197618,2,0,L|324:115,1,62.5,10|4,0:2|0:0,0:0:0:0:
140,52,197812,2,0,L|68:56,1,62.5,6|4,0:0|0:0,0:0:0:0:
352,185,198005,2,0,L|422:185,1,62.5,10|4,0:2|0:0,0:0:0:0:
193,128,198199,6,0,L|182:46,1,62.5,6|4,0:0|0:0,0:0:0:0:
29,62,198392,2,0,L|20:-9,1,62.5,10|4,0:2|0:0,0:0:0:0:
244,82,198586,2,0,L|246:13,1,62.5,6|4,0:0|0:0,0:0:0:0:
442,77,198779,2,0,L|449:8,1,62.5,10|4,0:2|0:0,0:0:0:0:
265,147,198973,5,6,0:0:0:0:
341,150,199070,1,4,0:0:0:0:
265,147,199167,1,10,0:2:0:0:
191,148,199263,1,4,0:0:0:0:
431,184,199360,2,0,L|442:114,1,62.5,6|4,0:0|0:0,0:0:0:0:
272,90,199554,2,0,L|343:92,1,62.5,10|4,0:2|0:0,0:0:0:0:
165,69,199747,6,0,L|73:69,1,62.5,6|4,0:0|0:0,0:0:0:0:
266,169,199941,2,0,L|371:168,1,62.5,10|4,0:2|0:0,0:0:0:0:
133,109,200134,2,0,L|219:113,1,62.5,6|4,0:0|0:0,0:0:0:0:
381,90,200328,2,0,L|459:90,1,62.5,10|4,0:2|0:0,0:0:0:0:
225,65,200521,6,0,L|218:2,1,62.5,6|4,0:0|0:0,0:0:0:0:
283,9,200715,1,10,0:2:0:0:
216,15,200812,1,4,0:0:0:0:
385,193,200907,2,0,L|460:195,1,62.5,6|4,0:0|0:0,0:0:0:0:
385,193,201102,2,0,L|309:196,1,62.5,10|4,0:2|0:0,0:0:0:0:
101,201,201296,6,0,L|253:200,1,125,12|4,0:2|0:0,0:0:0:0:
434,146,201586,2,0,P|472:204|421:213,1,125,12|4,0:2|0:0,0:0:0:0:
230,130,201876,2,0,L|145:132,1,62.5,12|0,0:2|0:0,0:0:0:0:
347,100,202070,5,12,0:2:0:0:
411,103,202167,2,0,L|415:-1,2,62.5,4|4|4,0:0|0:0|0:0,0:0:0:0:
141,180,202457,1,10,0:2:0:0:
77,183,202554,2,0,L|73:79,2,62.5,4|4|4,0:0|0:0|0:0,0:0:0:0:
345,222,202844,5,10,0:2:0:0:
398,197,202940,1,4,0:0:0:0:
397,138,203037,1,4,0:0:0:0:
342,117,203134,1,4,0:0:0:0:
112,197,203231,1,10,0:2:0:0:
58,172,203327,1,0,0:0:0:0:
59,113,203424,1,0,0:0:0:0:
114,92,203521,1,4,0:0:0:0:
300,164,203618,6,0,L|201:166,2,62.5,6|0|0,0:3|0:0|0:0,0:0:0:0:
124,95,203907,2,0,L|209:94,2,62.5,2|8|2,0:0|0:2|0:0,0:0:0:0:
358,108,204199,2,0,L|428:107,1,62.5,10|0,0:2|0:0,0:0:0:0:
184,150,204392,6,0,L|173:81,1,62.5,4|0,0:3|0:0,0:0:0:0:
249,70,204586,1,0,0:0:0:0:
63,157,204683,2,0,L|56:84,1,62.5,2|8,0:0|0:2,0:0:0:0:
118,75,204876,1,0,0:0:0:0:
318,175,204973,2,0,L|396:174,1,62.5,10|0,0:2|0:0,0:0:0:0:
207,113,205167,5,4,0:0:0:0:
281,122,205263,1,0,0:0:0:0:
355,121,205360,1,0,0:0:0:0:
98,217,205457,2,0,L|192:216,2,62.5,0|8|0,0:2|0:2|0:0,0:0:0:0:
352,162,205747,2,0,L|368:257,1,62.5,8|0,0:2|0:0,0:0:0:0:
85,153,205941,5,8,0:2:0:0:
157,154,206038,1,8,0:2:0:0:
85,153,206134,1,8,0:2:0:0:
157,154,206231,1,8,0:2:0:0:
342,121,206328,1,4,0:0:0:0:
387,122,206376,1,0,0:0:0:0:
342,121,206424,1,0,0:0:0:0:
159,101,206521,2,0,L|78:102,1,62.5,8|0,0:0|0:0,0:0:0:0:
280,222,206715,6,0,L|287:90,1,125,6|8,0:0|0:2,0:0:0:0:
105,133,207102,2,0,L|171:133,1,62.5,0|4,0:0|0:0,0:0:0:0:
379,180,207296,2,0,L|385:323,1,125,10|4,0:2|0:0,0:0:0:0:
196,294,207683,1,8,0:2:0:0:
453,284,207876,1,6,0:0:0:0:
456,221,207972,1,4,0:0:0:0:
459,159,208069,1,8,0:2:0:0:
200,181,208263,6,0,L|368:179,1,125,6|8,0:0|0:2,0:0:0:0:
72,233,208650,1,0,0:0:0:0:
66,170,208746,1,4,0:0:0:0:
350,173,208844,2,0,L|173:175,2,125,10|4|8,0:2|0:0|0:2,0:0:0:0:
34,240,209425,1,6,0:0:0:0:
29,177,209521,1,4,0:0:0:0:
24,115,209618,1,8,0:2:0:0:
294,171,209812,6,0,L|163:178,1,125,6|8,0:0|0:2,0:0:0:0:
437,239,210199,2,0,L|452:116,1,62.5,0|4,0:0|0:0,0:0:0:0:
169,177,210392,2,0,L|293:173,2,125,10|4|8,0:2|0:0|0:2,0:0:0:0:
448,252,210973,1,6,0:0:0:0:
449,189,211069,1,4,0:0:0:0:
450,127,211166,1,8,0:2:0:0:
197,233,211360,6,0,L|367:235,1,125,6|8,0:0|0:2,0:0:0:0:
66,199,211747,1,0,0:0:0:0:
53,137,211843,1,4,0:0:0:0:
268,128,211941,2,0,L|404:136,1,125,10|4,0:2|0:0,0:0:0:0:
122,223,212328,2,0,L|108:137,1,62.5,8|4,0:2|0:0,0:0:0:0:
310,173,212521,2,0,L|412:171,1,62.5,0|4,0:0|0:0,0:0:0:0:
166,111,212715,1,8,0:2:0:0:
446,253,212907,6,0,L|448:113,1,125,6|8,0:0|0:2,0:0:0:0:
193,177,213296,1,0,0:0:0:0:
190,114,213392,1,4,0:0:0:0:
187,52,213489,1,8,0:2:0:0:
501,192,213683,2,0,L|358:191,1,125,4|8,0:0|0:2,0:0:0:0:
120,253,214070,2,0,L|283:251,1,125,6|8,0:0|0:2,0:0:0:0:
183,187,214360,1,0,0:0:0:0:
18,164,214457,6,0,L|11:40,1,125,6|8,0:0|0:2,0:0:0:0:
316,122,214844,2,0,L|326:193,1,62.5,0|4,0:0|0:0,0:0:0:0:
74,189,215038,2,0,L|198:192,2,125,10|4|8,0:2|0:0|0:2,0:0:0:0:
357,131,215618,1,6,0:0:0:0:
419,131,215714,1,4,0:0:0:0:
481,132,215811,1,8,0:2:0:0:
178,188,216005,5,6,0:0:0:0:
345,176,216199,1,8,0:2:0:0:
61,213,216392,1,0,0:0:0:0:
55,150,216488,1,4,0:0:0:0:
50,88,216585,1,8,0:2:0:0:
358,159,216779,1,4,0:0:0:0:
205,76,216973,1,8,0:2:0:0:
50,88,217167,1,4,0:0:0:0:
344,108,217360,2,0,L|355:39,1,62.5,10|0,0:2|0:0,0:0:0:0:
175,88,217554,6,0,L|11:88,1,125,6|8,0:0|0:2,0:0:0:0:
324,187,217941,1,4,0:0:0:0:
386,187,218037,1,4,0:0:0:0:
449,187,218134,1,8,0:2:0:0:
137,210,218328,1,6,0:0:0:0:
85,179,218424,1,0,0:0:0:0:
87,120,218521,1,8,0:2:0:0:
141,93,218618,1,0,0:0:0:0:
335,110,218715,2,0,L|345:20,1,62.5,6|4,0:0|0:0,0:0:0:0:
130,36,218907,1,8,0:2:0:0:
444,103,219102,6,0,L|284:113,2,125,6|8|0,0:0|0:2|0:0,0:0:0:0:
383,167,219586,1,4,0:0:0:0:
171,205,219683,2,0,L|160:68,1,125,10|4,0:2|0:0,0:0:0:0:
335,77,220070,1,8,0:2:0:0:
34,176,220263,1,6,0:0:0:0:
96,175,220359,1,4,0:0:0:0:
158,174,220456,1,8,0:2:0:0:
436,204,220650,6,0,L|443:64,1,125,6|8,0:0|0:2,0:0:0:0:
126,96,221038,1,0,0:0:0:0:
388,94,221231,2,0,L|390:184,1,62.5,10|0,0:2|0:0,0:0:0:0:
223,157,221425,2,0,L|58:157,1,125,4|8,0:0|0:2,0:0:0:0:
360,247,221812,1,6,0:0:0:0:
278,203,221907,1,4,0:0:0:0:
195,190,222005,1,8,0:2:0:0:
455,224,222199,6,0,L|456:84,1,125,6|8,0:0|0:2,0:0:0:0:
159,132,222586,1,0,0:0:0:0:
221,132,222682,1,4,0:0:0:0:
441,156,222779,2,0,L|280:152,2,125,10|4|8,0:2|0:0|0:2,0:0:0:0:
64,237,223360,1,6,0:0:0:0:
58,174,223456,1,4,0:0:0:0:
53,112,223553,1,8,0:2:0:0:
391,166,223747,6,0,L|242:164,2,125,6|8|0,0:0|0:2|0:0,0:0:0:0:
320,235,224231,1,4,0:0:0:0:
80,200,224328,2,0,L|214:201,2,125,10|4|8,0:2|0:0|0:2,0:0:0:0:
332,129,224907,1,0,0:0:0:0:
245,86,225005,1,4,0:0:0:0:
159,81,225102,1,8,0:2:0:0:
417,100,225296,6,0,P|475:128|382:230,1,250,6|0,0:0|0:0,0:0:0:0:
135,164,225876,1,10,0:2:0:0:
466,254,226070,2,0,L|468:111,1,125,6|8,0:0|0:2,0:0:0:0:
149,165,226457,2,0,L|225:165,1,62.5,4|4,0:0|0:0,0:0:0:0:
403,133,226650,1,10,0:2:0:0:
150,189,226844,6,0,L|10:189,1,125,6|0,0:0|0:0,0:0:0:0:
288,233,227231,2,0,L|449:232,1,125,2|8,0:0|0:2,0:0:0:0:
58,224,227618,2,0,L|46:65,1,125,6|8,0:0|0:2,0:0:0:0:
317,124,228005,1,6,0:0:0:0:
237,123,228101,1,4,0:0:0:0:
156,119,228198,1,8,0:2:0:0:
416,121,228392,6,0,P|492:154|392:245,1,250,6|0,0:0|0:0,0:0:0:0:
109,152,228973,1,10,0:2:0:0:
414,219,229167,2,0,L|425:74,1,125,6|8,0:0|0:2,0:0:0:0:
168,114,229554,1,4,0:0:0:0:
256,96,229650,1,4,0:0:0:0:
344,88,229747,1,8,0:2:0:0:
79,218,229941,6,0,L|72:80,1,125,4|8,0:0|0:2,0:0:0:0:
344,114,230328,1,0,0:0:0:0:
256,96,230424,1,4,0:0:0:0:
168,88,230521,1,8,0:2:0:0:
419,218,230715,6,0,L|500:217,2,62.5,6|0|8,0:0|0:0|0:2,0:0:0:0:
180,149,231005,2,0,L|99:148,2,62.5,6|0|4,0:0|0:0|0:0,0:0:0:0:
398,171,231296,2,0,L|406:86,1,62.5,10|0,0:2|0:0,0:0:0:0:
189,262,231489,5,6,0:0:0:0:
195,195,231585,1,4,0:0:0:0:
259,157,231682,1,4,0:0:0:0:
331,156,231779,1,4,0:0:0:0:
156,155,231876,1,12,0:2:0:0:
97,136,231972,1,4,0:0:0:0:
57,89,232069,1,4,0:0:0:0:
50,28,232166,1,4,0:0:0:0:
232,230,232263,6,0,L|246:160,3,62.5,12|4|4|4,0:2|0:0|0:0|0:0,0:0:0:0:
430,227,232650,2,0,L|444:157,3,62.5,12|4|4|0,0:2|0:0|0:0|0:0,0:0:0:0:
209,350,233038,6,0,P|143:302|321:37,1,500,12|2,0:2|0:0,0:0:0:0:
412,60,234005,1,8,0:0:0:0:
303,117,234199,1,4,0:0:0:0:
413,120,234392,1,0,0:0:0:0:
118,220,234586,6,0,L|265:83,2,187.5,6|2|6,0:0|0:0|0:0,0:0:0:0:
422,260,235360,2,0,L|286:393,2,187.5,10|2|6,0:2|0:0|0:3,0:0:0:0:
131,232,236133,6,0,P|52:187|161:101,1,250,6|4,0:3|0:3,0:0:0:0:
455,86,236907,2,0,L|468:339,1,250,12|2,0:2|0:0,0:0:0:0:
357,335,237489,1,4,0:0:0:0:
70,222,237683,6,0,L|283:355,1,250,6|2,0:0|0:0,0:0:0:0:
70,222,238457,2,0,L|283:355,1,250,10|6,0:2|0:0,0:0:0:0:
162,156,239038,1,8,0:2:0:0:
461,277,239231,6,0,L|476:22,1,250,6|8,0:0|0:2,0:0:0:0:
412,24,239715,1,0,0:0:0:0:
351,26,239812,1,4,0:0:0:0:
290,27,239907,1,4,0:0:0:0:
61,182,240005,2,0,L|51:53,1,125,8|8,0:2|0:0,0:0:0:0:
223,62,240392,1,6,0:0:0:0:
51,57,240586,1,6,0:0:0:0:
382,272,240779,6,0,P|451:231|366:116,1,250,6|0,0:0|0:0,0:0:0:0:
166,112,241360,1,4,0:0:0:0:
441,238,241554,2,0,L|451:103,1,125,8|0,0:2|0:0,0:0:0:0:
263,105,241941,1,6,0:0:0:0:
445,102,242134,1,2,0:0:0:0:
58,239,242328,6,0,L|312:171,2,250,2|6|10,0:0|0:0|0:2,0:0:0:0:
374,263,243489,2,0,L|390:125,1,125,6|0,0:0|0:0,0:0:0:0:
90,222,243876,6,0,P|23:189|111:81,1,250,6|0,0:0|0:0,0:0:0:0:
216,89,244457,1,4,0:0:0:0:
497,245,244650,2,0,L|237:244,1,250,12|4,0:2|0:0,0:0:0:0:
366,172,245231,1,0,0:0:0:0:
102,224,245425,5,6,0:0:0:0:
67,174,245521,1,8,2:0:0:0:
81,115,245618,1,0,0:0:0:0:
134,85,245715,1,8,3:0:0:0:
234,160,245812,1,0,0:0:0:0:
237,87,245908,1,0,0:0:0:0:
193,30,246005,1,8,3:0:0:0:
123,16,246102,1,8,2:0:0:0:
318,254,246199,5,12,2:0:0:0:
393,228,246295,1,0,0:0:0:0:
444,166,246392,1,8,3:0:0:0:
453,86,246489,1,8,2:0:0:0:
184,192,246585,1,12,2:0:0:0:
69,154,246714,1,8,3:0:0:0:
184,192,246843,1,8,3:0:0:0:
370,77,246973,6,0,P|436:122|341:248,1,250,6|0,0:0|0:0,0:0:0:0:
206,164,247554,1,4,0:0:0:0:
482,271,247747,2,0,L|267:269,2,187.5,8|2|6,0:2|0:0|0:0,0:0:0:0:
416,219,248425,1,4,0:0:0:0:
168,214,248521,6,0,P|113:180|194:25,1,250,4|4,0:0|0:0,0:0:0:0:
450,59,249296,2,0,L|460:329,1,250,12|0,0:2|0:0,0:0:0:0:
346,301,249876,1,4,0:0:0:0:
42,197,250070,6,0,L|301:201,1,250,6|0,0:0|0:0,0:0:0:0:
170,142,250650,1,4,0:0:0:0:
440,241,250844,2,0,L|443:102,1,125,10|0,0:2|0:0,0:0:0:0:
275,142,251231,2,0,L|114:139,1,125,0|8,0:0|0:2,0:0:0:0:
441,119,251618,6,0,L|450:270,1,125,6|0,0:0|0:0,0:0:0:0:
327,275,252005,2,0,L|463:272,1,125,4|0,0:0|0:0,0:0:0:0:
162,273,252392,1,10,0:2:0:0:
55,221,252585,1,4,0:0:0:0:
57,102,252779,1,6,0:0:0:0:
165,54,252972,1,0,0:0:0:0:
472,206,253167,6,0,L|211:207,1,250,12|4,0:2|0:0,0:0:0:0:
355,166,253747,1,4,0:0:0:0:
195,245,253941,2,0,L|179:95,1,125,4|8,0:0|0:2,0:0:0:0:
355,166,254328,2,0,L|361:32,1,125,4|8,0:0|0:2,0:0:0:0:
60,181,254715,6,0,L|310:186,1,250,6|4,0:0|0:0,0:0:0:0:
173,123,255296,1,4,0:0:0:0:
359,188,255489,2,0,L|372:47,1,125,4|4,0:0|0:0,0:0:0:0:
89,199,255876,2,0,L|183:202,1,62.5,8|8,0:2|0:2,0:0:0:0:
339,147,256070,2,0,L|407:146,1,62.5,8|8,0:2|0:2,0:0:0:0:
189,201,256263,5,6,0:0:0:0:
132,184,256360,1,0,0:0:0:0:
128,125,256456,1,0,0:0:0:0:
181,100,256553,1,0,0:0:0:0:
386,78,256650,2,0,L|401:147,3,62.5,6|0|0|0,0:0|0:0|0:0|0:0,0:0:0:0:
210,262,257038,5,6,0:0:0:0:
272,261,257134,1,0,0:0:0:0:
334,260,257231,1,8,0:2:0:0:
116,192,257328,1,2,0:0:0:0:
178,191,257424,1,0,0:0:0:0:
240,191,257521,1,0,0:0:0:0:
65,119,257618,2,0,L|152:120,1,62.5,10|0,0:2|0:0,0:0:0:0:
374,81,257812,5,6,0:0:0:0:
386,141,257908,1,0,0:0:0:0:
377,203,258005,1,8,2:0:0:0:
347,258,258102,1,0,0:0:0:0:
301,300,258199,1,0,0:0:0:0:
244,323,258295,1,0,0:0:0:0:
182,326,258392,1,8,0:2:0:0:
122,308,258489,1,0,0:0:0:0:
289,213,258585,6,0,L|301:135,3,62.5,6|0|8|0,0:0|0:0|2:0|0:0,0:0:0:0:
60,161,258973,2,0,L|50:75,3,62.5,6|0|0|0,0:0|0:0|0:0|0:0,0:0:0:0:
290,86,259360,5,6,0:0:0:0:
349,99,259456,1,0,0:0:0:0:
389,146,259553,1,8,2:0:0:0:
394,207,259650,1,0,0:0:0:0:
206,285,259747,1,6,0:0:0:0:
208,223,259844,1,0,0:0:0:0:
248,176,259941,1,8,2:0:0:0:
308,163,260038,1,0,0:0:0:0:
114,206,260134,5,6,0:0:0:0:
124,145,260230,1,0,0:0:0:0:
170,105,260327,1,8,2:0:0:0:
232,101,260424,1,0,0:0:0:0:
426,117,260521,1,6,0:0:0:0:
445,175,260617,1,0,0:0:0:0:
423,232,260714,1,8,2:0:0:0:
370,261,260811,1,0,0:0:0:0:
131,280,260907,6,0,L|119:206,3,62.5,6|0|8|0,0:0|0:0|2:0|0:0,0:0:0:0:
228,196,261296,2,0,L|240:126,3,62.5,0|0|8|0,0:0|0:0|0:2|0:0,0:0:0:0:
73,173,261683,5,6,0:0:0:0:
135,174,261779,1,0,0:0:0:0:
197,176,261876,1,8,0:2:0:0:
412,244,261973,1,2,0:0:0:0:
349,244,262069,1,0,0:0:0:0:
287,244,262166,1,0,0:0:0:0:
470,169,262263,2,0,L|375:167,1,62.5,10|0,0:2|0:0,0:0:0:0:
183,282,262457,5,6,0:0:0:0:
184,220,262553,1,0,0:0:0:0:
228,172,262650,1,8,2:0:0:0:
295,161,262747,1,0,0:0:0:0:
222,134,262844,2,0,L|216:39,1,62.5,4|0,0:0|0:0,0:0:0:0:
458,94,263038,5,10,2:2:0:0:
471,154,263134,1,0,0:0:0:0:
458,214,263231,1,0,0:0:0:0:
421,264,263328,1,0,0:0:0:0:
366,292,263425,1,8,2:2:0:0:
304,294,263521,1,0,0:0:0:0:
135,188,263618,2,0,L|122:114,1,62.5,6|0,0:0|0:0,0:0:0:0:
355,139,263812,2,0,L|364:52,1,62.5,8|0,2:0|0:0,0:0:0:0:
74,267,264005,5,6,0:0:0:0:
80,205,264101,1,0,0:0:0:0:
120,158,264198,1,8,2:0:0:0:
179,141,264295,1,0,0:0:0:0:
120,158,264392,1,0,0:0:0:0:
109,90,264488,1,0,0:0:0:0:
379,75,264586,5,10,0:2:0:0:
437,93,264682,1,0,0:0:0:0:
472,144,264779,1,0,0:0:0:0:
470,205,264876,1,0,0:0:0:0:
432,253,264973,1,8,0:2:0:0:
372,268,265069,1,0,0:0:0:0:
187,182,265167,2,0,L|169:83,1,62.5,6|0,0:0|0:0,0:0:0:0:
364,131,265360,2,0,L|381:44,1,62.5,8|0,2:0|0:0,0:0:0:0:
92,287,265554,5,6,0:0:0:0:
94,224,265650,1,0,0:0:0:0:
119,168,265747,1,8,2:0:0:0:
163,124,265844,1,0,0:0:0:0:
220,100,265941,1,0,0:0:0:0:
283,98,266037,1,0,0:0:0:0:
341,119,266134,1,8,0:2:0:0:
387,160,266231,1,0,0:0:0:0:
416,216,266328,1,4,0:0:0:0:
422,277,266424,1,0,0:0:0:0:
213,285,266521,6,0,L|198:210,1,62.5,8|0,0:2|0:0,0:0:0:0:
289,212,266715,2,0,L|295:139,1,62.5,4|0,0:0|0:0,0:0:0:0:
93,181,266907,2,0,L|81:93,1,62.5,8|0,0:2|0:0,0:0:0:0:
295,127,267102,6,0,L|192:126,1,62.5,6|0,0:0|0:0,0:0:0:0:
436,186,267296,2,0,L|332:187,1,62.5,10|0,0:2|0:0,0:0:0:0:
137,227,267489,1,6,0:0:0:0:
212,199,267586,1,0,0:0:0:0:
289,186,267683,1,10,0:2:0:0:
367,178,267779,1,0,0:0:0:0:
81,158,267876,6,0,L|71:76,1,62.5,6|0,0:0|0:0,0:0:0:0:
278,87,268070,1,10,0:2:0:0:
193,86,268167,1,0,0:0:0:0:
352,226,268262,1,6,0:0:0:0:
194,224,268360,1,0,0:0:0:0:
260,225,268457,1,10,0:2:0:0:
194,224,268553,1,0,0:0:0:0:
352,226,268650,6,0,L|432:227,2,62.5,6|0|8,0:0|0:0|0:2,0:0:0:0:
191,156,268941,1,2,0:0:0:0:
267,155,269037,1,0,0:0:0:0:
345,153,269134,1,0,0:0:0:0:
162,90,269231,2,0,L|261:89,1,62.5,10|0,0:2|0:0,0:0:0:0:
445,79,269425,5,6,0:0:0:0:
461,137,269521,1,0,0:0:0:0:
434,192,269618,1,8,0:2:0:0:
377,215,269715,1,0,0:0:0:0:
174,256,269812,1,6,0:0:0:0:
191,171,269907,1,0,0:0:0:0:
262,137,270005,1,8,2:0:0:0:
341,123,270102,1,0,0:0:0:0:
75,162,270199,6,0,L|56:75,1,62.5,6|0,0:0|0:0,0:0:0:0:
128,66,270392,1,8,2:0:0:0:
327,234,270489,1,2,0:0:0:0:
242,221,270586,1,0,0:0:0:0:
152,202,270683,1,0,0:0:0:0:
327,234,270779,1,10,0:2:0:0:
152,202,270876,1,2,0:0:0:0:
327,234,270973,6,0,L|394:233,2,62.5,4|0|8,0:0|0:0|2:0,0:0:0:0:
133,129,271263,1,2,0:0:0:0:
207,129,271359,1,0,0:0:0:0:
282,132,271456,1,0,0:0:0:0:
76,222,271554,2,0,L|66:124,1,62.5,10|0,0:2|0:0,0:0:0:0:
301,198,271747,5,6,0:0:0:0:
220,182,271844,1,0,0:0:0:0:
136,172,271941,1,8,0:2:0:0:
391,93,272038,2,0,L|404:187,2,62.5,2|0|0,0:0|0:0|0:0,0:0:0:0:
231,124,272328,2,0,L|227:49,1,62.5,10|0,0:2|0:0,0:0:0:0:
50,232,272521,6,0,L|38:145,2,62.5,6|0|8,0:0|0:0|0:2,0:0:0:0:
364,217,272812,2,0,L|368:131,2,62.5,2|0|0,0:0|0:0|0:0,0:0:0:0:
155,157,273102,2,0,L|146:80,1,62.5,10|0,0:2|0:0,0:0:0:0:
380,120,273296,5,6,0:0:0:0:
301,113,273392,1,0,0:0:0:0:
380,120,273489,1,8,2:0:0:0:
148,242,273586,1,2,0:0:0:0:
230,202,273683,1,0,0:0:0:0:
314,181,273779,1,0,0:0:0:0:
72,195,273876,2,0,L|63:118,1,62.5,10|0,0:2|0:0,0:0:0:0:
276,121,274070,5,6,0:0:0:0:
193,122,274167,1,0,0:0:0:0:
276,121,274263,1,8,2:0:0:0:
193,122,274360,1,0,0:0:0:0:
276,121,274457,1,4,0:0:0:0:
193,122,274554,1,0,0:0:0:0:
276,121,274650,1,8,0:2:0:0:
193,122,274747,1,0,0:0:0:0:
373,222,274844,6,0,L|375:127,1,62.5,6|0,0:0|0:0,0:0:0:0:
166,172,275038,2,0,L|155:71,1,62.5,10|0,0:2|0:0,0:0:0:0:
319,144,275231,2,0,L|325:55,1,62.5,6|4,0:0|0:0,0:0:0:0:
485,98,275425,2,0,L|491:11,1,62.5,10|0,0:2|0:0,0:0:0:0:
331,276,275618,6,0,L|330:208,1,62.5,6|0,0:0|0:0,0:0:0:0:
165,215,275812,2,0,L|162:135,1,62.5,10|0,0:2|0:0,0:0:0:0:
320,138,276005,2,0,L|257:138,1,62.5,6|4,0:0|0:0,0:0:0:0:
46,70,276199,1,10,0:2:0:0:
201,53,276296,1,0,0:0:0:0:
354,68,276392,5,6,0:0:0:0:
415,69,276488,1,0,0:0:0:0:
469,99,276585,1,8,2:0:0:0:
502,152,276682,1,0,0:0:0:0:
506,213,276779,1,4,0:0:0:0:
480,269,276875,1,4,0:0:0:0:
431,307,276972,1,8,0:2:0:0:
370,316,277069,1,0,0:0:0:0:
143,273,277167,5,6,0:0:0:0:
140,211,277263,1,0,0:0:0:0:
164,153,277360,1,8,2:0:0:0:
210,111,277457,1,0,0:0:0:0:
269,93,277554,1,0,0:0:0:0:
330,101,277650,1,0,0:0:0:0:
66,158,277747,2,0,L|53:59,1,62.5,10|2,0:2|0:0,0:0:0:0:
303,190,277941,5,12,0:2:0:0:
223,164,278038,1,0,0:0:0:0:
145,146,278134,1,0,0:2:0:0:
412,281,278231,1,8,0:2:0:0:
332,255,278328,1,0,0:0:0:0:
254,237,278424,1,0,0:0:0:0:
471,231,278521,1,8,0:2:0:0:
391,205,278618,1,0,0:0:0:0:
209,190,278715,5,12,0:2:0:0:
289,164,278812,1,8,0:2:0:0:
367,146,278908,1,0,0:0:0:0:
100,281,279005,1,8,0:2:0:0:
180,255,279102,1,0,0:0:0:0:
258,237,279198,1,0,0:0:0:0:
41,231,279295,1,8,0:2:0:0:
121,205,279392,1,0,0:0:0:0:
420,239,279489,5,12,0:2:0:0:
341,184,279586,1,0,0:0:0:0:
261,159,279683,1,0,0:0:0:0:
30,173,279779,1,8,0:2:0:0:
109,118,279876,1,0,0:0:0:0:
189,93,279973,1,0,0:0:0:0:
455,151,280070,1,8,0:2:0:0:
376,96,280167,1,0,0:0:0:0:
103,260,280263,6,0,P|42:228|133:160,1,187.5,12|0,0:2|0:0,0:0:0:0:
306,192,280649,2,0,L|388:191,1,74.9999977111817,8|8,0:0|0:0,0:0:0:0:
175,104,280844,2,0,L|81:104,1,74.9999977111817,4|8,0:0|0:0,0:0:0:0:
388,254,281038,6,0,L|397:90,1,125,6|0,0:0|0:0,0:0:0:0:
328,119,281328,1,2,0:0:0:0:
84,211,281425,1,10,0:2:0:0:
31,182,281521,1,0,0:0:0:0:
33,123,281618,1,8,0:0:0:0:
87,98,281715,1,8,0:0:0:0:
281,213,281812,5,4,0:0:0:0:
275,152,281908,1,0,0:0:0:0:
231,109,282005,1,4,0:0:0:0:
170,106,282102,1,0,0:0:0:0:
367,258,282199,1,10,0:2:0:0:
422,231,282295,1,0,0:0:0:0:
452,177,282392,1,0,0:0:0:0:
445,116,282489,1,8,0:2:0:0:
197,232,282586,6,0,L|333:232,1,125,6|0,0:0|0:0,0:0:0:0:
74,160,282876,2,0,L|214:160,1,125,6|0,0:0|0:0,0:0:0:0:
22,100,283167,2,0,L|110:103,1,62.5,10|8,0:0|0:0,0:0:0:0:
370,86,283360,2,0,P|433:158|351:229,1,187.5,6|0,0:0|0:0,0:0:0:0:
162,266,283747,2,0,L|396:264,1,187.5,10|0,0:2|0:0,0:0:0:0:
70,200,284157,6,0,L|257:200,1,166.666666666667,12|4,0:2|0:0,0:0:0:0:
70,200,284713,1,4,0:0:0:0:
442,200,284940,2,0,L|239:202,2,166.666666666667,12|4|4,0:2|0:0|0:0,0:0:0:0:
116,133,285680,5,6,0:0:0:0:
352,128,285938,1,8,2:0:0:0:
116,133,286196,1,8,2:0:0:0:
446,249,286454,2,0,L|451:99,1,125,10|4,0:2|0:0,0:0:0:0:
86,156,286840,2,0,L|71:14,1,125,10|4,0:2|0:0,0:0:0:0:
413,178,287227,6,0,L|251:184,1,125,6|8,0:0|0:0,0:0:0:0:
351,124,287517,1,8,0:0:0:0:
188,122,287615,2,0,L|179:38,1,62.5,4|0,0:0|0:0,0:0:0:0:
17,54,287808,2,0,L|11:-22,1,62.5,4|4,0:0|0:0,0:0:0:0:
256,135,288001,5,4,0:0:0:0:
182,136,288099,1,4,0:0:0:0:
106,129,288196,1,8,0:0:0:0:
355,256,288292,1,4,0:0:0:0:
281,257,288388,1,8,0:0:0:0:
205,250,288485,1,4,0:0:0:0:
391,261,288582,1,8,0:0:0:0:
205,250,288679,1,4,0:0:0:0:
391,261,288776,6,0,L|397:143,2,62.5,4|0|4,0:0|0:0|0:0,0:0:0:0:
175,163,289066,2,0,L|171:44,2,62.5,0|4|0,0:0|0:0|0:0,0:0:0:0:
412,134,289357,2,0,L|328:137,1,62.5,4|0,0:0|0:0,0:0:0:0:
159,271,289550,5,8,0:2:0:0:
190,272,289598,1,0,0:0:0:0:
221,274,289646,1,0,0:0:0:0:
17,178,289743,1,8,0:2:0:0:
48,178,289792,1,0,0:0:0:0:
79,178,289841,1,0,0:0:0:0:
307,152,289937,1,8,0:2:0:0:
140,178,290034,1,8,0:2:0:0:
307,152,290130,1,8,0:2:0:0:
140,178,290227,1,8,0:2:0:0:
329,260,290324,5,6,0:0:0:0:
389,221,290421,1,0,0:0:0:0:
429,168,290517,1,8,0:2:0:0:
443,98,290614,1,0,0:0:0:0:
394,39,290711,1,4,0:0:0:0:
319,23,290809,1,4,0:0:0:0:
124,192,290905,2,0,L|99:90,1,78.125,10|0,0:2|0:0,0:0:0:0:
333,156,291099,6,0,L|219:159,1,78.125,6|4,0:0|0:0,0:0:0:0:
23,123,291292,2,0,L|116:127,1,78.125,10|0,0:2|0:0,0:0:0:0:
368,254,291486,2,0,L|372:139,1,78.125,6|4,0:0|0:0,0:0:0:0:
125,129,291679,2,0,L|107:30,1,78.125,10|0,0:2|0:0,0:0:0:0:
411,121,291873,6,0,L|291:121,3,78.125,6|4|8|0,0:0|0:0|0:2|0:0,0:0:0:0:
152,227,292260,2,0,L|272:227,3,78.125,4|4|8|0,0:0|0:0|0:2|0:0,0:0:0:0:
465,307,292646,5,4,0:0:0:0:
466,230,292744,1,4,0:0:0:0:
418,170,292841,1,8,0:2:0:0:
343,155,292938,1,0,0:0:0:0:
130,203,293034,2,0,L|231:197,1,78.125,6|4,0:0|0:0,0:0:0:0:
442,111,293228,2,0,L|456:220,1,78.125,10|0,0:2|0:0,0:0:0:0:
226,300,293421,5,6,0:0:0:0:
224,223,293517,1,4,0:0:0:0:
267,164,293614,1,8,0:2:0:0:
343,155,293711,1,4,0:0:0:0:
105,181,293808,1,6,0:0:0:0:
122,106,293904,1,4,0:0:0:0:
179,55,294001,1,8,0:2:0:0:
256,48,294098,1,4,0:0:0:0:
475,102,294195,5,6,0:0:0:0:
486,177,294292,1,4,0:0:0:0:
443,240,294388,1,8,0:2:0:0:
368,255,294485,1,4,0:0:0:0:
126,288,294582,1,6,0:0:0:0:
56,264,294679,1,0,0:0:0:0:
55,191,294775,1,8,0:2:0:0:
124,166,294872,1,4,0:0:0:0:
316,177,294970,6,0,L|328:89,1,78.125,6|4,0:0|0:0,0:0:0:0:
232,108,295163,2,0,L|222:17,1,78.125,8|4,0:2|0:0,0:0:0:0:
432,107,295357,2,0,L|437:-7,1,78.125,4|4,0:0|0:0,0:0:0:0:
354,113,295550,2,0,L|443:120,1,78.125,8|4,0:2|0:0,0:0:0:0:
212,232,295743,5,6,0:0:0:0:
290,232,295841,1,0,0:0:0:0:
368,233,295938,1,0,0:0:0:0:
125,148,296034,2,0,L|226:150,2,78.125,6|0|4,0:0|0:0|0:0,0:0:0:0:
390,122,296325,2,0,L|403:224,1,78.125,12|0,0:2|0:0,0:0:0:0:
131,288,296518,5,6,0:0:0:0:
141,210,296614,1,0,0:0:0:0:
188,138,296711,1,0,0:0:0:0:
253,91,296808,1,0,0:0:0:0:
337,87,296905,1,4,0:0:0:0:
404,126,297001,1,4,0:0:0:0:
228,264,297099,2,0,L|332:262,1,78.125,10|0,0:2|0:0,0:0:0:0:
129,247,297293,5,6,0:0:0:0:
57,219,297389,1,4,0:0:0:0:
19,153,297486,1,8,0:2:0:0:
33,77,297583,1,0,0:0:0:0:
91,28,297680,1,4,0:0:0:0:
168,28,297776,1,0,0:0:0:0:
351,188,297873,2,0,L|206:197,1,78.125,10|0,0:2|0:0,0:0:0:0:
486,187,298067,5,6,0:0:0:0:
498,263,298163,1,4,0:0:0:0:
471,336,298260,1,8,0:2:0:0:
413,386,298357,1,0,0:0:0:0:
338,403,298454,1,4,0:0:0:0:
264,381,298550,1,4,0:0:0:0:
452,241,298647,2,0,L|468:350,1,78.125,10|0,0:2|0:0,0:0:0:0:
238,310,298841,5,6,0:0:0:0:
239,233,298937,1,4,0:0:0:0:
294,180,299034,1,8,0:2:0:0:
370,179,299131,1,0,0:0:0:0:
153,148,299228,2,0,L|135:47,1,78.125,6|0,0:0|0:0,0:0:0:0:
388,149,299422,2,0,L|401:33,1,78.125,10|0,0:2|0:0,0:0:0:0:
160,267,299615,5,6,0:0:0:0:
165,191,299711,1,4,0:0:0:0:
223,141,299808,1,8,0:2:0:0:
299,147,299905,1,4,0:0:0:0:
115,202,300002,1,6,0:0:0:0:
45,170,300098,1,4,0:0:0:0:
13,101,300195,1,8,0:2:0:0:
33,27,300292,1,4,0:0:0:0:
231,271,300389,6,0,L|247:152,1,78.125,6|4,0:0|0:0,0:0:0:0:
456,212,300583,2,0,L|466:88,1,78.125,8|4,0:2|0:0,0:0:0:0:
256,145,300776,2,0,L|252:15,1,78.125,6|4,0:0|0:0,0:0:0:0:
27,83,300970,2,0,L|17:-7,1,78.125,8|4,0:2|0:0,0:0:0:0:
240,106,301164,6,0,L|100:105,1,78.125,6|0,0:0|0:0,0:0:0:0:
328,236,301357,1,8,0:2:0:0:
161,105,301454,1,8,0:2:0:0:
328,236,301551,2,0,L|333:132,1,78.125,8|8,0:0|0:0,0:0:0:0:
125,194,301744,2,0,L|245:193,1,78.125,6|4,0:0|0:0,0:0:0:0:
462,217,301938,5,6,0:0:0:0:
422,217,301986,1,0,0:0:0:0:
383,217,302034,1,8,0:2:0:0:
209,295,302131,1,0,0:0:0:0:
248,294,302179,1,0,0:0:0:0:
287,294,302227,1,4,0:0:0:0:
40,201,302325,2,0,L|147:201,3,78.125,10|8|10|8,0:2|0:2|0:2|0:2,0:0:0:0:
411,123,302712,5,6,0:0:0:0:
420,198,302808,1,4,0:0:0:0:
379,263,302905,1,8,0:2:0:0:
306,285,303002,1,0,0:0:0:0:
379,263,303099,2,0,L|384:163,1,78.125,4|4,0:0|0:0,0:0:0:0:
192,172,303293,2,0,L|169:50,1,78.125,10|0,0:2|0:0,0:0:0:0:
448,93,303486,6,0,L|346:95,1,78.125,6|4,0:0|0:0,0:0:0:0:
131,100,303680,2,0,L|40:103,1,78.125,10|0,0:2|0:0,0:0:0:0:
293,179,303873,2,0,L|171:180,1,78.125,6|4,0:0|0:0,0:0:0:0:
477,246,304067,2,0,L|359:248,1,78.125,10|0,0:2|0:0,0:0:0:0:
152,235,304260,6,0,L|125:113,1,78.125,6|4,0:0|0:0,0:0:0:0:
358,123,304454,2,0,L|265:123,1,78.125,8|0,0:2|0:0,0:0:0:0:
486,183,304647,2,0,L|492:81,1,78.125,4|4,0:0|0:0,0:0:0:0:
274,165,304841,2,0,L|372:157,1,78.125,8|0,0:2|0:0,0:0:0:0:
121,138,305035,6,0,L|108:39,1,78.125,4|4,0:0|0:0,0:0:0:0:
188,64,305228,2,0,L|93:59,1,78.125,8|0,0:2|0:0,0:0:0:0:
305,193,305422,2,0,L|387:194,1,78.125,6|4,0:0|0:0,0:0:0:0:
305,193,305615,2,0,L|208:195,1,78.125,10|0,0:2|0:0,0:0:0:0:
469,174,305809,5,6,0:0:0:0:
481,248,305905,1,4,0:0:0:0:
434,308,306002,1,8,0:2:0:0:
358,314,306099,1,4,0:0:0:0:
138,285,306196,1,6,0:0:0:0:
151,209,306292,1,4,0:0:0:0:
208,158,306389,1,8,0:2:0:0:
284,152,306486,1,4,0:0:0:0:
92,187,306583,5,6,0:0:0:0:
23,156,306679,1,4,0:0:0:0:
9,82,306776,1,8,0:2:0:0:
61,28,306873,1,4,0:0:0:0:
263,233,306970,1,6,0:0:0:0:
88,237,307067,1,4,0:0:0:0:
263,233,307164,1,8,0:2:0:0:
88,237,307260,1,4,0:0:0:0:
277,284,307357,5,6,0:0:0:0:
349,257,307453,1,4,0:0:0:0:
390,193,307550,1,8,0:2:0:0:
385,116,307647,1,4,0:0:0:0:
334,58,307744,1,4,0:0:0:0:
259,43,307840,1,4,0:0:0:0:
331,64,307938,2,0,L|341:174,1,78.125,8|4,0:2|0:0,0:0:0:0:
102,229,308131,5,6,0:0:0:0:
180,228,308227,1,0,0:0:0:0:
258,228,308324,1,8,0:2:0:0:
15,155,308422,1,6,0:0:0:0:
93,153,308518,1,0,0:0:0:0:
171,152,308615,1,4,0:0:0:0:
470,163,308712,2,0,L|478:292,1,78.125,12|0,0:2|0:0,0:0:0:0:
231,177,308906,6,0,L|221:63,1,78.125,6|4,0:0|0:0,0:0:0:0:
404,146,309099,2,0,L|409:37,1,78.125,10|0,0:2|0:0,0:0:0:0:
151,82,309293,2,0,L|140:-14,1,78.125,6|4,0:0|0:0,0:0:0:0:
233,38,309486,1,10,0:2:0:0:
151,82,309583,1,0,0:0:0:0:
356,73,309680,5,6,0:0:0:0:
422,105,309776,1,0,0:0:0:0:
424,180,309873,1,10,0:2:0:0:
359,215,309970,1,0,0:0:0:0:
141,201,310067,2,0,L|128:103,1,78.125,6|4,0:0|0:0,0:0:0:0:
411,171,310260,2,0,L|421:49,1,78.125,10|0,0:2|0:0,0:0:0:0:
96,266,310454,5,6,0:0:0:0:
97,189,310550,1,4,0:0:0:0:
148,133,310647,1,10,0:2:0:0:
224,126,310744,1,0,0:0:0:0:
155,130,310841,2,0,L|147:36,1,78.125,6|4,0:0|0:0,0:0:0:0:
361,122,311035,2,0,L|239:119,1,78.125,10|0,0:2|0:0,0:0:0:0:
480,117,311228,5,6,0:0:0:0:
499,190,311324,1,4,0:0:0:0:
456,252,311421,1,10,0:2:0:0:
381,260,311518,1,0,0:0:0:0:
213,182,311615,2,0,L|203:92,1,78.125,6|4,0:0|0:0,0:0:0:0:
294,93,311809,2,0,L|302:-1,1,78.125,10|0,0:2|0:0,0:0:0:0:
71,221,312002,5,6,0:0:0:0:
75,144,312098,1,4,0:0:0:0:
131,93,312195,1,8,0:2:0:0:
208,95,312292,1,4,0:0:0:0:
458,168,312389,1,6,0:0:0:0:
475,242,312485,1,4,0:0:0:0:
443,312,312582,1,8,0:2:0:0:
375,347,312679,1,4,0:0:0:0:
214,287,312776,5,6,0:0:0:0:
232,212,312872,1,4,0:0:0:0:
291,163,312969,1,8,0:2:0:0:
368,160,313066,1,4,0:0:0:0:
104,197,313164,1,6,0:0:0:0:
36,163,313260,1,4,0:0:0:0:
24,88,313357,1,8,0:2:0:0:
77,35,313454,1,4,0:0:0:0:
272,124,313551,6,0,L|277:15,1,78.125,6|4,0:0|0:0,0:0:0:0:
474,107,313744,2,0,L|476:14,1,78.125,8|8,0:2|0:2,0:0:0:0:
257,178,313938,2,0,L|248:77,1,78.125,8|8,0:0|0:0,0:0:0:0:
26,119,314131,2,0,L|16:23,1,78.125,4|4,0:0|0:0,0:0:0:0:
236,91,314325,5,12,0:2:0:0:
157,92,314421,1,0,0:0:0:0:
79,94,314518,1,4,0:0:0:0:
344,172,314615,2,0,L|464:173,2,78.125,8|0|4,0:2|0:0|0:0,0:0:0:0:
50,179,314906,2,0,L|42:41,1,78.125,8|8,0:2|0:2,0:0:0:0:
267,232,315099,6,0,L|162:241,1,74.9999977111817,6|0,0:0|0:0,0:0:0:0:
267,232,315293,1,8,0:2:0:0:
336,250,315389,1,0,0:0:0:0:
353,320,315486,1,4,0:0:0:0:
301,369,315583,1,4,0:0:0:0:
66,264,315680,5,10,0:2:0:0:
67,189,315776,1,0,0:0:0:0:
101,123,315873,1,4,0:0:0:0:
159,77,315970,1,0,0:0:0:0:
232,62,316067,1,8,0:2:0:0:
305,80,316163,1,0,0:0:0:0:
86,252,316260,1,6,0:0:0:0:
22,219,316356,1,0,0:0:0:0:
22,148,316453,1,8,0:2:0:0:
86,116,316550,1,0,0:0:0:0:
371,107,316647,5,6,0:0:0:0:
387,178,316743,1,0,0:0:0:0:
340,242,316840,1,8,0:2:0:0:
267,261,316937,1,0,0:0:0:0:
340,242,317035,2,0,L|346:155,1,74.9999977111817,4|4,0:0|0:0,0:0:0:0:
159,158,317228,2,0,L|143:63,1,74.9999977111817,10|0,0:2|0:0,0:0:0:0:
303,104,317422,6,0,L|307:23,1,74.9999977111817,4|4,0:0|0:0,0:0:0:0:
480,92,317615,2,0,L|489:9,1,74.9999977111817,8|0,0:2|0:0,0:0:0:0:
278,148,317809,2,0,L|262:45,1,74.9999977111817,4|4,0:0|0:0,0:0:0:0:
40,90,318002,2,0,L|30:-12,1,74.9999977111817,8|0,0:2|0:0,0:0:0:0:
275,86,318196,5,6,0:0:0:0:
291,158,318292,1,0,0:0:0:0:
273,230,318389,1,8,0:2:0:0:
224,286,318486,1,0,0:0:0:0:
156,315,318583,1,4,0:0:0:0:
82,310,318679,1,4,0:0:0:0:
319,90,318776,1,10,0:2:0:0:
390,109,318872,1,0,0:0:0:0:
441,163,318969,5,4,0:0:0:0:
456,235,319066,1,0,0:0:0:0:
431,305,319163,1,8,0:2:0:0:
373,351,319259,1,0,0:0:0:0:
125,204,319357,2,0,L|101:107,1,74.9999977111817,6|0,0:0|0:0,0:0:0:0:
373,177,319551,2,0,L|384:66,1,74.9999977111817,8|0,0:2|0:0,0:0:0:0:
176,152,319744,5,6,0:0:0:0:
250,152,319841,1,0,0:0:0:0:
325,152,319937,1,8,0:2:0:0:
250,152,320035,1,0,0:0:0:0:
176,152,320131,1,4,0:0:0:0:
250,152,320228,1,4,0:0:0:0:
459,199,320325,5,10,0:2:0:0:
470,271,320421,1,0,0:0:0:0:
430,333,320518,1,4,0:0:0:0:
359,352,320615,1,4,0:0:0:0:
105,249,320712,2,0,L|87:143,1,74.9999977111817,8|0,0:2|0:0,0:0:0:0:
305,150,320906,2,0,L|211:147,3,74.9999977111817,4|8|8|8,0:0|0:2|0:2|0:2,0:0:0:0:
421,154,321293,5,6,0:0:0:0:
436,226,321389,1,0,0:0:0:0:
417,298,321486,1,8,0:2:0:0:
368,353,321583,1,0,0:0:0:0:
298,380,321680,1,4,0:0:0:0:
224,373,321776,1,4,0:0:0:0:
469,323,321873,1,10,0:2:0:0:
475,248,321969,1,0,0:0:0:0:
457,176,322067,5,4,0:0:0:0:
415,114,322163,1,0,0:0:0:0:
355,70,322260,1,8,0:2:0:0:
284,48,322356,1,0,0:0:0:0:
82,190,322454,2,0,L|68:66,1,74.9999977111817,6|4,0:0|0:0,0:0:0:0:
323,170,322647,2,0,L|338:63,1,74.9999977111817,8|0,0:2|0:0,0:0:0:0:
46,260,322841,5,6,0:0:0:0:
32,186,322937,1,0,0:0:0:0:
53,115,323034,1,8,0:2:0:0:
103,61,323131,1,0,0:0:0:0:
173,36,323228,1,4,0:0:0:0:
247,45,323324,1,4,0:0:0:0:
477,125,323422,1,10,0:2:0:0:
488,198,323518,1,0,0:0:0:0:
464,268,323615,5,4,0:0:0:0:
409,318,323712,1,4,0:0:0:0:
337,336,323809,1,8,0:2:0:0:
265,317,323905,1,0,0:0:0:0:
470,292,324002,2,0,L|467:188,1,74.9999977111817,4|4,0:0|0:0,0:0:0:0:
172,191,324196,2,0,L|152:67,1,74.9999977111817,8|0,0:2|0:0,0:0:0:0:
371,102,324389,5,6,0:0:0:0:
431,141,324485,1,0,0:0:0:0:
428,212,324582,1,8,0:2:0:0:
366,248,324679,1,0,0:0:0:0:
298,235,324776,2,0,L|281:147,1,74.9999977111817,4|4,0:0|0:0,0:0:0:0:
481,131,324970,1,10,0:2:0:0:
483,205,325066,1,0,0:0:0:0:
452,273,325163,5,4,0:0:0:0:
396,321,325260,1,0,0:0:0:0:
324,340,325357,1,8,0:2:0:0:
251,325,325453,1,0,0:0:0:0:
46,226,325551,1,6,0:0:0:0:
50,153,325647,1,0,0:0:0:0:
105,106,325744,1,8,0:2:0:0:
178,114,325841,1,0,0:0:0:0:
360,156,325938,6,0,L|364:210,1,37.4999988555909,0|4,0:0|0:0,0:0:0:0:
214,179,326035,2,0,L|31:178,1,149.999995422363,12|4,0:2|0:0,0:0:0:0:
103,122,326276,1,0,0:0:0:0:
356,298,326325,2,0,L|509:295,1,149.999995422363,12|4,0:2|0:0,0:0:0:0:
467,258,326567,1,0,0:0:0:0:
221,209,326615,6,0,L|215:130,1,74.9999977111817,12|0,0:2|0:0,0:0:0:0:
396,157,326809,2,0,L|396:72,1,74.9999977111817,8|8,0:2|0:2,0:0:0:0:
228,72,327002,1,8,0:2:0:0:
56,153,327099,2,0,L|43:67,1,74.9999977111817,8|8,0:0|0:0,0:0:0:0:
346,213,327293,2,0,L|354:116,1,74.9999977111817,4|4,0:0|0:0,0:0:0:0:
99,231,327486,6,0,L|260:232,1,149.999995422363,6|0,0:0|0:0,0:0:0:0:
57,323,327776,2,0,P|13:288|80:225,1,149.999995422363,6|4,0:0|0:0,0:0:0:0:
321,162,328067,2,0,L|332:250,1,74.9999977111817,10|0,0:2|0:0,0:0:0:0:
124,251,328260,6,0,L|286:251,1,149.999995422363,6|8,0:0|0:2,0:0:0:0:
442,210,328551,2,0,P|454:273|362:320,1,149.999995422363,6|4,0:0|0:0,0:0:0:0:
125,188,328841,2,0,L|106:103,1,74.9999977111817,10|0,0:2|0:0,0:0:0:0:
325,140,329035,6,0,L|143:144,1,149.999995422363,6|8,0:0|0:2,0:0:0:0:
374,142,329325,2,0,P|415:168|358:240,1,149.999995422363,6|4,0:0|0:0,0:0:0:0:
166,218,329615,2,0,L|156:135,1,74.9999977111817,10|0,0:2|0:0,0:0:0:0:
417,130,329809,6,0,L|264:134,1,149.999995422363,6|8,0:0|0:2,0:0:0:0:
55,234,330099,2,0,P|51:164|144:141,1,149.999995422363,6|4,0:0|0:0,0:0:0:0:
363,114,330389,2,0,L|376:198,1,74.9999977111817,10|0,0:2|0:3,0:0:0:0:
133,289,330583,6,0,L|288:283,1,149.999995422363,6|8,0:0|0:2,0:0:0:0:
206,221,330873,1,6,0:0:0:0:
377,233,330970,2,0,L|381:143,1,74.9999977111817,0|4,0:0|0:0,0:0:0:0:
141,118,331164,2,0,L|131:43,1,74.9999977111817,10|0,0:2|0:0,0:0:0:0:
379,289,331357,6,0,L|224:283,1,149.999995422363,6|8,0:0|0:2,0:0:0:0:
306,221,331647,1,6,0:0:0:0:
135,233,331744,2,0,L|131:143,1,74.9999977111817,0|4,0:0|0:0,0:0:0:0:
371,118,331938,2,0,L|381:43,1,74.9999977111817,10|0,0:2|0:0,0:0:0:0:
118,144,332131,5,6,0:0:0:0:
155,144,332180,1,0,0:0:0:0:
193,144,332227,1,4,0:0:0:0:
374,205,332325,2,0,L|293:202,1,74.9999977111817,10|4,0:2|0:0,0:0:0:0:
470,174,332518,2,0,L|475:258,1,74.9999977111817,6|4,0:0|0:0,0:0:0:0:
281,191,332712,2,0,L|275:111,1,74.9999977111817,10|4,0:2|0:0,0:0:0:0:
84,90,332906,5,4,0:0:0:0:
251,171,333002,2,0,L|248:75,1,74.9999977111817,2|12,0:0|0:2,0:0:0:0:
426,109,333196,2,0,L|430:34,1,74.9999977111817,2|4,0:0|0:0,0:0:0:0:
241,80,333389,2,0,L|231:-7,1,74.9999977111817,2|12,0:0|0:2,0:0:0:0:
76,45,333583,1,2,0:0:0:0:
338,244,333680,6,0,L|177:245,1,149.999995422363,6|8,0:0|0:2,0:0:0:0:
412,323,333970,2,0,P|456:288|389:225,1,149.999995422363,6|4,0:0|0:0,0:0:0:0:
191,162,334261,2,0,L|180:250,1,74.9999977111817,10|0,0:2|0:0,0:0:0:0:
388,251,334454,6,0,L|226:251,1,149.999995422363,6|8,0:0|0:2,0:0:0:0:
70,210,334745,2,0,P|58:273|150:320,1,149.999995422363,6|4,0:0|0:0,0:0:0:0:
387,188,335035,2,0,L|406:103,1,74.9999977111817,10|0,0:2|0:0,0:0:0:0:
187,140,335229,6,0,L|369:144,1,149.999995422363,6|8,0:0|0:2,0:0:0:0:
138,142,335519,2,0,P|97:168|154:240,1,149.999995422363,6|4,0:0|0:0,0:0:0:0:
346,218,335809,2,0,L|356:135,1,74.9999977111817,10|0,0:2|0:0,0:0:0:0:
95,130,336003,6,0,L|248:134,1,149.999995422363,6|8,0:0|0:2,0:0:0:0:
457,234,336293,2,0,P|461:164|368:141,1,149.999995422363,6|0,0:0|0:0,0:0:0:0:
149,114,336583,2,0,L|136:198,1,74.9999977111817,10|0,0:2|0:0,0:0:0:0:
379,289,336777,6,0,L|224:283,1,149.999995422363,6|8,0:0|0:2,0:0:0:0:
306,221,337067,1,6,0:0:0:0:
135,233,337164,2,0,L|131:143,1,74.9999977111817,0|4,0:0|0:0,0:0:0:0:
371,118,337358,2,0,L|381:43,1,74.9999977111817,10|0,0:2|0:0,0:0:0:0:
133,289,337551,6,0,L|288:283,1,149.999995422363,6|8,0:0|0:2,0:0:0:0:
206,221,337841,1,6,0:0:0:0:
377,233,337938,2,0,L|381:143,1,74.9999977111817,0|4,0:0|0:0,0:0:0:0:
141,118,338132,2,0,L|131:43,1,74.9999977111817,8|0,0:2|0:0,0:0:0:0:
394,144,338325,5,6,0:0:0:0:
356,144,338374,1,0,0:0:0:0:
319,144,338421,1,0,0:0:0:0:
138,205,338519,2,0,L|219:202,1,74.9999977111817,10|4,0:2|0:0,0:0:0:0:
42,174,338712,2,0,L|37:258,1,74.9999977111817,2|4,0:0|0:0,0:0:0:0:
231,191,338906,2,0,L|237:111,1,74.9999977111817,10|0,0:2|0:0,0:0:0:0:
428,90,339100,5,4,0:0:0:0:
261,171,339196,2,0,L|264:75,1,74.9999977111817,2|8,0:0|0:2,0:0:0:0:
86,109,339390,2,0,L|82:34,1,74.9999977111817,2|4,0:0|0:0,0:0:0:0:
271,80,339583,2,0,L|281:-7,1,74.9999977111817,2|8,0:0|0:2,0:0:0:0:
98,40,339777,1,2,0:3:0:0:
350,202,339873,6,0,L|354:103,1,74.9999977111817,6|0,0:0|0:0,0:0:0:0:
280,141,340067,2,0,L|368:139,1,74.9999977111817,8|0,0:2|0:0,0:0:0:0:
199,194,340260,2,0,L|181:96,1,74.9999977111817,4|4,0:0|0:0,0:0:0:0:
280,117,340454,2,0,L|283:42,1,74.9999977111817,8|0,0:2|0:0,0:0:0:0:
98,121,340647,6,0,L|190:124,1,74.9999977111817,4|4,0:0|0:0,0:0:0:0:
376,129,340841,2,0,L|386:204,1,74.9999977111817,8|0,0:2|0:0,0:0:0:0:
138,237,341035,2,0,L|243:241,1,74.9999977111817,4|4,0:0|0:0,0:0:0:0:
459,243,341228,2,0,L|374:244,1,74.9999977111817,8|0,0:2|0:0,0:0:0:0:
135,207,341422,6,0,L|131:108,1,74.9999977111817,6|0,0:0|0:0,0:0:0:0:
205,146,341616,2,0,L|117:144,1,74.9999977111817,8|0,0:2|0:0,0:0:0:0:
286,199,341809,2,0,L|304:101,1,74.9999977111817,4|4,0:0|0:0,0:0:0:0:
205,122,342003,2,0,L|202:47,1,74.9999977111817,8|0,0:2|0:0,0:0:0:0:
387,126,342196,6,0,L|295:129,1,74.9999977111817,4|4,0:0|0:0,0:0:0:0:
109,134,342390,2,0,L|99:209,1,74.9999977111817,8|0,0:2|0:0,0:0:0:0:
347,242,342584,2,0,L|242:246,1,74.9999977111817,4|4,0:0|0:0,0:0:0:0:
26,248,342777,2,0,L|111:249,1,74.9999977111817,8|0,0:2|0:0,0:0:0:0:
327,148,342970,5,6,0:0:0:0:
252,124,343067,1,0,0:0:0:0:
177,107,343164,1,8,0:2:0:0:
420,241,343260,1,0,0:0:0:0:
345,216,343357,1,4,0:0:0:0:
271,199,343454,1,4,0:0:0:0:
476,167,343551,2,0,L|477:77,1,74.9999977111817,8|0,0:2|0:0,0:0:0:0:
239,84,343744,6,0,L|322:83,1,74.9999977111817,4|4,0:0|0:0,0:0:0:0:
80,112,343938,2,0,L|69:30,1,74.9999977111817,8|0,0:2|0:0,0:0:0:0:
288,137,344131,2,0,L|195:140,1,74.9999977111817,4|4,0:0|0:0,0:0:0:0:
449,84,344325,2,0,L|458:175,1,74.9999977111817,8|0,0:2|0:0,0:0:0:0:
197,275,344518,5,12,0:2:0:0:
134,242,344614,1,4,0:0:0:0:
140,172,344711,1,4,0:0:0:0:
208,151,344808,1,4,0:0:0:0:
424,152,344906,1,12,0:2:0:0:
426,225,345002,1,4,0:0:0:0:
380,282,345099,1,4,0:0:0:0:
308,296,345196,1,4,0:0:0:0:
83,184,345293,6,0,L|75:92,1,74.9999977111817,12|4,0:2|0:0,0:0:0:0:
385,144,345486,2,0,L|395:52,1,74.9999977111817,4|0,0:0|0:0,0:0:0:0:
166,147,345680,2,0,L|259:143,3,74.9999977111817,12|4|4|4,0:2|0:0|0:0|0:0,0:0:0:0:
425,120,346067,6,0,L|432:291,1,149.999995422363,12|2,0:2|0:0,0:0:0:0:
246,253,346454,2,0,L|236:163,1,74.9999977111817,8|2,0:0|0:0,0:0:0:0:
324,167,346647,2,0,L|326:80,1,74.9999977111817,0|2,0:0|0:0,0:0:0:0:
83,151,346841,6,0,L|70:-2,1,149.999995422363,8|2,0:0|0:0,0:0:0:0:
144,26,347131,1,2,0:0:0:0:
348,133,347228,2,0,L|353:42,1,74.9999977111817,0|2,0:0|0:0,0:0:0:0:
139,90,347422,2,0,L|125:4,1,74.9999977111817,12|0,0:0|0:0,0:0:0:0:
347,51,347615,6,0,L|356:137,1,74.9999977111817,12|0,0:0|0:0,0:0:0:0:
100,190,347809,2,0,L|79:90,1,74.9999977111817,12|0,0:0|0:0,0:0:0:0:
346,107,348002,2,0,L|362:289,1,149.999995422363,10|0,0:0|0:0,0:0:0:0:
285,260,348293,1,2,0:0:0:0:
58,156,348389,6,0,L|48:62,1,74.9999977111817,8|0,0:0|0:0,0:0:0:0:
248,106,348583,2,0,L|153:107,1,74.9999977111817,2|2,0:0|0:0,0:0:0:0:
334,149,348776,2,0,L|339:57,1,74.9999977111817,8|2,0:0|0:0,0:0:0:0:
497,131,348970,2,0,L|501:44,1,74.9999977111817,2|2,0:0|0:0,0:0:0:0:
267,224,349164,6,0,L|441:226,1,149.999995422363,8|2,0:0|0:0,0:0:0:0:
343,172,349454,1,0,0:0:0:0:
78,189,349551,2,0,L|61:15,1,149.999995422363,10|0,0:0|0:0,0:0:0:0:
140,36,349841,1,2,0:0:0:0:
388,60,349938,6,0,L|412:238,1,149.999995422363,8|2,0:0|0:0,0:0:0:0:
335,207,350228,1,2,0:0:0:0:
105,143,350325,2,0,L|96:62,1,74.9999977111817,8|0,0:0|0:0,0:0:0:0:
299,107,350518,2,0,L|373:108,1,74.9999977111817,12|0,0:0|0:0,0:0:0:0:
195,63,350712,6,0,L|84:63,1,74.9999977111817,12|0,0:0|0:0,0:0:0:0:
366,202,350906,2,0,L|446:202,1,74.9999977111817,12|0,0:0|0:0,0:0:0:0:
185,252,351099,1,10,0:0:0:0:
118,232,351195,1,2,0:0:0:0:
120,162,351292,1,0,0:0:0:0:
188,146,351389,1,2,0:0:0:0:
445,77,351486,6,0,L|456:242,1,149.999995422363,8|2,0:0|0:0,0:0:0:0:
387,234,351776,1,2,0:0:0:0:
138,124,351873,2,0,L|123:34,1,74.9999977111817,8|2,0:0|0:0,0:0:0:0:
372,124,352067,2,0,L|382:22,1,74.9999977111817,2|2,0:0|0:0,0:0:0:0:
76,200,352260,5,6,0:0:0:0:
256,192,352454,12,0,356131,0:0:0:0:
