osu file format v14

[General]
AudioFilename: audio.mp3
AudioLeadIn: 0
PreviewTime: 44141
Countdown: 1
SampleSet: Normal
StackLeniency: 0.7
Mode: 1
LetterboxInBreaks: 0
WidescreenStoryboard: 0

[Editor]
DistanceSpacing: 0.5
BeatDivisor: 4
GridSize: 4
TimelineZoom: 2.5

[Metadata]
Title:ero Amenpunk
TitleUnicode:ero Amenpunk
Artist:Fukenkou Seijin
ArtistUnicode:不健康成人
Creator:maguro869
Version:ero
Source:
Tags:クリープハイプ エロ CreepHyp ERO breakcore amenbreak remix hardcore electronic japanese
BeatmapID:1837863
BeatmapSetID:878810

[Difficulty]
HPDrainRate:5
CircleSize:5
OverallDifficulty:5
ApproachRate:5
SliderMultiplier:1.4
SliderTickRate:1

[Events]
//Background and Video events
0,0,"Dk5EAZYUYAUoYak.jpg",0,0
//Break Periods
//Storyboard Layer 0 (Background)
//Storyboard Layer 1 (Fail)
//Storyboard Layer 2 (Pass)
//Storyboard Layer 3 (Foreground)
//Storyboard Layer 4 (Overlay)
//Storyboard Sound Samples

[TimingPoints]
2536,315.789473684211,4,1,0,100,1,0
13904,-100,4,1,0,100,0,0
34114,-100,4,1,0,100,0,0
44141,-90.9090909090909,4,1,0,100,0,1
46667,-90.9090909090909,4,1,0,100,0,1
54246,-90.9090909090909,4,1,0,100,0,1
56772,-90.9090909090909,4,1,0,100,0,1
64430,-100,4,1,0,100,0,0
74536,-100,4,1,0,100,0,0
84641,-100,4,1,0,100,0,0
96009,-90.9090909090909,4,1,0,100,0,1
98457,-90.9090909090909,4,1,0,100,0,1
106114,-90.9090909090909,4,1,0,100,0,1
108562,-90.9090909090909,4,1,0,100,0,1
113378,-86.9565217391304,4,1,0,100,0,1
141482,-100,4,1,0,100,0,0

[HitObjects]
200,64,3430,5,8,0:0:0:0:
131,150,3483,1,8,0:0:0:0:
131,150,3535,1,8,0:0:0:0:
131,150,3588,1,8,0:0:0:0:
97,137,3799,1,0,0:0:0:0:
124,111,3957,1,0,0:0:0:0:
211,133,4114,1,8,0:0:0:0:
211,133,4193,1,8,0:0:0:0:
292,80,4272,1,0,0:0:0:0:
292,80,4430,1,8,0:0:0:0:
232,152,4588,1,0,0:0:0:0:
292,80,4667,1,8,0:0:0:0:
292,80,4746,1,0,0:0:0:0:
232,152,4904,1,8,0:0:0:0:
220,61,5220,1,8,0:0:0:0:
275,157,5378,1,0,0:0:0:0:
275,157,5457,1,0,0:0:0:0:
184,90,5536,1,8,0:0:0:0:
169,91,5693,1,0,0:0:0:0:
241,178,5851,1,8,0:0:0:0:
241,178,5930,1,8,0:0:0:0:
212,150,6009,1,0,0:0:0:0:
208,55,6167,1,8,0:0:0:0:
190,136,6325,1,0,0:0:0:0:
292,80,6483,1,0,0:0:0:0:
211,133,6640,1,8,0:0:0:0:
211,133,6719,1,8,0:0:0:0:
292,80,6799,1,0,0:0:0:0:
232,152,6957,1,8,0:0:0:0:
232,152,7035,1,0,0:0:0:0:
292,80,7114,1,0,0:0:0:0:
292,80,7193,1,8,0:0:0:0:
138,160,7272,1,0,0:0:0:0:
251,190,7430,1,8,0:0:0:0:
204,71,7746,1,8,0:0:0:0:
98,114,7904,1,0,0:0:0:0:
98,114,7983,1,0,0:0:0:0:
98,114,8062,1,8,0:0:0:0:
98,114,8141,1,0,0:0:0:0:
229,119,8220,1,8,0:0:0:0:
229,119,8378,1,0,0:0:0:0:
235,119,8457,1,8,0:0:0:0:
239,119,8536,1,0,0:0:0:0:
235,119,8693,1,8,0:0:0:0:
113,126,8851,1,0,0:0:0:0:
238,137,9009,1,0,0:0:0:0:
284,133,9167,1,8,0:0:0:0:
284,133,9246,1,8,0:0:0:0:
143,122,9325,1,0,0:0:0:0:
143,122,9483,1,8,0:0:0:0:
143,122,9562,1,0,0:0:0:0:
143,122,9641,1,0,0:0:0:0:
143,122,9720,1,8,0:0:0:0:
143,122,9799,1,0,0:0:0:0:
143,122,9878,1,0,0:0:0:0:
143,122,9957,1,8,0:0:0:0:
49,151,10114,1,0,0:0:0:0:
36,148,10193,1,0,0:0:0:0:
337,177,10272,1,8,0:0:0:0:
331,178,10430,1,0,0:0:0:0:
331,178,10509,1,8,0:0:0:0:
331,178,10588,1,0,0:0:0:0:
331,178,10667,1,0,0:0:0:0:
331,178,10746,1,8,0:0:0:0:
336,175,10904,1,0,0:0:0:0:
336,175,10983,1,8,0:0:0:0:
336,175,11062,1,0,0:0:0:0:
36,158,11220,1,8,0:0:0:0:
36,158,11299,1,8,0:0:0:0:
36,158,11378,1,0,0:0:0:0:
36,148,11536,1,0,0:0:0:0:
36,148,11614,1,0,0:0:0:0:
36,148,11693,1,8,0:0:0:0:
36,148,11772,1,8,0:0:0:0:
36,148,11851,1,0,0:0:0:0:
36,148,11930,1,0,0:0:0:0:
36,148,12009,1,8,0:0:0:0:
36,148,12088,1,0,0:0:0:0:
36,148,12167,1,0,0:0:0:0:
36,148,12246,1,8,0:0:0:0:
36,148,12325,1,0,0:0:0:0:
232,136,12404,1,0,0:0:0:0:
232,136,12483,1,8,0:0:0:0:
251,159,12641,1,0,0:0:0:0:
261,138,12957,1,8,0:0:0:0:
261,138,13036,1,0,0:0:0:0:
221,180,13114,1,8,0:0:0:0:
221,180,13193,1,0,0:0:0:0:
221,180,13272,1,8,0:0:0:0:
221,180,13430,1,0,0:0:0:0:
260,158,13483,1,0,0:0:0:0:
260,158,13536,1,0,0:0:0:0:
260,158,13588,1,8,0:0:0:0:
192,139,13904,1,0,0:0:0:0:
136,113,14062,1,0,0:0:0:0:
66,86,14141,1,0,0:0:0:0:
66,86,14220,1,8,0:0:0:0:
66,86,14378,1,0,0:0:0:0:
66,86,14457,1,8,0:0:0:0:
66,86,14536,1,0,0:0:0:0:
31,71,14693,1,8,0:0:0:0:
188,117,14851,1,0,0:0:0:0:
187,104,14930,1,0,0:0:0:0:
187,104,15009,1,8,0:0:0:0:
187,104,15088,1,8,0:0:0:0:
187,104,15167,1,0,0:0:0:0:
186,111,15246,1,0,0:0:0:0:
186,111,15404,1,0,0:0:0:0:
186,111,15483,1,8,0:0:0:0:
186,111,15641,1,0,0:0:0:0:
186,111,15720,1,8,0:0:0:0:
186,111,15799,1,0,0:0:0:0:
186,111,15878,1,0,0:0:0:0:
186,111,15957,1,8,0:0:0:0:
186,111,16036,1,0,0:0:0:0:
186,111,16114,1,8,0:0:0:0:
186,111,16272,1,0,0:0:0:0:
186,111,16351,1,8,0:0:0:0:
186,111,16430,1,0,0:0:0:0:
186,111,16588,1,0,0:0:0:0:
186,111,16667,1,0,0:0:0:0:
186,111,16746,1,8,0:0:0:0:
201,144,16904,1,0,0:0:0:0:
201,144,16983,1,8,0:0:0:0:
201,144,17062,1,0,0:0:0:0:
201,144,17141,1,0,0:0:0:0:
151,92,17220,1,8,0:0:0:0:
151,92,17299,1,8,0:0:0:0:
151,92,17378,1,0,0:0:0:0:
234,173,17535,1,8,0:0:0:0:
234,173,17614,1,8,0:0:0:0:
234,173,17693,1,0,0:0:0:0:
234,173,17772,1,8,0:0:0:0:
234,173,17930,1,8,0:0:0:0:
234,173,18009,1,0,0:0:0:0:
226,112,18167,1,8,0:0:0:0:
234,173,18325,1,0,0:0:0:0:
234,173,18404,1,0,0:0:0:0:
241,172,18483,1,8,0:0:0:0:
234,173,18562,1,0,0:0:0:0:
234,173,18641,1,8,0:0:0:0:
223,166,18720,1,8,0:0:0:0:
228,165,18799,1,0,0:0:0:0:
250,160,18878,1,8,0:0:0:0:
279,160,18957,1,0,0:0:0:0:
231,156,19114,1,0,0:0:0:0:
231,156,19193,1,0,0:0:0:0:
231,156,19272,1,8,0:0:0:0:
149,268,19430,1,0,0:0:0:0:
149,268,19509,1,8,0:0:0:0:
149,268,19667,1,8,0:0:0:0:
149,268,19746,1,0,0:0:0:0:
149,268,19904,1,8,0:0:0:0:
156,271,19983,1,0,0:0:0:0:
158,270,20062,1,8,0:0:0:0:
157,270,20141,1,8,0:0:0:0:
176,266,20220,1,0,0:0:0:0:
176,267,20378,1,0,0:0:0:0:
176,266,20457,1,0,0:0:0:0:
176,267,20536,1,0,0:0:0:0:
202,318,20693,1,8,0:0:0:0:
202,318,20851,1,0,0:0:0:0:
202,318,20930,1,8,0:0:0:0:
208,318,21009,1,0,0:0:0:0:
247,318,21167,1,8,0:0:0:0:
247,318,21246,1,8,0:0:0:0:
247,318,21325,1,0,0:0:0:0:
247,318,21404,1,8,0:0:0:0:
267,148,21483,1,0,0:0:0:0:
15,148,21641,1,8,0:0:0:0:
291,133,21799,1,0,0:0:0:0:
15,148,21878,1,0,0:0:0:0:
291,133,21957,1,8,0:0:0:0:
274,91,22114,1,0,0:0:0:0:
274,91,22193,1,8,0:0:0:0:
90,178,22272,1,8,0:0:0:0:
149,134,22351,1,0,0:0:0:0:
149,134,22430,1,0,0:0:0:0:
149,134,22588,1,8,0:0:0:0:
133,143,22746,1,0,0:0:0:0:
133,143,23062,1,8,0:0:0:0:
133,143,23141,1,8,0:0:0:0:
133,143,23220,1,0,0:0:0:0:
133,143,23299,1,8,0:0:0:0:
133,143,23378,1,0,0:0:0:0:
133,143,23457,1,0,0:0:0:0:
133,143,23536,1,8,0:0:0:0:
133,143,23693,1,0,0:0:0:0:
133,143,23851,1,8,0:0:0:0:
133,143,23930,1,8,0:0:0:0:
133,143,24009,1,0,0:0:0:0:
183,159,24167,1,0,0:0:0:0:
200,158,24246,1,0,0:0:0:0:
395,142,24325,1,8,0:0:0:0:
167,108,24483,1,0,0:0:0:0:
167,108,24562,1,8,0:0:0:0:
285,122,24641,1,8,0:0:0:0:
285,122,24720,1,0,0:0:0:0:
285,122,24799,1,8,0:0:0:0:
201,151,24957,1,8,0:0:0:0:
201,151,25036,1,0,0:0:0:0:
201,151,25114,1,8,0:0:0:0:
201,151,25193,1,8,0:0:0:0:
201,151,25272,1,0,0:0:0:0:
201,151,25430,1,0,0:0:0:0:
161,151,25509,1,0,0:0:0:0:
89,153,25588,1,8,0:0:0:0:
258,133,25746,1,0,0:0:0:0:
258,133,25825,1,0,0:0:0:0:
258,133,25983,1,8,0:0:0:0:
258,133,26062,1,0,0:0:0:0:
252,174,26220,1,8,0:0:0:0:
252,174,26299,1,0,0:0:0:0:
252,174,26378,1,8,0:0:0:0:
252,174,26457,1,8,0:0:0:0:
252,174,26536,1,0,0:0:0:0:
252,180,26693,1,0,0:0:0:0:
252,180,26772,1,0,0:0:0:0:
252,180,26851,1,8,0:0:0:0:
252,180,27009,1,0,0:0:0:0:
252,180,27088,1,8,0:0:0:0:
252,180,27167,1,0,0:0:0:0:
252,180,27246,1,0,0:0:0:0:
252,180,27325,1,8,0:0:0:0:
252,180,27404,1,8,0:0:0:0:
252,180,27483,1,0,0:0:0:0:
250,185,27641,1,8,0:0:0:0:
250,185,27799,1,0,0:0:0:0:
250,185,27878,1,0,0:0:0:0:
276,114,27957,1,0,0:0:0:0:
250,185,28036,1,8,0:0:0:0:
142,141,28114,1,0,0:0:0:0:
108,169,28272,1,8,0:0:0:0:
238,154,28351,1,8,0:0:0:0:
238,154,28430,1,0,0:0:0:0:
238,154,28509,1,0,0:0:0:0:
251,157,28588,1,8,0:0:0:0:
252,157,28667,1,0,0:0:0:0:
333,148,28746,1,8,0:0:0:0:
313,148,28825,1,8,0:0:0:0:
313,148,28904,1,0,0:0:0:0:
319,148,28983,1,8,0:0:0:0:
295,120,29062,1,0,0:0:0:0:
174,96,29220,1,0,0:0:0:0:
174,96,29299,1,0,0:0:0:0:
161,92,29378,1,8,0:0:0:0:
161,92,29536,1,0,0:0:0:0:
161,92,29614,1,8,0:0:0:0:
161,92,29772,1,8,0:0:0:0:
161,92,29851,1,0,0:0:0:0:
161,92,30009,1,8,0:0:0:0:
161,92,30088,1,0,0:0:0:0:
166,91,30167,1,8,0:0:0:0:
188,88,30246,1,8,0:0:0:0:
188,88,30325,1,0,0:0:0:0:
196,88,30483,1,0,0:0:0:0:
196,88,30562,1,0,0:0:0:0:
234,84,30641,1,8,0:0:0:0:
227,84,30799,1,8,0:0:0:0:
101,161,30878,1,8,0:0:0:0:
139,153,30957,1,0,0:0:0:0:
109,117,31036,1,8,0:0:0:0:
119,112,31193,1,0,0:0:0:0:
101,103,31272,1,8,0:0:0:0:
177,98,31430,1,0,0:0:0:0:
177,98,31509,1,8,0:0:0:0:
164,73,31588,1,0,0:0:0:0:
212,157,31746,1,0,0:0:0:0:
212,157,31904,1,8,0:0:0:0:
93,158,32062,1,0,0:0:0:0:
401,129,32141,1,0,0:0:0:0:
388,129,32220,1,8,0:0:0:0:
388,133,32299,1,8,0:0:0:0:
388,133,32378,1,0,0:0:0:0:
388,129,32457,1,8,0:0:0:0:
388,133,32536,1,0,0:0:0:0:
331,143,32693,1,8,0:0:0:0:
331,143,32851,1,0,0:0:0:0:
331,143,33009,1,8,0:0:0:0:
331,143,33088,1,8,0:0:0:0:
331,143,33167,1,0,0:0:0:0:
331,143,33246,1,8,0:0:0:0:
331,143,33325,1,0,0:0:0:0:
331,148,33404,1,8,0:0:0:0:
331,148,33483,1,0,0:0:0:0:
331,148,33641,1,8,0:0:0:0:
295,126,33799,1,0,0:0:0:0:
290,122,33851,1,0,0:0:0:0:
290,122,33904,1,0,0:0:0:0:
246,111,33957,1,8,0:0:0:0:
117,133,34036,1,8,0:0:0:0:
295,107,34114,1,0,0:0:0:0:
180,154,34272,1,8,0:0:0:0:
180,154,34351,1,0,0:0:0:0:
180,154,34430,1,8,0:0:0:0:
164,137,34588,1,0,0:0:0:0:
164,137,34746,1,8,0:0:0:0:
164,137,34825,1,8,0:0:0:0:
164,137,34904,1,0,0:0:0:0:
164,137,35062,1,8,0:0:0:0:
164,137,35220,1,0,0:0:0:0:
164,137,35299,1,0,0:0:0:0:
164,137,35378,1,8,0:0:0:0:
164,137,35536,1,0,0:0:0:0:
215,107,35588,1,0,0:0:0:0:
140,118,35641,1,0,0:0:0:0:
245,190,35693,1,8,0:0:0:0:
245,190,35772,1,8,0:0:0:0:
245,190,35851,1,0,0:0:0:0:
129,119,36009,1,8,0:0:0:0:
245,190,36167,1,0,0:0:0:0:
219,127,36246,1,0,0:0:0:0:
219,127,36325,1,8,0:0:0:0:
161,157,36404,1,0,0:0:0:0:
277,110,36483,1,8,0:0:0:0:
234,96,36641,1,0,0:0:0:0:
250,164,36799,1,8,0:0:0:0:
250,164,36878,1,8,0:0:0:0:
250,164,36957,1,0,0:0:0:0:
263,148,37114,1,8,0:0:0:0:
263,148,37272,1,0,0:0:0:0:
263,148,37351,1,8,0:0:0:0:
263,148,37430,1,8,0:0:0:0:
263,148,37509,1,8,0:0:0:0:
263,148,37588,1,0,0:0:0:0:
135,118,37667,1,8,0:0:0:0:
167,120,37746,1,8,0:0:0:0:
167,120,37825,1,8,0:0:0:0:
167,120,37904,1,0,0:0:0:0:
254,193,38062,1,8,0:0:0:0:
254,193,38141,1,8,0:0:0:0:
254,193,38220,1,0,0:0:0:0:
92,162,38299,1,0,0:0:0:0:
111,159,38378,1,8,0:0:0:0:
111,159,38457,1,8,0:0:0:0:
111,163,38536,1,0,0:0:0:0:
111,163,38693,1,8,0:0:0:0:
58,141,38851,1,0,0:0:0:0:
58,141,38930,1,0,0:0:0:0:
58,141,39009,1,8,0:0:0:0:
58,141,39088,1,8,0:0:0:0:
58,141,39167,1,0,0:0:0:0:
177,153,39246,1,0,0:0:0:0:
167,154,39325,1,8,0:0:0:0:
177,153,39404,1,0,0:0:0:0:
177,153,39483,1,8,0:0:0:0:
237,142,39641,1,0,0:0:0:0:
237,142,39720,1,8,0:0:0:0:
240,112,39799,1,0,0:0:0:0:
240,112,39878,1,0,0:0:0:0:
243,116,39957,1,8,0:0:0:0:
243,117,40114,1,0,0:0:0:0:
243,116,40193,1,0,0:0:0:0:
243,117,40272,1,8,0:0:0:0:
207,97,40351,1,8,0:0:0:0:
207,97,40430,1,0,0:0:0:0:
158,39,40588,1,8,0:0:0:0:
158,39,40667,1,8,0:0:0:0:
150,35,40746,1,0,0:0:0:0:
138,34,40825,1,0,0:0:0:0:
151,34,40904,1,8,0:0:0:0:
113,135,41062,1,0,0:0:0:0:
113,135,41141,1,0,0:0:0:0:
113,135,41220,1,8,0:0:0:0:
113,135,41299,1,0,0:0:0:0:
113,142,41378,1,8,0:0:0:0:
113,142,41457,1,8,0:0:0:0:
113,142,41536,1,0,0:0:0:0:
113,142,41614,1,8,0:0:0:0:
166,107,41693,1,0,0:0:0:0:
138,96,41851,1,8,0:0:0:0:
263,148,41930,1,8,0:0:0:0:
116,168,42009,1,0,0:0:0:0:
246,193,42167,1,8,0:0:0:0:
357,252,42325,1,0,0:0:0:0:
357,252,42404,1,0,0:0:0:0:
357,252,42483,1,8,0:0:0:0:
342,258,42641,1,0,0:0:0:0:
342,264,42799,1,8,0:0:0:0:
342,264,42878,1,8,0:0:0:0:
342,264,42957,1,0,0:0:0:0:
342,264,43036,5,0,0:0:0:0:
342,264,43114,1,8,0:0:0:0:
342,269,43272,1,0,0:0:0:0:
192,123,43430,1,8,0:0:0:0:
256,192,43588,12,8,44141,0:0:0:0:
272,117,44220,5,12,0:0:0:0:
301,116,44378,1,0,0:0:0:0:
301,116,44457,1,8,0:0:0:0:
301,116,44536,1,0,0:0:0:0:
272,117,44693,1,12,0:0:0:0:
301,116,44851,1,0,0:0:0:0:
301,116,44930,1,8,0:0:0:0:
301,116,45009,1,0,0:0:0:0:
301,116,45167,1,12,0:0:0:0:
320,114,45325,1,0,0:0:0:0:
320,114,45404,1,8,0:0:0:0:
320,114,45483,1,0,0:0:0:0:
301,115,45641,1,12,0:0:0:0:
179,131,45799,1,0,0:0:0:0:
325,114,45878,1,8,0:0:0:0:
179,131,45957,1,0,0:0:0:0:
301,115,46114,1,4,0:0:0:0:
301,115,46272,1,4,0:0:0:0:
301,115,46430,1,12,0:0:0:0:
301,115,46588,1,12,0:0:0:0:
326,166,46746,1,0,0:0:0:0:
165,132,46904,1,8,0:0:0:0:
165,132,46983,1,8,0:0:0:0:
240,109,47062,1,0,0:0:0:0:
240,109,47220,1,8,0:0:0:0:
240,109,47378,1,0,0:0:0:0:
240,109,47457,1,0,0:0:0:0:
240,109,47536,1,8,0:0:0:0:
240,109,47614,1,8,0:0:0:0:
240,109,47693,1,0,0:0:0:0:
350,168,47746,1,0,0:0:0:0:
228,144,47799,1,0,0:0:0:0:
206,158,47851,1,8,0:0:0:0:
275,118,48009,1,0,0:0:0:0:
348,82,48088,1,0,0:0:0:0:
348,82,48167,1,0,0:0:0:0:
251,82,48325,1,8,0:0:0:0:
251,82,48483,1,0,0:0:0:0:
377,124,48562,1,8,0:0:0:0:
258,116,48720,1,8,0:0:0:0:
258,116,48799,1,0,0:0:0:0:
283,133,48878,1,0,0:0:0:0:
216,118,48957,1,8,0:0:0:0:
216,118,49036,1,8,0:0:0:0:
216,118,49114,1,8,0:0:0:0:
216,118,49193,1,8,0:0:0:0:
216,118,49272,1,0,0:0:0:0:
161,127,49430,1,0,0:0:0:0:
161,127,49509,1,0,0:0:0:0:
173,158,49588,1,8,0:0:0:0:
173,158,49641,1,8,0:0:0:0:
179,157,49693,1,8,0:0:0:0:
179,157,49746,1,0,0:0:0:0:
179,157,49904,1,8,0:0:0:0:
285,150,50062,1,0,0:0:0:0:
312,149,50114,1,0,0:0:0:0:
308,146,50220,1,0,0:0:0:0:
308,146,50272,1,0,0:0:0:0:
241,122,50378,1,8,0:0:0:0:
251,119,50536,1,0,0:0:0:0:
251,119,50614,1,8,0:0:0:0:
266,119,50693,1,0,0:0:0:0:
271,118,50772,1,8,0:0:0:0:
143,72,50851,1,0,0:0:0:0:
143,72,51009,1,8,0:0:0:0:
143,72,51088,1,8,0:0:0:0:
186,139,51167,1,0,0:0:0:0:
186,139,51246,1,8,0:0:0:0:
186,139,51325,1,0,0:0:0:0:
259,148,51483,1,8,0:0:0:0:
56,140,51641,1,0,0:0:0:0:
62,138,51720,1,8,0:0:0:0:
300,148,51799,1,0,0:0:0:0:
300,148,51878,1,0,0:0:0:0:
300,148,51957,1,0,0:0:0:0:
300,148,52114,1,8,0:0:0:0:
158,134,52272,1,0,0:0:0:0:
158,134,52351,1,8,0:0:0:0:
186,203,52430,1,0,0:0:0:0:
186,203,52483,1,0,0:0:0:0:
191,202,52536,1,0,0:0:0:0:
201,202,52588,1,8,0:0:0:0:
314,124,52667,1,8,0:0:0:0:
149,98,52746,1,0,0:0:0:0:
168,34,52904,1,0,0:0:0:0:
226,49,52983,1,8,0:0:0:0:
211,146,53141,1,8,0:0:0:0:
337,134,53220,1,0,0:0:0:0:
337,134,53299,1,0,0:0:0:0:
338,126,53378,1,8,0:0:0:0:
369,121,53536,1,0,0:0:0:0:
373,104,53614,1,8,0:0:0:0:
76,147,53772,1,8,0:0:0:0:
89,146,53851,1,0,0:0:0:0:
70,146,54009,1,8,0:0:0:0:
138,132,54062,1,8,0:0:0:0:
237,147,54167,1,8,0:0:0:0:
138,132,54220,1,8,0:0:0:0:
244,130,54325,5,4,0:0:0:0:
232,91,54483,1,8,0:0:0:0:
232,91,54562,1,0,0:0:0:0:
232,91,54641,1,8,0:0:0:0:
232,91,54799,1,4,0:0:0:0:
200,96,54957,1,8,0:0:0:0:
191,96,55036,1,0,0:0:0:0:
191,96,55114,1,8,0:0:0:0:
241,91,55272,1,4,0:0:0:0:
191,96,55430,1,8,0:0:0:0:
191,96,55509,1,0,0:0:0:0:
186,96,55588,1,8,0:0:0:0:
239,91,55746,1,4,0:0:0:0:
185,96,55904,1,8,0:0:0:0:
320,157,55983,1,0,0:0:0:0:
307,156,56062,1,8,0:0:0:0:
232,91,56220,1,4,0:0:0:0:
232,91,56378,1,4,0:0:0:0:
232,91,56536,1,12,0:0:0:0:
232,91,56694,1,12,0:0:0:0:
223,194,56851,1,0,0:0:0:0:
223,194,57009,1,8,0:0:0:0:
223,194,57088,1,0,0:0:0:0:
231,148,57167,1,8,0:0:0:0:
231,148,57325,1,0,0:0:0:0:
231,148,57404,1,8,0:0:0:0:
231,148,57483,1,0,0:0:0:0:
231,148,57562,1,0,0:0:0:0:
231,148,57641,1,8,0:0:0:0:
231,148,57720,1,8,0:0:0:0:
245,147,57799,1,0,0:0:0:0:
311,98,57851,1,0,0:0:0:0:
82,137,57904,1,0,0:0:0:0:
82,137,57957,1,8,0:0:0:0:
82,137,58114,1,0,0:0:0:0:
82,137,58193,1,0,0:0:0:0:
82,137,58272,1,0,0:0:0:0:
238,142,58430,1,8,0:0:0:0:
238,142,58588,1,0,0:0:0:0:
238,142,58667,1,8,0:0:0:0:
238,142,58746,1,0,0:0:0:0:
238,142,58825,1,0,0:0:0:0:
99,141,58904,1,8,0:0:0:0:
99,141,58983,1,0,0:0:0:0:
141,136,59062,1,8,0:0:0:0:
141,136,59141,1,8,0:0:0:0:
141,136,59220,1,0,0:0:0:0:
141,136,59299,1,8,0:0:0:0:
141,136,59378,1,0,0:0:0:0:
141,136,59536,1,0,0:0:0:0:
141,136,59614,1,8,0:0:0:0:
261,68,59693,1,0,0:0:0:0:
261,68,59746,1,0,0:0:0:0:
216,48,59799,1,0,0:0:0:0:
226,47,59851,1,8,0:0:0:0:
270,111,60009,1,0,0:0:0:0:
189,154,60088,1,8,0:0:0:0:
189,154,60246,1,8,0:0:0:0:
189,154,60325,1,0,0:0:0:0:
181,146,60483,1,8,0:0:0:0:
181,146,60641,1,0,0:0:0:0:
173,146,60720,1,8,0:0:0:0:
125,140,60799,1,0,0:0:0:0:
141,133,60878,1,8,0:0:0:0:
156,131,60957,1,0,0:0:0:0:
217,124,61114,1,8,0:0:0:0:
217,124,61193,1,8,0:0:0:0:
217,124,61272,1,0,0:0:0:0:
217,124,61351,1,8,0:0:0:0:
250,122,61430,1,0,0:0:0:0:
184,163,61588,1,8,0:0:0:0:
184,163,61667,1,8,0:0:0:0:
261,98,61746,1,0,0:0:0:0:
216,112,61825,1,8,0:0:0:0:
216,112,61904,1,0,0:0:0:0:
216,112,61983,1,0,0:0:0:0:
187,95,62062,1,0,0:0:0:0:
155,167,62220,1,8,0:0:0:0:
155,167,62378,1,0,0:0:0:0:
155,167,62457,1,8,0:0:0:0:
321,117,62536,1,0,0:0:0:0:
321,117,62588,1,0,0:0:0:0:
311,117,62641,1,0,0:0:0:0:
311,117,62693,1,8,0:0:0:0:
186,139,62772,1,8,0:0:0:0:
186,139,62851,1,0,0:0:0:0:
186,139,62930,1,0,0:0:0:0:
62,167,63009,1,8,0:0:0:0:
40,167,63062,1,8,0:0:0:0:
41,167,63114,1,8,0:0:0:0:
43,167,63167,1,0,0:0:0:0:
256,209,63325,1,0,0:0:0:0:
256,209,63404,1,0,0:0:0:0:
261,209,63483,1,8,0:0:0:0:
284,208,63562,1,0,0:0:0:0:
296,203,63641,1,8,0:0:0:0:
291,189,63720,1,8,0:0:0:0:
293,169,63799,1,0,0:0:0:0:
121,135,63851,1,0,0:0:0:0:
121,135,63904,1,0,0:0:0:0:
153,135,63957,1,8,0:0:0:0:
153,135,64036,1,8,0:0:0:0:
153,135,64114,1,0,0:0:0:0:
275,196,64430,1,0,0:0:0:0:
275,196,64588,1,0,0:0:0:0:
275,196,64746,1,8,0:0:0:0:
275,196,64825,1,8,0:0:0:0:
264,196,64904,1,0,0:0:0:0:
264,196,65062,1,8,0:0:0:0:
264,196,65220,1,0,0:0:0:0:
264,196,65299,1,8,0:0:0:0:
264,196,65378,1,0,0:0:0:0:
264,196,65536,1,8,0:0:0:0:
264,196,65851,1,8,0:0:0:0:
264,196,66009,1,0,0:0:0:0:
264,196,66088,1,8,0:0:0:0:
264,196,66167,1,0,0:0:0:0:
269,196,66246,1,0,0:0:0:0:
291,171,66325,1,8,0:0:0:0:
291,171,66483,1,0,0:0:0:0:
294,133,66562,1,8,0:0:0:0:
231,2,66641,1,0,0:0:0:0:
106,138,66799,1,8,0:0:0:0:
106,138,66878,1,8,0:0:0:0:
106,138,66957,1,0,0:0:0:0:
106,138,67114,1,0,0:0:0:0:
106,138,67272,1,8,0:0:0:0:
106,138,67430,1,0,0:0:0:0:
184,121,67509,1,0,0:0:0:0:
106,138,67588,1,8,0:0:0:0:
191,121,67667,1,0,0:0:0:0:
137,66,67825,1,8,0:0:0:0:
137,66,67904,1,0,0:0:0:0:
137,66,68062,1,8,0:0:0:0:
137,66,68378,1,8,0:0:0:0:
165,178,68536,1,0,0:0:0:0:
165,178,68614,1,0,0:0:0:0:
165,178,68693,1,8,0:0:0:0:
165,178,68772,1,0,0:0:0:0:
165,178,68851,1,8,0:0:0:0:
101,131,69009,1,0,0:0:0:0:
101,131,69088,1,8,0:0:0:0:
341,145,69246,1,0,0:0:0:0:
341,145,69325,1,8,0:0:0:0:
277,109,69483,1,0,0:0:0:0:
277,109,69641,1,0,0:0:0:0:
277,109,69720,1,0,0:0:0:0:
279,96,69799,1,8,0:0:0:0:
277,89,69878,1,8,0:0:0:0:
277,89,69957,1,0,0:0:0:0:
240,43,70114,1,8,0:0:0:0:
240,43,70193,1,0,0:0:0:0:
240,43,70272,1,0,0:0:0:0:
240,43,70351,1,8,0:0:0:0:
240,43,70430,1,0,0:0:0:0:
240,43,70588,1,8,0:0:0:0:
240,43,70746,1,0,0:0:0:0:
240,43,70904,1,8,0:0:0:0:
240,43,71062,1,0,0:0:0:0:
240,43,71141,1,0,0:0:0:0:
240,43,71220,1,8,0:0:0:0:
240,43,71299,1,0,0:0:0:0:
240,43,71378,1,8,0:0:0:0:
312,38,71536,1,0,0:0:0:0:
312,38,71614,1,8,0:0:0:0:
312,38,71693,1,0,0:0:0:0:
278,83,71772,1,0,0:0:0:0:
319,80,71851,1,8,0:0:0:0:
182,176,71930,1,8,0:0:0:0:
182,176,72009,1,0,0:0:0:0:
182,176,72167,1,0,0:0:0:0:
182,176,72246,1,0,0:0:0:0:
182,176,72325,1,8,0:0:0:0:
182,176,72404,1,8,0:0:0:0:
182,176,72483,1,0,0:0:0:0:
182,176,72562,1,0,0:0:0:0:
182,176,72641,1,8,0:0:0:0:
182,176,72720,1,0,0:0:0:0:
156,143,72799,1,0,0:0:0:0:
156,143,72878,1,8,0:0:0:0:
156,143,72957,1,0,0:0:0:0:
90,119,73036,1,0,0:0:0:0:
90,119,73114,1,8,0:0:0:0:
179,158,73272,1,8,0:0:0:0:
179,158,73588,1,8,0:0:0:0:
179,158,73667,1,0,0:0:0:0:
172,148,73746,1,8,0:0:0:0:
173,148,73825,1,0,0:0:0:0:
161,120,73904,1,8,0:0:0:0:
186,118,74062,1,0,0:0:0:0:
182,118,74141,1,0,0:0:0:0:
186,118,74220,1,8,0:0:0:0:
181,118,74536,1,0,0:0:0:0:
203,300,74693,1,0,0:0:0:0:
203,300,74851,1,8,0:0:0:0:
203,300,75009,1,0,0:0:0:0:
212,153,75325,1,0,0:0:0:0:
231,153,75483,1,8,0:0:0:0:
231,153,75641,1,0,0:0:0:0:
231,153,75720,1,8,0:0:0:0:
231,153,75799,1,0,0:0:0:0:
231,153,75957,1,0,0:0:0:0:
231,153,76114,1,8,0:0:0:0:
231,153,76272,1,0,0:0:0:0:
215,127,76588,1,0,0:0:0:0:
215,127,76746,1,8,0:0:0:0:
215,127,76825,1,0,0:0:0:0:
215,127,76904,1,8,0:0:0:0:
215,127,77062,1,0,0:0:0:0:
215,127,77220,1,0,0:0:0:0:
215,127,77378,1,8,0:0:0:0:
215,127,77536,1,0,0:0:0:0:
231,153,77851,1,0,0:0:0:0:
203,300,78009,1,8,0:0:0:0:
179,177,78167,1,0,0:0:0:0:
173,176,78246,1,0,0:0:0:0:
173,176,78325,1,8,0:0:0:0:
173,176,78483,1,0,0:0:0:0:
173,176,78641,1,8,0:0:0:0:
173,176,78799,1,8,0:0:0:0:
173,176,78878,1,8,0:0:0:0:
173,176,78957,1,0,0:0:0:0:
173,176,79114,1,8,0:0:0:0:
173,176,79272,1,0,0:0:0:0:
173,176,79351,1,0,0:0:0:0:
173,176,79430,1,8,0:0:0:0:
173,176,79588,1,0,0:0:0:0:
173,176,79746,1,0,0:0:0:0:
173,176,79904,1,8,0:0:0:0:
173,176,80062,1,0,0:0:0:0:
173,177,80536,1,8,0:0:0:0:
173,177,80693,1,0,0:0:0:0:
173,177,80772,1,8,0:0:0:0:
173,177,80851,1,0,0:0:0:0:
288,145,81009,1,0,0:0:0:0:
288,145,81088,1,0,0:0:0:0:
288,145,81167,1,8,0:0:0:0:
288,145,81325,1,8,0:0:0:0:
288,145,81483,1,0,0:0:0:0:
291,145,81799,1,8,0:0:0:0:
291,145,81878,1,0,0:0:0:0:
291,145,81957,1,8,0:0:0:0:
291,145,82036,1,8,0:0:0:0:
291,145,82114,1,0,0:0:0:0:
291,145,82272,1,0,0:0:0:0:
291,145,82430,1,8,0:0:0:0:
291,145,82588,1,0,0:0:0:0:
291,145,82667,1,0,0:0:0:0:
291,145,82746,1,8,0:0:0:0:
291,145,82825,1,8,0:0:0:0:
291,145,82904,1,0,0:0:0:0:
157,138,83062,1,8,0:0:0:0:
157,138,83220,1,0,0:0:0:0:
157,138,83299,1,8,0:0:0:0:
157,138,83378,1,0,0:0:0:0:
163,143,83693,1,8,0:0:0:0:
163,143,83772,1,0,0:0:0:0:
163,143,83851,1,8,0:0:0:0:
163,143,83930,1,0,0:0:0:0:
163,143,84009,1,8,0:0:0:0:
163,143,84088,1,8,0:0:0:0:
163,143,84167,1,0,0:0:0:0:
163,143,84325,1,8,0:0:0:0:
163,143,84483,1,8,0:0:0:0:
173,176,84641,1,0,0:0:0:0:
173,176,84799,1,8,0:0:0:0:
173,176,84878,1,0,0:0:0:0:
279,115,84957,1,8,0:0:0:0:
218,137,85114,1,0,0:0:0:0:
310,159,85193,1,8,0:0:0:0:
310,159,85351,1,8,0:0:0:0:
310,159,85430,1,0,0:0:0:0:
311,143,85588,1,8,0:0:0:0:
311,143,85667,1,0,0:0:0:0:
311,143,85746,1,8,0:0:0:0:
311,143,85825,1,8,0:0:0:0:
311,143,85904,1,0,0:0:0:0:
211,115,86062,1,8,0:0:0:0:
211,115,86114,1,8,0:0:0:0:
211,115,86167,1,8,0:0:0:0:
211,115,86220,1,0,0:0:0:0:
365,102,86378,1,8,0:0:0:0:
238,190,86536,1,0,0:0:0:0:
238,190,86588,1,0,0:0:0:0:
303,185,86641,1,0,0:0:0:0:
303,185,86693,1,8,0:0:0:0:
315,141,86851,1,0,0:0:0:0:
315,141,86930,1,0,0:0:0:0:
325,108,87009,1,8,0:0:0:0:
325,108,87088,1,8,0:0:0:0:
325,108,87167,1,0,0:0:0:0:
250,130,87325,1,8,0:0:0:0:
250,130,87404,1,0,0:0:0:0:
276,122,87483,1,8,0:0:0:0:
276,122,87562,1,8,0:0:0:0:
276,122,87641,1,0,0:0:0:0:
184,132,87799,1,8,0:0:0:0:
184,132,87878,1,8,0:0:0:0:
177,125,87957,1,8,0:0:0:0:
153,97,88036,1,8,0:0:0:0:
135,73,88114,1,0,0:0:0:0:
251,145,88193,1,0,0:0:0:0:
251,145,88272,1,8,0:0:0:0:
237,162,88351,1,8,0:0:0:0:
134,136,88430,1,0,0:0:0:0:
134,136,88588,1,0,0:0:0:0:
134,136,88667,1,0,0:0:0:0:
134,136,88746,1,8,0:0:0:0:
134,136,88904,1,0,0:0:0:0:
134,136,88983,1,8,0:0:0:0:
266,99,89141,1,8,0:0:0:0:
266,99,89220,1,0,0:0:0:0:
256,91,89378,1,8,0:0:0:0:
256,91,89457,1,0,0:0:0:0:
256,91,89536,1,8,0:0:0:0:
256,91,89614,1,8,0:0:0:0:
256,91,89693,1,0,0:0:0:0:
256,91,89851,1,0,0:0:0:0:
256,91,89930,1,0,0:0:0:0:
256,91,90009,1,8,0:0:0:0:
256,91,90167,1,0,0:0:0:0:
256,91,90246,1,0,0:0:0:0:
256,91,90325,1,0,0:0:0:0:
256,91,90404,1,0,0:0:0:0:
256,91,90483,1,8,0:0:0:0:
256,91,90641,1,0,0:0:0:0:
256,91,90720,1,0,0:0:0:0:
256,91,90799,1,8,0:0:0:0:
256,91,90957,1,0,0:0:0:0:
277,94,91114,1,8,0:0:0:0:
277,94,91167,1,8,0:0:0:0:
235,88,91220,1,8,0:0:0:0:
235,88,91272,1,0,0:0:0:0:
366,178,91351,1,0,0:0:0:0:
366,178,91430,1,8,0:0:0:0:
366,178,91509,1,8,0:0:0:0:
366,178,91588,1,0,0:0:0:0:
366,178,91667,1,0,0:0:0:0:
366,178,91746,1,0,0:0:0:0:
366,178,91904,1,8,0:0:0:0:
366,178,91983,1,8,0:0:0:0:
366,178,92062,1,8,0:0:0:0:
366,178,92141,1,8,0:0:0:0:
139,158,92220,1,0,0:0:0:0:
366,178,92378,1,8,0:0:0:0:
320,169,92457,1,0,0:0:0:0:
311,164,92536,1,8,0:0:0:0:
309,161,92693,1,8,0:0:0:0:
311,164,92772,1,8,0:0:0:0:
314,161,92851,1,0,0:0:0:0:
314,161,92930,1,8,0:0:0:0:
264,92,93009,1,0,0:0:0:0:
264,92,93088,1,8,0:0:0:0:
311,164,93167,1,0,0:0:0:0:
314,161,93246,1,0,0:0:0:0:
295,127,93325,1,8,0:0:0:0:
295,127,93404,1,8,0:0:0:0:
261,88,93483,1,0,0:0:0:0:
261,88,93562,1,0,0:0:0:0:
261,88,93641,1,8,0:0:0:0:
261,88,93720,1,0,0:0:0:0:
246,83,93799,1,8,0:0:0:0:
246,83,93878,1,8,0:0:0:0:
246,83,93957,1,0,0:0:0:0:
246,83,94036,1,8,0:0:0:0:
256,192,94114,12,0,95930,0:0:0:0:
272,117,96009,5,12,0:0:0:0:
301,116,96167,1,0,0:0:0:0:
301,116,96246,1,8,0:0:0:0:
301,116,96325,1,0,0:0:0:0:
272,117,96482,1,12,0:0:0:0:
301,116,96640,1,0,0:0:0:0:
301,116,96719,1,8,0:0:0:0:
301,116,96798,1,0,0:0:0:0:
301,116,96956,1,12,0:0:0:0:
320,114,97114,1,0,0:0:0:0:
320,114,97193,1,8,0:0:0:0:
320,114,97272,1,0,0:0:0:0:
301,115,97430,1,12,0:0:0:0:
179,131,97588,1,0,0:0:0:0:
325,114,97667,1,8,0:0:0:0:
179,131,97746,1,0,0:0:0:0:
301,115,97903,1,4,0:0:0:0:
301,115,98061,1,4,0:0:0:0:
301,115,98219,1,12,0:0:0:0:
301,115,98377,1,12,0:0:0:0:
136,168,98536,1,0,0:0:0:0:
171,99,98693,1,8,0:0:0:0:
171,99,98772,1,0,0:0:0:0:
171,99,98851,1,8,0:0:0:0:
171,99,99009,1,0,0:0:0:0:
171,99,99088,1,8,0:0:0:0:
171,99,99167,1,0,0:0:0:0:
171,99,99246,1,0,0:0:0:0:
171,99,99325,1,8,0:0:0:0:
171,99,99404,1,0,0:0:0:0:
162,102,99483,1,8,0:0:0:0:
281,138,99536,1,8,0:0:0:0:
281,177,99588,1,8,0:0:0:0:
165,156,99641,1,0,0:0:0:0:
284,168,99720,1,8,0:0:0:0:
142,151,99799,1,0,0:0:0:0:
142,150,99878,1,0,0:0:0:0:
142,151,99957,1,0,0:0:0:0:
109,170,100114,1,8,0:0:0:0:
267,97,100272,1,0,0:0:0:0:
267,97,100351,1,8,0:0:0:0:
267,97,100430,1,0,0:0:0:0:
342,153,100509,1,0,0:0:0:0:
342,153,100588,1,8,0:0:0:0:
342,153,100667,1,0,0:0:0:0:
342,153,100746,1,8,0:0:0:0:
342,153,100825,1,8,0:0:0:0:
342,153,100904,1,0,0:0:0:0:
122,122,100983,1,8,0:0:0:0:
122,122,101062,1,0,0:0:0:0:
110,112,101220,1,0,0:0:0:0:
110,112,101299,1,0,0:0:0:0:
110,112,101378,1,8,0:0:0:0:
110,112,101536,1,0,0:0:0:0:
110,112,101614,1,8,0:0:0:0:
110,112,101772,1,8,0:0:0:0:
110,112,101851,1,0,0:0:0:0:
110,112,102009,1,8,0:0:0:0:
110,112,102088,1,0,0:0:0:0:
110,112,102167,1,8,0:0:0:0:
110,112,102246,1,8,0:0:0:0:
110,112,102325,1,0,0:0:0:0:
110,112,102404,1,8,0:0:0:0:
110,112,102483,1,0,0:0:0:0:
110,112,102562,1,0,0:0:0:0:
108,117,102641,1,8,0:0:0:0:
108,117,102720,1,0,0:0:0:0:
106,117,102799,1,8,0:0:0:0:
108,117,102878,1,8,0:0:0:0:
108,117,102957,1,0,0:0:0:0:
171,163,103036,1,0,0:0:0:0:
171,163,103114,1,8,0:0:0:0:
220,130,103272,1,0,0:0:0:0:
220,130,103430,1,8,0:0:0:0:
228,48,103509,1,8,0:0:0:0:
220,130,103588,1,0,0:0:0:0:
220,130,103667,1,0,0:0:0:0:
220,130,103746,1,8,0:0:0:0:
228,48,103904,1,0,0:0:0:0:
228,52,104062,1,8,0:0:0:0:
167,122,104141,1,0,0:0:0:0:
167,122,104220,1,8,0:0:0:0:
167,122,104299,1,8,0:0:0:0:
167,122,104378,1,0,0:0:0:0:
167,122,104457,1,0,0:0:0:0:
167,122,104536,1,8,0:0:0:0:
162,124,104693,1,0,0:0:0:0:
162,124,104772,1,8,0:0:0:0:
162,124,104930,1,8,0:0:0:0:
162,124,105009,1,0,0:0:0:0:
209,100,105167,1,8,0:0:0:0:
161,150,105246,1,0,0:0:0:0:
214,131,105325,1,0,0:0:0:0:
214,131,105404,1,8,0:0:0:0:
214,131,105562,1,8,0:0:0:0:
214,131,105641,1,0,0:0:0:0:
214,131,105799,1,8,0:0:0:0:
214,131,105851,1,8,0:0:0:0:
214,131,105957,1,8,0:0:0:0:
67,120,106009,1,8,0:0:0:0:
244,130,106114,5,4,0:0:0:0:
232,91,106272,1,8,0:0:0:0:
232,91,106351,1,0,0:0:0:0:
232,91,106430,1,8,0:0:0:0:
232,91,106588,1,4,0:0:0:0:
200,96,106746,1,8,0:0:0:0:
191,96,106825,1,0,0:0:0:0:
191,96,106903,1,8,0:0:0:0:
241,91,107061,1,4,0:0:0:0:
191,96,107219,1,8,0:0:0:0:
191,96,107298,1,0,0:0:0:0:
186,96,107377,1,8,0:0:0:0:
239,91,107535,1,4,0:0:0:0:
185,96,107693,1,8,0:0:0:0:
320,157,107772,1,0,0:0:0:0:
307,156,107851,1,8,0:0:0:0:
232,91,108009,1,4,0:0:0:0:
232,91,108167,1,4,0:0:0:0:
232,91,108325,1,12,0:0:0:0:
232,91,108483,1,12,0:0:0:0:
223,194,108641,1,0,0:0:0:0:
223,194,108799,1,8,0:0:0:0:
223,194,108878,1,0,0:0:0:0:
231,148,108957,1,8,0:0:0:0:
231,148,109115,1,0,0:0:0:0:
231,148,109194,1,8,0:0:0:0:
231,148,109273,1,0,0:0:0:0:
231,148,109352,1,0,0:0:0:0:
231,148,109431,1,8,0:0:0:0:
231,148,109510,1,8,0:0:0:0:
245,147,109589,1,0,0:0:0:0:
311,98,109641,1,0,0:0:0:0:
82,137,109694,1,0,0:0:0:0:
82,137,109747,1,8,0:0:0:0:
82,137,109904,1,0,0:0:0:0:
82,137,109983,1,0,0:0:0:0:
82,137,110062,1,0,0:0:0:0:
238,142,110220,1,8,0:0:0:0:
238,142,110378,1,0,0:0:0:0:
238,142,110457,1,8,0:0:0:0:
238,142,110536,1,0,0:0:0:0:
238,142,110615,1,0,0:0:0:0:
99,141,110694,1,8,0:0:0:0:
99,141,110773,1,0,0:0:0:0:
141,136,110852,1,8,0:0:0:0:
141,136,110931,1,8,0:0:0:0:
141,136,111010,1,0,0:0:0:0:
141,136,111089,1,8,0:0:0:0:
141,136,111168,1,0,0:0:0:0:
141,136,111326,1,0,0:0:0:0:
141,136,111404,1,8,0:0:0:0:
261,68,111483,1,0,0:0:0:0:
261,68,111536,1,0,0:0:0:0:
216,48,111589,1,0,0:0:0:0:
226,47,111641,1,8,0:0:0:0:
270,111,111799,1,0,0:0:0:0:
189,154,111878,1,8,0:0:0:0:
189,154,112036,1,8,0:0:0:0:
189,154,112115,1,0,0:0:0:0:
181,146,112273,1,8,0:0:0:0:
181,146,112431,1,0,0:0:0:0:
173,146,112510,1,8,0:0:0:0:
125,140,112589,1,0,0:0:0:0:
141,133,112668,1,8,0:0:0:0:
156,131,112747,1,0,0:0:0:0:
217,124,112904,1,8,0:0:0:0:
217,124,112983,1,8,0:0:0:0:
217,124,113062,1,0,0:0:0:0:
217,124,113141,1,8,0:0:0:0:
250,122,113220,1,0,0:0:0:0:
234,136,113693,1,12,0:0:0:0:
234,136,113851,1,0,0:0:0:0:
234,136,113930,1,0,0:0:0:0:
234,136,114009,1,8,0:0:0:0:
234,136,114167,1,4,0:0:0:0:
234,136,114325,1,8,0:0:0:0:
234,136,114404,1,0,0:0:0:0:
234,136,114483,1,8,0:0:0:0:
234,136,114641,1,4,0:0:0:0:
234,136,114799,1,8,0:0:0:0:
234,136,114878,1,8,0:0:0:0:
234,136,114957,1,0,0:0:0:0:
234,136,115114,1,12,0:0:0:0:
234,136,115272,1,0,0:0:0:0:
234,136,115351,1,0,0:0:0:0:
282,129,115430,1,8,0:0:0:0:
34,133,115509,1,0,0:0:0:0:
282,129,115588,1,8,0:0:0:0:
296,127,115667,1,8,0:0:0:0:
296,127,115746,1,0,0:0:0:0:
296,127,115904,1,8,0:0:0:0:
296,127,115983,1,8,0:0:0:0:
296,127,116062,1,0,0:0:0:0:
234,136,116220,1,12,0:0:0:0:
234,136,116378,1,0,0:0:0:0:
234,136,116457,1,0,0:0:0:0:
234,136,116536,1,8,0:0:0:0:
234,136,116694,1,4,0:0:0:0:
234,136,116852,1,8,0:0:0:0:
234,136,116931,1,0,0:0:0:0:
234,136,117010,1,8,0:0:0:0:
234,136,117168,1,4,0:0:0:0:
234,136,117326,1,8,0:0:0:0:
234,136,117405,1,8,0:0:0:0:
234,136,117484,1,0,0:0:0:0:
234,136,117641,1,12,0:0:0:0:
234,136,117799,1,0,0:0:0:0:
234,136,117878,1,0,0:0:0:0:
282,129,117957,1,8,0:0:0:0:
101,125,118036,1,0,0:0:0:0:
282,129,118115,1,8,0:0:0:0:
296,127,118194,1,8,0:0:0:0:
296,127,118273,1,0,0:0:0:0:
191,100,118351,1,0,0:0:0:0:
296,127,118431,1,8,0:0:0:0:
296,127,118510,1,8,0:0:0:0:
296,127,118589,1,0,0:0:0:0:
234,136,118746,1,8,0:0:0:0:
311,179,118825,1,8,0:0:0:0:
234,136,118904,1,0,0:0:0:0:
234,136,118983,1,0,0:0:0:0:
234,136,119062,1,8,0:0:0:0:
234,136,119220,1,8,0:0:0:0:
311,179,119299,1,8,0:0:0:0:
234,136,119378,1,0,0:0:0:0:
234,136,119457,1,8,0:0:0:0:
234,136,119536,1,0,0:0:0:0:
234,136,119694,1,8,0:0:0:0:
311,179,119772,1,0,0:0:0:0:
234,136,119852,1,8,0:0:0:0:
234,136,119931,1,8,0:0:0:0:
234,136,120010,1,0,0:0:0:0:
265,191,120088,1,0,0:0:0:0:
234,136,120167,1,8,0:0:0:0:
311,179,120246,1,0,0:0:0:0:
234,136,120325,1,8,0:0:0:0:
282,129,120404,1,8,0:0:0:0:
55,162,120483,1,0,0:0:0:0:
282,129,120562,1,8,0:0:0:0:
296,127,120641,1,0,0:0:0:0:
151,153,120720,1,0,0:0:0:0:
151,153,120799,1,0,0:0:0:0:
296,127,120957,1,8,0:0:0:0:
296,127,121036,1,8,0:0:0:0:
296,127,121115,1,0,0:0:0:0:
191,120,121193,1,0,0:0:0:0:
191,120,121272,1,8,0:0:0:0:
125,126,121430,1,0,0:0:0:0:
125,126,121509,1,0,0:0:0:0:
125,126,121588,1,8,0:0:0:0:
281,183,121746,1,0,0:0:0:0:
281,183,121825,1,0,0:0:0:0:
247,110,121904,1,8,0:0:0:0:
247,110,121983,1,0,0:0:0:0:
247,110,122062,1,8,0:0:0:0:
227,171,122141,1,8,0:0:0:0:
227,171,122220,1,0,0:0:0:0:
227,171,122299,1,0,0:0:0:0:
259,138,122378,1,8,0:0:0:0:
259,138,122457,1,8,0:0:0:0:
254,128,122536,1,0,0:0:0:0:
194,117,122693,1,0,0:0:0:0:
194,117,122772,1,8,0:0:0:0:
194,117,122930,1,8,0:0:0:0:
194,117,123009,1,0,0:0:0:0:
194,117,123088,1,0,0:0:0:0:
194,117,123167,1,8,0:0:0:0:
194,117,123246,1,0,0:0:0:0:
194,117,123325,1,8,0:0:0:0:
194,117,123483,1,0,0:0:0:0:
194,117,123641,1,8,0:0:0:0:
234,136,123799,1,8,0:0:0:0:
311,179,123878,1,8,0:0:0:0:
234,136,123957,1,0,0:0:0:0:
234,136,124036,1,0,0:0:0:0:
234,136,124115,1,8,0:0:0:0:
191,100,124194,1,0,0:0:0:0:
234,136,124273,1,8,0:0:0:0:
311,179,124352,1,8,0:0:0:0:
234,136,124431,1,0,0:0:0:0:
234,136,124510,1,8,0:0:0:0:
234,136,124589,1,0,0:0:0:0:
225,184,124667,1,0,0:0:0:0:
234,136,124747,1,8,0:0:0:0:
311,179,124825,1,0,0:0:0:0:
234,136,124905,1,8,0:0:0:0:
234,136,124984,1,8,0:0:0:0:
234,136,125063,1,0,0:0:0:0:
153,127,125141,1,0,0:0:0:0:
234,136,125220,1,8,0:0:0:0:
311,179,125299,1,0,0:0:0:0:
234,136,125378,1,0,0:0:0:0:
234,136,125457,1,0,0:0:0:0:
282,129,125536,1,8,0:0:0:0:
149,141,125614,1,0,0:0:0:0:
157,140,125693,1,8,0:0:0:0:
157,140,125772,1,8,0:0:0:0:
98,99,125852,1,0,0:0:0:0:
66,52,125931,1,0,0:0:0:0:
360,105,126010,1,8,0:0:0:0:
360,105,126088,1,8,0:0:0:0:
157,140,126167,1,0,0:0:0:0:
107,138,126246,1,0,0:0:0:0:
205,77,126325,1,8,0:0:0:0:
311,179,126404,1,8,0:0:0:0:
234,136,126483,1,0,0:0:0:0:
234,136,126562,1,0,0:0:0:0:
234,136,126641,1,8,0:0:0:0:
191,100,126720,1,0,0:0:0:0:
234,136,126799,1,8,0:0:0:0:
311,179,126878,1,8,0:0:0:0:
234,136,126957,1,0,0:0:0:0:
234,136,127036,1,8,0:0:0:0:
234,136,127115,1,0,0:0:0:0:
225,184,127193,1,0,0:0:0:0:
234,136,127273,1,8,0:0:0:0:
311,179,127351,1,0,0:0:0:0:
234,136,127431,1,8,0:0:0:0:
234,136,127510,1,8,0:0:0:0:
234,136,127589,1,0,0:0:0:0:
153,127,127667,1,0,0:0:0:0:
234,136,127746,1,8,0:0:0:0:
311,179,127825,1,8,0:0:0:0:
234,136,127904,1,0,0:0:0:0:
234,136,127983,1,8,0:0:0:0:
282,129,128062,1,0,0:0:0:0:
149,141,128140,1,0,0:0:0:0:
157,140,128219,1,8,0:0:0:0:
157,140,128298,1,8,0:0:0:0:
98,99,128378,1,0,0:0:0:0:
66,52,128457,1,0,0:0:0:0:
360,105,128536,1,8,0:0:0:0:
360,105,128614,1,8,0:0:0:0:
157,140,128693,1,0,0:0:0:0:
157,140,128772,1,8,0:0:0:0:
157,140,128851,1,0,0:0:0:0:
252,138,129009,1,0,0:0:0:0:
252,138,129088,1,0,0:0:0:0:
252,138,129167,1,8,0:0:0:0:
252,138,129246,1,0,0:0:0:0:
252,138,129325,1,8,0:0:0:0:
252,138,129404,1,8,0:0:0:0:
252,138,129483,1,0,0:0:0:0:
252,138,129641,1,0,0:0:0:0:
252,138,129720,1,0,0:0:0:0:
252,138,129799,1,8,0:0:0:0:
250,133,129957,1,0,0:0:0:0:
250,133,130036,1,8,0:0:0:0:
250,133,130193,1,8,0:0:0:0:
250,133,130272,1,0,0:0:0:0:
250,133,130430,1,8,0:0:0:0:
250,133,130509,1,0,0:0:0:0:
250,133,130588,1,8,0:0:0:0:
250,133,130667,1,8,0:0:0:0:
250,133,130746,1,0,0:0:0:0:
250,133,130825,1,0,0:0:0:0:
250,133,130904,1,8,0:0:0:0:
250,133,130983,1,0,0:0:0:0:
189,99,131062,1,8,0:0:0:0:
181,99,131141,1,8,0:0:0:0:
181,99,131220,1,0,0:0:0:0:
181,99,131299,1,8,0:0:0:0:
181,99,131378,1,0,0:0:0:0:
181,99,131536,1,0,0:0:0:0:
181,99,131614,1,0,0:0:0:0:
181,99,131693,1,8,0:0:0:0:
181,99,131851,1,0,0:0:0:0:
181,99,131930,1,0,0:0:0:0:
181,99,132009,1,8,0:0:0:0:
181,99,132088,1,8,0:0:0:0:
181,99,132167,1,8,0:0:0:0:
181,99,132246,1,8,0:0:0:0:
181,99,132325,1,0,0:0:0:0:
181,99,132404,1,8,0:0:0:0:
181,99,132483,1,8,0:0:0:0:
128,83,132562,1,8,0:0:0:0:
128,83,132641,1,0,0:0:0:0:
220,150,132799,1,8,0:0:0:0:
220,150,132878,1,8,0:0:0:0:
220,150,132956,1,0,0:0:0:0:
220,150,133114,1,8,0:0:0:0:
231,133,133193,1,8,0:0:0:0:
231,133,133272,1,0,0:0:0:0:
220,150,133430,1,8,0:0:0:0:
99,113,133588,1,0,0:0:0:0:
106,113,133667,1,0,0:0:0:0:
106,112,133746,1,8,0:0:0:0:
106,112,133825,1,8,0:0:0:0:
106,113,133904,1,0,0:0:0:0:
106,112,134062,1,8,0:0:0:0:
106,113,134141,1,8,0:0:0:0:
106,112,134220,1,0,0:0:0:0:
106,112,134299,1,8,0:0:0:0:
166,143,134378,1,8,0:0:0:0:
166,143,134457,1,8,0:0:0:0:
166,143,134536,1,0,0:0:0:0:
166,143,134693,1,8,0:0:0:0:
166,143,134772,1,8,0:0:0:0:
166,143,134851,1,0,0:0:0:0:
166,143,134930,1,0,0:0:0:0:
140,145,135009,1,8,0:0:0:0:
140,145,135088,1,8,0:0:0:0:
140,145,135167,1,0,0:0:0:0:
140,145,135325,1,8,0:0:0:0:
140,145,135404,1,0,0:0:0:0:
140,145,135483,1,0,0:0:0:0:
140,145,135562,1,8,0:0:0:0:
140,145,135641,1,0,0:0:0:0:
140,145,135720,1,8,0:0:0:0:
140,145,135799,1,0,0:0:0:0:
112,120,135957,1,8,0:0:0:0:
129,116,136036,1,8,0:0:0:0:
241,163,136114,1,0,0:0:0:0:
241,163,136193,1,0,0:0:0:0:
241,163,136272,1,8,0:0:0:0:
241,163,136351,1,8,0:0:0:0:
241,163,136430,1,0,0:0:0:0:
241,154,136588,1,0,0:0:0:0:
241,154,136667,1,0,0:0:0:0:
241,154,136746,1,8,0:0:0:0:
241,154,136825,1,0,0:0:0:0:
241,154,136904,1,8,0:0:0:0:
241,154,136983,1,8,0:0:0:0:
241,154,137062,1,0,0:0:0:0:
241,154,137220,1,0,0:0:0:0:
241,154,137299,1,0,0:0:0:0:
273,94,137378,1,8,0:0:0:0:
273,94,137430,1,8,0:0:0:0:
273,94,137536,1,8,0:0:0:0:
275,83,137588,1,8,0:0:0:0:
275,83,137693,1,0,0:0:0:0:
302,148,137772,1,0,0:0:0:0:
302,148,137851,1,0,0:0:0:0:
330,106,138009,1,8,0:0:0:0:
330,106,138088,1,8,0:0:0:0:
244,167,138167,1,0,0:0:0:0:
180,99,138325,1,8,0:0:0:0:
180,99,138404,1,8,0:0:0:0:
180,99,138483,1,0,0:0:0:0:
180,99,138562,1,0,0:0:0:0:
180,99,138641,1,8,0:0:0:0:
180,99,138720,1,8,0:0:0:0:
180,99,138799,1,0,0:0:0:0:
180,99,138878,1,8,0:0:0:0:
180,99,138957,1,0,0:0:0:0:
180,99,139036,1,0,0:0:0:0:
180,99,139114,1,0,0:0:0:0:
385,107,139193,1,0,0:0:0:0:
180,99,139272,1,8,0:0:0:0:
180,99,139430,1,0,0:0:0:0:
180,99,139509,1,0,0:0:0:0:
180,99,139588,1,0,0:0:0:0:
385,107,139667,1,0,0:0:0:0:
180,99,139746,1,8,0:0:0:0:
180,99,139904,1,0,0:0:0:0:
180,99,139983,1,0,0:0:0:0:
180,99,140062,1,0,0:0:0:0:
385,107,140141,1,0,0:0:0:0:
180,99,140220,1,8,0:0:0:0:
180,99,140378,1,0,0:0:0:0:
180,99,140457,1,0,0:0:0:0:
385,107,140536,1,0,0:0:0:0:
385,107,140614,1,0,0:0:0:0:
180,99,140693,1,8,0:0:0:0:
385,107,140851,1,0,0:0:0:0:
385,104,141483,1,0,0:0:0:0:
385,104,141562,1,0,0:0:0:0:
101,135,141641,1,0,0:0:0:0:
385,104,141799,1,8,0:0:0:0:
103,134,141957,1,0,0:0:0:0:
103,134,142036,1,8,0:0:0:0:
187,92,142193,1,8,0:0:0:0:
103,134,142272,1,0,0:0:0:0:
187,92,142430,1,8,0:0:0:0:
187,92,142588,1,0,0:0:0:0:
187,92,142904,1,8,0:0:0:0:
187,92,143220,1,4,0:0:0:0:
