osu file format v14

[General]
AudioFilename: audio.ogg
AudioLeadIn: 0
PreviewTime: 97167
Countdown: 0
SampleSet: Normal
StackLeniency: 0.7
Mode: 1
LetterboxInBreaks: 0
WidescreenStoryboard: 1

[Editor]
DistanceSpacing: 2.2
BeatDivisor: 8
GridSize: 32
TimelineZoom: 2.6

[Metadata]
Title:Marunouchi Amenpunk
TitleUnicode:Marunouchi Amenpunk
Artist:Fukenkou Seijin
ArtistUnicode:不健康成人
Creator:Quorum
Version:Hell Oni
Source:
Tags:electronic japanese shiina sheena ringo 椎名林檎 sadistic 丸の内サディスティック muzai innocence moratorium 無罪モラトリアム amen punk remix
BeatmapID:4493274
BeatmapSetID:2135393

[Difficulty]
HPDrainRate:6
CircleSize:5
OverallDifficulty:7
ApproachRate:5
SliderMultiplier:1.4
SliderTickRate:1

[Events]
//Background and Video events
0,0,"6748245.jpg",0,-70
//Break Periods
//Storyboard Layer 0 (Background)
//Storyboard Layer 1 (Fail)
//Storyboard Layer 2 (Pass)
//Storyboard Layer 3 (Foreground)
//Storyboard Layer 4 (Overlay)
//Storyboard Sound Samples

[TimingPoints]
95,375,4,1,0,70,1,8
95,-117.647059132896,4,1,0,70,0,0
1220,375,4,1,0,70,1,0
1220,-117.647059132896,4,1,0,70,0,0
4970,-117.647058823529,4,1,0,70,0,0
5061,-115.384615384615,4,1,0,70,0,0
5277,-112.157918349035,4,1,0,70,0,0
5340,-111.111111111111,4,1,0,70,0,0
5527,-108.115900245063,4,1,0,70,0,0
5621,-106.670459394112,4,1,0,70,0,0
5720,-105.263157894737,4,1,0,70,0,0
16595,-105.263157894737,4,1,0,70,0,0
16777,-106.192184255239,4,1,0,70,0,0
16965,-107.142857142857,4,1,0,70,0,0
17058,-107.619457597934,4,1,0,70,0,0
17152,-108.105510978715,4,1,0,70,0,0
17340,-109.090909090909,4,1,0,70,0,0
17527,-110.089049809179,4,1,0,70,0,0
17621,-110.597719229257,4,1,0,70,0,0
17720,-111.111111111111,4,1,0,70,0,0
29345,-111.111111111111,4,1,0,70,0,0
29433,-109.601052170101,4,1,0,70,0,0
29527,-108.115900245063,4,1,0,70,0,0
29621,-106.670459394112,4,1,0,70,0,0
29720,-105.263157894737,4,1,0,70,0,0
40220,-105.263157894737,4,1,0,70,0,0
40308,-105.21067883257,4,1,0,70,0,0
40402,-105.051807977399,4,1,0,70,0,0
40465,-104.886954074406,4,1,0,70,0,0
40527,-104.680235589868,4,1,0,70,0,0
40590,-104.426422306929,4,1,0,70,0,0
40683,-103.974867979843,4,1,0,70,0,0
40777,-103.431445720565,4,1,0,70,0,0
40840,-103.022190366823,4,1,0,70,0,0
40902,-102.587091932253,4,1,0,70,0,0
40965,-102.114868165709,4,1,0,70,0,0
41058,-101.36847655646,4,1,0,70,0,0
41152,-100.56320941639,4,1,0,70,0,0
41246,-99.7170787863423,4,1,0,70,0,0
41340,-98.8404379081089,4,1,0,70,0,0
41433,-97.9531337696315,4,1,0,70,0,0
41527,-97.0459582313096,4,1,0,70,0,0
41621,-96.137924934388,4,1,0,70,0,0
41720,-95.2380952380952,4,1,0,70,0,0
51845,-95.2380952380952,4,1,0,70,0,0
51933,-95.9177409453652,4,1,0,70,0,0
52027,-96.6146235894265,4,1,0,70,0,0
52121,-97.3217066334475,4,1,0,70,0,0
52215,-98.0392156862745,4,1,0,70,0,0
52308,-98.7595796792289,4,1,0,70,0,0
52402,-99.4985274217942,4,1,0,70,0,0
52465,-100,4,1,0,70,0,0
52527,-100.498472423219,4,1,0,70,0,0
52590,-101.010101010101,4,1,0,70,0,0
52777,-102.559894978668,4,1,0,70,0,0
52840,-103.092783505155,4,1,0,70,0,0
52902,-103.622647765896,4,1,0,70,0,0
52965,-104.166666666667,4,1,0,70,0,0
53152,-105.815626851774,4,1,0,70,0,0
53340,-107.52688172043,4,1,0,70,0,0
53433,-108.394033992369,4,1,0,70,0,0
53527,-109.284840006994,4,1,0,70,0,0
53720,-111.111111111111,4,1,0,70,0,0
64782,-111.111111111111,4,1,0,70,0,0
64871,-110.495935917069,4,1,0,70,0,0
64965,-109.887535145267,4,1,0,70,0,0
65027,-109.48990311661,4,1,0,70,0,0
65090,-109.08879455719,4,1,0,70,0,0
65152,-108.696911756185,4,1,0,70,0,0
65215,-108.301581803487,4,1,0,70,0,0
65277,-107.915324436263,4,1,0,70,0,0
65340,-107.525649108729,4,1,0,70,0,0
65433,-106.955530216648,4,1,0,70,0,0
65527,-106.385391856641,4,1,0,70,0,0
65720,-105.263157894737,4,1,0,70,0,0
76220,-105.263157894737,4,1,0,70,0,0
76402,-104.576986091261,4,1,0,70,0,0
76496,-104.235433098225,4,1,0,70,0,0
76590,-103.896103896104,4,1,0,70,0,0
76777,-103.22758241002,4,1,0,70,0,0
76965,-102.564102564103,4,1,0,70,0,0
77152,-101.912559024357,4,1,0,70,0,0
77246,-101.588161592902,4,1,0,70,0,0
77340,-101.26582278481,4,1,0,70,0,0
77402,-101.05433354667,4,1,0,70,0,0
77527,-100.630618542869,4,1,0,70,0,0
77590,-100.418410041841,4,1,0,70,0,0
77720,-100,4,1,0,70,0,0
88595,-100,4,1,0,70,0,0
88777,-103.438764251563,4,1,0,70,0,0
88965,-107.142857142857,4,1,0,70,0,0
89058,-109.075043630017,4,1,0,70,0,0
89152,-111.10013825795,4,1,0,70,0,0
89246,-113.201851479171,4,1,0,70,0,0
89340,-115.384615384615,4,1,0,70,0,0
89527,-119.987201365188,4,1,0,70,0,0
89720,-125,4,1,0,40,0,0
89902,-124.925206551067,4,1,0,41,0,0
89996,-124.831410630841,4,1,0,41,0,0
90090,-124.700489382866,4,1,0,42,0,0
90183,-124.534964593949,4,1,0,42,0,0
90277,-124.331968982047,4,1,0,43,0,0
90371,-124.093930584044,4,1,0,43,0,0
90465,-123.821828070248,4,1,0,44,0,0
90652,-123.183727469726,4,1,0,45,0,0
90715,-122.941126526909,4,1,0,45,0,0
90777,-122.689456940676,4,1,0,46,0,0
90840,-122.421041795485,4,1,0,46,0,0
91027,-121.55359857833,4,1,0,47,0,0
91090,-121.239158389133,4,1,0,47,0,0
91152,-120.919613175543,4,1,0,48,0,0
91215,-120.585177406044,4,1,0,48,0,0
91402,-119.539947681852,4,1,0,49,0,0
91496,-118.988187833415,4,1,0,50,0,0
91590,-118.421258462025,4,1,0,50,0,0
91777,-117.255667779515,4,1,0,51,0,0
91965,-116.045406032293,4,1,0,51,0,0
92152,-114.817617642406,4,1,0,52,0,0
92340,-113.572999221155,4,1,0,52,0,0
92527,-112.337810995566,4,1,0,53,0,0
92720,-111.111111111111,4,1,0,54,0,0
92907,-111.111111111111,4,1,0,54,0,0
92965,-109.732498473677,4,1,0,55,0,0
93027,-108.410599690891,4,1,0,55,0,0
93090,-107.103243853822,4,1,0,56,0,0
93183,-105.240157864127,4,1,0,56,0,0
93277,-103.438686719126,4,1,0,57,0,0
93340,-102.277472689662,4,1,0,58,0,0
93402,-101.170896072098,4,1,0,58,0,0
93465,-100.083225515276,4,1,0,59,0,0
93558,-98.5451226945327,4,1,0,59,0,0
93652,-97.0718168283104,4,1,0,60,0,0
93746,-95.6795932810739,4,1,0,60,0,0
93840,-94.3676108645186,4,1,0,61,0,0
93933,-93.147615711804,4,1,0,62,0,0
94027,-91.9923475877713,4,1,0,62,0,0
94121,-90.9142618238035,4,1,0,63,0,0
94215,-89.9122505747123,4,1,0,63,0,0
94308,-88.9946745725809,4,1,0,64,0,0
94402,-88.1407156502382,4,1,0,64,0,0
94496,-87.3595738464887,4,1,0,65,0,0
94590,-86.6502317442996,4,1,0,65,0,0
94683,-86.0181523790203,4,1,0,66,0,0
94777,-85.4488576097172,4,1,0,67,0,0
94871,-84.9487014561582,4,1,0,67,0,0
94965,-84.5169486733803,4,1,0,68,0,0
95058,-84.1564699392149,4,1,0,68,0,0
95152,-83.8589631554772,4,1,0,69,0,0
95246,-83.6282049967888,4,1,0,69,0,0
95340,-83.4638360288283,4,1,0,70,0,0
95402,-83.3916283098698,4,1,0,70,0,0
95465,-83.347672311047,4,1,0,70,0,0
95532,-83.3333333333333,4,1,0,70,0,0
95720,-71.1743772241993,4,1,0,70,0,0
96657,-83.3333333333333,4,1,0,70,0,0
96746,-84.5091564094866,4,1,0,70,0,0
96840,-85.7186358099878,4,1,0,70,0,0
96933,-86.9498069498069,4,1,0,70,0,0
97027,-88.2306848456355,4,1,0,70,0,0
97121,-89.5498648003817,4,1,0,70,0,0
97220,-90.9090909090909,4,1,0,70,0,1
119720,-90.9090909090909,4,1,0,70,0,1
119902,-91.9512045607797,4,1,0,70,0,1
119996,-92.4841235587891,4,1,0,70,0,1
120090,-93.0232558139535,4,1,0,70,0,1
120277,-94.1146944409587,4,1,0,70,0,1
120465,-95.2380952380952,4,1,0,70,0,1
120558,-95.8037938302357,4,1,0,70,0,1
120652,-96.3824455439183,4,1,0,70,0,1
120715,-96.7741935483871,4,1,0,70,0,1
120777,-97.1628449280995,4,1,0,70,0,1
120840,-97.5609756097561,4,1,0,70,0,1
120933,-98.1546917942678,4,1,0,70,0,1
121027,-98.7621806689492,4,1,0,70,0,1
121121,-99.3772359878097,4,1,0,70,0,1
121220,-100,4,1,0,70,0,0
142220,-100,4,1,0,70,0,0
142402,-101.3479420457,4,1,0,68,0,0
142590,-102.740226525393,4,1,0,67,0,0
142777,-104.163579789599,4,1,0,65,0,0
142871,-104.894061474187,4,1,0,64,0,0
142965,-105.634861006762,4,1,0,62,0,0
143058,-106.378149353106,4,1,0,61,0,0
143152,-107.140135639717,4,1,0,59,0,0
143340,-108.697332817936,4,1,0,57,0,0
143433,-109.484503971344,4,1,0,56,0,0
143527,-110.291810480075,4,1,0,54,0,0
143621,-111.111111111111,4,1,0,53,0,0
143715,-111.942675159236,4,1,0,51,0,0
143902,-113.634526792209,4,1,0,49,0,0
143996,-114.504438472188,4,1,0,48,0,0
144090,-115.387771850636,4,1,0,46,0,0
144277,-117.186197699617,4,1,0,45,0,0
144652,-120.967048094296,4,1,0,43,0,0
144840,-122.955837341495,4,1,0,42,0,0
145032,-125,4,1,0,40,0,0

[HitObjects]
196,141,95,5,8,0:0:0:0:
189,59,407,1,0,0:0:0:0:
239,115,470,1,0,0:0:0:0:
187,32,595,1,0,0:0:0:0:
239,115,657,1,0,0:0:0:0:
239,115,845,1,8,0:0:0:0:
75,144,1032,1,0,0:0:0:0:
239,115,1220,1,0,0:0:0:0:
114,133,1595,1,8,0:0:0:0:
205,86,1907,1,0,0:0:0:0:
114,133,1970,1,0,0:0:0:0:
178,48,2095,1,0,0:0:0:0:
142,109,2157,1,0,0:0:0:0:
142,109,2345,1,8,0:0:0:0:
142,109,2532,1,0,0:0:0:0:
178,48,2657,1,8,0:0:0:0:
142,109,2720,1,0,0:0:0:0:
142,109,3095,1,8,0:0:0:0:
142,109,3407,1,0,0:0:0:0:
142,109,3470,1,0,0:0:0:0:
203,97,3595,1,0,0:0:0:0:
179,60,3657,1,0,0:0:0:0:
142,109,3845,1,8,0:0:0:0:
172,67,4032,1,0,0:0:0:0:
142,109,4220,1,8,0:0:0:0:
178,48,4595,1,0,0:0:0:0:
179,104,4970,1,8,0:0:0:0:
187,113,5063,1,8,0:0:0:0:
187,113,5282,1,0,0:0:0:0:
187,113,5345,1,8,0:0:0:0:
187,116,5532,1,8,0:0:0:0:
187,116,5626,1,0,0:0:0:0:
448,320,5720,1,12,0:0:0:0:
131,103,5907,1,0,0:0:0:0:
187,113,6095,1,8,0:0:0:0:
131,103,6282,1,0,0:0:0:0:
131,103,6376,1,8,0:0:0:0:
204,55,6595,1,8,0:0:0:0:
204,55,6657,1,0,0:0:0:0:
204,55,6845,1,8,0:0:0:0:
204,55,7032,1,0,0:0:0:0:
204,55,7157,1,8,0:0:0:0:
204,55,7220,1,0,0:0:0:0:
218,38,7407,1,0,0:0:0:0:
218,38,7595,1,8,0:0:0:0:
218,38,7782,1,0,0:0:0:0:
206,36,7907,1,8,0:0:0:0:
203,40,8095,1,8,0:0:0:0:
206,36,8157,1,0,0:0:0:0:
206,36,8345,1,8,0:0:0:0:
206,36,8470,1,0,0:0:0:0:
233,5,8532,1,0,0:0:0:0:
79,115,8657,1,8,0:0:0:0:
233,5,8720,1,0,0:0:0:0:
233,5,8907,1,0,0:0:0:0:
194,68,9095,1,8,0:0:0:0:
194,68,9220,1,0,0:0:0:0:
194,68,9282,1,0,0:0:0:0:
194,68,9407,1,8,0:0:0:0:
194,68,9595,1,8,0:0:0:0:
194,68,9782,1,0,0:0:0:0:
194,68,9845,1,8,0:0:0:0:
108,128,9970,1,0,0:0:0:0:
108,128,10032,1,0,0:0:0:0:
108,128,10157,1,8,0:0:0:0:
108,128,10220,1,0,0:0:0:0:
171,75,10407,1,0,0:0:0:0:
166,38,10532,1,0,0:0:0:0:
165,85,10595,1,8,0:0:0:0:
178,0,10720,1,0,0:0:0:0:
165,85,10782,1,0,0:0:0:0:
165,85,10907,1,8,0:0:0:0:
104,141,11095,1,8,0:0:0:0:
140,70,11251,1,0,0:0:0:0:
140,70,11345,1,8,0:0:0:0:
140,70,11438,1,8,0:0:0:0:
140,70,11532,1,0,0:0:0:0:
142,64,11626,1,0,0:0:0:0:
140,70,11720,1,12,0:0:0:0:
108,95,12001,1,0,0:0:0:0:
142,64,12095,1,8,0:0:0:0:
148,70,12188,1,0,0:0:0:0:
142,64,12282,1,0,0:0:0:0:
142,64,12376,1,8,0:0:0:0:
146,59,12470,1,0,0:0:0:0:
142,64,12532,1,0,0:0:0:0:
123,114,12595,1,0,0:0:0:0:
123,114,12657,1,8,0:0:0:0:
170,84,12720,1,8,0:0:0:0:
121,92,12782,1,8,0:0:0:0:
170,84,12845,1,0,0:0:0:0:
170,84,13032,1,8,0:0:0:0:
170,84,13126,1,0,0:0:0:0:
170,84,13220,1,8,0:0:0:0:
153,63,13282,1,8,0:0:0:0:
153,63,13345,1,0,0:0:0:0:
170,84,13407,1,8,0:0:0:0:
141,63,13470,1,8,0:0:0:0:
142,64,13532,1,8,0:0:0:0:
170,84,13595,1,0,0:0:0:0:
170,84,13782,1,8,0:0:0:0:
170,84,13876,1,0,0:0:0:0:
170,84,14063,1,0,0:0:0:0:
156,46,14157,1,8,0:0:0:0:
170,84,14220,1,8,0:0:0:0:
149,55,14282,1,8,0:0:0:0:
170,84,14345,1,0,0:0:0:0:
170,84,14438,1,0,0:0:0:0:
170,84,14532,1,8,0:0:0:0:
170,84,14595,1,8,0:0:0:0:
149,69,14657,1,8,0:0:0:0:
170,84,14720,1,0,0:0:0:0:
170,84,14907,1,0,0:0:0:0:
170,84,15001,1,0,0:0:0:0:
170,84,15095,1,8,0:0:0:0:
170,84,15282,1,8,0:0:0:0:
170,84,15470,1,8,0:0:0:0:
170,84,15532,1,8,0:0:0:0:
91,86,15595,1,8,0:0:0:0:
170,84,15657,1,8,0:0:0:0:
82,93,15720,1,8,0:0:0:0:
82,93,15782,1,8,0:0:0:0:
170,84,15845,1,0,0:0:0:0:
170,84,16032,1,8,0:0:0:0:
170,84,16126,1,0,0:0:0:0:
170,84,16220,1,8,0:0:0:0:
230,132,16313,1,8,0:0:0:0:
170,84,16407,1,0,0:0:0:0:
179,71,16501,1,0,0:0:0:0:
170,84,16595,1,8,0:0:0:0:
170,84,16782,1,0,0:0:0:0:
210,106,16970,1,8,0:0:0:0:
179,71,17063,1,0,0:0:0:0:
90,160,17157,1,8,0:0:0:0:
179,71,17345,1,0,0:0:0:0:
179,71,17532,1,0,0:0:0:0:
179,71,17626,1,0,0:0:0:0:
179,71,17720,1,12,0:0:0:0:
179,71,18095,1,8,0:0:0:0:
178,89,18141,1,8,0:0:0:0:
183,93,18282,1,8,0:0:0:0:
178,89,18329,1,8,0:0:0:0:
183,93,18470,1,0,0:0:0:0:
190,88,18516,1,0,0:0:0:0:
183,93,18751,1,0,0:0:0:0:
183,93,18845,1,8,0:0:0:0:
183,93,19032,1,8,0:0:0:0:
183,93,19220,1,0,0:0:0:0:
183,93,19282,1,0,0:0:0:0:
158,51,19345,1,0,0:0:0:0:
183,93,19407,1,8,0:0:0:0:
183,93,19470,1,8,0:0:0:0:
164,36,19532,1,8,0:0:0:0:
183,93,19595,1,0,0:0:0:0:
77,141,19688,1,0,0:0:0:0:
164,38,19782,1,8,0:0:0:0:
201,83,19845,1,8,0:0:0:0:
77,141,19907,1,8,0:0:0:0:
201,83,19970,1,0,0:0:0:0:
178,60,20063,1,0,0:0:0:0:
201,83,20157,1,8,0:0:0:0:
203,69,20251,1,0,0:0:0:0:
201,83,20345,1,8,0:0:0:0:
203,69,20438,1,0,0:0:0:0:
203,69,20532,1,8,0:0:0:0:
203,69,20626,1,8,0:0:0:0:
203,69,20720,1,0,0:0:0:0:
224,59,20813,1,0,0:0:0:0:
224,59,21095,1,8,0:0:0:0:
167,101,21141,1,8,0:0:0:0:
224,59,21282,1,8,0:0:0:0:
201,90,21329,1,8,0:0:0:0:
224,59,21470,1,0,0:0:0:0:
201,90,21516,1,0,0:0:0:0:
224,59,21751,1,0,0:0:0:0:
224,59,21845,1,8,0:0:0:0:
109,84,21907,1,8,0:0:0:0:
109,84,21970,1,8,0:0:0:0:
125,70,22032,1,8,0:0:0:0:
131,52,22095,1,8,0:0:0:0:
125,70,22157,1,8,0:0:0:0:
125,70,22220,1,0,0:0:0:0:
166,83,22313,1,8,0:0:0:0:
166,83,22407,1,0,0:0:0:0:
166,83,22501,1,8,0:0:0:0:
166,83,22595,1,0,0:0:0:0:
183,86,22782,1,8,0:0:0:0:
183,85,22876,1,8,0:0:0:0:
183,85,22970,1,0,0:0:0:0:
186,72,23063,1,8,0:0:0:0:
183,85,23157,1,8,0:0:0:0:
186,72,23251,1,0,0:0:0:0:
186,72,23345,1,8,0:0:0:0:
189,64,23438,1,8,0:0:0:0:
186,72,23532,1,0,0:0:0:0:
186,72,23626,1,0,0:0:0:0:
186,72,23720,1,12,0:0:0:0:
200,33,23907,1,0,0:0:0:0:
186,72,24001,1,0,0:0:0:0:
185,75,24095,1,8,0:0:0:0:
186,72,24282,1,8,0:0:0:0:
183,69,24470,1,8,0:0:0:0:
104,70,24532,1,0,0:0:0:0:
104,70,24595,1,0,0:0:0:0:
186,72,24657,1,8,0:0:0:0:
186,72,24720,1,0,0:0:0:0:
201,60,24782,1,0,0:0:0:0:
73,128,24845,1,8,0:0:0:0:
179,95,25032,1,8,0:0:0:0:
176,89,25220,1,0,0:0:0:0:
99,99,25282,1,0,0:0:0:0:
99,99,25345,1,0,0:0:0:0:
99,99,25407,1,8,0:0:0:0:
176,89,25470,1,8,0:0:0:0:
74,121,25532,1,8,0:0:0:0:
176,89,25595,1,0,0:0:0:0:
181,68,25688,1,8,0:0:0:0:
181,68,25782,1,0,0:0:0:0:
181,68,25876,1,0,0:0:0:0:
181,68,25970,1,8,0:0:0:0:
181,68,26063,1,8,0:0:0:0:
182,67,26157,1,0,0:0:0:0:
182,67,26345,1,8,0:0:0:0:
187,60,26391,1,8,0:0:0:0:
182,67,26532,1,8,0:0:0:0:
187,60,26579,1,8,0:0:0:0:
191,37,26720,1,0,0:0:0:0:
193,55,26766,1,0,0:0:0:0:
191,37,27095,1,8,0:0:0:0:
179,118,27141,1,8,0:0:0:0:
191,37,27282,1,0,0:0:0:0:
169,73,27329,1,0,0:0:0:0:
191,37,27470,1,8,0:0:0:0:
179,118,27516,1,8,0:0:0:0:
191,37,27751,1,0,0:0:0:0:
188,21,27845,1,8,0:0:0:0:
192,58,27907,1,8,0:0:0:0:
192,58,27970,1,8,0:0:0:0:
208,58,28032,1,8,0:0:0:0:
194,47,28095,1,8,0:0:0:0:
161,68,28157,1,8,0:0:0:0:
191,37,28220,1,0,0:0:0:0:
221,105,28313,1,0,0:0:0:0:
221,105,28782,1,0,0:0:0:0:
221,105,28876,1,0,0:0:0:0:
221,105,28970,1,8,0:0:0:0:
221,105,29157,1,0,0:0:0:0:
221,105,29345,1,8,0:0:0:0:
221,105,29438,1,0,0:0:0:0:
221,105,29532,1,8,0:0:0:0:
221,105,29626,1,0,0:0:0:0:
221,105,29720,1,12,0:0:0:0:
221,105,29907,1,0,0:0:0:0:
221,105,30095,1,8,0:0:0:0:
221,105,30282,1,0,0:0:0:0:
221,105,30345,1,0,0:0:0:0:
140,89,30407,1,0,0:0:0:0:
221,105,30470,1,8,0:0:0:0:
136,59,30532,1,8,0:0:0:0:
136,59,30595,1,8,0:0:0:0:
221,105,30657,1,8,0:0:0:0:
183,84,30845,1,0,0:0:0:0:
183,84,31032,1,8,0:0:0:0:
208,45,31220,1,0,0:0:0:0:
159,70,31313,1,0,0:0:0:0:
208,45,31407,1,8,0:0:0:0:
208,45,31595,1,8,0:0:0:0:
208,45,31782,1,8,0:0:0:0:
208,45,31876,1,0,0:0:0:0:
208,45,31970,1,8,0:0:0:0:
208,45,32157,1,0,0:0:0:0:
119,150,32220,1,0,0:0:0:0:
164,87,32282,1,0,0:0:0:0:
119,150,32345,1,8,0:0:0:0:
119,150,32438,1,8,0:0:0:0:
119,150,32532,1,8,0:0:0:0:
119,150,32720,1,0,0:0:0:0:
177,127,32907,1,8,0:0:0:0:
177,127,33001,1,0,0:0:0:0:
177,127,33095,1,8,0:0:0:0:
177,127,33282,1,0,0:0:0:0:
177,127,33470,1,8,0:0:0:0:
187,78,33532,1,8,0:0:0:0:
187,78,33595,1,8,0:0:0:0:
187,78,33657,1,0,0:0:0:0:
187,78,33720,1,0,0:0:0:0:
187,78,33782,1,0,0:0:0:0:
187,78,33845,1,8,0:0:0:0:
187,78,34032,1,0,0:0:0:0:
173,103,34220,1,8,0:0:0:0:
182,103,34407,1,0,0:0:0:0:
189,101,34501,1,0,0:0:0:0:
189,108,34595,1,8,0:0:0:0:
188,110,34782,1,0,0:0:0:0:
196,100,34876,1,0,0:0:0:0:
188,110,34970,1,8,0:0:0:0:
188,110,35032,1,8,0:0:0:0:
147,92,35095,1,8,0:0:0:0:
147,92,35157,1,0,0:0:0:0:
118,92,35251,1,0,0:0:0:0:
175,79,35345,1,0,0:0:0:0:
174,80,35407,1,0,0:0:0:0:
166,94,35470,1,0,0:0:0:0:
165,97,35532,1,8,0:0:0:0:
164,97,35720,1,12,0:0:0:0:
179,76,35907,1,0,0:0:0:0:
191,71,36001,1,0,0:0:0:0:
179,76,36095,1,8,0:0:0:0:
191,71,36282,1,0,0:0:0:0:
191,71,36470,1,8,0:0:0:0:
191,71,36563,1,0,0:0:0:0:
191,71,36657,1,8,0:0:0:0:
191,71,36751,1,8,0:0:0:0:
191,71,36845,1,0,0:0:0:0:
191,71,36938,1,0,0:0:0:0:
191,71,37032,1,8,0:0:0:0:
191,71,37220,1,0,0:0:0:0:
200,74,37282,1,0,0:0:0:0:
200,74,37345,1,0,0:0:0:0:
200,74,37407,1,8,0:0:0:0:
130,102,37501,1,0,0:0:0:0:
200,74,37595,1,0,0:0:0:0:
181,79,37657,1,8,0:0:0:0:
181,79,37720,1,8,0:0:0:0:
200,74,37782,1,8,0:0:0:0:
207,52,37876,1,0,0:0:0:0:
188,100,37970,1,8,0:0:0:0:
207,52,38063,1,0,0:0:0:0:
188,100,38157,1,8,0:0:0:0:
188,100,38251,1,8,0:0:0:0:
188,100,38345,1,0,0:0:0:0:
188,100,38438,1,0,0:0:0:0:
188,100,38532,1,8,0:0:0:0:
188,100,38626,1,0,0:0:0:0:
188,100,38720,1,8,0:0:0:0:
188,100,38907,1,8,0:0:0:0:
195,88,39001,1,8,0:0:0:0:
188,100,39095,1,8,0:0:0:0:
188,100,39282,1,0,0:0:0:0:
195,88,39470,1,8,0:0:0:0:
195,88,39563,1,8,0:0:0:0:
195,88,39657,1,0,0:0:0:0:
190,76,39751,1,0,0:0:0:0:
195,88,39845,1,8,0:0:0:0:
195,88,39938,1,0,0:0:0:0:
195,88,40032,1,8,0:0:0:0:
195,88,40220,1,0,0:0:0:0:
195,88,40313,1,8,0:0:0:0:
195,88,40407,1,0,0:0:0:0:
219,60,40470,1,0,0:0:0:0:
219,60,40532,1,0,0:0:0:0:
219,60,40595,1,8,0:0:0:0:
179,39,40688,1,0,0:0:0:0:
179,39,40782,1,8,0:0:0:0:
156,88,40845,1,8,0:0:0:0:
186,78,40907,1,8,0:0:0:0:
161,95,40970,1,0,0:0:0:0:
169,46,41063,1,0,0:0:0:0:
156,88,41157,1,8,0:0:0:0:
180,89,41251,1,0,0:0:0:0:
182,90,41345,1,8,0:0:0:0:
180,89,41438,1,8,0:0:0:0:
182,89,41532,1,0,0:0:0:0:
123,124,41626,1,0,0:0:0:0:
182,89,41720,1,12,0:0:0:0:
178,95,41907,1,0,0:0:0:0:
143,80,42001,1,0,0:0:0:0:
177,97,42095,1,8,0:0:0:0:
178,95,42282,1,0,0:0:0:0:
178,95,42470,1,8,0:0:0:0:
143,80,42563,1,8,0:0:0:0:
178,95,42657,1,0,0:0:0:0:
178,95,42751,1,0,0:0:0:0:
178,95,42845,1,8,0:0:0:0:
139,139,43032,1,0,0:0:0:0:
139,139,43126,1,8,0:0:0:0:
139,139,43220,1,0,0:0:0:0:
139,139,43407,1,0,0:0:0:0:
145,110,43501,1,8,0:0:0:0:
139,139,43595,1,0,0:0:0:0:
145,110,43688,1,0,0:0:0:0:
145,110,43782,1,8,0:0:0:0:
145,105,43876,1,8,0:0:0:0:
145,110,43970,1,0,0:0:0:0:
145,105,44157,1,8,0:0:0:0:
145,105,44220,1,8,0:0:0:0:
108,99,44282,1,8,0:0:0:0:
145,105,44345,1,0,0:0:0:0:
145,92,44532,1,8,0:0:0:0:
145,92,44595,1,8,0:0:0:0:
145,92,44657,1,8,0:0:0:0:
145,92,44720,1,0,0:0:0:0:
145,92,44907,1,0,0:0:0:0:
225,83,45001,1,0,0:0:0:0:
145,90,45095,1,8,0:0:0:0:
189,104,45282,1,4,0:0:0:0:
195,98,45470,1,0,0:0:0:0:
194,98,45563,1,0,0:0:0:0:
194,98,45657,1,8,0:0:0:0:
194,98,45845,1,4,0:0:0:0:
194,98,46032,1,4,0:0:0:0:
211,68,46220,1,4,0:0:0:0:
195,98,46407,1,8,0:0:0:0:
168,78,46470,1,8,0:0:0:0:
168,78,46532,1,8,0:0:0:0:
167,100,46595,1,0,0:0:0:0:
165,101,46782,1,8,0:0:0:0:
165,101,46845,1,8,0:0:0:0:
165,101,46907,1,8,0:0:0:0:
188,73,46970,1,0,0:0:0:0:
230,64,47063,1,0,0:0:0:0:
218,74,47157,1,8,0:0:0:0:
203,71,47345,1,8,0:0:0:0:
203,71,47438,1,0,0:0:0:0:
203,71,47532,1,8,0:0:0:0:
204,70,47626,1,0,0:0:0:0:
204,70,47720,1,12,0:0:0:0:
204,70,47907,1,0,0:0:0:0:
204,70,48001,1,0,0:0:0:0:
204,70,48095,1,8,0:0:0:0:
203,71,48282,1,0,0:0:0:0:
203,71,48376,1,8,0:0:0:0:
203,71,48563,1,8,0:0:0:0:
204,70,48657,1,0,0:0:0:0:
204,70,48845,1,8,0:0:0:0:
204,70,48938,1,8,0:0:0:0:
210,74,49032,1,0,0:0:0:0:
210,74,49126,1,0,0:0:0:0:
210,74,49220,1,8,0:0:0:0:
72,149,49407,1,0,0:0:0:0:
72,149,49501,1,8,0:0:0:0:
72,149,49595,1,8,0:0:0:0:
110,84,49688,1,0,0:0:0:0:
72,149,49782,1,0,0:0:0:0:
72,149,49876,1,8,0:0:0:0:
110,84,49970,1,0,0:0:0:0:
167,58,50157,1,8,0:0:0:0:
167,58,50220,1,8,0:0:0:0:
167,58,50282,1,8,0:0:0:0:
167,58,50345,1,0,0:0:0:0:
167,58,50532,1,8,0:0:0:0:
167,58,50595,1,8,0:0:0:0:
167,58,50657,1,8,0:0:0:0:
167,58,50720,1,0,0:0:0:0:
167,58,50907,1,8,0:0:0:0:
210,87,51001,1,8,0:0:0:0:
167,58,51095,1,0,0:0:0:0:
171,127,51188,1,0,0:0:0:0:
171,127,51282,1,8,0:0:0:0:
171,127,51376,1,0,0:0:0:0:
77,96,51470,1,0,0:0:0:0:
171,127,51563,1,0,0:0:0:0:
171,127,51657,1,8,0:0:0:0:
168,106,51845,1,8,0:0:0:0:
169,107,51938,1,0,0:0:0:0:
175,109,52032,1,8,0:0:0:0:
177,110,52126,1,8,0:0:0:0:
177,110,52220,1,0,0:0:0:0:
177,110,52313,1,0,0:0:0:0:
177,110,52407,1,8,0:0:0:0:
177,110,52470,1,8,0:0:0:0:
79,102,52532,1,8,0:0:0:0:
177,110,52595,1,0,0:0:0:0:
117,97,52782,1,8,0:0:0:0:
160,36,52845,1,8,0:0:0:0:
117,97,52907,1,8,0:0:0:0:
117,97,52970,1,0,0:0:0:0:
160,36,53157,1,8,0:0:0:0:
160,36,53345,1,0,0:0:0:0:
209,76,53438,1,0,0:0:0:0:
160,36,53532,1,8,0:0:0:0:
160,36,53720,1,12,0:0:0:0:
199,79,54095,1,8,0:0:0:0:
199,79,54282,1,0,0:0:0:0:
204,69,54376,1,8,0:0:0:0:
199,78,54470,1,0,0:0:0:0:
204,69,54563,1,8,0:0:0:0:
204,69,54657,1,8,0:0:0:0:
204,69,54751,1,0,0:0:0:0:
204,69,54845,1,8,0:0:0:0:
214,83,54907,1,8,0:0:0:0:
214,83,54970,1,8,0:0:0:0:
214,83,55032,1,0,0:0:0:0:
140,76,55095,1,0,0:0:0:0:
140,76,55157,1,0,0:0:0:0:
193,59,55220,1,0,0:0:0:0:
214,74,55313,1,8,0:0:0:0:
211,80,55407,1,0,0:0:0:0:
211,80,55501,1,0,0:0:0:0:
211,80,55595,1,8,0:0:0:0:
205,101,55782,1,8,0:0:0:0:
205,101,55970,1,0,0:0:0:0:
205,101,56063,1,0,0:0:0:0:
205,100,56157,1,8,0:0:0:0:
208,77,56251,1,0,0:0:0:0:
205,100,56345,1,8,0:0:0:0:
211,80,56438,1,8,0:0:0:0:
211,80,56532,1,0,0:0:0:0:
211,80,56626,1,0,0:0:0:0:
208,77,56720,1,8,0:0:0:0:
117,107,56907,1,8,0:0:0:0:
153,48,56954,1,8,0:0:0:0:
117,107,57095,1,0,0:0:0:0:
153,48,57141,1,0,0:0:0:0:
117,107,57282,1,8,0:0:0:0:
95,55,57329,1,8,0:0:0:0:
117,107,57470,1,0,0:0:0:0:
135,36,57516,1,0,0:0:0:0:
117,107,57657,1,8,0:0:0:0:
117,107,57720,1,8,0:0:0:0:
109,108,57782,1,8,0:0:0:0:
109,108,57845,1,8,0:0:0:0:
140,111,57907,1,8,0:0:0:0:
140,111,57970,1,8,0:0:0:0:
172,86,58032,1,0,0:0:0:0:
183,43,58220,1,0,0:0:0:0:
172,86,58313,1,8,0:0:0:0:
172,86,58407,1,8,0:0:0:0:
172,86,58501,1,0,0:0:0:0:
172,86,58595,1,8,0:0:0:0:
193,48,58688,1,0,0:0:0:0:
165,68,58782,1,8,0:0:0:0:
193,48,58876,1,0,0:0:0:0:
165,68,58970,1,0,0:0:0:0:
141,114,59063,1,8,0:0:0:0:
165,68,59157,1,0,0:0:0:0:
171,60,59251,1,0,0:0:0:0:
165,68,59345,1,8,0:0:0:0:
131,74,59391,1,8,0:0:0:0:
171,60,59532,1,0,0:0:0:0:
131,74,59579,1,0,0:0:0:0:
171,60,59720,1,12,0:0:0:0:
171,60,60095,1,8,0:0:0:0:
164,66,60282,1,0,0:0:0:0:
164,66,60470,1,8,0:0:0:0:
164,66,60563,1,0,0:0:0:0:
164,66,60657,1,8,0:0:0:0:
164,66,60751,1,8,0:0:0:0:
164,66,60845,1,0,0:0:0:0:
113,130,60938,1,0,0:0:0:0:
101,150,61032,1,8,0:0:0:0:
113,130,61126,1,8,0:0:0:0:
113,130,61220,1,0,0:0:0:0:
130,90,61407,1,0,0:0:0:0:
177,89,61454,1,0,0:0:0:0:
130,90,61595,1,8,0:0:0:0:
201,70,61641,1,8,0:0:0:0:
130,90,61782,1,8,0:0:0:0:
201,70,61829,1,8,0:0:0:0:
130,90,61970,1,0,0:0:0:0:
130,90,62063,1,8,0:0:0:0:
130,90,62157,1,8,0:0:0:0:
130,90,62251,1,0,0:0:0:0:
130,90,62345,1,8,0:0:0:0:
207,59,62407,1,8,0:0:0:0:
309,9,62470,1,8,0:0:0:0:
207,59,62532,1,8,0:0:0:0:
219,44,62595,1,8,0:0:0:0:
207,59,62657,1,8,0:0:0:0:
183,97,62720,1,0,0:0:0:0:
170,96,62813,1,0,0:0:0:0:
205,81,62907,1,0,0:0:0:0:
206,78,63001,1,0,0:0:0:0:
207,74,63095,1,8,0:0:0:0:
207,74,63282,1,0,0:0:0:0:
213,82,63376,1,0,0:0:0:0:
210,73,63470,1,8,0:0:0:0:
213,82,63563,1,8,0:0:0:0:
212,82,63657,1,0,0:0:0:0:
212,82,63751,1,0,0:0:0:0:
212,82,63845,1,8,0:0:0:0:
212,82,63938,1,0,0:0:0:0:
212,82,64032,1,8,0:0:0:0:
215,72,64126,1,8,0:0:0:0:
215,72,64220,1,0,0:0:0:0:
215,72,64407,1,0,0:0:0:0:
215,72,64501,1,0,0:0:0:0:
215,72,64595,1,8,0:0:0:0:
215,72,64782,1,8,0:0:0:0:
215,72,64876,1,0,0:0:0:0:
218,69,64970,1,0,0:0:0:0:
193,71,65032,1,0,0:0:0:0:
202,60,65095,1,0,0:0:0:0:
218,68,65157,1,8,0:0:0:0:
218,68,65220,1,8,0:0:0:0:
110,120,65282,1,8,0:0:0:0:
202,60,65345,1,0,0:0:0:0:
183,57,65438,1,0,0:0:0:0:
183,57,65532,1,8,0:0:0:0:
183,57,65720,1,12,0:0:0:0:
183,57,65907,1,8,0:0:0:0:
183,57,66001,1,0,0:0:0:0:
183,57,66095,1,8,0:0:0:0:
183,57,66188,1,0,0:0:0:0:
183,57,66282,1,8,0:0:0:0:
191,43,66376,1,0,0:0:0:0:
183,57,66470,1,8,0:0:0:0:
191,43,66563,1,8,0:0:0:0:
191,43,66657,1,0,0:0:0:0:
201,50,66845,1,8,0:0:0:0:
183,48,66891,1,8,0:0:0:0:
201,50,67032,1,8,0:0:0:0:
180,49,67079,1,8,0:0:0:0:
201,50,67220,1,0,0:0:0:0:
196,43,67266,1,0,0:0:0:0:
201,50,67407,1,8,0:0:0:0:
201,50,67501,1,0,0:0:0:0:
201,50,67595,1,8,0:0:0:0:
201,50,67782,1,0,0:0:0:0:
132,122,67876,1,0,0:0:0:0:
201,50,67970,1,8,0:0:0:0:
153,59,68063,1,0,0:0:0:0:
201,50,68157,1,8,0:0:0:0:
201,50,68345,1,0,0:0:0:0:
158,71,68407,1,0,0:0:0:0:
158,71,68470,1,0,0:0:0:0:
158,71,68532,1,8,0:0:0:0:
158,71,68595,1,8,0:0:0:0:
163,66,68657,1,8,0:0:0:0:
158,71,68720,1,0,0:0:0:0:
163,66,68907,1,0,0:0:0:0:
158,91,69001,1,0,0:0:0:0:
163,66,69095,1,8,0:0:0:0:
158,89,69282,1,8,0:0:0:0:
158,89,69376,1,8,0:0:0:0:
158,89,69470,1,0,0:0:0:0:
158,89,69563,1,8,0:0:0:0:
158,89,69657,1,0,0:0:0:0:
158,89,69845,1,0,0:0:0:0:
158,91,69938,1,8,0:0:0:0:
158,91,70032,1,0,0:0:0:0:
158,89,70126,1,8,0:0:0:0:
158,89,70220,1,0,0:0:0:0:
158,89,70407,1,8,0:0:0:0:
158,89,70501,1,8,0:0:0:0:
158,89,70595,1,0,0:0:0:0:
158,89,70782,1,0,0:0:0:0:
158,91,70845,1,0,0:0:0:0:
108,104,70907,1,0,0:0:0:0:
158,91,70970,1,8,0:0:0:0:
155,61,71032,1,8,0:0:0:0:
108,104,71095,1,8,0:0:0:0:
108,104,71157,1,0,0:0:0:0:
196,102,71251,1,0,0:0:0:0:
196,102,71345,1,8,0:0:0:0:
173,103,71532,1,0,0:0:0:0:
194,54,71626,1,0,0:0:0:0:
173,103,71720,1,12,0:0:0:0:
173,103,71907,1,8,0:0:0:0:
173,101,72001,1,0,0:0:0:0:
173,101,72095,1,8,0:0:0:0:
173,103,72282,1,8,0:0:0:0:
184,93,72376,1,0,0:0:0:0:
184,93,72470,1,8,0:0:0:0:
184,93,72563,1,8,0:0:0:0:
184,93,72657,1,0,0:0:0:0:
134,110,72720,1,0,0:0:0:0:
134,110,72782,1,0,0:0:0:0:
134,110,72845,1,8,0:0:0:0:
192,98,72938,1,0,0:0:0:0:
192,98,73032,1,8,0:0:0:0:
192,98,73220,1,0,0:0:0:0:
190,96,73407,1,8,0:0:0:0:
190,96,73501,1,0,0:0:0:0:
190,95,73595,1,8,0:0:0:0:
192,98,73782,1,8,0:0:0:0:
192,98,73970,1,8,0:0:0:0:
111,119,74032,1,8,0:0:0:0:
111,119,74095,1,8,0:0:0:0:
192,98,74157,1,0,0:0:0:0:
190,96,74345,1,8,0:0:0:0:
145,73,74391,1,8,0:0:0:0:
111,119,74532,1,0,0:0:0:0:
187,50,74579,1,0,0:0:0:0:
151,120,74720,1,8,0:0:0:0:
188,37,74766,1,8,0:0:0:0:
151,120,74907,1,0,0:0:0:0:
151,120,75001,1,0,0:0:0:0:
151,120,75095,1,8,0:0:0:0:
151,120,75282,1,0,0:0:0:0:
156,106,75376,1,0,0:0:0:0:
151,120,75470,1,8,0:0:0:0:
188,79,75532,1,8,0:0:0:0:
188,79,75595,1,8,0:0:0:0:
188,79,75657,1,8,0:0:0:0:
193,72,75751,1,0,0:0:0:0:
159,47,75845,1,0,0:0:0:0:
188,79,75907,1,0,0:0:0:0:
118,88,75970,1,0,0:0:0:0:
193,72,76032,1,8,0:0:0:0:
160,82,76095,1,8,0:0:0:0:
102,126,76157,1,8,0:0:0:0:
193,72,76220,1,0,0:0:0:0:
150,60,76407,1,0,0:0:0:0:
132,75,76501,1,0,0:0:0:0:
132,75,76595,1,8,0:0:0:0:
156,77,76782,1,8,0:0:0:0:
166,69,76970,1,0,0:0:0:0:
166,69,77157,1,0,0:0:0:0:
166,67,77251,1,0,0:0:0:0:
166,69,77345,1,8,0:0:0:0:
157,44,77391,1,8,0:0:0:0:
166,67,77532,1,0,0:0:0:0:
142,38,77579,1,0,0:0:0:0:
166,67,77720,1,12,0:0:0:0:
154,102,78095,1,8,0:0:0:0:
182,61,78141,1,8,0:0:0:0:
140,72,78282,1,0,0:0:0:0:
181,61,78329,1,0,0:0:0:0:
140,72,78470,1,8,0:0:0:0:
181,61,78516,1,8,0:0:0:0:
140,72,78657,1,0,0:0:0:0:
140,72,78751,1,0,0:0:0:0:
140,72,78845,1,8,0:0:0:0:
140,72,78938,1,0,0:0:0:0:
140,72,79032,1,8,0:0:0:0:
140,72,79126,1,8,0:0:0:0:
140,72,79220,1,0,0:0:0:0:
140,72,79407,1,8,0:0:0:0:
156,52,79501,1,8,0:0:0:0:
140,72,79595,1,0,0:0:0:0:
156,52,79782,1,0,0:0:0:0:
158,43,79876,1,8,0:0:0:0:
158,43,80063,1,8,0:0:0:0:
158,43,80157,1,8,0:0:0:0:
158,43,80251,1,0,0:0:0:0:
158,43,80345,1,8,0:0:0:0:
158,43,80438,1,0,0:0:0:0:
158,43,80532,1,8,0:0:0:0:
158,43,80626,1,8,0:0:0:0:
158,43,80720,1,0,0:0:0:0:
131,97,80907,1,0,0:0:0:0:
179,53,80954,1,0,0:0:0:0:
158,43,81095,1,8,0:0:0:0:
186,48,81141,1,8,0:0:0:0:
158,43,81282,1,8,0:0:0:0:
158,43,81345,1,8,0:0:0:0:
142,62,81407,1,8,0:0:0:0:
142,62,81470,1,0,0:0:0:0:
165,28,81657,1,0,0:0:0:0:
188,41,81704,1,0,0:0:0:0:
138,57,81845,1,8,0:0:0:0:
180,41,81891,1,8,0:0:0:0:
97,131,82220,1,8,0:0:0:0:
97,131,82313,1,0,0:0:0:0:
97,131,82407,1,8,0:0:0:0:
97,131,82501,1,0,0:0:0:0:
97,131,82595,1,8,0:0:0:0:
97,131,82688,1,0,0:0:0:0:
97,131,82782,1,8,0:0:0:0:
97,131,82876,1,8,0:0:0:0:
97,131,82970,1,0,0:0:0:0:
97,131,83063,1,8,0:0:0:0:
97,131,83157,1,0,0:0:0:0:
97,131,83251,1,0,0:0:0:0:
97,131,83345,1,8,0:0:0:0:
97,131,83438,1,8,0:0:0:0:
97,131,83532,1,0,0:0:0:0:
97,131,83626,1,0,0:0:0:0:
97,131,83720,1,12,0:0:0:0:
97,131,83907,1,0,0:0:0:0:
122,99,84001,1,0,0:0:0:0:
97,131,84095,1,8,0:0:0:0:
122,99,84188,1,8,0:0:0:0:
122,99,84282,1,8,0:0:0:0:
150,39,84376,1,8,0:0:0:0:
136,42,84470,1,0,0:0:0:0:
122,99,84657,1,8,0:0:0:0:
130,81,84720,1,0,0:0:0:0:
130,81,84782,1,0,0:0:0:0:
130,81,84845,1,8,0:0:0:0:
162,79,85032,1,8,0:0:0:0:
162,79,85095,1,0,0:0:0:0:
162,79,85157,1,0,0:0:0:0:
162,79,85220,1,8,0:0:0:0:
162,79,85407,1,0,0:0:0:0:
153,83,85501,1,0,0:0:0:0:
162,79,85595,1,8,0:0:0:0:
149,22,85688,1,0,0:0:0:0:
157,84,85782,1,0,0:0:0:0:
157,84,85876,1,8,0:0:0:0:
157,84,86063,1,8,0:0:0:0:
157,84,86157,1,0,0:0:0:0:
157,84,86345,1,8,0:0:0:0:
186,50,86391,1,8,0:0:0:0:
153,83,86532,1,8,0:0:0:0:
186,50,86579,1,8,0:0:0:0:
157,84,86720,1,0,0:0:0:0:
157,50,86813,1,8,0:0:0:0:
155,26,86907,1,0,0:0:0:0:
155,26,87001,1,0,0:0:0:0:
155,26,87095,1,8,0:0:0:0:
155,26,87188,1,0,0:0:0:0:
171,61,87282,1,8,0:0:0:0:
181,77,87345,1,8,0:0:0:0:
181,77,87407,1,8,0:0:0:0:
181,77,87470,1,0,0:0:0:0:
221,87,87563,1,8,0:0:0:0:
221,87,87657,1,8,0:0:0:0:
221,87,87751,1,0,0:0:0:0:
221,87,87845,1,8,0:0:0:0:
221,87,87938,1,0,0:0:0:0:
221,87,88032,1,8,0:0:0:0:
221,87,88126,1,8,0:0:0:0:
221,87,88220,1,0,0:0:0:0:
221,87,88407,1,0,0:0:0:0:
219,68,88501,1,0,0:0:0:0:
221,87,88595,1,8,0:0:0:0:
219,68,88782,1,8,0:0:0:0:
219,68,88970,1,8,0:0:0:0:
219,68,89063,1,8,0:0:0:0:
219,68,89157,1,0,0:0:0:0:
219,68,89251,1,0,0:0:0:0:
219,68,89345,1,8,0:0:0:0:
219,68,89532,1,8,0:0:0:0:
219,68,89720,1,0,0:0:0:0:
218,61,89907,1,0,0:0:0:0:
218,61,90001,1,0,0:0:0:0:
218,61,90095,1,8,0:0:0:0:
218,61,90188,1,0,0:0:0:0:
218,61,90282,1,8,0:0:0:0:
218,61,90376,1,8,0:0:0:0:
218,61,90470,1,0,0:0:0:0:
218,61,90657,1,8,0:0:0:0:
161,47,90720,1,8,0:0:0:0:
161,47,90782,1,8,0:0:0:0:
161,47,90845,1,0,0:0:0:0:
161,47,91032,1,8,0:0:0:0:
166,36,91095,1,8,0:0:0:0:
161,47,91157,1,8,0:0:0:0:
161,47,91220,1,0,0:0:0:0:
122,72,91407,1,0,0:0:0:0:
122,72,91501,1,0,0:0:0:0:
122,72,91595,1,8,0:0:0:0:
122,72,91782,1,0,0:0:0:0:
122,72,91970,1,8,0:0:0:0:
122,72,92157,1,0,0:0:0:0:
122,72,92345,1,8,0:0:0:0:
122,72,92532,1,8,0:0:0:0:
122,72,92720,1,0,0:0:0:0:
122,72,92907,1,8,0:0:0:0:
171,58,92970,1,8,0:0:0:0:
171,58,93032,1,8,0:0:0:0:
171,58,93095,1,0,0:0:0:0:
175,54,93188,1,0,0:0:0:0:
159,86,93282,1,8,0:0:0:0:
159,86,93345,1,8,0:0:0:0:
109,109,93407,1,8,0:0:0:0:
159,86,93470,1,0,0:0:0:0:
167,73,93563,1,8,0:0:0:0:
167,73,93657,1,0,0:0:0:0:
173,70,93751,1,8,0:0:0:0:
151,103,93845,1,8,0:0:0:0:
181,55,93938,1,0,0:0:0:0:
172,68,94032,1,8,0:0:0:0:
147,61,94126,1,0,0:0:0:0:
172,68,94220,1,0,0:0:0:0:
147,61,94313,1,8,0:0:0:0:
136,73,94407,1,8,0:0:0:0:
136,73,94501,1,8,0:0:0:0:
181,55,94595,1,0,0:0:0:0:
147,61,94688,1,0,0:0:0:0:
136,73,94782,1,8,0:0:0:0:
136,73,94876,1,0,0:0:0:0:
113,89,94970,1,8,0:0:0:0:
136,73,95063,1,8,0:0:0:0:
136,73,95157,1,0,0:0:0:0:
137,60,95251,1,0,0:0:0:0:
136,73,95345,1,0,0:0:0:0:
195,58,95407,1,8,0:0:0:0:
195,58,95470,1,8,0:0:0:0:
195,58,95532,1,8,0:0:0:0:
195,58,95720,1,12,0:0:0:0:
208,51,95813,1,12,0:0:0:0:
170,122,96282,1,12,0:0:0:0:
170,122,96376,1,12,0:0:0:0:
198,125,96657,1,8,0:0:0:0:
198,125,96751,1,0,0:0:0:0:
170,116,96845,1,8,0:0:0:0:
198,125,96938,1,8,0:0:0:0:
198,125,97032,1,0,0:0:0:0:
198,125,97126,1,0,0:0:0:0:
198,125,97220,1,12,0:0:0:0:
198,125,97407,1,8,0:0:0:0:
192,72,97470,1,8,0:0:0:0:
192,72,97532,1,8,0:0:0:0:
192,72,97595,1,0,0:0:0:0:
224,66,97688,1,0,0:0:0:0:
192,72,97782,1,8,0:0:0:0:
192,72,97845,1,8,0:0:0:0:
192,72,97907,1,8,0:0:0:0:
192,72,97970,1,0,0:0:0:0:
224,66,98063,1,0,0:0:0:0:
192,72,98157,1,8,0:0:0:0:
192,72,98220,1,8,0:0:0:0:
224,66,98282,1,8,0:0:0:0:
192,72,98345,1,0,0:0:0:0:
94,132,98438,1,0,0:0:0:0:
94,132,98532,1,8,0:0:0:0:
164,51,98595,1,0,0:0:0:0:
164,51,98657,1,0,0:0:0:0:
164,51,98720,1,8,0:0:0:0:
197,41,98813,1,0,0:0:0:0:
197,41,98907,1,8,0:0:0:0:
197,41,98970,1,8,0:0:0:0:
207,60,99032,1,8,0:0:0:0:
197,41,99095,1,0,0:0:0:0:
202,65,99188,1,0,0:0:0:0:
148,61,99282,1,8,0:0:0:0:
145,66,99345,1,0,0:0:0:0:
140,68,99407,1,0,0:0:0:0:
202,65,99470,1,8,0:0:0:0:
218,35,99563,1,0,0:0:0:0:
154,60,99657,1,8,0:0:0:0:
159,51,99720,1,8,0:0:0:0:
147,63,99782,1,8,0:0:0:0:
201,68,99845,1,0,0:0:0:0:
218,35,99938,1,0,0:0:0:0:
159,51,100032,1,8,0:0:0:0:
177,36,100095,1,0,0:0:0:0:
177,36,100157,1,0,0:0:0:0:
202,65,100220,1,8,0:0:0:0:
218,35,100407,1,8,0:0:0:0:
204,40,100501,1,0,0:0:0:0:
218,35,100595,1,8,0:0:0:0:
141,70,100657,1,8,0:0:0:0:
139,72,100720,1,8,0:0:0:0:
203,39,100782,1,0,0:0:0:0:
202,27,100876,1,0,0:0:0:0:
203,39,100970,1,8,0:0:0:0:
202,27,101063,1,8,0:0:0:0:
203,39,101157,1,0,0:0:0:0:
160,99,101251,1,0,0:0:0:0:
202,27,101345,1,8,0:0:0:0:
208,56,101407,1,8,0:0:0:0:
207,60,101470,1,8,0:0:0:0:
205,62,101532,1,8,0:0:0:0:
207,53,101595,1,8,0:0:0:0:
207,53,101657,1,8,0:0:0:0:
236,38,101720,1,0,0:0:0:0:
212,56,101813,1,0,0:0:0:0:
211,76,101907,1,8,0:0:0:0:
211,76,102095,1,0,0:0:0:0:
164,109,102282,1,8,0:0:0:0:
169,85,102470,1,0,0:0:0:0:
169,85,102563,1,0,0:0:0:0:
169,85,102657,1,8,0:0:0:0:
173,70,102751,1,8,0:0:0:0:
169,85,102845,1,0,0:0:0:0:
173,70,102938,1,0,0:0:0:0:
173,70,103032,1,8,0:0:0:0:
177,65,103126,1,0,0:0:0:0:
173,70,103220,1,12,0:0:0:0:
177,65,103407,1,0,0:0:0:0:
194,55,103501,1,0,0:0:0:0:
177,65,103595,1,8,0:0:0:0:
194,55,103782,1,0,0:0:0:0:
194,55,103970,1,0,0:0:0:0:
194,55,104032,1,0,0:0:0:0:
135,97,104095,1,0,0:0:0:0:
194,55,104157,1,8,0:0:0:0:
135,97,104220,1,8,0:0:0:0:
135,97,104282,1,8,0:0:0:0:
135,97,104345,1,0,0:0:0:0:
135,97,104532,1,0,0:0:0:0:
135,54,104720,1,0,0:0:0:0:
147,30,104813,1,8,0:0:0:0:
135,54,104907,1,0,0:0:0:0:
135,54,105001,1,0,0:0:0:0:
135,54,105095,1,8,0:0:0:0:
99,141,105157,1,8,0:0:0:0:
99,141,105220,1,8,0:0:0:0:
156,20,105282,1,0,0:0:0:0:
156,20,105376,1,0,0:0:0:0:
156,20,105470,1,8,0:0:0:0:
156,20,105563,1,0,0:0:0:0:
156,20,105657,1,8,0:0:0:0:
156,20,105720,1,8,0:0:0:0:
123,90,105782,1,8,0:0:0:0:
156,20,105845,1,0,0:0:0:0:
204,81,106032,1,8,0:0:0:0:
176,85,106126,1,0,0:0:0:0:
204,81,106220,1,8,0:0:0:0:
209,56,106313,1,8,0:0:0:0:
208,66,106407,1,0,0:0:0:0:
203,101,106501,1,0,0:0:0:0:
209,56,106595,1,8,0:0:0:0:
202,102,106688,1,8,0:0:0:0:
207,57,106782,1,0,0:0:0:0:
171,64,106876,1,0,0:0:0:0:
207,57,106970,1,8,0:0:0:0:
188,72,107032,1,8,0:0:0:0:
182,76,107095,1,8,0:0:0:0:
181,77,107157,1,8,0:0:0:0:
181,77,107220,1,8,0:0:0:0:
181,77,107282,1,8,0:0:0:0:
181,77,107345,1,0,0:0:0:0:
95,107,107407,1,0,0:0:0:0:
95,107,107470,1,0,0:0:0:0:
95,107,107532,1,0,0:0:0:0:
95,107,107595,1,0,0:0:0:0:
141,95,107657,1,0,0:0:0:0:
141,95,107720,1,8,0:0:0:0:
115,104,107813,1,0,0:0:0:0:
141,95,107907,1,8,0:0:0:0:
187,44,108001,1,0,0:0:0:0:
187,44,108095,1,8,0:0:0:0:
151,79,108188,1,8,0:0:0:0:
187,44,108282,1,0,0:0:0:0:
187,44,108376,1,8,0:0:0:0:
187,44,108470,1,8,0:0:0:0:
171,58,108563,1,0,0:0:0:0:
187,44,108657,1,8,0:0:0:0:
240,60,108720,1,8,0:0:0:0:
240,60,108782,1,8,0:0:0:0:
187,44,108845,1,0,0:0:0:0:
236,76,109032,1,0,0:0:0:0:
132,130,109220,1,12,0:0:0:0:
97,116,109407,1,8,0:0:0:0:
190,75,109470,1,8,0:0:0:0:
190,75,109532,1,8,0:0:0:0:
190,75,109595,1,0,0:0:0:0:
186,84,109688,1,0,0:0:0:0:
156,71,109782,1,8,0:0:0:0:
156,71,109845,1,0,0:0:0:0:
156,71,109907,1,0,0:0:0:0:
156,71,109970,1,8,0:0:0:0:
186,84,110063,1,0,0:0:0:0:
156,71,110157,1,8,0:0:0:0:
156,71,110220,1,8,0:0:0:0:
156,71,110282,1,8,0:0:0:0:
156,71,110345,1,0,0:0:0:0:
186,84,110438,1,0,0:0:0:0:
156,71,110532,1,8,0:0:0:0:
156,71,110595,1,0,0:0:0:0:
156,71,110657,1,0,0:0:0:0:
156,71,110720,1,8,0:0:0:0:
186,84,110813,1,0,0:0:0:0:
156,71,110907,1,8,0:0:0:0:
156,71,110970,1,8,0:0:0:0:
156,71,111032,1,8,0:0:0:0:
156,71,111095,1,0,0:0:0:0:
186,84,111188,1,0,0:0:0:0:
156,71,111282,1,8,0:0:0:0:
156,71,111345,1,0,0:0:0:0:
156,71,111407,1,0,0:0:0:0:
156,71,111470,1,8,0:0:0:0:
186,84,111563,1,0,0:0:0:0:
156,71,111657,1,8,0:0:0:0:
156,71,111720,1,8,0:0:0:0:
156,71,111782,1,8,0:0:0:0:
156,71,111845,1,0,0:0:0:0:
186,84,111938,1,0,0:0:0:0:
156,71,112032,1,8,0:0:0:0:
156,71,112095,1,0,0:0:0:0:
156,71,112157,1,0,0:0:0:0:
156,71,112220,1,8,0:0:0:0:
141,99,112407,1,8,0:0:0:0:
150,87,112501,1,8,0:0:0:0:
141,99,112595,1,0,0:0:0:0:
150,87,112782,1,8,0:0:0:0:
158,56,112876,1,0,0:0:0:0:
150,87,112970,1,8,0:0:0:0:
158,56,113063,1,8,0:0:0:0:
158,56,113157,1,0,0:0:0:0:
158,56,113251,1,0,0:0:0:0:
158,56,113345,1,8,0:0:0:0:
168,68,113407,1,0,0:0:0:0:
168,68,113470,1,0,0:0:0:0:
159,70,113532,1,8,0:0:0:0:
159,70,113595,1,0,0:0:0:0:
159,70,113657,1,0,0:0:0:0:
159,70,113720,1,8,0:0:0:0:
160,93,113813,1,8,0:0:0:0:
160,93,113907,1,0,0:0:0:0:
130,124,114001,1,0,0:0:0:0:
159,92,114095,1,8,0:0:0:0:
159,92,114282,1,8,0:0:0:0:
190,70,114376,1,8,0:0:0:0:
159,92,114470,1,0,0:0:0:0:
163,88,114563,1,8,0:0:0:0:
159,92,114657,1,0,0:0:0:0:
160,93,114751,1,0,0:0:0:0:
75,129,114845,1,8,0:0:0:0:
136,97,114891,1,8,0:0:0:0:
163,88,115032,1,0,0:0:0:0:
136,97,115079,1,0,0:0:0:0:
136,97,115220,1,12,0:0:0:0:
163,88,115407,1,0,0:0:0:0:
163,88,115501,1,0,0:0:0:0:
163,88,115595,1,8,0:0:0:0:
186,48,115657,1,8,0:0:0:0:
186,48,115720,1,8,0:0:0:0:
178,51,115782,1,0,0:0:0:0:
216,46,115876,1,0,0:0:0:0:
207,60,115970,1,0,0:0:0:0:
217,56,116032,1,0,0:0:0:0:
263,40,116095,1,0,0:0:0:0:
232,60,116157,1,8,0:0:0:0:
220,56,116220,1,8,0:0:0:0:
213,68,116282,1,8,0:0:0:0:
205,73,116345,1,8,0:0:0:0:
183,100,116532,1,0,0:0:0:0:
183,100,116720,1,0,0:0:0:0:
195,74,116907,1,8,0:0:0:0:
195,74,117001,1,0,0:0:0:0:
195,74,117095,1,8,0:0:0:0:
195,74,117157,1,8,0:0:0:0:
162,95,117220,1,8,0:0:0:0:
196,74,117282,1,0,0:0:0:0:
191,98,117376,1,0,0:0:0:0:
195,74,117470,1,8,0:0:0:0:
195,74,117563,1,8,0:0:0:0:
195,74,117657,1,0,0:0:0:0:
106,117,117720,1,0,0:0:0:0:
195,74,117782,1,0,0:0:0:0:
195,74,117845,1,8,0:0:0:0:
97,105,117907,1,8,0:0:0:0:
106,117,117970,1,8,0:0:0:0:
97,105,118032,1,0,0:0:0:0:
196,74,118220,1,8,0:0:0:0:
134,47,118313,1,8,0:0:0:0:
43,144,118407,1,0,0:0:0:0:
96,150,118501,1,0,0:0:0:0:
104,150,118595,1,8,0:0:0:0:
134,47,118688,1,0,0:0:0:0:
111,145,118782,1,8,0:0:0:0:
134,47,118876,1,0,0:0:0:0:
114,143,118970,1,8,0:0:0:0:
115,142,119063,1,8,0:0:0:0:
122,140,119157,1,0,0:0:0:0:
168,33,119251,1,0,0:0:0:0:
189,117,119345,1,8,0:0:0:0:
189,117,119438,1,0,0:0:0:0:
189,117,119532,1,8,0:0:0:0:
189,117,119595,1,8,0:0:0:0:
137,62,119657,1,8,0:0:0:0:
193,115,119720,1,0,0:0:0:0:
192,104,119907,1,8,0:0:0:0:
192,104,120001,1,0,0:0:0:0:
192,104,120095,1,8,0:0:0:0:
213,84,120282,1,0,0:0:0:0:
213,84,120470,1,8,0:0:0:0:
213,84,120563,1,0,0:0:0:0:
213,84,120657,1,8,0:0:0:0:
136,48,120720,1,0,0:0:0:0:
136,48,120782,1,0,0:0:0:0:
213,84,120845,1,8,0:0:0:0:
213,84,120938,1,0,0:0:0:0:
213,84,121032,1,8,0:0:0:0:
213,84,121126,1,8,0:0:0:0:
213,84,121220,1,4,0:0:0:0:
213,84,121407,1,8,0:0:0:0:
136,48,121501,1,8,0:0:0:0:
213,84,121595,1,0,0:0:0:0:
159,124,121782,1,8,0:0:0:0:
159,124,121876,1,8,0:0:0:0:
159,124,121970,1,0,0:0:0:0:
159,124,122157,1,8,0:0:0:0:
159,124,122251,1,0,0:0:0:0:
159,124,122345,1,8,0:0:0:0:
151,106,122438,1,8,0:0:0:0:
151,106,122532,1,0,0:0:0:0:
151,106,122626,1,0,0:0:0:0:
151,106,122720,1,8,0:0:0:0:
151,106,122907,1,8,0:0:0:0:
151,106,123001,1,0,0:0:0:0:
151,106,123095,1,8,0:0:0:0:
151,106,123188,1,0,0:0:0:0:
151,106,123282,1,8,0:0:0:0:
151,106,123376,1,8,0:0:0:0:
151,106,123470,1,0,0:0:0:0:
136,96,123657,1,8,0:0:0:0:
136,96,123751,1,8,0:0:0:0:
136,96,123845,1,0,0:0:0:0:
115,101,123938,1,0,0:0:0:0:
136,96,124032,1,8,0:0:0:0:
136,94,124126,1,8,0:0:0:0:
136,96,124220,1,0,0:0:0:0:
136,94,124407,1,8,0:0:0:0:
136,94,124501,1,0,0:0:0:0:
136,96,124595,1,0,0:0:0:0:
136,96,124688,1,8,0:0:0:0:
136,96,124782,1,0,0:0:0:0:
136,96,124876,1,8,0:0:0:0:
136,96,124970,1,8,0:0:0:0:
136,94,125063,1,0,0:0:0:0:
136,96,125157,1,8,0:0:0:0:
136,94,125345,1,8,0:0:0:0:
151,91,125407,1,8,0:0:0:0:
151,86,125470,1,8,0:0:0:0:
136,94,125532,1,8,0:0:0:0:
136,96,125595,1,8,0:0:0:0:
136,96,125657,1,8,0:0:0:0:
136,96,125720,1,0,0:0:0:0:
214,72,125813,1,0,0:0:0:0:
136,96,125907,1,0,0:0:0:0:
136,96,126001,1,0,0:0:0:0:
136,94,126095,1,8,0:0:0:0:
136,94,126282,1,8,0:0:0:0:
136,94,126470,1,8,0:0:0:0:
136,94,126563,1,0,0:0:0:0:
76,148,126657,1,8,0:0:0:0:
136,96,126751,1,0,0:0:0:0:
76,148,126845,1,8,0:0:0:0:
76,148,126938,1,8,0:0:0:0:
76,148,127032,1,0,0:0:0:0:
76,148,127126,1,0,0:0:0:0:
76,148,127220,1,12,0:0:0:0:
76,148,127407,1,0,0:0:0:0:
76,148,127501,1,0,0:0:0:0:
76,148,127595,1,8,0:0:0:0:
144,59,127657,1,8,0:0:0:0:
144,59,127720,1,8,0:0:0:0:
76,148,127782,1,0,0:0:0:0:
76,148,127970,1,0,0:0:0:0:
76,148,128063,1,0,0:0:0:0:
76,148,128157,1,8,0:0:0:0:
155,69,128220,1,8,0:0:0:0:
155,69,128282,1,8,0:0:0:0:
155,69,128345,1,8,0:0:0:0:
190,92,128407,1,8,0:0:0:0:
190,92,128470,1,8,0:0:0:0:
128,84,128532,1,0,0:0:0:0:
197,51,128720,1,0,0:0:0:0:
202,67,128813,1,0,0:0:0:0:
200,98,128907,1,8,0:0:0:0:
200,98,129001,1,8,0:0:0:0:
200,97,129095,1,0,0:0:0:0:
182,65,129157,1,0,0:0:0:0:
182,65,129220,1,0,0:0:0:0:
194,72,129282,1,8,0:0:0:0:
192,76,129376,1,0,0:0:0:0:
192,81,129470,1,8,0:0:0:0:
192,81,129563,1,0,0:0:0:0:
192,81,129657,1,8,0:0:0:0:
214,75,129720,1,8,0:0:0:0:
214,75,129782,1,8,0:0:0:0:
214,75,129845,1,0,0:0:0:0:
186,69,129938,1,0,0:0:0:0:
171,60,130032,1,8,0:0:0:0:
171,60,130095,1,8,0:0:0:0:
171,60,130157,1,8,0:0:0:0:
186,46,130220,1,0,0:0:0:0:
186,46,130407,1,8,0:0:0:0:
201,46,130501,1,0,0:0:0:0:
186,46,130595,1,8,0:0:0:0:
201,46,130782,1,8,0:0:0:0:
201,46,130876,1,0,0:0:0:0:
201,46,130970,1,8,0:0:0:0:
210,73,131032,1,8,0:0:0:0:
210,73,131095,1,8,0:0:0:0:
210,73,131157,1,0,0:0:0:0:
214,65,131220,1,0,0:0:0:0:
210,73,131282,1,0,0:0:0:0:
210,73,131345,1,8,0:0:0:0:
214,65,131532,1,8,0:0:0:0:
214,65,131720,1,0,0:0:0:0:
225,85,131907,1,8,0:0:0:0:
225,85,132001,1,0,0:0:0:0:
225,85,132095,1,8,0:0:0:0:
251,54,132188,1,8,0:0:0:0:
251,54,132282,1,0,0:0:0:0:
253,48,132376,1,0,0:0:0:0:
251,54,132470,1,8,0:0:0:0:
251,54,132563,1,8,0:0:0:0:
253,48,132657,1,0,0:0:0:0:
253,48,132845,1,4,0:0:0:0:
253,48,133032,1,4,0:0:0:0:
253,48,133220,1,12,0:0:0:0:
253,48,133407,1,8,0:0:0:0:
253,48,133501,1,8,0:0:0:0:
253,48,133595,1,0,0:0:0:0:
253,48,133782,1,8,0:0:0:0:
253,48,133876,1,8,0:0:0:0:
253,48,133970,1,0,0:0:0:0:
146,95,134063,1,8,0:0:0:0:
253,48,134157,1,0,0:0:0:0:
253,48,134251,1,0,0:0:0:0:
253,48,134345,1,8,0:0:0:0:
253,48,134532,1,8,0:0:0:0:
253,48,134626,1,0,0:0:0:0:
253,48,134720,1,8,0:0:0:0:
18,137,134813,1,8,0:0:0:0:
253,48,134907,1,0,0:0:0:0:
253,48,135001,1,0,0:0:0:0:
253,48,135095,1,8,0:0:0:0:
136,126,135282,1,8,0:0:0:0:
136,126,135376,1,8,0:0:0:0:
136,126,135470,1,0,0:0:0:0:
136,126,135563,1,0,0:0:0:0:
153,67,135657,1,8,0:0:0:0:
153,67,135720,1,8,0:0:0:0:
149,62,135782,1,8,0:0:0:0:
153,67,135845,1,0,0:0:0:0:
169,47,135938,1,0,0:0:0:0:
169,52,136032,1,8,0:0:0:0:
169,52,136095,1,8,0:0:0:0:
169,52,136157,1,8,0:0:0:0:
180,42,136220,1,0,0:0:0:0:
169,49,136407,1,0,0:0:0:0:
169,49,136501,1,0,0:0:0:0:
169,49,136595,1,8,0:0:0:0:
216,92,136782,1,8,0:0:0:0:
215,71,136876,1,0,0:0:0:0:
216,92,136970,1,8,0:0:0:0:
216,92,137063,1,8,0:0:0:0:
216,92,137157,1,0,0:0:0:0:
200,72,137251,1,0,0:0:0:0:
216,92,137345,1,8,0:0:0:0:
150,68,137407,1,8,0:0:0:0:
144,71,137470,1,8,0:0:0:0:
140,73,137532,1,0,0:0:0:0:
137,99,137626,1,0,0:0:0:0:
146,48,137720,1,8,0:0:0:0:
202,49,137813,1,8,0:0:0:0:
189,10,137907,1,0,0:0:0:0:
202,49,138001,1,0,0:0:0:0:
202,49,138095,1,8,0:0:0:0:
137,125,138282,1,8,0:0:0:0:
184,58,138470,1,0,0:0:0:0:
180,60,138563,1,8,0:0:0:0:
171,76,138657,1,8,0:0:0:0:
188,45,138751,1,0,0:0:0:0:
185,49,138845,1,8,0:0:0:0:
188,45,138938,1,0,0:0:0:0:
185,49,139032,1,8,0:0:0:0:
188,45,139126,1,8,0:0:0:0:
188,45,139220,1,4,0:0:0:0:
188,45,139407,1,8,0:0:0:0:
188,45,139501,1,0,0:0:0:0:
188,45,139595,1,8,0:0:0:0:
185,72,139657,1,8,0:0:0:0:
183,78,139720,1,8,0:0:0:0:
182,79,139782,1,0,0:0:0:0:
194,69,139876,1,0,0:0:0:0:
204,74,139970,1,8,0:0:0:0:
194,69,140063,1,0,0:0:0:0:
194,69,140157,1,8,0:0:0:0:
178,74,140220,1,8,0:0:0:0:
178,74,140282,1,8,0:0:0:0:
178,74,140345,1,0,0:0:0:0:
213,80,140438,1,0,0:0:0:0:
213,80,140532,1,8,0:0:0:0:
213,80,140626,1,8,0:0:0:0:
213,80,140720,1,0,0:0:0:0:
213,80,140907,1,8,0:0:0:0:
213,80,141001,1,0,0:0:0:0:
213,80,141095,1,8,0:0:0:0:
157,79,141157,1,8,0:0:0:0:
207,103,141220,1,8,0:0:0:0:
207,103,141282,1,0,0:0:0:0:
207,103,141376,1,8,0:0:0:0:
227,57,141563,1,8,0:0:0:0:
223,62,141657,1,0,0:0:0:0:
209,69,141720,1,0,0:0:0:0:
209,69,141782,1,0,0:0:0:0:
223,62,141845,1,8,0:0:0:0:
178,39,141938,1,8,0:0:0:0:
144,72,142032,1,0,0:0:0:0:
84,145,142126,1,0,0:0:0:0:
198,117,142220,1,12,0:0:0:0:
198,114,142407,1,0,0:0:0:0:
198,114,142595,1,8,0:0:0:0:
178,39,142782,1,0,0:0:0:0:
178,39,142876,1,8,0:0:0:0:
178,39,142970,1,0,0:0:0:0:
182,23,143063,1,0,0:0:0:0:
178,39,143157,1,8,0:0:0:0:
178,39,143345,1,8,0:0:0:0:
176,84,143438,1,8,0:0:0:0:
178,39,143532,1,8,0:0:0:0:
182,23,143626,1,8,0:0:0:0:
178,39,143720,1,4,0:0:0:0:
182,23,143907,1,0,0:0:0:0:
182,23,144001,1,0,0:0:0:0:
182,23,144095,1,8,0:0:0:0:
182,23,144282,1,4,0:0:0:0:
182,23,144657,1,8,0:0:0:0:
182,23,144845,1,4,0:0:0:0:
182,23,145032,1,4,0:0:0:0:
