osu file format v14

[General]
AudioFilename: audio.ogg
AudioLeadIn: 0
PreviewTime: 97167
Countdown: 0
SampleSet: Normal
StackLeniency: 0.7
Mode: 1
LetterboxInBreaks: 0
WidescreenStoryboard: 1

[Editor]
DistanceSpacing: 2.2
BeatDivisor: 8
GridSize: 32
TimelineZoom: 2.6

[Metadata]
Title:Marunouchi Amenpunk
TitleUnicode:Marunouchi Amenpunk
Artist:Fukenkou Seijin
ArtistUnicode:不健康成人
Creator:Quorum
Version:Futsuu
Source:
Tags:electronic japanese shiina sheena ringo 椎名林檎 sadistic 丸の内サディスティック muzai innocence moratorium 無罪モラトリアム amen punk remix
BeatmapID:4493908
BeatmapSetID:2135393

[Difficulty]
HPDrainRate:7
CircleSize:5
OverallDifficulty:4
ApproachRate:5
SliderMultiplier:1.4
SliderTickRate:1

[Events]
//Background and Video events
0,0,"6748245.jpg",0,-70
//Break Periods
//Storyboard Layer 0 (Background)
//Storyboard Layer 1 (Fail)
//Storyboard Layer 2 (Pass)
//Storyboard Layer 3 (Foreground)
//Storyboard Layer 4 (Overlay)
//Storyboard Sound Samples

[TimingPoints]
95,375,4,1,0,70,1,8
1220,375,4,1,0,70,1,0
5345,-100,4,1,0,70,0,0
89720,-100,4,1,0,40,0,0
90090,-100,4,1,0,42,0,0
90465,-100,4,1,0,44,0,0
90840,-100,4,1,0,46,0,0
91215,-100,4,1,0,48,0,0
91590,-100,4,1,0,50,0,0
91965,-100,4,1,0,52,0,0
92340,-100,4,1,0,54,0,0
92715,-100,4,1,0,56,0,0
93090,-100,4,1,0,58,0,0
93465,-100,4,1,0,60,0,0
93840,-100,4,1,0,62,0,0
94215,-100,4,1,0,64,0,0
94590,-100,4,1,0,66,0,0
95340,-100,4,1,0,68,0,0
95720,-100,4,1,0,70,0,0
97220,-100,4,1,0,70,0,1
121220,-100,4,1,0,70,0,0
142220,-100,4,1,0,70,0,0
142590,-100,4,1,0,67,0,0
142965,-100,4,1,0,63,0,0
143340,-100,4,1,0,60,0,0
143715,-100,4,1,0,57,0,0
144090,-100,4,1,0,53,0,0
144277,-100,4,1,0,50,0,0
144652,-100,4,1,0,47,0,0
144840,-100,4,1,0,43,0,0
145032,-100,4,1,0,40,0,0

[HitObjects]
196,141,95,5,8,0:0:0:0:
239,115,470,1,0,0:0:0:0:
239,115,657,1,0,0:0:0:0:
239,115,845,1,8,0:0:0:0:
239,115,1220,1,0,0:0:0:0:
114,133,1595,1,8,0:0:0:0:
114,133,1970,1,0,0:0:0:0:
142,109,2157,1,0,0:0:0:0:
142,109,2345,1,8,0:0:0:0:
142,109,2720,1,0,0:0:0:0:
142,109,3095,1,8,0:0:0:0:
142,109,3470,1,0,0:0:0:0:
179,60,3657,1,0,0:0:0:0:
142,109,3845,1,8,0:0:0:0:
142,109,4220,1,8,0:0:0:0:
178,48,4595,1,0,0:0:0:0:
187,113,5345,1,0,0:0:0:0:
187,116,5720,1,12,0:0:0:0:
187,113,6095,1,8,0:0:0:0:
131,103,6470,1,8,0:0:0:0:
204,55,6657,1,0,0:0:0:0:
204,55,6845,1,8,0:0:0:0:
204,55,7220,1,0,0:0:0:0:
218,38,7595,1,8,0:0:0:0:
206,36,7970,1,8,0:0:0:0:
206,36,8157,1,0,0:0:0:0:
206,36,8345,1,8,0:0:0:0:
233,5,8720,1,0,0:0:0:0:
194,68,9095,1,8,0:0:0:0:
194,68,9470,1,0,0:0:0:0:
194,68,9657,1,0,0:0:0:0:
194,68,9845,1,8,0:0:0:0:
108,128,10220,1,8,0:0:0:0:
165,85,10595,1,8,0:0:0:0:
165,85,10970,1,0,0:0:0:0:
104,141,11157,1,8,0:0:0:0:
140,70,11345,1,0,0:0:0:0:
140,70,11720,1,12,0:0:0:0:
142,64,12095,1,8,0:0:0:0:
142,64,12282,1,8,0:0:0:0:
142,64,12470,1,0,0:0:0:0:
170,84,12845,1,8,0:0:0:0:
170,84,13032,1,8,0:0:0:0:
170,84,13220,1,0,0:0:0:0:
170,84,13595,1,8,0:0:0:0:
170,84,13970,1,0,0:0:0:0:
156,46,14157,1,8,0:0:0:0:
170,84,14345,1,8,0:0:0:0:
101,124,14532,1,8,0:0:0:0:
170,84,14720,1,0,0:0:0:0:
170,84,15095,1,8,0:0:0:0:
170,84,15470,1,0,0:0:0:0:
170,84,15845,1,8,0:0:0:0:
170,84,16032,1,0,0:0:0:0:
170,84,16220,1,0,0:0:0:0:
170,84,16595,1,8,0:0:0:0:
210,106,16970,1,0,0:0:0:0:
90,160,17157,1,0,0:0:0:0:
179,71,17345,1,8,0:0:0:0:
179,71,17720,1,12,0:0:0:0:
183,93,18470,1,0,0:0:0:0:
183,93,18845,1,8,0:0:0:0:
183,93,19032,1,8,0:0:0:0:
183,93,19220,1,0,0:0:0:0:
183,93,19595,1,8,0:0:0:0:
201,83,19970,1,0,0:0:0:0:
154,113,20157,5,0,0:0:0:0:
201,83,20345,1,8,0:0:0:0:
203,69,20532,1,8,0:0:0:0:
203,69,20720,1,0,0:0:0:0:
224,59,21470,1,0,0:0:0:0:
224,59,21845,1,8,0:0:0:0:
125,70,22032,1,8,0:0:0:0:
125,70,22220,1,0,0:0:0:0:
166,83,22407,1,0,0:0:0:0:
166,83,22595,1,8,0:0:0:0:
183,85,22970,1,0,0:0:0:0:
186,72,23345,1,8,0:0:0:0:
186,72,23532,1,0,0:0:0:0:
186,72,23720,1,12,0:0:0:0:
129,89,24095,1,0,0:0:0:0:
183,69,24470,1,8,0:0:0:0:
73,128,24845,1,0,0:0:0:0:
179,95,25032,1,8,0:0:0:0:
176,89,25220,1,0,0:0:0:0:
176,89,25595,1,8,0:0:0:0:
181,68,25970,1,0,0:0:0:0:
182,67,26157,1,0,0:0:0:0:
182,67,26345,1,8,0:0:0:0:
191,37,26720,1,0,0:0:0:0:
191,37,27095,1,8,0:0:0:0:
132,104,27282,1,8,0:0:0:0:
191,37,27470,1,0,0:0:0:0:
188,21,27845,1,8,0:0:0:0:
191,37,28220,1,0,0:0:0:0:
221,105,28970,1,8,0:0:0:0:
221,105,29157,1,8,0:0:0:0:
221,105,29345,1,0,0:0:0:0:
221,105,29532,1,0,0:0:0:0:
221,105,29720,1,12,0:0:0:0:
221,105,30095,1,0,0:0:0:0:
221,105,30470,1,8,0:0:0:0:
195,74,30845,1,0,0:0:0:0:
183,84,31032,1,8,0:0:0:0:
159,70,31220,1,0,0:0:0:0:
208,45,31595,1,0,0:0:0:0:
208,45,31782,1,8,0:0:0:0:
208,45,31970,1,8,0:0:0:0:
165,67,32345,1,0,0:0:0:0:
119,150,32720,1,0,0:0:0:0:
177,127,32907,1,8,0:0:0:0:
177,127,33095,1,8,0:0:0:0:
177,127,33282,1,0,0:0:0:0:
177,127,33470,1,8,0:0:0:0:
187,78,33845,1,0,0:0:0:0:
173,103,34220,1,8,0:0:0:0:
189,108,34595,1,0,0:0:0:0:
137,73,34782,1,0,0:0:0:0:
147,92,34970,1,8,0:0:0:0:
164,97,35720,1,12,0:0:0:0:
179,76,36095,1,8,0:0:0:0:
191,71,36282,1,8,0:0:0:0:
191,71,36470,1,0,0:0:0:0:
191,71,36845,1,0,0:0:0:0:
191,71,37032,1,8,0:0:0:0:
191,71,37220,1,8,0:0:0:0:
200,74,37595,1,8,0:0:0:0:
200,74,37782,1,0,0:0:0:0:
188,100,37970,1,0,0:0:0:0:
137,118,38345,1,0,0:0:0:0:
188,100,38720,1,0,0:0:0:0:
188,100,38907,1,8,0:0:0:0:
188,100,39095,1,8,0:0:0:0:
188,100,39282,1,0,0:0:0:0:
195,88,39470,1,8,0:0:0:0:
146,93,39845,1,0,0:0:0:0:
180,15,40032,1,0,0:0:0:0:
195,88,40220,1,8,0:0:0:0:
219,60,40595,1,0,0:0:0:0:
156,88,40970,1,8,0:0:0:0:
182,89,41720,1,12,0:0:0:0:
177,97,42095,1,0,0:0:0:0:
178,95,42470,1,8,0:0:0:0:
178,95,42657,1,0,0:0:0:0:
178,95,42845,1,0,0:0:0:0:
139,139,43220,1,8,0:0:0:0:
139,139,43595,1,8,0:0:0:0:
145,110,43970,1,8,0:0:0:0:
145,105,44157,1,8,0:0:0:0:
145,105,44345,1,0,0:0:0:0:
145,92,44720,1,4,0:0:0:0:
145,90,45095,1,8,0:0:0:0:
149,115,45282,1,4,0:0:0:0:
133,90,45657,1,8,0:0:0:0:
194,98,45845,1,4,0:0:0:0:
169,52,46032,1,4,0:0:0:0:
211,68,46220,1,4,0:0:0:0:
167,100,46595,1,0,0:0:0:0:
82,153,46782,1,0,0:0:0:0:
230,64,46970,1,8,0:0:0:0:
218,74,47157,1,8,0:0:0:0:
203,71,47345,1,0,0:0:0:0:
204,70,47720,1,12,0:0:0:0:
65,137,48282,1,0,0:0:0:0:
204,70,48845,1,8,0:0:0:0:
210,74,49032,1,0,0:0:0:0:
210,74,49220,1,0,0:0:0:0:
72,149,49595,1,8,0:0:0:0:
72,149,49782,1,0,0:0:0:0:
167,58,50157,1,0,0:0:0:0:
167,58,50345,1,8,0:0:0:0:
167,58,50532,1,8,0:0:0:0:
167,58,50720,1,0,0:0:0:0:
167,58,51095,1,8,0:0:0:0:
77,96,51282,1,0,0:0:0:0:
149,79,51657,1,0,0:0:0:0:
168,106,51845,1,8,0:0:0:0:
175,109,52032,1,8,0:0:0:0:
177,110,52220,1,0,0:0:0:0:
177,110,52595,1,0,0:0:0:0:
117,97,52782,1,8,0:0:0:0:
117,97,52970,1,0,0:0:0:0:
160,36,53157,1,8,0:0:0:0:
160,36,53345,1,0,0:0:0:0:
160,36,53720,1,12,0:0:0:0:
199,79,54095,1,8,0:0:0:0:
199,79,54282,1,8,0:0:0:0:
199,78,54470,1,0,0:0:0:0:
204,69,54845,1,8,0:0:0:0:
214,83,55032,1,0,0:0:0:0:
193,59,55220,1,0,0:0:0:0:
205,101,55970,1,0,0:0:0:0:
205,100,56345,1,0,0:0:0:0:
211,80,56532,1,8,0:0:0:0:
208,77,56720,1,8,0:0:0:0:
117,107,57095,1,0,0:0:0:0:
114,68,57282,1,0,0:0:0:0:
117,107,57470,1,8,0:0:0:0:
109,108,57845,1,8,0:0:0:0:
172,86,58032,1,0,0:0:0:0:
183,43,58220,1,8,0:0:0:0:
165,68,58970,1,8,0:0:0:0:
165,68,59345,1,0,0:0:0:0:
171,60,59720,1,12,0:0:0:0:
171,60,60095,1,8,0:0:0:0:
164,66,60282,1,0,0:0:0:0:
164,66,60470,1,8,0:0:0:0:
101,150,60845,1,0,0:0:0:0:
164,66,61032,1,8,0:0:0:0:
130,90,61407,1,0,0:0:0:0:
130,90,61595,1,8,0:0:0:0:
130,90,61782,1,8,0:0:0:0:
130,90,61970,1,0,0:0:0:0:
130,90,62345,1,8,0:0:0:0:
207,59,62532,1,8,0:0:0:0:
183,97,62720,1,0,0:0:0:0:
207,74,63095,1,8,0:0:0:0:
210,73,63470,1,0,0:0:0:0:
212,82,63657,1,0,0:0:0:0:
212,82,63845,1,8,0:0:0:0:
212,82,64032,1,8,0:0:0:0:
215,72,64220,1,0,0:0:0:0:
218,69,64970,1,8,0:0:0:0:
218,68,65157,1,8,0:0:0:0:
202,60,65345,1,0,0:0:0:0:
183,57,65532,1,0,0:0:0:0:
183,57,65720,1,12,0:0:0:0:
183,57,66095,1,8,0:0:0:0:
183,57,66470,1,0,0:0:0:0:
191,43,66657,1,8,0:0:0:0:
191,43,66845,1,0,0:0:0:0:
201,50,67220,1,8,0:0:0:0:
201,50,67407,1,8,0:0:0:0:
201,50,67595,1,0,0:0:0:0:
201,50,67970,1,0,0:0:0:0:
201,50,68157,1,8,0:0:0:0:
201,50,68345,1,0,0:0:0:0:
158,71,68720,1,0,0:0:0:0:
163,66,69095,1,8,0:0:0:0:
158,89,69470,1,0,0:0:0:0:
144,85,69845,1,8,0:0:0:0:
144,85,70032,1,0,0:0:0:0:
158,89,70220,1,8,0:0:0:0:
158,89,70595,1,0,0:0:0:0:
165,59,70782,1,0,0:0:0:0:
108,104,70970,1,8,0:0:0:0:
173,103,71720,1,12,0:0:0:0:
173,101,72095,1,8,0:0:0:0:
173,103,72282,1,0,0:0:0:0:
184,93,72470,1,0,0:0:0:0:
134,110,72845,1,0,0:0:0:0:
192,98,73032,1,8,0:0:0:0:
192,98,73220,1,8,0:0:0:0:
190,96,73595,1,8,0:0:0:0:
192,98,73782,1,0,0:0:0:0:
192,98,73970,1,8,0:0:0:0:
175,111,74345,1,0,0:0:0:0:
151,120,74720,1,8,0:0:0:0:
175,111,74907,1,8,0:0:0:0:
151,120,75095,1,0,0:0:0:0:
166,102,75282,1,0,0:0:0:0:
151,120,75470,1,8,0:0:0:0:
159,47,75845,1,8,0:0:0:0:
129,100,76032,1,0,0:0:0:0:
193,72,76220,1,8,0:0:0:0:
132,75,76595,1,0,0:0:0:0:
166,69,76970,1,8,0:0:0:0:
166,69,77157,1,0,0:0:0:0:
166,67,77532,1,0,0:0:0:0:
166,67,77720,1,12,0:0:0:0:
154,102,78095,1,8,0:0:0:0:
169,31,78282,1,0,0:0:0:0:
140,72,78470,1,8,0:0:0:0:
140,72,78845,1,8,0:0:0:0:
140,72,79032,1,8,0:0:0:0:
140,72,79220,1,0,0:0:0:0:
140,72,79595,1,0,0:0:0:0:
174,40,79782,1,8,0:0:0:0:
158,43,79970,1,0,0:0:0:0:
158,43,80345,1,8,0:0:0:0:
158,43,80532,1,8,0:0:0:0:
158,43,80720,1,0,0:0:0:0:
158,43,81095,1,8,0:0:0:0:
142,62,81470,1,0,0:0:0:0:
138,57,81845,1,8,0:0:0:0:
97,131,82220,1,8,0:0:0:0:
97,131,82595,1,0,0:0:0:0:
97,131,82782,1,8,0:0:0:0:
97,131,82970,1,8,0:0:0:0:
97,131,83345,1,8,0:0:0:0:
97,131,83532,1,0,0:0:0:0:
97,131,83720,1,12,0:0:0:0:
136,42,84470,1,0,0:0:0:0:
122,99,84657,1,0,0:0:0:0:
130,81,84845,1,8,0:0:0:0:
162,79,85220,1,0,0:0:0:0:
162,79,85595,1,8,0:0:0:0:
157,84,85782,1,0,0:0:0:0:
157,84,86157,1,0,0:0:0:0:
157,84,86345,1,8,0:0:0:0:
113,61,86532,1,8,0:0:0:0:
157,84,86720,1,0,0:0:0:0:
155,26,87095,1,8,0:0:0:0:
171,61,87282,1,8,0:0:0:0:
181,77,87470,1,0,0:0:0:0:
221,87,87657,1,0,0:0:0:0:
221,87,87845,1,8,0:0:0:0:
221,87,88220,1,0,0:0:0:0:
221,87,88595,1,8,0:0:0:0:
219,68,88970,1,0,0:0:0:0:
219,68,89345,1,8,0:0:0:0:
219,68,89720,1,0,0:0:0:0:
218,61,90470,1,0,0:0:0:0:
161,47,90845,1,8,0:0:0:0:
161,47,91220,1,0,0:0:0:0:
122,72,91970,1,8,0:0:0:0:
122,72,92345,1,8,0:0:0:0:
122,72,92720,1,0,0:0:0:0:
159,86,93470,1,8,0:0:0:0:
173,70,93845,1,8,0:0:0:0:
172,68,94220,1,0,0:0:0:0:
161,86,95345,1,0,0:0:0:0:
195,58,95720,1,12,0:0:0:0:
170,122,96282,1,12,0:0:0:0:
198,125,96657,1,8,0:0:0:0:
170,116,96845,1,8,0:0:0:0:
198,125,97032,1,0,0:0:0:0:
198,125,97220,1,12,0:0:0:0:
192,72,97595,1,0,0:0:0:0:
192,72,97782,1,8,0:0:0:0:
192,72,97970,1,0,0:0:0:0:
224,66,98345,1,0,0:0:0:0:
94,132,98532,1,8,0:0:0:0:
164,51,98720,1,8,0:0:0:0:
207,60,99095,1,0,0:0:0:0:
148,61,99282,1,8,0:0:0:0:
202,65,99470,1,0,0:0:0:0:
102,96,99845,1,0,0:0:0:0:
202,65,100220,1,8,0:0:0:0:
158,95,100407,1,0,0:0:0:0:
218,35,100595,1,8,0:0:0:0:
158,95,100782,1,8,0:0:0:0:
203,39,100970,1,0,0:0:0:0:
202,27,101345,1,8,0:0:0:0:
207,53,101532,1,0,0:0:0:0:
236,38,101720,1,8,0:0:0:0:
211,76,102095,1,0,0:0:0:0:
164,109,102282,1,0,0:0:0:0:
169,85,102470,1,8,0:0:0:0:
173,70,103220,1,12,0:0:0:0:
177,65,103595,1,8,0:0:0:0:
194,55,103782,1,8,0:0:0:0:
194,55,103970,1,0,0:0:0:0:
135,97,104345,1,0,0:0:0:0:
135,97,104532,1,8,0:0:0:0:
135,54,104720,1,8,0:0:0:0:
135,54,105095,1,0,0:0:0:0:
156,20,105282,1,8,0:0:0:0:
156,20,105470,1,0,0:0:0:0:
120,127,105845,1,0,0:0:0:0:
204,81,106220,1,8,0:0:0:0:
127,112,106407,1,8,0:0:0:0:
209,56,106595,1,0,0:0:0:0:
127,112,106782,1,0,0:0:0:0:
207,57,106970,1,8,0:0:0:0:
181,77,107345,1,8,0:0:0:0:
95,107,107532,1,0,0:0:0:0:
141,95,107720,1,8,0:0:0:0:
187,44,108095,1,8,0:0:0:0:
187,44,108282,1,8,0:0:0:0:
187,44,108470,1,0,0:0:0:0:
132,130,109220,1,12,0:0:0:0:
190,75,109595,1,0,0:0:0:0:
105,100,109782,1,8,0:0:0:0:
156,71,109970,1,0,0:0:0:0:
156,71,110345,1,0,0:0:0:0:
156,71,110532,1,8,0:0:0:0:
156,71,110720,1,8,0:0:0:0:
156,71,111095,1,0,0:0:0:0:
156,71,111282,1,8,0:0:0:0:
156,71,111470,1,8,0:0:0:0:
193,99,111845,1,0,0:0:0:0:
156,71,112220,1,8,0:0:0:0:
142,77,112407,1,8,0:0:0:0:
141,99,112595,1,0,0:0:0:0:
143,71,112782,1,8,0:0:0:0:
150,87,112970,1,8,0:0:0:0:
158,56,113345,1,8,0:0:0:0:
66,137,113532,1,0,0:0:0:0:
159,70,113720,1,8,0:0:0:0:
159,92,114095,1,0,0:0:0:0:
190,70,114282,1,0,0:0:0:0:
159,92,114470,1,8,0:0:0:0:
136,97,115220,1,12,0:0:0:0:
163,88,115595,1,8,0:0:0:0:
129,102,115782,1,0,0:0:0:0:
207,60,115970,1,0,0:0:0:0:
205,73,116345,1,0,0:0:0:0:
183,100,116532,1,8,0:0:0:0:
183,100,116720,1,8,0:0:0:0:
195,74,117095,1,8,0:0:0:0:
196,74,117282,1,0,0:0:0:0:
195,74,117470,1,8,0:0:0:0:
115,110,117845,1,0,0:0:0:0:
196,74,118220,1,8,0:0:0:0:
161,63,118407,1,8,0:0:0:0:
104,150,118595,1,0,0:0:0:0:
161,63,118782,1,8,0:0:0:0:
114,143,118970,1,0,0:0:0:0:
189,117,119345,1,8,0:0:0:0:
49,146,119532,1,0,0:0:0:0:
193,115,119720,1,8,0:0:0:0:
192,104,120095,1,8,0:0:0:0:
213,84,120282,1,0,0:0:0:0:
213,84,120470,1,8,0:0:0:0:
213,84,120657,1,8,0:0:0:0:
213,84,121032,1,0,0:0:0:0:
213,84,121220,1,12,0:0:0:0:
213,84,121595,1,8,0:0:0:0:
159,124,121970,1,0,0:0:0:0:
159,124,122345,1,8,0:0:0:0:
151,106,122532,1,8,0:0:0:0:
151,106,122720,1,0,0:0:0:0:
151,106,123095,1,8,0:0:0:0:
151,106,123470,1,8,0:0:0:0:
136,96,123657,1,8,0:0:0:0:
136,96,123845,1,0,0:0:0:0:
136,96,124032,1,8,0:0:0:0:
136,96,124220,1,0,0:0:0:0:
136,94,124595,1,0,0:0:0:0:
99,123,124782,1,8,0:0:0:0:
136,96,124970,1,0,0:0:0:0:
136,94,125157,1,8,0:0:0:0:
161,51,125345,1,8,0:0:0:0:
136,96,125720,1,8,0:0:0:0:
136,94,126095,1,8,0:0:0:0:
136,94,126282,1,0,0:0:0:0:
136,94,126470,1,8,0:0:0:0:
76,148,126657,1,8,0:0:0:0:
76,148,126845,1,0,0:0:0:0:
76,148,127032,1,0,0:0:0:0:
76,148,127220,1,12,0:0:0:0:
76,148,127782,1,8,0:0:0:0:
190,92,128345,1,8,0:0:0:0:
128,84,128532,1,0,0:0:0:0:
197,51,128720,1,8,0:0:0:0:
194,72,129282,1,0,0:0:0:0:
214,75,129845,1,8,0:0:0:0:
168,50,130032,1,0,0:0:0:0:
186,46,130220,1,12,0:0:0:0:
201,46,130970,1,0,0:0:0:0:
210,73,131345,1,8,0:0:0:0:
214,65,131532,1,8,0:0:0:0:
214,65,131720,1,0,0:0:0:0:
225,85,132095,1,8,0:0:0:0:
251,54,132282,1,0,0:0:0:0:
253,48,132845,1,4,0:0:0:0:
253,48,133032,1,4,0:0:0:0:
253,48,133220,1,12,0:0:0:0:
253,48,133595,1,0,0:0:0:0:
253,48,133970,1,8,0:0:0:0:
253,48,134345,1,0,0:0:0:0:
253,48,134532,1,0,0:0:0:0:
253,48,134720,1,8,0:0:0:0:
253,48,135095,1,8,0:0:0:0:
136,126,135282,1,8,0:0:0:0:
136,126,135470,1,0,0:0:0:0:
137,34,135657,1,8,0:0:0:0:
153,67,135845,1,0,0:0:0:0:
169,49,136595,1,8,0:0:0:0:
216,92,136970,1,8,0:0:0:0:
216,92,137157,1,0,0:0:0:0:
216,92,137345,1,8,0:0:0:0:
137,99,137720,1,8,0:0:0:0:
189,10,137907,1,8,0:0:0:0:
202,49,138095,1,8,0:0:0:0:
184,58,138470,1,0,0:0:0:0:
185,49,138845,1,8,0:0:0:0:
185,49,139032,1,0,0:0:0:0:
188,45,139220,1,12,0:0:0:0:
188,45,139595,1,0,0:0:0:0:
204,74,139970,1,8,0:0:0:0:
178,74,140345,1,0,0:0:0:0:
213,80,140720,1,8,0:0:0:0:
213,80,140907,1,8,0:0:0:0:
213,80,141095,1,0,0:0:0:0:
207,103,141282,1,0,0:0:0:0:
207,103,141470,1,8,0:0:0:0:
223,62,141845,1,0,0:0:0:0:
178,39,142032,1,0,0:0:0:0:
198,117,142220,1,12,0:0:0:0:
198,114,142595,1,8,0:0:0:0:
178,39,142970,1,0,0:0:0:0:
178,39,143345,1,8,0:0:0:0:
178,39,143720,1,4,0:0:0:0:
182,23,144095,1,8,0:0:0:0:
182,23,144282,1,4,0:0:0:0:
182,23,144657,1,8,0:0:0:0:
182,23,144845,1,4,0:0:0:0:
182,23,145032,1,4,0:0:0:0:
