osu file format v14

[General]
AudioFilename: audio.mp3
AudioLeadIn: 0
PreviewTime: 54181
Countdown: 0
SampleSet: Normal
StackLeniency: 0.5
Mode: 0
LetterboxInBreaks: 0
WidescreenStoryboard: 0

[Editor]
DistanceSpacing: 0.1
BeatDivisor: 4
GridSize: 4
TimelineZoom: 2.2

[Metadata]
Title:Sayonara Lechenaultia
TitleUnicode:Sayonara Lechenaultia
Artist:FujuniseikouyuuP
ArtistUnicode:FujuniseikouyuuP
Creator:Duck Wings
Version:Jumpnara!
Source:
Tags:
BeatmapID:1931242
BeatmapSetID:924610

[Difficulty]
HPDrainRate:5
CircleSize:4
OverallDifficulty:8
ApproachRate:9.5
SliderMultiplier:2.3
SliderTickRate:1

[Events]
//Background and Video events
//Break Periods
2,12535,14243
2,74074,83012
2,123304,127474
2,158381,164397
//Storyboard Layer 0 (Background)
//Storyboard Layer 1 (Fail)
//Storyboard Layer 2 (Pass)
//Storyboard Layer 3 (Foreground)
//Storyboard Sound Samples

[TimingPoints]
28,307.692307692308,4,1,0,80,1,0
54181,-100,4,1,0,80,0,1
73874,-100,4,1,0,80,0,0
103412,-100,4,1,0,80,0,1
123104,-100,4,1,0,80,0,0
147720,-142.857142857143,4,1,0,80,0,0
152181,-100,4,1,0,80,0,0
167412,-100,4,1,0,80,0,1
185874,-100,4,1,0,80,0,0

[HitObjects]
268,159,4335,6,0,P|303:179|328:182,1,57.5
470,167,4489,2,0,P|435:147|410:144,1,57.5
343,50,4643,2,0,P|323:85|320:110,1,57.5
213,288,4797,1,0,0:0:0:0:
92,146,4951,6,0,B|84:117|84:62|84:62|128:57|173:76|193:138,1,230
70,378,5412,2,0,B|19:335|19:335|9:274|4:200|31:169,2,230
291,26,6335,1,0,0:0:0:0:
240,140,6489,1,0,0:0:0:0:
346,296,6643,2,0,B|333:273|333:273|321:318|340:346|396:372|427:335|453:320|446:266,1,230
507,170,7104,1,0,0:0:0:0:
386,46,7258,1,0,0:0:0:0:
250,237,7412,5,0,0:0:0:0:
387,156,7566,1,0,0:0:0:0:
224,200,7720,1,0,0:0:0:0:
257,351,7874,1,0,0:0:0:0:
311,98,8028,1,0,0:0:0:0:
462,146,8181,1,0,0:0:0:0:
387,290,8335,1,0,0:0:0:0:
224,200,8489,2,0,B|195:189|195:189|187:165|187:165|154:164|154:164|148:133|148:133|141:187|117:255|49:271|14:242|-12:206,1,345
175,269,9104,1,0,0:0:0:0:
415,226,9258,1,0,0:0:0:0:
327,119,9412,1,0,0:0:0:0:
256,264,9566,1,0,0:0:0:0:
434,333,9720,1,0,0:0:0:0:
472,154,9874,6,0,B|464:104|436:18|381:-9|381:-9|362:22|314:54|222:42|182:-1|182:-1|188:57|175:105|141:134|99:134|51:91|55:35|67:-2|100:2|131:26|131:26|139:257,2,920
387,311,14797,5,0,0:0:0:0:
292,293,14951,1,0,0:0:0:0:
421,238,15104,1,0,0:0:0:0:
421,238,15412,5,0,0:0:0:0:
292,293,15566,1,0,0:0:0:0:
387,311,15720,1,0,0:0:0:0:
412,125,15874,1,0,0:0:0:0:
292,293,16028,5,0,0:0:0:0:
197,275,16182,1,0,0:0:0:0:
326,220,16335,1,0,0:0:0:0:
197,275,16489,5,0,0:0:0:0:
102,257,16643,1,0,0:0:0:0:
231,202,16796,1,0,0:0:0:0:
102,257,16951,6,0,P|87:319|111:378,1,115
151,128,17258,5,0,0:0:0:0:
103,25,17412,1,0,0:0:0:0:
248,36,17566,1,0,0:0:0:0:
248,36,17874,5,0,0:0:0:0:
103,25,18028,1,0,0:0:0:0:
151,128,18181,1,0,0:0:0:0:
6,117,18335,1,0,0:0:0:0:
296,139,18489,5,0,0:0:0:0:
248,36,18643,1,0,0:0:0:0:
393,47,18797,1,0,0:0:0:0:
199,231,18951,5,0,0:0:0:0:
151,128,19105,1,0,0:0:0:0:
296,139,19259,1,0,0:0:0:0:
344,242,19412,5,0,0:0:0:0:
393,47,19566,1,0,0:0:0:0:
296,139,19720,5,0,0:0:0:0:
424,248,19874,1,0,0:0:0:0:
384,164,20028,1,0,0:0:0:0:
384,164,20335,5,0,0:0:0:0:
424,248,20489,1,0,0:0:0:0:
296,139,20643,1,0,0:0:0:0:
118,157,20797,1,0,0:0:0:0:
168,30,20951,5,0,0:0:0:0:
296,139,21105,1,0,0:0:0:0:
256,55,21259,1,0,0:0:0:0:
118,157,21412,5,0,0:0:0:0:
246,266,21566,1,0,0:0:0:0:
206,182,21720,1,0,0:0:0:0:
23,54,21874,6,0,P|14:101|50:169,1,115
88,298,22181,5,0,0:0:0:0:
209,287,22335,1,0,0:0:0:0:
287,330,22489,1,0,0:0:0:0:
287,330,22797,5,0,0:0:0:0:
209,287,22951,1,0,0:0:0:0:
88,298,23104,1,0,0:0:0:0:
191,205,23258,1,0,0:0:0:0:
70,216,23412,5,0,0:0:0:0:
191,205,23566,1,0,0:0:0:0:
269,248,23720,1,0,0:0:0:0:
88,298,23874,5,0,0:0:0:0:
209,287,24028,1,0,0:0:0:0:
287,330,24182,1,0,0:0:0:0:
191,205,24335,5,0,0:0:0:0:
417,36,24643,5,0,0:0:0:0:
445,140,24797,1,0,0:0:0:0:
329,203,24951,1,0,0:0:0:0:
329,203,25258,5,0,0:0:0:0:
445,140,25412,1,0,0:0:0:0:
417,36,25566,1,0,0:0:0:0:
288,17,25720,1,0,0:0:0:0:
329,203,25874,5,0,0:0:0:0:
445,140,26028,1,0,0:0:0:0:
417,36,26182,1,0,0:0:0:0:
329,203,26335,5,0,0:0:0:0:
445,140,26489,1,0,0:0:0:0:
417,36,26643,1,0,0:0:0:0:
198,86,26797,6,0,P|186:150|213:197,1,115
382,333,27104,5,0,0:0:0:0:
275,317,27258,1,0,0:0:0:0:
168,301,27412,1,0,0:0:0:0:
168,301,27720,5,0,0:0:0:0:
275,317,27874,1,0,0:0:0:0:
382,333,28028,1,0,0:0:0:0:
168,301,28181,1,0,0:0:0:0:
382,333,28335,5,0,0:0:0:0:
275,317,28489,1,0,0:0:0:0:
168,301,28643,1,0,0:0:0:0:
382,333,28797,5,0,0:0:0:0:
275,317,28951,1,0,0:0:0:0:
168,301,29105,1,0,0:0:0:0:
437,268,29258,5,0,0:0:0:0:
216,182,29412,1,0,0:0:0:0:
370,73,29566,5,0,0:0:0:0:
370,73,29720,1,0,0:0:0:0:
349,221,29874,1,0,0:0:0:0:
349,221,30181,5,0,0:0:0:0:
370,73,30335,1,0,0:0:0:0:
370,73,30489,1,0,0:0:0:0:
349,221,30643,1,0,0:0:0:0:
370,73,30797,5,0,0:0:0:0:
370,73,30951,1,0,0:0:0:0:
349,221,31105,1,0,0:0:0:0:
370,73,31258,5,0,0:0:0:0:
370,73,31412,1,0,0:0:0:0:
349,221,31566,1,0,0:0:0:0:
448,53,31720,6,0,P|441:111|437:124,1,57.5
299,108,31874,2,0,P|292:166|288:179,1,57.5
230,58,32028,5,0,0:0:0:0:
102,95,32181,1,0,0:0:0:0:
230,58,32335,1,0,0:0:0:0:
102,95,32489,1,0,0:0:0:0:
228,134,32643,5,0,0:0:0:0:
276,248,32797,1,0,0:0:0:0:
235,319,32951,1,0,0:0:0:0:
138,330,33104,1,0,0:0:0:0:
86,201,33258,1,0,0:0:0:0:
194,95,33412,1,0,0:0:0:0:
291,102,33566,1,0,0:0:0:0:
392,249,33720,1,0,0:0:0:0:
0,384,34028,2,0,P|-10:306|89:201,1,230
159,202,34412,2,0,P|208:215|224:222,1,57.5
426,68,34797,5,0,0:0:0:0:
318,364,35104,1,0,0:0:0:0:
270,294,35258,2,0,P|280:234|258:179,1,115
456,263,35566,2,0,P|408:320|258:276,1,230
348,170,36028,1,0,0:0:0:0:
293,91,36181,2,0,P|233:67|78:146,1,230
68,274,36643,1,0,0:0:0:0:
193,201,36797,1,0,0:0:0:0:
127,377,36951,6,0,B|140:333|168:293|168:293|246:292|310:330,1,230
394,375,37412,1,0,0:0:0:0:
227,24,37720,1,0,0:0:0:0:
260,177,37874,1,0,0:0:0:0:
357,57,38028,6,0,P|225:24|32:251,1,460
260,177,38951,1,0,0:0:0:0:
227,24,39104,2,0,L|212:217,1,172.5
265,270,39412,6,0,B|277:328|277:328|105:360,1,230
0,296,39874,2,0,B|182:262|182:262|208:218,1,230
185,109,40335,1,0,0:0:0:0:
47,35,40489,1,0,0:0:0:0:
262,148,40643,2,0,P|329:148|468:57,1,230
325,21,41104,1,0,0:0:0:0:
248,66,41258,2,0,P|183:63|129:33,1,115
410,11,41566,1,0,0:0:0:0:
262,148,41720,6,0,P|250:235|286:391,1,230
461,321,42181,1,0,0:0:0:0:
346,298,42335,1,0,0:0:0:0:
143,314,42489,2,0,L|29:335,1,115
235,363,42797,1,0,0:0:0:0:
317,191,42951,1,0,0:0:0:0:
150,112,43104,6,0,P|131:176|151:241,1,115
291,59,43412,1,0,0:0:0:0:
96,0,43566,2,0,P|98:83|222:177,1,230
81,0,44028,5,0,0:0:0:0:
81,0,44104,1,0,0:0:0:0:
81,0,44181,1,0,0:0:0:0:
81,0,44258,2,0,P|83:83|207:177,1,230
162,88,44643,6,0,P|86:162|88:283,1,230
460,348,45258,1,0,0:0:0:0:
314,330,45412,2,0,B|345:295|399:291|399:291|446:258|449:197|422:160,1,230
273,60,45874,1,0,0:0:0:0:
196,50,46028,2,0,P|222:121|390:183,1,230
273,60,46489,1,0,0:0:0:0:
91,91,46643,2,0,P|52:135|34:197,1,115
65,280,46951,5,0,0:0:0:0:
164,356,47104,1,0,0:0:0:0:
246,353,47258,1,0,0:0:0:0:
361,290,47412,1,0,0:0:0:0:
319,172,47566,1,0,0:0:0:0:
349,61,47720,1,0,0:0:0:0:
512,0,47874,6,0,P|507:74|419:220,2,230
76,130,48797,1,0,0:0:0:0:
39,207,48951,2,0,P|31:275|54:328,1,115
210,159,49258,6,0,L|158:404,2,230
499,68,50181,1,0,0:0:0:0:
434,14,50335,2,0,P|425:95|470:253,1,230
499,68,50797,1,0,0:0:0:0:
337,124,50951,5,0,0:0:0:0:
279,131,51028,1,0,0:0:0:0:
223,118,51104,1,0,0:0:0:0:
100,227,51258,5,0,0:0:0:0:
158,234,51335,1,0,0:0:0:0:
214,221,51411,1,0,0:0:0:0:
115,95,51566,5,0,0:0:0:0:
58,91,51643,1,0,0:0:0:0:
0,87,51720,2,0,P|19:155|-64:315,2,230
378,7,52643,2,0,L|332:117,1,115
361,374,52951,1,0,0:0:0:0:
326,222,53104,1,0,0:0:0:0:
257,181,53258,1,0,0:0:0:0:
135,180,53412,1,0,0:0:0:0:
47,307,53566,2,0,B|26:338|21:373|21:373|85:355|161:288,1,230
196,227,53951,2,0,P|200:193|192:161,1,57.5
434,5,54181,6,0,P|354:45|290:339,1,402.5
390,315,54797,2,0,L|37:70,1,402.5
17,159,55412,2,0,P|103:191|361:27,1,402.5
452,0,56028,1,0,0:0:0:0:
0,88,56335,1,0,0:0:0:0:
342,384,56643,5,0,0:0:0:0:
133,0,56951,1,0,0:0:0:0:
0,384,57258,1,0,0:0:0:0:
434,0,57566,1,0,0:0:0:0:
0,84,57874,1,0,0:0:0:0:
511,351,58181,1,0,0:0:0:0:
133,0,58489,1,0,0:0:0:0:
248,384,58797,1,0,0:0:0:0:
512,0,59104,5,0,0:0:0:0:
0,384,59412,1,0,0:0:0:0:
512,0,59720,1,0,0:0:0:0:
0,0,60028,1,0,0:0:0:0:
256,384,60335,1,0,0:0:0:0:
511,114,60643,1,0,0:0:0:0:
0,0,60951,1,0,0:0:0:0:
0,384,61258,1,0,0:0:0:0:
427,0,61566,1,0,0:0:0:0:
512,384,61874,1,0,0:0:0:0:
512,0,62181,1,0,0:0:0:0:
0,192,62489,1,0,0:0:0:0:
427,384,62797,2,0,P|437:312|275:85,1,345
184,57,63412,5,0,0:0:0:0:
0,301,63566,1,0,0:0:0:0:
32,168,63720,5,0,0:0:0:0:
87,182,63797,1,0,0:0:0:0:
141,162,63874,1,0,0:0:0:0:
171,113,63951,1,0,0:0:0:0:
184,57,64028,6,0,P|239:31|493:214,1,402.5
494,291,64643,2,0,L|71:351,1,402.5
191,370,65258,2,0,B|178:270|148:165|148:165|194:6|194:6|234:1,1,402.5
308,0,65874,1,0,0:0:0:0:
0,316,66181,1,0,0:0:0:0:
512,0,66489,5,0,0:0:0:0:
74,384,66797,1,0,0:0:0:0:
432,0,67104,1,0,0:0:0:0:
0,384,67412,1,0,0:0:0:0:
116,0,67720,5,0,0:0:0:0:
512,284,68028,1,0,0:0:0:0:
0,0,68335,1,0,0:0:0:0:
0,0,68412,1,0,0:0:0:0:
0,0,68489,1,0,0:0:0:0:
512,384,68643,1,0,0:0:0:0:
0,76,68951,5,0,0:0:0:0:
512,76,69258,1,0,0:0:0:0:
0,324,69566,1,0,0:0:0:0:
312,0,69874,1,0,0:0:0:0:
408,384,70181,1,0,0:0:0:0:
0,0,70489,1,0,0:0:0:0:
512,0,70797,1,0,0:0:0:0:
512,384,71104,1,0,0:0:0:0:
0,384,71412,1,0,0:0:0:0:
416,0,71720,1,0,0:0:0:0:
0,192,72028,1,0,0:0:0:0:
512,192,72335,1,0,0:0:0:0:
0,384,72643,5,0,0:0:0:0:
0,384,72720,1,0,0:0:0:0:
0,384,72797,1,0,0:0:0:0:
512,0,72951,1,0,0:0:0:0:
0,288,73258,5,0,0:0:0:0:
0,288,73335,1,0,0:0:0:0:
0,288,73412,1,0,0:0:0:0:
512,96,73566,1,0,0:0:0:0:
512,96,73643,1,0,0:0:0:0:
512,96,73720,1,0,0:0:0:0:
256,192,73874,5,0,0:0:0:0:
116,32,83566,6,0,P|104:104|132:152,1,115
277,292,83874,5,0,0:0:0:0:
347,232,84028,2,0,L|442:151,1,115
501,214,84335,1,0,0:0:0:0:
277,292,84489,2,0,L|141:268,1,115
112,333,84797,2,0,P|85:261|175:128,1,230
304,78,85258,2,0,B|9:45|9:45|62:88,1,345
155,136,85874,2,0,P|175:214|219:242,1,115
316,237,86181,6,0,P|373:185|383:20,1,230
474,42,86643,2,0,L|512:390,1,345
407,263,87258,2,0,B|401:227|401:227|367:248|356:305|368:353|368:353|286:350|243:292|251:223,1,345
256,167,87874,1,0,0:0:0:0:
145,72,88028,2,0,P|131:135|138:192,1,115
88,360,88335,2,0,L|74:231,1,115
256,167,88643,6,0,B|431:109|431:109|359:96,1,230
133,39,89104,2,0,B|104:31|104:31|153:105|153:105|99:224,1,230
203,311,89566,2,0,P|213:246|190:186,1,115
300,375,89874,2,0,P|400:351|286:237,1,345
512,0,90643,2,0,L|471:116,1,115
432,0,90951,5,0,0:0:0:0:
83,108,91258,1,0,0:0:0:0:
41,174,91412,2,0,P|113:194|181:177,1,115
282,120,91720,1,0,0:0:0:0:
368,122,91874,1,0,0:0:0:0:
468,222,92028,1,0,0:0:0:0:
439,340,92181,1,0,0:0:0:0:
359,368,92335,6,0,B|330:342|326:317|326:317|263:328|205:274|210:222,1,230
181,349,92797,2,0,B|111:328|-14:353|-14:353|10:373|51:373,1,230
174,337,93258,5,0,0:0:0:0:
174,337,93335,1,0,0:0:0:0:
174,337,93412,1,0,0:0:0:0:
173,336,93489,2,0,B|103:315|-21:340|-21:340|2:360|8:356,1,230
66,302,93874,6,0,P|53:246|60:189,1,115
192,27,94181,2,0,P|204:107|187:168,1,115
278,187,94489,1,0,0:0:0:0:
113,30,94643,2,0,P|172:56|342:30,1,230
438,157,95104,1,0,0:0:0:0:
509,120,95258,2,0,P|508:213|427:346,2,230
448,40,96028,5,0,0:0:0:0:
326,20,96181,1,0,0:0:0:0:
251,55,96335,1,0,0:0:0:0:
238,189,96489,1,0,0:0:0:0:
404,243,96643,1,0,0:0:0:0:
330,360,96797,1,0,0:0:0:0:
228,376,96951,1,0,0:0:0:0:
125,293,97104,6,0,P|99:224|152:68,1,230
224,89,97489,2,0,P|225:55|254:46,1,57.5
168,13,97643,1,0,0:0:0:0:
164,0,97720,1,0,0:0:0:0:
0,0,98028,5,0,0:0:0:0:
0,0,98104,1,0,0:0:0:0:
0,0,98181,1,0,0:0:0:0:
0,0,98258,1,0,0:0:0:0:
0,0,98335,1,0,0:0:0:0:
65,68,98489,6,0,L|254:251,2,230
409,320,99412,1,0,0:0:0:0:
346,369,99566,6,0,P|344:260|413:154,1,230
284,143,100028,1,0,0:0:0:0:
209,229,100181,5,0,0:0:0:0:
210,286,100258,1,0,0:0:0:0:
181,336,100335,1,0,0:0:0:0:
73,146,100489,5,0,0:0:0:0:
96,198,100566,1,0,0:0:0:0:
94,255,100643,5,0,0:0:0:0:
80,199,100720,1,0,0:0:0:0:
101,145,100797,1,0,0:0:0:0:
153,38,100951,6,0,P|206:-13|352:86,2,230
497,100,101874,1,0,0:0:0:0:
369,184,102028,1,0,0:0:0:0:
506,212,102181,2,0,P|503:277|461:328,1,115
369,184,102489,1,0,0:0:0:0:
497,100,102643,5,0,0:0:0:0:
433,142,102720,1,0,0:0:0:0:
369,184,102797,2,0,L|311:228,3,57.5
364,108,103104,1,0,0:0:0:0:
299,144,103181,2,0,L|321:82,1,57.5
512,24,103412,6,0,L|104:-20,1,402.5
44,44,104028,2,0,P|24:220|184:376,1,402.5
248,380,104643,2,0,L|552:88,1,402.5
512,0,105258,1,0,0:0:0:0:
168,384,105566,1,0,0:0:0:0:
0,0,105874,5,0,0:0:0:0:
87,384,106181,1,0,0:0:0:0:
0,0,106489,1,0,0:0:0:0:
87,384,106797,1,0,0:0:0:0:
512,240,107104,1,0,0:0:0:0:
0,148,107412,1,0,0:0:0:0:
386,0,107720,1,0,0:0:0:0:
512,384,108028,1,0,0:0:0:0:
0,384,108335,5,0,0:0:0:0:
512,384,108643,1,0,0:0:0:0:
0,384,108951,1,0,0:0:0:0:
512,384,109258,1,0,0:0:0:0:
0,192,109566,1,0,0:0:0:0:
400,384,109874,1,0,0:0:0:0:
400,0,110181,1,0,0:0:0:0:
0,384,110489,1,0,0:0:0:0:
512,0,110797,1,0,0:0:0:0:
0,96,111104,1,0,0:0:0:0:
512,288,111412,1,0,0:0:0:0:
0,384,111720,1,0,0:0:0:0:
432,64,112028,6,0,P|364:100|256:352,1,345
366,275,112643,5,0,0:0:0:0:
331,0,112797,1,0,0:0:0:0:
197,86,112951,5,0,0:0:0:0:
185,142,113028,1,0,0:0:0:0:
188,198,113104,1,0,0:0:0:0:
207,252,113181,1,0,0:0:0:0:
242,297,113258,6,0,P|368:314|534:118,1,402.5
464,54,113874,2,0,L|48:32,1,402.5
2,103,114489,2,0,L|305:386,1,402.5
404,384,115104,1,0,0:0:0:0:
0,384,115412,1,0,0:0:0:0:
404,0,115720,5,0,0:0:0:0:
404,384,116028,1,0,0:0:0:0:
224,0,116335,1,0,0:0:0:0:
224,384,116643,1,0,0:0:0:0:
0,0,116951,5,0,0:0:0:0:
0,384,117258,1,0,0:0:0:0:
512,0,117566,1,0,0:0:0:0:
512,0,117643,1,0,0:0:0:0:
512,0,117720,1,0,0:0:0:0:
512,384,117874,1,0,0:0:0:0:
72,0,118181,5,0,0:0:0:0:
512,0,118489,1,0,0:0:0:0:
512,384,118797,1,0,0:0:0:0:
0,384,119104,1,0,0:0:0:0:
440,384,119412,1,0,0:0:0:0:
0,384,119720,1,0,0:0:0:0:
0,0,120028,1,0,0:0:0:0:
512,0,120335,1,0,0:0:0:0:
0,192,120643,1,0,0:0:0:0:
512,80,120951,1,0,0:0:0:0:
0,384,121258,1,0,0:0:0:0:
376,0,121566,1,0,0:0:0:0:
288,384,121874,5,0,0:0:0:0:
288,384,121951,1,0,0:0:0:0:
288,384,122028,1,0,0:0:0:0:
288,0,122181,1,0,0:0:0:0:
512,192,122489,5,0,0:0:0:0:
512,192,122566,1,0,0:0:0:0:
512,192,122643,1,0,0:0:0:0:
0,192,122797,1,0,0:0:0:0:
0,192,122874,1,0,0:0:0:0:
0,192,122951,1,0,0:0:0:0:
256,192,123104,5,0,0:0:0:0:
486,133,128028,5,0,0:0:0:0:
486,133,128104,1,0,0:0:0:0:
486,133,128181,1,0,0:0:0:0:
486,133,128258,1,0,0:0:0:0:
486,133,128335,1,0,0:0:0:0:
486,133,128412,1,0,0:0:0:0:
486,133,128489,1,0,0:0:0:0:
486,133,128566,1,0,0:0:0:0:
486,133,128643,1,0,0:0:0:0:
100,308,129258,5,0,0:0:0:0:
100,308,129335,1,0,0:0:0:0:
100,308,129412,1,0,0:0:0:0:
100,308,129489,1,0,0:0:0:0:
100,308,129566,1,0,0:0:0:0:
100,308,129643,1,0,0:0:0:0:
100,308,129720,1,0,0:0:0:0:
100,308,129797,1,0,0:0:0:0:
100,308,129874,1,0,0:0:0:0:
56,58,130489,5,0,0:0:0:0:
81,134,130643,1,0,0:0:0:0:
143,50,130797,5,0,0:0:0:0:
161,156,130951,1,0,0:0:0:0:
225,50,131104,5,0,0:0:0:0:
233,195,131258,1,0,0:0:0:0:
305,53,131412,5,0,0:0:0:0:
296,246,131566,1,0,0:0:0:0:
91,350,131720,5,0,0:0:0:0:
345,309,131874,1,0,0:0:0:0:
64,280,132028,5,0,0:0:0:0:
296,246,132181,1,0,0:0:0:0:
29,213,132335,5,0,0:0:0:0:
233,195,132489,1,0,0:0:0:0:
404,259,132643,5,0,0:0:0:0:
453,228,132720,1,0,0:0:0:0:
480,177,132797,1,0,0:0:0:0:
482,119,132874,1,0,0:0:0:0:
503,110,132951,5,0,0:0:0:0:
503,110,133028,1,0,0:0:0:0:
503,110,133104,1,0,0:0:0:0:
503,110,133181,1,0,0:0:0:0:
503,110,133258,1,0,0:0:0:0:
503,110,133335,1,0,0:0:0:0:
503,110,133412,1,0,0:0:0:0:
503,110,133489,1,0,0:0:0:0:
503,110,133566,1,0,0:0:0:0:
503,110,133643,1,0,0:0:0:0:
503,110,133720,1,0,0:0:0:0:
503,110,133797,1,0,0:0:0:0:
503,110,133874,1,0,0:0:0:0:
231,113,134181,5,0,0:0:0:0:
231,113,134335,1,0,0:0:0:0:
157,60,134489,1,0,0:0:0:0:
299,161,134643,1,0,0:0:0:0:
143,177,134797,1,0,0:0:0:0:
321,47,134951,1,0,0:0:0:0:
231,113,135104,1,0,0:0:0:0:
11,224,135412,5,0,0:0:0:0:
11,224,135489,1,0,0:0:0:0:
11,224,135566,1,0,0:0:0:0:
11,224,135643,1,0,0:0:0:0:
11,224,135720,1,0,0:0:0:0:
11,224,135797,1,0,0:0:0:0:
11,224,135874,1,0,0:0:0:0:
11,224,135951,1,0,0:0:0:0:
11,224,136028,1,0,0:0:0:0:
11,224,136104,1,0,0:0:0:0:
11,224,136181,1,0,0:0:0:0:
11,224,136258,1,0,0:0:0:0:
11,224,136335,1,0,0:0:0:0:
11,224,136412,1,0,0:0:0:0:
11,224,136489,1,0,0:0:0:0:
11,224,136566,1,0,0:0:0:0:
96,266,136643,5,0,0:0:0:0:
96,266,136720,1,0,0:0:0:0:
96,266,136797,1,0,0:0:0:0:
96,266,136874,1,0,0:0:0:0:
96,266,136951,1,0,0:0:0:0:
96,266,137028,1,0,0:0:0:0:
96,266,137104,1,0,0:0:0:0:
96,266,137181,1,0,0:0:0:0:
183,301,137258,5,0,0:0:0:0:
183,301,137335,1,0,0:0:0:0:
183,301,137412,1,0,0:0:0:0:
183,301,137489,1,0,0:0:0:0:
183,301,137566,1,0,0:0:0:0:
183,301,137643,1,0,0:0:0:0:
183,301,137720,1,0,0:0:0:0:
183,301,137797,1,0,0:0:0:0:
246,309,137874,6,0,P|329:340|451:60,1,460
131,28,139104,5,0,0:0:0:0:
88,118,139258,1,0,0:0:0:0:
144,43,139412,1,0,0:0:0:0:
215,120,139566,2,0,B|268:131|302:109|302:109|343:80|417:88|463:143|482:199|472:268,1,345
304,383,140335,6,0,B|197:-19|197:-19|167:27,1,460
0,123,141258,2,0,P|26:193|70:218,1,115
139,290,141566,5,0,0:0:0:0:
337,198,141720,1,0,0:0:0:0:
165,301,141874,5,0,0:0:0:0:
367,132,142028,1,0,0:0:0:0:
191,312,142181,5,0,0:0:0:0:
397,66,142335,1,0,0:0:0:0:
217,323,142489,5,0,0:0:0:0:
427,0,142643,1,0,0:0:0:0:
490,310,142797,5,0,0:0:0:0:
50,56,143104,5,0,0:0:0:0:
84,132,143258,1,0,0:0:0:0:
228,186,143412,1,0,0:0:0:0:
296,131,143566,2,0,P|306:68|291:18,1,115
84,132,143874,2,0,L|111:364,2,230
296,131,144797,2,0,P|306:68|291:18,1,115
228,186,145104,6,0,P|316:237|467:220,1,230
482,63,145566,1,0,0:0:0:0:
482,63,145720,1,0,0:0:0:0:
390,147,145874,1,0,0:0:0:0:
441,231,146028,2,0,P|450:293|434:354,1,115
352,365,146335,2,0,B|217:389|141:255|16:285,1,345
275,12,147104,2,0,L|230:265,1,230
512,0,147720,6,0,L|283:275,1,321.99999017334
0,57,148643,1,0,0:0:0:0:
0,57,148951,2,0,L|336:13,1,321.99999017334
391,383,149874,1,0,0:0:0:0:
391,383,150181,2,0,L|532:89,1,321.99999017334
69,160,151104,1,0,0:0:0:0:
69,160,151412,2,0,B|166:153|166:153|-14:293,1,321.99999017334
175,153,152181,2,0,L|311:144,2,115
362,143,152643,6,0,B|458:138|458:138|316:255,1,230
187,339,153104,2,0,B|125:265|125:265|304:308,2,230
429,362,154028,1,0,0:0:0:0:
484,195,154181,1,0,0:0:0:0:
446,117,154335,2,0,B|401:175|396:209|405:265|411:287|411:287|381:300|364:318,1,230
307,89,154797,1,0,0:0:0:0:
224,230,154951,1,0,0:0:0:0:
206,175,155028,1,0,0:0:0:0:
172,129,155104,5,0,0:0:0:0:
82,225,155258,1,0,0:0:0:0:
82,225,155335,1,0,0:0:0:0:
82,225,155412,1,0,0:0:0:0:
161,49,155566,1,0,0:0:0:0:
161,49,155643,1,0,0:0:0:0:
161,49,155720,1,0,0:0:0:0:
208,299,155874,1,0,0:0:0:0:
208,299,155951,1,0,0:0:0:0:
208,299,156028,1,0,0:0:0:0:
299,36,156181,1,0,0:0:0:0:
299,36,156258,1,0,0:0:0:0:
299,36,156335,5,0,0:0:0:0:
333,344,156489,1,0,0:0:0:0:
397,246,156643,1,0,0:0:0:0:
42,174,156951,5,0,0:0:0:0:
42,174,157105,1,0,0:0:0:0:
42,174,157259,1,0,0:0:0:0:
42,174,157413,1,0,0:0:0:0:
0,240,157566,6,0,B|56:268|142:253|197:169|197:169|242:110|325:99|390:154|400:201,1,460
256,192,164951,12,0,167104,0:0:0:0:
255,192,167181,6,0,P|261:169|290:138,1,57.5
12,0,167412,6,0,P|87:126|86:386,1,402.5
202,372,168028,2,0,L|500:66,1,402.5
408,0,168643,2,0,L|519:385,1,402.5
440,384,169258,1,0,0:0:0:0:
0,68,169566,1,0,0:0:0:0:
512,0,169874,5,0,0:0:0:0:
0,160,170181,1,0,0:0:0:0:
512,384,170489,1,0,0:0:0:0:
416,0,170797,1,0,0:0:0:0:
0,384,171104,5,0,0:0:0:0:
0,0,171412,1,0,0:0:0:0:
512,288,171720,1,0,0:0:0:0:
512,288,171797,1,0,0:0:0:0:
512,288,171874,1,0,0:0:0:0:
0,288,172028,1,0,0:0:0:0:
512,0,172335,5,0,0:0:0:0:
360,384,172643,1,0,0:0:0:0:
152,0,172951,1,0,0:0:0:0:
0,384,173258,1,0,0:0:0:0:
512,0,173566,5,0,0:0:0:0:
0,384,173874,1,0,0:0:0:0:
152,0,174181,1,0,0:0:0:0:
512,384,174489,1,0,0:0:0:0:
512,0,174797,5,0,0:0:0:0:
0,0,175104,1,0,0:0:0:0:
512,0,175412,1,0,0:0:0:0:
0,0,175720,1,0,0:0:0:0:
512,192,176028,5,0,0:0:0:0:
512,192,176104,1,0,0:0:0:0:
512,192,176181,1,0,0:0:0:0:
0,192,176335,1,0,0:0:0:0:
0,192,176412,1,0,0:0:0:0:
0,192,176489,1,0,0:0:0:0:
512,384,176643,1,0,0:0:0:0:
512,384,176719,1,0,0:0:0:0:
512,384,176796,1,0,0:0:0:0:
0,384,176950,1,0,0:0:0:0:
0,384,177028,1,0,0:0:0:0:
0,384,177104,1,0,0:0:0:0:
0,0,177258,5,0,0:0:0:0:
376,384,177566,1,0,0:0:0:0:
512,0,177874,1,0,0:0:0:0:
0,384,178181,1,0,0:0:0:0:
256,0,178489,1,0,0:0:0:0:
512,384,178797,1,0,0:0:0:0:
0,120,179104,1,0,0:0:0:0:
512,120,179412,1,0,0:0:0:0:
56,384,179720,5,0,0:0:0:0:
60,0,180028,1,0,0:0:0:0:
512,384,180335,1,0,0:0:0:0:
512,0,180643,1,0,0:0:0:0:
0,0,180951,5,0,0:0:0:0:
0,0,181028,1,0,0:0:0:0:
0,0,181104,1,0,0:0:0:0:
0,384,181258,1,0,0:0:0:0:
512,384,181566,1,0,0:0:0:0:
512,384,181643,1,0,0:0:0:0:
512,384,181720,1,0,0:0:0:0:
512,0,181874,1,0,0:0:0:0:
256,0,182181,5,0,0:0:0:0:
256,0,182258,1,0,0:0:0:0:
256,0,182335,1,0,0:0:0:0:
256,384,182489,1,0,0:0:0:0:
256,384,182566,1,0,0:0:0:0:
256,384,182643,1,0,0:0:0:0:
512,192,182797,1,0,0:0:0:0:
512,192,182874,1,0,0:0:0:0:
512,192,182951,1,0,0:0:0:0:
0,192,183104,1,0,0:0:0:0:
0,192,183181,1,0,0:0:0:0:
0,192,183258,1,0,0:0:0:0:
0,384,183412,5,0,0:0:0:0:
0,384,183489,1,0,0:0:0:0:
0,384,183566,1,0,0:0:0:0:
128,0,183720,1,0,0:0:0:0:
128,0,183797,1,0,0:0:0:0:
128,0,183874,1,0,0:0:0:0:
256,384,184028,1,0,0:0:0:0:
256,384,184104,1,0,0:0:0:0:
256,384,184181,1,0,0:0:0:0:
384,0,184335,1,0,0:0:0:0:
384,0,184412,1,0,0:0:0:0:
384,0,184489,1,0,0:0:0:0:
512,384,184643,5,0,0:0:0:0:
512,384,184720,1,0,0:0:0:0:
512,384,184797,1,0,0:0:0:0:
0,288,184951,1,0,0:0:0:0:
0,288,185028,1,0,0:0:0:0:
0,288,185104,1,0,0:0:0:0:
512,192,185258,1,0,0:0:0:0:
512,192,185335,1,0,0:0:0:0:
512,192,185412,1,0,0:0:0:0:
0,96,185566,1,0,0:0:0:0:
0,96,185643,1,0,0:0:0:0:
0,96,185719,1,0,0:0:0:0:
512,0,185874,5,0,0:0:0:0:
256,192,186028,1,0,0:0:0:0:
0,0,186181,1,0,0:0:0:0:
256,192,186335,5,0,0:0:0:0:
256,0,186643,1,0,0:0:0:0:
256,384,186951,1,0,0:0:0:0:
384,384,187104,5,0,0:0:0:0:
384,384,187258,1,0,0:0:0:0:
512,384,187412,1,0,0:0:0:0:
512,384,187566,1,0,0:0:0:0:
512,262,187720,1,0,0:0:0:0:
512,262,187874,1,0,0:0:0:0:
512,122,188028,1,0,0:0:0:0:
512,122,188181,1,0,0:0:0:0:
512,0,188335,5,0,0:0:0:0:
512,0,188489,1,0,0:0:0:0:
384,0,188643,1,0,0:0:0:0:
384,0,188797,1,0,0:0:0:0:
256,0,188951,1,0,0:0:0:0:
256,0,189104,1,0,0:0:0:0:
128,0,189258,1,0,0:0:0:0:
128,0,189412,1,0,0:0:0:0:
77,76,189566,5,0,0:0:0:0:
77,76,189720,1,0,0:0:0:0:
195,80,189874,2,0,P|132:112|82:109,1,115
345,171,190181,1,0,0:0:0:0:
345,171,190335,1,0,0:0:0:0:
405,220,190489,2,0,P|434:142|428:85,1,115
295,260,190797,2,0,L|285:387,1,115
198,166,191104,2,0,L|208:293,1,115
393,353,191412,2,0,L|529:339,1,115
207,280,191720,1,0,0:0:0:0:
127,249,191874,1,0,0:0:0:0:
0,384,192028,5,0,0:0:0:0:
0,384,192182,1,0,0:0:0:0:
0,262,192335,1,0,0:0:0:0:
0,262,192489,1,0,0:0:0:0:
0,122,192643,1,0,0:0:0:0:
0,122,192797,1,0,0:0:0:0:
0,0,192951,1,0,0:0:0:0:
0,0,193105,1,0,0:0:0:0:
128,0,193258,5,0,0:0:0:0:
128,0,193412,1,0,0:0:0:0:
256,0,193566,1,0,0:0:0:0:
256,0,193720,1,0,0:0:0:0:
384,0,193874,1,0,0:0:0:0:
384,0,194028,1,0,0:0:0:0:
512,0,194182,1,0,0:0:0:0:
512,0,194335,1,0,0:0:0:0:
427,144,194489,5,0,0:0:0:0:
427,144,194643,1,0,0:0:0:0:
377,23,194797,2,0,L|401:145,1,115
231,38,195104,1,0,0:0:0:0:
155,7,195258,2,0,P|120:62|68:89,1,115
295,88,195566,1,0,0:0:0:0:
259,197,195720,1,0,0:0:0:0:
195,246,195874,2,0,L|174:115,1,115
334,161,196181,1,0,0:0:0:0:
420,176,196335,1,0,0:0:0:0:
402,258,196489,1,0,0:0:0:0:
505,141,196643,1,0,0:0:0:0:
487,223,196797,1,0,0:0:0:0:
512,0,196951,5,0,0:0:0:0:
512,0,197104,1,0,0:0:0:0:
384,0,197258,1,0,0:0:0:0:
384,0,197412,1,0,0:0:0:0:
256,0,197566,1,0,0:0:0:0:
256,0,197720,1,0,0:0:0:0:
128,0,197874,1,0,0:0:0:0:
128,0,198028,1,0,0:0:0:0:
0,0,198181,5,0,0:0:0:0:
0,0,198335,1,0,0:0:0:0:
0,122,198489,1,0,0:0:0:0:
0,122,198643,1,0,0:0:0:0:
0,262,198797,1,0,0:0:0:0:
0,262,198951,1,0,0:0:0:0:
0,384,199104,1,0,0:0:0:0:
0,384,199258,1,0,0:0:0:0:
218,278,199412,5,0,0:0:0:0:
102,220,199566,1,0,0:0:0:0:
145,360,199720,2,0,L|131:241,1,115
316,186,200028,1,0,0:0:0:0:
394,280,200181,1,0,0:0:0:0:
447,114,200335,2,0,L|433:-5,1,115
360,115,200643,1,0,0:0:0:0:
316,186,200797,1,0,0:0:0:0:
368,317,200951,1,0,0:0:0:0:
497,328,201104,1,0,0:0:0:0:
424,263,201258,2,0,P|362:243|297:252,1,115
242,341,201566,2,0,P|180:321|115:330,1,115
0,384,201874,5,0,0:0:0:0:
0,384,201951,1,0,0:0:0:0:
0,384,202028,1,0,0:0:0:0:
229,167,202181,5,0,0:0:0:0:
232,171,202257,1,0,0:0:0:0:
236,175,202334,1,0,0:0:0:0:
512,384,202489,5,0,0:0:0:0:
512,384,202566,1,0,0:0:0:0:
512,384,202643,1,0,0:0:0:0:
240,179,202797,5,0,0:0:0:0:
244,183,202874,1,0,0:0:0:0:
248,187,202951,1,0,0:0:0:0:
512,0,203104,5,0,0:0:0:0:
512,0,203181,1,0,0:0:0:0:
512,0,203258,1,0,0:0:0:0:
252,191,203412,5,0,0:0:0:0:
256,195,203489,1,0,0:0:0:0:
259,199,203566,1,0,0:0:0:0:
0,0,203720,5,0,0:0:0:0:
0,0,203797,1,0,0:0:0:0:
0,0,203874,1,0,0:0:0:0:
263,203,204028,5,0,0:0:0:0:
267,207,204105,1,0,0:0:0:0:
271,211,204181,1,0,0:0:0:0:
434,294,204335,5,0,0:0:0:0:
78,90,204489,1,0,0:0:0:0:
38,175,204643,5,0,0:0:0:0:
474,209,204797,1,0,0:0:0:0:
383,76,204951,5,0,0:0:0:0:
129,308,205104,1,0,0:0:0:0:
118,219,205258,5,0,0:0:0:0:
394,165,205412,1,0,0:0:0:0:
303,94,205566,5,0,0:0:0:0:
209,290,205720,1,0,0:0:0:0:
304,248,205874,5,0,0:0:0:0:
208,136,206028,1,0,0:0:0:0:
256,192,206335,5,0,0:0:0:0:
256,192,206412,12,0,207720,0:0:0:0:
229,167,208028,5,0,0:0:0:0:
232,171,208104,1,0,0:0:0:0:
236,175,208181,1,0,0:0:0:0:
240,179,208335,5,0,0:0:0:0:
244,183,208412,1,0,0:0:0:0:
248,187,208489,1,0,0:0:0:0:
252,191,208643,5,0,0:0:0:0:
256,195,208720,1,0,0:0:0:0:
259,199,208797,1,0,0:0:0:0:
263,203,208951,5,0,0:0:0:0:
267,207,209028,1,0,0:0:0:0:
271,211,209104,1,0,0:0:0:0:
83,291,209258,5,0,0:0:0:0:
109,94,209412,1,0,0:0:0:0:
284,352,209566,5,0,0:0:0:0:
431,312,209720,1,0,0:0:0:0:
161,263,209874,5,0,0:0:0:0:
206,145,210028,1,0,0:0:0:0:
236,290,210181,5,0,0:0:0:0:
301,260,210335,1,0,0:0:0:0:
409,131,210489,6,0,L|336:89,1,76.6666666666667
263,87,210694,2,0,L|305:14,1,76.6666666666667
200,174,210899,2,0,L|273:216,1,76.6666666666667
348,192,211104,1,0,0:0:0:0:
381,316,211258,6,0,B|413:297|448:310|448:310|418:266|363:272|339:290|339:290|331:265|306:249,1,230
256,192,211643,12,0,212951,0:0:0:0:
