osu file format v14

[General]
AudioFilename: freedman.mp3
AudioLeadIn: 0
PreviewTime: 80580
Countdown: 0
SampleSet: None
StackLeniency: 0.7
Mode: 1
LetterboxInBreaks: 0
EpilepsyWarning: 1
WidescreenStoryboard: 1

[Editor]
Bookmarks: 76200,130825,139388
DistanceSpacing: 1.5
BeatDivisor: 4
GridSize: 32
TimelineZoom: 1

[Metadata]
Title:FREEDMAN
TitleUnicode:FREEDMAN
Artist:FujuniseikouyuuP
ArtistUnicode:不純異性交遊P
Creator:DarkStoorM
Version:WX^2-TriTaikoGen
Source:
Tags:HujuniseikouyuuP Vocaloid Megpoid GUMI Nanahoshi Kangengakudan Seven Stars Orchestra W_h_i_t_e Raose iyasine nouk qoot8123
BeatmapID:1959964
BeatmapSetID:938311

[Difficulty]
HPDrainRate:0
CircleSize:4
OverallDifficulty:8
ApproachRate:6
SliderMultiplier:1.6
SliderTickRate:1

[Events]
//Background and Video events
0,0,"freedman.png",0,0
//Break Periods
//Storyboard Layer 0 (Background)
//Storyboard Layer 1 (Fail)
//Storyboard Layer 2 (Pass)
//Storyboard Layer 3 (Foreground)
//Storyboard Sound Samples

[TimingPoints]
638,250,4,1,0,90,1,0
80638,-100,4,1,0,90,0,1
100888,-100,4,1,0,90,0,0
140638,-100,4,1,0,90,0,1
160638,-100,4,1,0,90,0,0

[Colours]
Combo1 : 255,0,128
Combo2 : 192,192,192
Combo3 : 0,255,0
Combo4 : 255,255,255

[HitObjects]
256,192,638,1,2,0:0:0:0:
256,192,700,1,0,0:0:0:0:
256,192,763,1,0,0:0:0:0:
256,192,825,1,2,0:0:0:0:
256,192,888,1,0,0:0:0:0:
256,192,1013,1,0,0:0:0:0:
256,192,1075,1,2,0:0:0:0:
256,192,1138,1,2,0:0:0:0:
256,192,1200,1,0,0:0:0:0:
256,192,1263,1,2,0:0:0:0:
256,192,1325,1,0,0:0:0:0:
256,192,1388,1,0,0:0:0:0:
256,192,1450,1,2,0:0:0:0:
256,192,1513,1,0,0:0:0:0:
256,192,1575,1,0,0:0:0:0:
256,192,1638,1,0,0:0:0:0:
256,192,1700,1,0,0:0:0:0:
256,192,1763,1,0,0:0:0:0:
256,192,1825,1,0,0:0:0:0:
256,192,1888,1,2,0:0:0:0:
256,192,2013,1,0,0:0:0:0:
256,192,2075,1,0,0:0:0:0:
256,192,2138,1,0,0:0:0:0:
256,192,2200,1,0,0:0:0:0:
256,192,2263,1,0,0:0:0:0:
256,192,2325,1,0,0:0:0:0:
256,192,2388,1,0,0:0:0:0:
256,192,2450,1,2,0:0:0:0:
256,192,2513,1,0,0:0:0:0:
256,192,2575,1,2,0:0:0:0:
256,192,2617,1,2,0:0:0:0:
256,192,2658,1,2,0:0:0:0:
256,192,2700,1,2,0:0:0:0:
256,192,2742,1,2,0:0:0:0:
256,192,2783,1,0,0:0:0:0:
256,192,2825,1,0,0:0:0:0:
256,192,2887,1,2,0:0:0:0:
256,192,3012,1,4,0:0:0:0:
256,192,3137,1,0,0:0:0:0:
256,192,3179,1,2,0:0:0:0:
256,192,3221,1,2,0:0:0:0:
256,192,3262,1,0,0:0:0:0:
256,192,3304,1,0,0:0:0:0:
256,192,3346,1,2,0:0:0:0:
256,192,3387,1,0,0:0:0:0:
256,192,3450,1,2,0:0:0:0:
256,192,3512,1,2,0:0:0:0:
256,192,3575,1,2,0:0:0:0:
256,192,3637,1,0,0:0:0:0:
256,192,3762,1,2,0:0:0:0:
256,192,3887,1,0,0:0:0:0:
256,192,3950,1,2,0:0:0:0:
256,192,4012,1,0,0:0:0:0:
256,192,4075,1,0,0:0:0:0:
256,192,4137,1,0,0:0:0:0:
256,192,4262,1,0,0:0:0:0:
256,192,4325,1,2,0:0:0:0:
256,192,4387,1,2,0:0:0:0:
256,192,4429,1,2,0:0:0:0:
256,192,4471,1,0,0:0:0:0:
256,192,4512,1,0,0:0:0:0:
256,192,4554,1,2,0:0:0:0:
256,192,4596,1,0,0:0:0:0:
256,192,4638,1,0,0:0:0:0:
256,192,4700,1,2,0:0:0:0:
256,192,4763,1,2,0:0:0:0:
256,192,4825,1,2,0:0:0:0:
256,192,4888,1,2,0:0:0:0:
256,192,4950,1,0,0:0:0:0:
256,192,5013,1,0,0:0:0:0:
256,192,5075,1,0,0:0:0:0:
256,192,5138,1,2,0:0:0:0:
256,192,5200,1,0,0:0:0:0:
256,192,5263,1,0,0:0:0:0:
256,192,5325,1,0,0:0:0:0:
256,192,5367,1,2,0:0:0:0:
256,192,5408,1,2,0:0:0:0:
256,192,5450,1,2,0:0:0:0:
256,192,5492,1,0,0:0:0:0:
256,192,5533,1,2,0:0:0:0:
256,192,5575,1,0,0:0:0:0:
256,192,5638,1,0,0:0:0:0:
256,192,5763,1,2,0:0:0:0:
256,192,5888,1,0,0:0:0:0:
256,192,5950,1,2,0:0:0:0:
256,192,6013,1,0,0:0:0:0:
256,192,6075,1,0,0:0:0:0:
256,192,6138,1,2,0:0:0:0:
256,192,6263,1,2,0:0:0:0:
256,192,6325,1,0,0:0:0:0:
256,192,6388,1,2,0:0:0:0:
256,192,6429,1,0,0:0:0:0:
256,192,6471,1,2,0:0:0:0:
256,192,6513,1,0,0:0:0:0:
256,192,6554,1,2,0:0:0:0:
256,192,6596,1,2,0:0:0:0:
256,192,6638,1,0,0:0:0:0:
256,192,6700,1,2,0:0:0:0:
256,192,6763,1,0,0:0:0:0:
256,192,6825,1,2,0:0:0:0:
256,192,6888,1,0,0:0:0:0:
256,192,6929,1,2,0:0:0:0:
256,192,6971,1,2,0:0:0:0:
256,192,7013,1,2,0:0:0:0:
256,192,7054,1,0,0:0:0:0:
256,192,7096,1,2,0:0:0:0:
256,192,7138,1,0,0:0:0:0:
256,192,7263,1,2,0:0:0:0:
256,192,7325,1,0,0:0:0:0:
256,192,7388,1,2,0:0:0:0:
256,192,7450,1,2,0:0:0:0:
256,192,7492,1,2,0:0:0:0:
256,192,7533,1,2,0:0:0:0:
256,192,7575,1,0,0:0:0:0:
256,192,7638,1,2,0:0:0:0:
256,192,7700,1,2,0:0:0:0:
256,192,7763,1,2,0:0:0:0:
256,192,7888,1,0,0:0:0:0:
256,192,7950,1,0,0:0:0:0:
256,192,8013,1,2,0:0:0:0:
256,192,8075,1,0,0:0:0:0:
256,192,8138,1,2,0:0:0:0:
256,192,8200,1,2,0:0:0:0:
256,192,8263,1,0,0:0:0:0:
256,192,8325,1,0,0:0:0:0:
256,192,8388,1,2,0:0:0:0:
256,192,8450,1,0,0:0:0:0:
256,192,8513,1,0,0:0:0:0:
256,192,8638,1,0,0:0:0:0:
256,192,8700,1,0,0:0:0:0:
256,192,8763,1,0,0:0:0:0:
256,192,8825,1,2,0:0:0:0:
256,192,8888,1,0,0:0:0:0:
256,192,8950,1,0,0:0:0:0:
256,192,9013,1,0,0:0:0:0:
256,192,9075,1,2,0:0:0:0:
256,192,9138,1,4,0:0:0:0:
256,192,9263,1,0,0:0:0:0:
256,192,9325,1,2,0:0:0:0:
256,192,9388,1,2,0:0:0:0:
256,192,9450,1,2,0:0:0:0:
256,192,9492,1,0,0:0:0:0:
256,192,9533,1,2,0:0:0:0:
256,192,9575,1,0,0:0:0:0:
256,192,9638,1,2,0:0:0:0:
256,192,9700,1,2,0:0:0:0:
256,192,9763,1,0,0:0:0:0:
256,192,9825,1,2,0:0:0:0:
256,192,9888,1,0,0:0:0:0:
256,192,9950,1,2,0:0:0:0:
256,192,10013,1,0,0:0:0:0:
256,192,10138,1,0,0:0:0:0:
256,192,10200,1,2,0:0:0:0:
256,192,10263,1,0,0:0:0:0:
256,192,10325,1,2,0:0:0:0:
256,192,10388,1,0,0:0:0:0:
256,192,10450,1,2,0:0:0:0:
256,192,10513,1,2,0:0:0:0:
256,192,10575,1,0,0:0:0:0:
256,192,10638,1,6,0:0:0:0:
256,192,10763,1,0,0:0:0:0:
256,192,10825,1,2,0:0:0:0:
256,192,10888,1,2,0:0:0:0:
256,192,10950,1,2,0:0:0:0:
256,192,11013,1,2,0:0:0:0:
256,192,11075,1,2,0:0:0:0:
256,192,11117,1,0,0:0:0:0:
256,192,11158,1,0,0:0:0:0:
256,192,11200,1,2,0:0:0:0:
256,192,11242,1,2,0:0:0:0:
256,192,11283,1,0,0:0:0:0:
256,192,11325,1,2,0:0:0:0:
256,192,11388,1,2,0:0:0:0:
256,192,11450,1,2,0:0:0:0:
256,192,11513,1,0,0:0:0:0:
256,192,11638,1,2,0:0:0:0:
256,192,11700,1,0,0:0:0:0:
256,192,11763,1,2,0:0:0:0:
256,192,11825,1,2,0:0:0:0:
256,192,11888,1,0,0:0:0:0:
256,192,11950,1,0,0:0:0:0:
256,192,12013,1,0,0:0:0:0:
256,192,12075,1,0,0:0:0:0:
256,192,12117,1,0,0:0:0:0:
256,192,12158,1,0,0:0:0:0:
256,192,12200,1,0,0:0:0:0:
256,192,12242,1,2,0:0:0:0:
256,192,12283,1,0,0:0:0:0:
256,192,12325,1,2,0:0:0:0:
256,192,12387,1,2,0:0:0:0:
256,192,12450,1,0,0:0:0:0:
256,192,12512,1,2,0:0:0:0:
256,192,12575,1,2,0:0:0:0:
256,192,12637,1,0,0:0:0:0:
256,192,12700,1,2,0:0:0:0:
256,192,12762,1,2,0:0:0:0:
256,192,12825,1,2,0:0:0:0:
256,192,12887,1,0,0:0:0:0:
256,192,13012,1,0,0:0:0:0:
256,192,13075,1,2,0:0:0:0:
256,192,13137,1,2,0:0:0:0:
256,192,13200,1,2,0:0:0:0:
256,192,13262,1,0,0:0:0:0:
256,192,13325,1,2,0:0:0:0:
256,192,13387,1,0,0:0:0:0:
256,192,13450,1,0,0:0:0:0:
256,192,13512,1,0,0:0:0:0:
256,192,13575,1,0,0:0:0:0:
256,192,13637,1,2,0:0:0:0:
256,192,13700,1,0,0:0:0:0:
256,192,13742,1,2,0:0:0:0:
256,192,13783,1,2,0:0:0:0:
256,192,13825,1,0,0:0:0:0:
256,192,13887,1,2,0:0:0:0:
256,192,14012,1,0,0:0:0:0:
256,192,14075,1,2,0:0:0:0:
256,192,14117,1,2,0:0:0:0:
256,192,14158,1,0,0:0:0:0:
256,192,14200,1,0,0:0:0:0:
256,192,14262,1,2,0:0:0:0:
256,192,14387,1,0,0:0:0:0:
256,192,14450,1,0,0:0:0:0:
256,192,14512,1,0,0:0:0:0:
256,192,14575,1,2,0:0:0:0:
256,192,14637,1,0,0:0:0:0:
256,192,14700,1,0,0:0:0:0:
256,192,14762,1,2,0:0:0:0:
256,192,14825,1,0,0:0:0:0:
256,192,14887,1,0,0:0:0:0:
256,192,14950,1,0,0:0:0:0:
256,192,15012,1,0,0:0:0:0:
256,192,15075,1,2,0:0:0:0:
256,192,15117,1,2,0:0:0:0:
256,192,15158,1,2,0:0:0:0:
256,192,15200,1,2,0:0:0:0:
256,192,15242,1,0,0:0:0:0:
256,192,15283,1,2,0:0:0:0:
256,192,15325,1,2,0:0:0:0:
256,192,15387,1,0,0:0:0:0:
256,192,15512,1,2,0:0:0:0:
256,192,15575,1,0,0:0:0:0:
256,192,15637,1,2,0:0:0:0:
256,192,15700,1,0,0:0:0:0:
256,192,15762,1,2,0:0:0:0:
256,192,15825,1,0,0:0:0:0:
256,192,15887,1,0,0:0:0:0:
256,192,15950,1,0,0:0:0:0:
256,192,16012,1,6,0:0:0:0:
256,192,16137,1,2,0:0:0:0:
256,192,16200,1,0,0:0:0:0:
256,192,16242,1,0,0:0:0:0:
256,192,16283,1,2,0:0:0:0:
256,192,16325,1,0,0:0:0:0:
256,192,16387,1,2,0:0:0:0:
256,192,16450,1,0,0:0:0:0:
256,192,16512,1,2,0:0:0:0:
256,192,16575,1,0,0:0:0:0:
256,192,16637,1,0,0:0:0:0:
256,192,16700,1,0,0:0:0:0:
256,192,16762,1,2,0:0:0:0:
256,192,16825,1,0,0:0:0:0:
256,192,16887,1,0,0:0:0:0:
256,192,16950,1,2,0:0:0:0:
256,192,17012,1,2,0:0:0:0:
256,192,17137,1,0,0:0:0:0:
256,192,17262,1,2,0:0:0:0:
256,192,17325,1,2,0:0:0:0:
256,192,17387,1,2,0:0:0:0:
256,192,17450,1,2,0:0:0:0:
256,192,17512,1,2,0:0:0:0:
256,192,17575,1,0,0:0:0:0:
256,192,17637,1,2,0:0:0:0:
256,192,17679,1,0,0:0:0:0:
256,192,17721,1,2,0:0:0:0:
256,192,17762,1,0,0:0:0:0:
256,192,17825,1,2,0:0:0:0:
256,192,17887,1,0,0:0:0:0:
256,192,17950,1,0,0:0:0:0:
256,192,17992,1,0,0:0:0:0:
256,192,18033,1,2,0:0:0:0:
256,192,18075,1,2,0:0:0:0:
256,192,18137,1,0,0:0:0:0:
256,192,18200,1,0,0:0:0:0:
256,192,18262,1,2,0:0:0:0:
256,192,18325,1,2,0:0:0:0:
256,192,18387,1,4,0:0:0:0:
256,192,18512,1,0,0:0:0:0:
256,192,18575,1,0,0:0:0:0:
256,192,18637,1,2,0:0:0:0:
256,192,18679,1,0,0:0:0:0:
256,192,18721,1,2,0:0:0:0:
256,192,18763,1,2,0:0:0:0:
256,192,18804,1,0,0:0:0:0:
256,192,18846,1,2,0:0:0:0:
256,192,18888,1,2,0:0:0:0:
256,192,18950,1,0,0:0:0:0:
256,192,19013,1,2,0:0:0:0:
256,192,19075,1,2,0:0:0:0:
256,192,19138,1,0,0:0:0:0:
256,192,19200,1,0,0:0:0:0:
256,192,19263,1,0,0:0:0:0:
256,192,19325,1,0,0:0:0:0:
256,192,19367,1,0,0:0:0:0:
256,192,19408,1,0,0:0:0:0:
256,192,19450,1,0,0:0:0:0:
256,192,19492,1,0,0:0:0:0:
256,192,19533,1,2,0:0:0:0:
256,192,19575,1,2,0:0:0:0:
256,192,19638,1,0,0:0:0:0:
256,192,19763,1,0,0:0:0:0:
256,192,19825,1,0,0:0:0:0:
256,192,19888,1,0,0:0:0:0:
256,192,19950,1,2,0:0:0:0:
256,192,20013,1,0,0:0:0:0:
256,192,20075,1,2,0:0:0:0:
256,192,20138,1,2,0:0:0:0:
256,192,20200,1,2,0:0:0:0:
256,192,20263,1,0,0:0:0:0:
256,192,20325,1,2,0:0:0:0:
256,192,20388,1,0,0:0:0:0:
256,192,20450,1,2,0:0:0:0:
256,192,20513,1,2,0:0:0:0:
256,192,20575,1,2,0:0:0:0:
256,192,20638,1,0,0:0:0:0:
256,192,20763,1,2,0:0:0:0:
256,192,20825,1,2,0:0:0:0:
256,192,20888,1,0,0:0:0:0:
256,192,20950,1,0,0:0:0:0:
256,192,21013,1,0,0:0:0:0:
256,192,21075,1,0,0:0:0:0:
256,192,21138,1,2,0:0:0:0:
256,192,21263,1,0,0:0:0:0:
256,192,21325,1,2,0:0:0:0:
256,192,21388,1,2,0:0:0:0:
256,192,21429,1,2,0:0:0:0:
256,192,21471,1,0,0:0:0:0:
256,192,21513,1,0,0:0:0:0:
256,192,21554,1,2,0:0:0:0:
256,192,21596,1,0,0:0:0:0:
256,192,21638,1,0,0:0:0:0:
256,192,21763,1,0,0:0:0:0:
256,192,21825,1,0,0:0:0:0:
256,192,21888,1,0,0:0:0:0:
256,192,21950,1,2,0:0:0:0:
256,192,22013,1,2,0:0:0:0:
256,192,22075,1,0,0:0:0:0:
256,192,22138,1,0,0:0:0:0:
256,192,22200,1,2,0:0:0:0:
256,192,22263,1,0,0:0:0:0:
256,192,22325,1,2,0:0:0:0:
256,192,22388,1,0,0:0:0:0:
256,192,22513,1,0,0:0:0:0:
256,192,22575,1,0,0:0:0:0:
256,192,22638,1,0,0:0:0:0:
256,192,22700,1,0,0:0:0:0:
256,192,22763,1,6,0:0:0:0:
256,192,22888,1,2,0:0:0:0:
256,192,22950,1,0,0:0:0:0:
256,192,23013,1,0,0:0:0:0:
256,192,23075,1,2,0:0:0:0:
256,192,23138,1,0,0:0:0:0:
256,192,23200,1,2,0:0:0:0:
256,192,23263,1,0,0:0:0:0:
256,192,23325,1,0,0:0:0:0:
256,192,23388,1,2,0:0:0:0:
256,192,23450,1,2,0:0:0:0:
256,192,23513,1,0,0:0:0:0:
256,192,23575,1,0,0:0:0:0:
256,192,23638,1,0,0:0:0:0:
256,192,23700,1,2,0:0:0:0:
256,192,23763,1,2,0:0:0:0:
256,192,23825,1,2,0:0:0:0:
256,192,23888,1,2,0:0:0:0:
256,192,24013,1,0,0:0:0:0:
256,192,24075,1,0,0:0:0:0:
256,192,24138,1,2,0:0:0:0:
256,192,24200,1,2,0:0:0:0:
256,192,24263,1,2,0:0:0:0:
256,192,24325,1,0,0:0:0:0:
256,192,24388,1,2,0:0:0:0:
256,192,24450,1,2,0:0:0:0:
256,192,24513,1,0,0:0:0:0:
256,192,24575,1,2,0:0:0:0:
256,192,24638,1,2,0:0:0:0:
256,192,24700,1,0,0:0:0:0:
256,192,24763,1,2,0:0:0:0:
256,192,24888,1,2,0:0:0:0:
256,192,24950,1,2,0:0:0:0:
256,192,25013,1,0,0:0:0:0:
256,192,25075,1,0,0:0:0:0:
256,192,25138,1,0,0:0:0:0:
256,192,25200,1,2,0:0:0:0:
256,192,25263,1,0,0:0:0:0:
256,192,25325,1,0,0:0:0:0:
256,192,25388,1,0,0:0:0:0:
256,192,25450,1,2,0:0:0:0:
256,192,25513,1,4,0:0:0:0:
256,192,25638,1,2,0:0:0:0:
256,192,25700,1,2,0:0:0:0:
256,192,25763,1,4,0:0:0:0:
256,192,25888,1,2,0:0:0:0:
256,192,25950,1,0,0:0:0:0:
256,192,26013,1,0,0:0:0:0:
256,192,26075,1,0,0:0:0:0:
256,192,26138,1,0,0:0:0:0:
256,192,26200,1,0,0:0:0:0:
256,192,26263,1,0,0:0:0:0:
256,192,26325,1,2,0:0:0:0:
256,192,26388,1,2,0:0:0:0:
256,192,26429,1,0,0:0:0:0:
256,192,26471,1,2,0:0:0:0:
256,192,26513,1,0,0:0:0:0:
256,192,26554,1,0,0:0:0:0:
256,192,26596,1,0,0:0:0:0:
256,192,26638,1,2,0:0:0:0:
256,192,26763,1,2,0:0:0:0:
256,192,26825,1,0,0:0:0:0:
256,192,26888,1,2,0:0:0:0:
256,192,26950,1,2,0:0:0:0:
256,192,26992,1,2,0:0:0:0:
256,192,27033,1,0,0:0:0:0:
256,192,27075,1,2,0:0:0:0:
256,192,27117,1,0,0:0:0:0:
256,192,27158,1,0,0:0:0:0:
256,192,27200,1,0,0:0:0:0:
256,192,27263,1,2,0:0:0:0:
256,192,27304,1,0,0:0:0:0:
256,192,27346,1,0,0:0:0:0:
256,192,27388,1,0,0:0:0:0:
256,192,27429,1,2,0:0:0:0:
256,192,27471,1,0,0:0:0:0:
256,192,27513,1,0,0:0:0:0:
256,192,27575,1,2,0:0:0:0:
256,192,27638,1,2,0:0:0:0:
256,192,27700,1,2,0:0:0:0:
256,192,27763,1,2,0:0:0:0:
256,192,27825,1,0,0:0:0:0:
256,192,27888,1,0,0:0:0:0:
256,192,27929,1,0,0:0:0:0:
256,192,27971,1,2,0:0:0:0:
256,192,28013,1,2,0:0:0:0:
256,192,28054,1,2,0:0:0:0:
256,192,28096,1,2,0:0:0:0:
256,192,28138,1,4,0:0:0:0:
256,192,28263,1,0,0:0:0:0:
256,192,28325,1,2,0:0:0:0:
256,192,28388,1,0,0:0:0:0:
256,192,28450,1,0,0:0:0:0:
256,192,28513,1,0,0:0:0:0:
256,192,28575,1,2,0:0:0:0:
256,192,28638,1,2,0:0:0:0:
256,192,28700,1,0,0:0:0:0:
256,192,28763,1,2,0:0:0:0:
256,192,28825,1,2,0:0:0:0:
256,192,28888,1,0,0:0:0:0:
256,192,28929,1,2,0:0:0:0:
256,192,28971,1,2,0:0:0:0:
256,192,29013,1,2,0:0:0:0:
256,192,29075,1,0,0:0:0:0:
256,192,29138,1,0,0:0:0:0:
256,192,29200,1,2,0:0:0:0:
256,192,29263,1,0,0:0:0:0:
256,192,29325,1,0,0:0:0:0:
256,192,29388,1,0,0:0:0:0:
256,192,29513,1,0,0:0:0:0:
256,192,29575,1,0,0:0:0:0:
256,192,29638,1,2,0:0:0:0:
256,192,29700,1,0,0:0:0:0:
256,192,29763,1,2,0:0:0:0:
256,192,29825,1,2,0:0:0:0:
256,192,29888,1,0,0:0:0:0:
256,192,29950,1,2,0:0:0:0:
256,192,29992,1,0,0:0:0:0:
256,192,30033,1,2,0:0:0:0:
256,192,30075,1,0,0:0:0:0:
256,192,30138,1,0,0:0:0:0:
256,192,30200,1,0,0:0:0:0:
256,192,30263,1,2,0:0:0:0:
256,192,30325,1,2,0:0:0:0:
256,192,30388,1,0,0:0:0:0:
256,192,30450,1,0,0:0:0:0:
256,192,30513,1,2,0:0:0:0:
256,192,30638,1,2,0:0:0:0:
256,192,30700,1,0,0:0:0:0:
256,192,30763,1,0,0:0:0:0:
256,192,30825,1,0,0:0:0:0:
256,192,30888,1,2,0:0:0:0:
256,192,30950,1,2,0:0:0:0:
256,192,31013,1,0,0:0:0:0:
256,192,31075,1,2,0:0:0:0:
256,192,31138,1,2,0:0:0:0:
256,192,31200,1,0,0:0:0:0:
256,192,31263,1,0,0:0:0:0:
256,192,31325,1,2,0:0:0:0:
256,192,31388,1,0,0:0:0:0:
256,192,31513,1,2,0:0:0:0:
256,192,31554,1,2,0:0:0:0:
256,192,31596,1,0,0:0:0:0:
256,192,31638,1,2,0:0:0:0:
256,192,31700,1,2,0:0:0:0:
256,192,31763,1,2,0:0:0:0:
256,192,31825,1,0,0:0:0:0:
256,192,31888,1,2,0:0:0:0:
256,192,32013,1,0,0:0:0:0:
256,192,32054,1,2,0:0:0:0:
256,192,32096,1,2,0:0:0:0:
256,192,32138,1,2,0:0:0:0:
256,192,32179,1,0,0:0:0:0:
256,192,32221,1,0,0:0:0:0:
256,192,32263,1,2,0:0:0:0:
256,192,32325,1,0,0:0:0:0:
256,192,32388,1,0,0:0:0:0:
256,192,32450,1,2,0:0:0:0:
256,192,32513,1,0,0:0:0:0:
256,192,32638,1,0,0:0:0:0:
256,192,32700,1,2,0:0:0:0:
256,192,32763,1,0,0:0:0:0:
256,192,32825,1,2,0:0:0:0:
256,192,32888,1,2,0:0:0:0:
256,192,32950,1,2,0:0:0:0:
256,192,33013,1,0,0:0:0:0:
256,192,33075,1,0,0:0:0:0:
256,192,33138,1,2,0:0:0:0:
256,192,33200,1,2,0:0:0:0:
256,192,33263,1,2,0:0:0:0:
256,192,33325,1,0,0:0:0:0:
256,192,33388,1,6,0:0:0:0:
256,192,33513,1,2,0:0:0:0:
256,192,33575,1,0,0:0:0:0:
256,192,33638,1,2,0:0:0:0:
256,192,33700,1,0,0:0:0:0:
256,192,33763,1,0,0:0:0:0:
256,192,33825,1,0,0:0:0:0:
256,192,33888,1,0,0:0:0:0:
256,192,33950,1,0,0:0:0:0:
256,192,34013,1,0,0:0:0:0:
256,192,34138,1,0,0:0:0:0:
256,192,34263,1,4,0:0:0:0:
256,192,34388,1,0,0:0:0:0:
256,192,34450,1,0,0:0:0:0:
256,192,34513,1,2,0:0:0:0:
256,192,34575,1,2,0:0:0:0:
256,192,34617,1,0,0:0:0:0:
256,192,34658,1,2,0:0:0:0:
256,192,34700,1,0,0:0:0:0:
256,192,34742,1,0,0:0:0:0:
256,192,34783,1,2,0:0:0:0:
256,192,34825,1,0,0:0:0:0:
256,192,34888,1,2,0:0:0:0:
256,192,34950,1,2,0:0:0:0:
256,192,35013,1,0,0:0:0:0:
256,192,35138,1,0,0:0:0:0:
256,192,35200,1,2,0:0:0:0:
256,192,35263,1,2,0:0:0:0:
256,192,35325,1,0,0:0:0:0:
256,192,35388,1,2,0:0:0:0:
256,192,35513,1,2,0:0:0:0:
256,192,35575,1,0,0:0:0:0:
256,192,35638,1,2,0:0:0:0:
256,192,35700,1,2,0:0:0:0:
256,192,35763,1,0,0:0:0:0:
256,192,35825,1,2,0:0:0:0:
256,192,35888,1,2,0:0:0:0:
256,192,35950,1,2,0:0:0:0:
256,192,36013,1,2,0:0:0:0:
256,192,36075,1,0,0:0:0:0:
256,192,36138,1,6,0:0:0:0:
256,192,36263,1,0,0:0:0:0:
256,192,36325,1,0,0:0:0:0:
256,192,36388,1,2,0:0:0:0:
256,192,36450,1,2,0:0:0:0:
256,192,36513,1,2,0:0:0:0:
256,192,36575,1,0,0:0:0:0:
256,192,36638,1,0,0:0:0:0:
256,192,36700,1,2,0:0:0:0:
256,192,36742,1,2,0:0:0:0:
256,192,36783,1,0,0:0:0:0:
256,192,36825,1,0,0:0:0:0:
256,192,36888,1,0,0:0:0:0:
256,192,36950,1,0,0:0:0:0:
256,192,37013,1,2,0:0:0:0:
256,192,37075,1,2,0:0:0:0:
256,192,37138,1,0,0:0:0:0:
256,192,37200,1,2,0:0:0:0:
256,192,37263,1,2,0:0:0:0:
256,192,37388,1,0,0:0:0:0:
256,192,37450,1,2,0:0:0:0:
256,192,37513,1,2,0:0:0:0:
256,192,37575,1,0,0:0:0:0:
256,192,37638,1,0,0:0:0:0:
256,192,37700,1,2,0:0:0:0:
256,192,37763,1,2,0:0:0:0:
256,192,37825,1,0,0:0:0:0:
256,192,37888,1,2,0:0:0:0:
256,192,37950,1,0,0:0:0:0:
256,192,38013,1,2,0:0:0:0:
256,192,38075,1,2,0:0:0:0:
256,192,38138,1,0,0:0:0:0:
256,192,38263,1,0,0:0:0:0:
256,192,38304,1,2,0:0:0:0:
256,192,38346,1,0,0:0:0:0:
256,192,38388,1,2,0:0:0:0:
256,192,38429,1,2,0:0:0:0:
256,192,38471,1,2,0:0:0:0:
256,192,38513,1,2,0:0:0:0:
256,192,38575,1,2,0:0:0:0:
256,192,38617,1,0,0:0:0:0:
256,192,38658,1,2,0:0:0:0:
256,192,38700,1,0,0:0:0:0:
256,192,38742,1,2,0:0:0:0:
256,192,38783,1,2,0:0:0:0:
256,192,38825,1,2,0:0:0:0:
256,192,38888,1,2,0:0:0:0:
256,192,39013,1,2,0:0:0:0:
256,192,39075,1,0,0:0:0:0:
256,192,39138,1,2,0:0:0:0:
256,192,39200,1,0,0:0:0:0:
256,192,39263,1,0,0:0:0:0:
256,192,39325,1,0,0:0:0:0:
256,192,39367,1,2,0:0:0:0:
256,192,39408,1,0,0:0:0:0:
256,192,39450,1,0,0:0:0:0:
256,192,39513,1,0,0:0:0:0:
256,192,39575,1,0,0:0:0:0:
256,192,39638,1,0,0:0:0:0:
256,192,39700,1,0,0:0:0:0:
256,192,39763,1,2,0:0:0:0:
256,192,39825,1,2,0:0:0:0:
256,192,39888,1,0,0:0:0:0:
256,192,39950,1,0,0:0:0:0:
256,192,40013,1,2,0:0:0:0:
256,192,40075,1,2,0:0:0:0:
256,192,40138,1,6,0:0:0:0:
256,192,40263,1,2,0:0:0:0:
256,192,40325,1,0,0:0:0:0:
256,192,40388,1,0,0:0:0:0:
256,192,40450,1,0,0:0:0:0:
256,192,40513,1,0,0:0:0:0:
256,192,40575,1,0,0:0:0:0:
256,192,40638,1,0,0:0:0:0:
256,192,40700,1,0,0:0:0:0:
256,192,40763,1,0,0:0:0:0:
256,192,40825,1,2,0:0:0:0:
256,192,40888,1,2,0:0:0:0:
256,192,40950,1,0,0:0:0:0:
256,192,41013,1,2,0:0:0:0:
256,192,41138,1,2,0:0:0:0:
256,192,41200,1,2,0:0:0:0:
256,192,41263,1,2,0:0:0:0:
256,192,41325,1,2,0:0:0:0:
256,192,41388,1,2,0:0:0:0:
256,192,41450,1,0,0:0:0:0:
256,192,41513,1,2,0:0:0:0:
256,192,41638,1,0,0:0:0:0:
256,192,41700,1,0,0:0:0:0:
256,192,41763,1,0,0:0:0:0:
256,192,41825,1,0,0:0:0:0:
256,192,41888,1,2,0:0:0:0:
256,192,41950,1,2,0:0:0:0:
256,192,42013,1,0,0:0:0:0:
256,192,42075,1,0,0:0:0:0:
256,192,42138,1,0,0:0:0:0:
256,192,42263,1,0,0:0:0:0:
256,192,42325,1,0,0:0:0:0:
256,192,42388,1,0,0:0:0:0:
256,192,42513,1,0,0:0:0:0:
256,192,42575,1,0,0:0:0:0:
256,192,42638,1,2,0:0:0:0:
256,192,42700,1,0,0:0:0:0:
256,192,42763,1,0,0:0:0:0:
256,192,42888,1,0,0:0:0:0:
256,192,42950,1,2,0:0:0:0:
256,192,43013,1,2,0:0:0:0:
256,192,43075,1,0,0:0:0:0:
256,192,43138,1,0,0:0:0:0:
256,192,43200,1,0,0:0:0:0:
256,192,43263,1,2,0:0:0:0:
256,192,43325,1,0,0:0:0:0:
256,192,43388,1,2,0:0:0:0:
256,192,43450,1,0,0:0:0:0:
256,192,43513,1,0,0:0:0:0:
256,192,43575,1,2,0:0:0:0:
256,192,43638,1,0,0:0:0:0:
256,192,43700,1,0,0:0:0:0:
256,192,43763,1,2,0:0:0:0:
256,192,43825,1,0,0:0:0:0:
256,192,43888,1,2,0:0:0:0:
256,192,44013,1,2,0:0:0:0:
256,192,44075,1,0,0:0:0:0:
256,192,44138,1,0,0:0:0:0:
256,192,44263,1,2,0:0:0:0:
256,192,44325,1,2,0:0:0:0:
256,192,44388,1,0,0:0:0:0:
256,192,44450,1,2,0:0:0:0:
256,192,44513,1,2,0:0:0:0:
256,192,44575,1,2,0:0:0:0:
256,192,44638,1,0,0:0:0:0:
256,192,44700,1,2,0:0:0:0:
256,192,44763,1,2,0:0:0:0:
256,192,44825,1,0,0:0:0:0:
256,192,44888,1,2,0:0:0:0:
256,192,44950,1,0,0:0:0:0:
256,192,45013,1,0,0:0:0:0:
256,192,45075,1,0,0:0:0:0:
256,192,45117,1,2,0:0:0:0:
256,192,45158,1,2,0:0:0:0:
256,192,45200,1,0,0:0:0:0:
256,192,45242,1,0,0:0:0:0:
256,192,45283,1,0,0:0:0:0:
256,192,45325,1,2,0:0:0:0:
256,192,45387,1,0,0:0:0:0:
256,192,45450,1,2,0:0:0:0:
256,192,45512,1,0,0:0:0:0:
256,192,45637,1,4,0:0:0:0:
256,192,45762,1,2,0:0:0:0:
256,192,45825,1,0,0:0:0:0:
256,192,45887,1,0,0:0:0:0:
256,192,45929,1,2,0:0:0:0:
256,192,45971,1,0,0:0:0:0:
256,192,46012,1,0,0:0:0:0:
256,192,46075,1,2,0:0:0:0:
256,192,46137,1,2,0:0:0:0:
256,192,46200,1,0,0:0:0:0:
256,192,46262,1,0,0:0:0:0:
256,192,46325,1,0,0:0:0:0:
256,192,46387,1,2,0:0:0:0:
256,192,46512,1,0,0:0:0:0:
256,192,46575,1,0,0:0:0:0:
256,192,46637,1,0,0:0:0:0:
256,192,46700,1,2,0:0:0:0:
256,192,46762,1,0,0:0:0:0:
256,192,46825,1,0,0:0:0:0:
256,192,46887,1,0,0:0:0:0:
256,192,46950,1,2,0:0:0:0:
256,192,46992,1,0,0:0:0:0:
256,192,47033,1,0,0:0:0:0:
256,192,47075,1,2,0:0:0:0:
256,192,47137,1,0,0:0:0:0:
256,192,47262,1,2,0:0:0:0:
256,192,47325,1,2,0:0:0:0:
256,192,47387,1,0,0:0:0:0:
256,192,47450,1,0,0:0:0:0:
256,192,47512,1,2,0:0:0:0:
256,192,47575,1,0,0:0:0:0:
256,192,47637,1,2,0:0:0:0:
256,192,47762,1,2,0:0:0:0:
256,192,47825,1,0,0:0:0:0:
256,192,47887,1,0,0:0:0:0:
256,192,47950,1,2,0:0:0:0:
256,192,48012,1,4,0:0:0:0:
256,192,48137,1,0,0:0:0:0:
256,192,48200,1,0,0:0:0:0:
256,192,48262,1,2,0:0:0:0:
256,192,48325,1,2,0:0:0:0:
256,192,48387,1,0,0:0:0:0:
256,192,48450,1,2,0:0:0:0:
256,192,48512,1,2,0:0:0:0:
256,192,48575,1,0,0:0:0:0:
256,192,48637,1,6,0:0:0:0:
256,192,48762,1,2,0:0:0:0:
256,192,48825,1,2,0:0:0:0:
256,192,48887,1,2,0:0:0:0:
256,192,48950,1,2,0:0:0:0:
256,192,49012,1,0,0:0:0:0:
256,192,49075,1,2,0:0:0:0:
256,192,49137,1,2,0:0:0:0:
256,192,49200,1,0,0:0:0:0:
256,192,49262,1,0,0:0:0:0:
256,192,49325,1,2,0:0:0:0:
256,192,49387,1,0,0:0:0:0:
256,192,49512,1,2,0:0:0:0:
256,192,49575,1,2,0:0:0:0:
256,192,49637,1,2,0:0:0:0:
256,192,49700,1,0,0:0:0:0:
256,192,49762,1,2,0:0:0:0:
256,192,49825,1,0,0:0:0:0:
256,192,49887,1,2,0:0:0:0:
256,192,49950,1,0,0:0:0:0:
256,192,50012,1,0,0:0:0:0:
256,192,50075,1,2,0:0:0:0:
256,192,50137,1,4,0:0:0:0:
256,192,50262,1,2,0:0:0:0:
256,192,50325,1,0,0:0:0:0:
256,192,50387,1,0,0:0:0:0:
256,192,50450,1,0,0:0:0:0:
256,192,50512,1,2,0:0:0:0:
256,192,50575,1,0,0:0:0:0:
256,192,50637,1,2,0:0:0:0:
256,192,50762,1,0,0:0:0:0:
256,192,50825,1,2,0:0:0:0:
256,192,50887,1,2,0:0:0:0:
256,192,50950,1,0,0:0:0:0:
256,192,51012,1,0,0:0:0:0:
256,192,51075,1,2,0:0:0:0:
256,192,51137,1,0,0:0:0:0:
256,192,51200,1,2,0:0:0:0:
256,192,51262,1,0,0:0:0:0:
256,192,51387,1,2,0:0:0:0:
256,192,51450,1,2,0:0:0:0:
256,192,51512,1,0,0:0:0:0:
256,192,51637,1,0,0:0:0:0:
256,192,51700,1,0,0:0:0:0:
256,192,51762,1,2,0:0:0:0:
256,192,51825,1,0,0:0:0:0:
256,192,51887,1,0,0:0:0:0:
256,192,51950,1,2,0:0:0:0:
256,192,52012,1,0,0:0:0:0:
256,192,52075,1,0,0:0:0:0:
256,192,52137,1,2,0:0:0:0:
256,192,52262,1,0,0:0:0:0:
256,192,52325,1,2,0:0:0:0:
256,192,52387,1,0,0:0:0:0:
256,192,52512,1,2,0:0:0:0:
256,192,52575,1,2,0:0:0:0:
256,192,52637,1,0,0:0:0:0:
256,192,52700,1,0,0:0:0:0:
256,192,52762,1,2,0:0:0:0:
256,192,52887,1,0,0:0:0:0:
256,192,52950,1,2,0:0:0:0:
256,192,53012,1,0,0:0:0:0:
256,192,53075,1,0,0:0:0:0:
256,192,53137,1,2,0:0:0:0:
256,192,53200,1,2,0:0:0:0:
256,192,53262,1,2,0:0:0:0:
256,192,53325,1,2,0:0:0:0:
256,192,53387,1,0,0:0:0:0:
256,192,53429,1,2,0:0:0:0:
256,192,53471,1,2,0:0:0:0:
256,192,53512,1,2,0:0:0:0:
256,192,53575,1,2,0:0:0:0:
256,192,53637,1,2,0:0:0:0:
256,192,53700,1,2,0:0:0:0:
256,192,53762,1,0,0:0:0:0:
256,192,53825,1,2,0:0:0:0:
256,192,53887,1,0,0:0:0:0:
256,192,54012,1,0,0:0:0:0:
256,192,54075,1,0,0:0:0:0:
256,192,54137,1,6,0:0:0:0:
256,192,54262,1,2,0:0:0:0:
256,192,54325,1,0,0:0:0:0:
256,192,54387,1,2,0:0:0:0:
256,192,54450,1,0,0:0:0:0:
256,192,54512,1,0,0:0:0:0:
256,192,54575,1,2,0:0:0:0:
256,192,54637,1,0,0:0:0:0:
256,192,54700,1,0,0:0:0:0:
256,192,54762,1,0,0:0:0:0:
256,192,54887,1,0,0:0:0:0:
256,192,54950,1,0,0:0:0:0:
256,192,55012,1,2,0:0:0:0:
256,192,55075,1,2,0:0:0:0:
256,192,55137,1,0,0:0:0:0:
256,192,55200,1,2,0:0:0:0:
256,192,55262,1,2,0:0:0:0:
256,192,55304,1,0,0:0:0:0:
256,192,55346,1,0,0:0:0:0:
256,192,55387,1,2,0:0:0:0:
256,192,55450,1,2,0:0:0:0:
256,192,55512,1,2,0:0:0:0:
256,192,55637,1,2,0:0:0:0:
256,192,55700,1,2,0:0:0:0:
256,192,55762,1,2,0:0:0:0:
256,192,55825,1,0,0:0:0:0:
256,192,55887,1,2,0:0:0:0:
256,192,55950,1,0,0:0:0:0:
256,192,56012,1,2,0:0:0:0:
256,192,56075,1,2,0:0:0:0:
256,192,56137,1,0,0:0:0:0:
256,192,56200,1,2,0:0:0:0:
256,192,56262,1,2,0:0:0:0:
256,192,56325,1,2,0:0:0:0:
256,192,56387,1,2,0:0:0:0:
256,192,56512,1,2,0:0:0:0:
256,192,56575,1,2,0:0:0:0:
256,192,56637,1,0,0:0:0:0:
256,192,56700,1,0,0:0:0:0:
256,192,56762,1,0,0:0:0:0:
256,192,56825,1,0,0:0:0:0:
256,192,56887,1,0,0:0:0:0:
256,192,56950,1,2,0:0:0:0:
256,192,57012,1,2,0:0:0:0:
256,192,57075,1,0,0:0:0:0:
256,192,57137,1,2,0:0:0:0:
256,192,57200,1,2,0:0:0:0:
256,192,57262,1,2,0:0:0:0:
256,192,57325,1,2,0:0:0:0:
256,192,57387,1,0,0:0:0:0:
256,192,57512,1,0,0:0:0:0:
256,192,57575,1,2,0:0:0:0:
256,192,57637,1,0,0:0:0:0:
256,192,57762,1,0,0:0:0:0:
256,192,57825,1,0,0:0:0:0:
256,192,57887,1,0,0:0:0:0:
256,192,57950,1,2,0:0:0:0:
256,192,58012,1,0,0:0:0:0:
256,192,58075,1,2,0:0:0:0:
256,192,58137,1,0,0:0:0:0:
256,192,58262,1,2,0:0:0:0:
256,192,58325,1,0,0:0:0:0:
256,192,58387,1,0,0:0:0:0:
256,192,58450,1,2,0:0:0:0:
256,192,58512,1,0,0:0:0:0:
256,192,58575,1,2,0:0:0:0:
256,192,58617,1,0,0:0:0:0:
256,192,58658,1,2,0:0:0:0:
256,192,58700,1,2,0:0:0:0:
256,192,58742,1,2,0:0:0:0:
256,192,58783,1,2,0:0:0:0:
256,192,58825,1,0,0:0:0:0:
256,192,58887,1,0,0:0:0:0:
256,192,58950,1,2,0:0:0:0:
256,192,59012,1,0,0:0:0:0:
256,192,59075,1,2,0:0:0:0:
256,192,59137,1,0,0:0:0:0:
256,192,59200,1,0,0:0:0:0:
256,192,59262,1,2,0:0:0:0:
256,192,59325,1,0,0:0:0:0:
256,192,59387,1,2,0:0:0:0:
256,192,59512,1,0,0:0:0:0:
256,192,59575,1,2,0:0:0:0:
256,192,59637,1,2,0:0:0:0:
256,192,59700,1,2,0:0:0:0:
256,192,59742,1,0,0:0:0:0:
256,192,59783,1,0,0:0:0:0:
256,192,59825,1,0,0:0:0:0:
256,192,59887,1,2,0:0:0:0:
256,192,59950,1,0,0:0:0:0:
256,192,60012,1,2,0:0:0:0:
256,192,60075,1,2,0:0:0:0:
256,192,60137,1,0,0:0:0:0:
256,192,60200,1,0,0:0:0:0:
256,192,60262,1,0,0:0:0:0:
256,192,60325,1,2,0:0:0:0:
256,192,60387,1,0,0:0:0:0:
256,192,60450,1,0,0:0:0:0:
256,192,60512,1,2,0:0:0:0:
256,192,60554,1,2,0:0:0:0:
256,192,60596,1,0,0:0:0:0:
256,192,60637,1,2,0:0:0:0:
256,192,60762,1,2,0:0:0:0:
256,192,60825,1,0,0:0:0:0:
256,192,60887,1,0,0:0:0:0:
256,192,60950,1,0,0:0:0:0:
256,192,61012,1,0,0:0:0:0:
256,192,61075,1,0,0:0:0:0:
256,192,61137,1,0,0:0:0:0:
256,192,61200,1,2,0:0:0:0:
256,192,61242,1,0,0:0:0:0:
256,192,61283,1,2,0:0:0:0:
256,192,61325,1,0,0:0:0:0:
256,192,61387,1,2,0:0:0:0:
256,192,61450,1,0,0:0:0:0:
256,192,61512,1,0,0:0:0:0:
256,192,61575,1,0,0:0:0:0:
256,192,61637,1,6,0:0:0:0:
256,192,61762,1,2,0:0:0:0:
256,192,61825,1,2,0:0:0:0:
256,192,61887,1,0,0:0:0:0:
256,192,61950,1,0,0:0:0:0:
256,192,62012,1,0,0:0:0:0:
256,192,62075,1,0,0:0:0:0:
256,192,62137,1,2,0:0:0:0:
256,192,62262,1,0,0:0:0:0:
256,192,62325,1,2,0:0:0:0:
256,192,62367,1,0,0:0:0:0:
256,192,62408,1,0,0:0:0:0:
256,192,62450,1,0,0:0:0:0:
256,192,62492,1,0,0:0:0:0:
256,192,62533,1,0,0:0:0:0:
256,192,62575,1,0,0:0:0:0:
256,192,62637,1,0,0:0:0:0:
256,192,62762,1,0,0:0:0:0:
256,192,62825,1,0,0:0:0:0:
256,192,62887,1,2,0:0:0:0:
256,192,62950,1,2,0:0:0:0:
256,192,63012,1,0,0:0:0:0:
256,192,63075,1,0,0:0:0:0:
256,192,63137,1,2,0:0:0:0:
256,192,63200,1,0,0:0:0:0:
256,192,63262,1,2,0:0:0:0:
256,192,63325,1,0,0:0:0:0:
256,192,63387,1,6,0:0:0:0:
256,192,63512,1,0,0:0:0:0:
256,192,63575,1,2,0:0:0:0:
256,192,63637,1,0,0:0:0:0:
256,192,63700,1,2,0:0:0:0:
256,192,63762,1,0,0:0:0:0:
256,192,63825,1,0,0:0:0:0:
256,192,63887,1,0,0:0:0:0:
256,192,63950,1,0,0:0:0:0:
256,192,64012,1,2,0:0:0:0:
256,192,64075,1,0,0:0:0:0:
256,192,64137,1,2,0:0:0:0:
256,192,64200,1,2,0:0:0:0:
256,192,64262,1,2,0:0:0:0:
256,192,64387,1,2,0:0:0:0:
256,192,64450,1,0,0:0:0:0:
256,192,64512,1,2,0:0:0:0:
256,192,64575,1,0,0:0:0:0:
256,192,64617,1,2,0:0:0:0:
256,192,64658,1,2,0:0:0:0:
256,192,64700,1,2,0:0:0:0:
256,192,64742,1,2,0:0:0:0:
256,192,64783,1,2,0:0:0:0:
256,192,64825,1,2,0:0:0:0:
256,192,64887,1,2,0:0:0:0:
256,192,64950,1,2,0:0:0:0:
256,192,65012,1,0,0:0:0:0:
256,192,65137,1,0,0:0:0:0:
256,192,65200,1,0,0:0:0:0:
256,192,65262,1,2,0:0:0:0:
256,192,65387,1,2,0:0:0:0:
256,192,65450,1,0,0:0:0:0:
256,192,65512,1,2,0:0:0:0:
256,192,65575,1,0,0:0:0:0:
256,192,65637,1,0,0:0:0:0:
256,192,65700,1,0,0:0:0:0:
256,192,65762,1,0,0:0:0:0:
256,192,65825,1,0,0:0:0:0:
256,192,65887,1,0,0:0:0:0:
256,192,65950,1,2,0:0:0:0:
256,192,66012,1,2,0:0:0:0:
256,192,66075,1,0,0:0:0:0:
256,192,66137,1,2,0:0:0:0:
256,192,66200,1,2,0:0:0:0:
256,192,66262,1,0,0:0:0:0:
256,192,66325,1,2,0:0:0:0:
256,192,66387,1,4,0:0:0:0:
256,192,66512,1,2,0:0:0:0:
256,192,66575,1,2,0:0:0:0:
256,192,66637,1,0,0:0:0:0:
256,192,66700,1,0,0:0:0:0:
256,192,66762,1,2,0:0:0:0:
256,192,66887,1,2,0:0:0:0:
256,192,66950,1,2,0:0:0:0:
256,192,67012,1,0,0:0:0:0:
256,192,67075,1,2,0:0:0:0:
256,192,67137,1,2,0:0:0:0:
256,192,67200,1,2,0:0:0:0:
256,192,67262,1,2,0:0:0:0:
256,192,67325,1,2,0:0:0:0:
256,192,67387,1,2,0:0:0:0:
256,192,67512,1,0,0:0:0:0:
256,192,67575,1,2,0:0:0:0:
256,192,67637,1,2,0:0:0:0:
256,192,67700,1,2,0:0:0:0:
256,192,67742,1,2,0:0:0:0:
256,192,67783,1,2,0:0:0:0:
256,192,67825,1,2,0:0:0:0:
256,192,67887,1,0,0:0:0:0:
256,192,67950,1,0,0:0:0:0:
256,192,68012,1,0,0:0:0:0:
256,192,68075,1,0,0:0:0:0:
256,192,68137,1,0,0:0:0:0:
256,192,68200,1,0,0:0:0:0:
256,192,68262,1,6,0:0:0:0:
256,192,68387,1,2,0:0:0:0:
256,192,68450,1,0,0:0:0:0:
256,192,68512,1,0,0:0:0:0:
256,192,68575,1,0,0:0:0:0:
256,192,68637,1,0,0:0:0:0:
256,192,68700,1,2,0:0:0:0:
256,192,68762,1,2,0:0:0:0:
256,192,68825,1,0,0:0:0:0:
256,192,68887,1,0,0:0:0:0:
256,192,68950,1,2,0:0:0:0:
256,192,69012,1,0,0:0:0:0:
256,192,69075,1,0,0:0:0:0:
256,192,69137,1,0,0:0:0:0:
256,192,69200,1,0,0:0:0:0:
256,192,69262,1,0,0:0:0:0:
256,192,69325,1,0,0:0:0:0:
256,192,69387,1,2,0:0:0:0:
256,192,69512,1,0,0:0:0:0:
256,192,69575,1,0,0:0:0:0:
256,192,69637,1,2,0:0:0:0:
256,192,69700,1,0,0:0:0:0:
256,192,69762,1,0,0:0:0:0:
256,192,69825,1,0,0:0:0:0:
256,192,69887,1,2,0:0:0:0:
256,192,69950,1,0,0:0:0:0:
256,192,70012,1,2,0:0:0:0:
256,192,70075,1,2,0:0:0:0:
256,192,70137,1,2,0:0:0:0:
256,192,70200,1,0,0:0:0:0:
256,192,70262,1,6,0:0:0:0:
256,192,70387,1,2,0:0:0:0:
256,192,70450,1,2,0:0:0:0:
256,192,70512,1,2,0:0:0:0:
256,192,70575,1,0,0:0:0:0:
256,192,70637,1,0,0:0:0:0:
256,192,70700,1,0,0:0:0:0:
256,192,70762,1,2,0:0:0:0:
256,192,70825,1,2,0:0:0:0:
256,192,70887,1,0,0:0:0:0:
256,192,70950,1,2,0:0:0:0:
256,192,71012,1,2,0:0:0:0:
256,192,71075,1,2,0:0:0:0:
256,192,71137,1,0,0:0:0:0:
256,192,71262,1,6,0:0:0:0:
256,192,71387,1,2,0:0:0:0:
256,192,71450,1,2,0:0:0:0:
256,192,71512,1,0,0:0:0:0:
256,192,71575,1,0,0:0:0:0:
256,192,71637,1,0,0:0:0:0:
256,192,71700,1,2,0:0:0:0:
256,192,71762,1,0,0:0:0:0:
256,192,71887,1,2,0:0:0:0:
256,192,71950,1,2,0:0:0:0:
256,192,72012,1,2,0:0:0:0:
256,192,72075,1,2,0:0:0:0:
256,192,72137,1,0,0:0:0:0:
256,192,72262,1,0,0:0:0:0:
256,192,72325,1,0,0:0:0:0:
256,192,72387,1,2,0:0:0:0:
256,192,72450,1,0,0:0:0:0:
256,192,72512,1,0,0:0:0:0:
256,192,72575,1,0,0:0:0:0:
256,192,72637,1,0,0:0:0:0:
256,192,72700,1,0,0:0:0:0:
256,192,72762,1,6,0:0:0:0:
256,192,72887,1,0,0:0:0:0:
256,192,72950,1,0,0:0:0:0:
256,192,73012,1,2,0:0:0:0:
256,192,73054,1,2,0:0:0:0:
256,192,73096,1,2,0:0:0:0:
256,192,73137,1,2,0:0:0:0:
256,192,73200,1,2,0:0:0:0:
256,192,73262,1,2,0:0:0:0:
256,192,73325,1,2,0:0:0:0:
256,192,73387,1,2,0:0:0:0:
256,192,73450,1,0,0:0:0:0:
256,192,73512,1,6,0:0:0:0:
256,192,73637,1,0,0:0:0:0:
256,192,73700,1,0,0:0:0:0:
256,192,73762,1,2,0:0:0:0:
256,192,73825,1,2,0:0:0:0:
256,192,73887,1,0,0:0:0:0:
256,192,74012,1,0,0:0:0:0:
256,192,74075,1,2,0:0:0:0:
256,192,74137,1,0,0:0:0:0:
256,192,74200,1,2,0:0:0:0:
256,192,74242,1,2,0:0:0:0:
256,192,74283,1,2,0:0:0:0:
256,192,74325,1,0,0:0:0:0:
256,192,74387,1,2,0:0:0:0:
256,192,74450,1,2,0:0:0:0:
256,192,74512,1,0,0:0:0:0:
256,192,74575,1,0,0:0:0:0:
256,192,74637,1,2,0:0:0:0:
256,192,74700,1,0,0:0:0:0:
256,192,74742,1,2,0:0:0:0:
256,192,74783,1,0,0:0:0:0:
256,192,74825,1,2,0:0:0:0:
256,192,74887,1,2,0:0:0:0:
256,192,74950,1,2,0:0:0:0:
256,192,75012,1,0,0:0:0:0:
256,192,75075,1,0,0:0:0:0:
256,192,75137,1,2,0:0:0:0:
256,192,75262,1,2,0:0:0:0:
256,192,75325,1,0,0:0:0:0:
256,192,75387,1,2,0:0:0:0:
256,192,75512,1,0,0:0:0:0:
256,192,75575,1,2,0:0:0:0:
256,192,75637,1,0,0:0:0:0:
256,192,75700,1,2,0:0:0:0:
256,192,75762,1,2,0:0:0:0:
256,192,75825,1,2,0:0:0:0:
256,192,75887,1,2,0:0:0:0:
256,192,75950,1,2,0:0:0:0:
256,192,76012,1,2,0:0:0:0:
256,192,76075,1,0,0:0:0:0:
256,192,76137,1,0,0:0:0:0:
256,192,76200,1,2,0:0:0:0:
256,192,76262,1,2,0:0:0:0:
256,192,76387,1,2,0:0:0:0:
256,192,76450,1,0,0:0:0:0:
256,192,76512,1,2,0:0:0:0:
256,192,76575,1,2,0:0:0:0:
256,192,76637,1,0,0:0:0:0:
256,192,76700,1,2,0:0:0:0:
256,192,76762,1,0,0:0:0:0:
256,192,76825,1,2,0:0:0:0:
256,192,76887,1,0,0:0:0:0:
256,192,77012,1,0,0:0:0:0:
256,192,77075,1,0,0:0:0:0:
256,192,77137,1,2,0:0:0:0:
256,192,77200,1,0,0:0:0:0:
256,192,77262,1,2,0:0:0:0:
256,192,77325,1,0,0:0:0:0:
256,192,77387,1,2,0:0:0:0:
256,192,77512,1,2,0:0:0:0:
256,192,77575,1,2,0:0:0:0:
256,192,77637,1,2,0:0:0:0:
256,192,77762,1,6,0:0:0:0:
256,192,77887,1,2,0:0:0:0:
256,192,77950,1,2,0:0:0:0:
256,192,78012,1,2,0:0:0:0:
256,192,78075,1,2,0:0:0:0:
256,192,78137,1,2,0:0:0:0:
256,192,78200,1,2,0:0:0:0:
256,192,78262,1,2,0:0:0:0:
256,192,78325,1,0,0:0:0:0:
256,192,78387,1,2,0:0:0:0:
256,192,78512,1,4,0:0:0:0:
256,192,78637,1,2,0:0:0:0:
256,192,78700,1,0,0:0:0:0:
256,192,78762,1,0,0:0:0:0:
256,192,78825,1,2,0:0:0:0:
256,192,78887,1,2,0:0:0:0:
256,192,78950,1,2,0:0:0:0:
256,192,79012,1,2,0:0:0:0:
256,192,79137,1,0,0:0:0:0:
256,192,79200,1,0,0:0:0:0:
256,192,79262,1,0,0:0:0:0:
256,192,79325,1,2,0:0:0:0:
256,192,79387,1,0,0:0:0:0:
256,192,79512,1,0,0:0:0:0:
256,192,79575,1,0,0:0:0:0:
256,192,79637,1,2,0:0:0:0:
256,192,79700,1,2,0:0:0:0:
256,192,79762,1,2,0:0:0:0:
256,192,79825,1,2,0:0:0:0:
256,192,79887,1,2,0:0:0:0:
256,192,79950,1,2,0:0:0:0:
256,192,80012,1,2,0:0:0:0:
256,192,80075,1,0,0:0:0:0:
256,192,80137,1,2,0:0:0:0:
256,192,80200,1,2,0:0:0:0:
256,192,80262,1,0,0:0:0:0:
256,192,80325,1,2,0:0:0:0:
256,192,80387,1,2,0:0:0:0:
256,192,80450,1,2,0:0:0:0:
256,192,80492,1,0,0:0:0:0:
256,192,80533,1,0,0:0:0:0:
256,192,80575,1,2,0:0:0:0:
256,192,80617,1,0,0:0:0:0:
256,192,80658,1,0,0:0:0:0:
256,192,80700,1,2,0:0:0:0:
256,192,80762,1,2,0:0:0:0:
256,192,80887,1,0,0:0:0:0:
256,192,80929,1,2,0:0:0:0:
256,192,80971,1,0,0:0:0:0:
256,192,81013,1,2,0:0:0:0:
256,192,81075,1,2,0:0:0:0:
256,192,81138,1,0,0:0:0:0:
256,192,81200,1,2,0:0:0:0:
256,192,81263,1,0,0:0:0:0:
256,192,81325,1,2,0:0:0:0:
256,192,81388,1,0,0:0:0:0:
256,192,81450,1,0,0:0:0:0:
256,192,81513,1,0,0:0:0:0:
256,192,81575,1,2,0:0:0:0:
256,192,81638,1,0,0:0:0:0:
256,192,81700,1,2,0:0:0:0:
256,192,81763,1,2,0:0:0:0:
256,192,81825,1,0,0:0:0:0:
256,192,81888,1,2,0:0:0:0:
256,192,81950,1,2,0:0:0:0:
256,192,82013,1,0,0:0:0:0:
256,192,82138,1,0,0:0:0:0:
256,192,82200,1,0,0:0:0:0:
256,192,82263,1,0,0:0:0:0:
256,192,82325,1,0,0:0:0:0:
256,192,82388,1,0,0:0:0:0:
256,192,82450,1,0,0:0:0:0:
256,192,82513,1,2,0:0:0:0:
256,192,82638,1,2,0:0:0:0:
256,192,82700,1,0,0:0:0:0:
256,192,82763,1,2,0:0:0:0:
256,192,82825,1,2,0:0:0:0:
256,192,82888,1,0,0:0:0:0:
256,192,82950,1,2,0:0:0:0:
256,192,83013,1,2,0:0:0:0:
256,192,83075,1,2,0:0:0:0:
256,192,83138,1,0,0:0:0:0:
256,192,83200,1,0,0:0:0:0:
256,192,83263,1,2,0:0:0:0:
256,192,83388,1,0,0:0:0:0:
256,192,83450,1,2,0:0:0:0:
256,192,83513,1,0,0:0:0:0:
256,192,83575,1,0,0:0:0:0:
256,192,83638,1,0,0:0:0:0:
256,192,83700,1,2,0:0:0:0:
256,192,83763,1,2,0:0:0:0:
256,192,83825,1,2,0:0:0:0:
256,192,83888,1,2,0:0:0:0:
256,192,83950,1,2,0:0:0:0:
256,192,84013,1,0,0:0:0:0:
256,192,84075,1,2,0:0:0:0:
256,192,84138,1,0,0:0:0:0:
256,192,84200,1,0,0:0:0:0:
256,192,84263,1,2,0:0:0:0:
256,192,84388,1,0,0:0:0:0:
256,192,84450,1,0,0:0:0:0:
256,192,84513,1,2,0:0:0:0:
256,192,84638,1,2,0:0:0:0:
256,192,84679,1,2,0:0:0:0:
256,192,84721,1,2,0:0:0:0:
256,192,84763,1,2,0:0:0:0:
256,192,84804,1,0,0:0:0:0:
256,192,84846,1,0,0:0:0:0:
256,192,84888,1,2,0:0:0:0:
256,192,84950,1,0,0:0:0:0:
256,192,84992,1,2,0:0:0:0:
256,192,85033,1,0,0:0:0:0:
256,192,85075,1,0,0:0:0:0:
256,192,85117,1,0,0:0:0:0:
256,192,85158,1,0,0:0:0:0:
256,192,85200,1,2,0:0:0:0:
256,192,85263,1,2,0:0:0:0:
256,192,85325,1,2,0:0:0:0:
256,192,85388,1,0,0:0:0:0:
256,192,85450,1,0,0:0:0:0:
256,192,85513,1,0,0:0:0:0:
256,192,85575,1,0,0:0:0:0:
256,192,85638,1,0,0:0:0:0:
256,192,85700,1,0,0:0:0:0:
256,192,85763,1,0,0:0:0:0:
256,192,85888,1,0,0:0:0:0:
256,192,85950,1,0,0:0:0:0:
256,192,86013,1,2,0:0:0:0:
256,192,86075,1,2,0:0:0:0:
256,192,86138,1,0,0:0:0:0:
256,192,86200,1,0,0:0:0:0:
256,192,86263,1,2,0:0:0:0:
256,192,86325,1,0,0:0:0:0:
256,192,86388,1,0,0:0:0:0:
256,192,86450,1,2,0:0:0:0:
256,192,86513,1,2,0:0:0:0:
256,192,86575,1,0,0:0:0:0:
256,192,86638,1,2,0:0:0:0:
256,192,86700,1,2,0:0:0:0:
256,192,86763,1,4,0:0:0:0:
256,192,86888,1,2,0:0:0:0:
256,192,86950,1,0,0:0:0:0:
256,192,87013,1,2,0:0:0:0:
256,192,87075,1,0,0:0:0:0:
256,192,87138,1,2,0:0:0:0:
256,192,87200,1,0,0:0:0:0:
256,192,87263,1,0,0:0:0:0:
256,192,87325,1,2,0:0:0:0:
256,192,87388,1,0,0:0:0:0:
256,192,87450,1,0,0:0:0:0:
256,192,87513,1,0,0:0:0:0:
256,192,87554,1,2,0:0:0:0:
256,192,87596,1,2,0:0:0:0:
256,192,87638,1,2,0:0:0:0:
256,192,87679,1,0,0:0:0:0:
256,192,87721,1,2,0:0:0:0:
256,192,87763,1,0,0:0:0:0:
256,192,87825,1,2,0:0:0:0:
256,192,87888,1,0,0:0:0:0:
256,192,88013,1,2,0:0:0:0:
256,192,88075,1,0,0:0:0:0:
256,192,88138,1,2,0:0:0:0:
256,192,88200,1,0,0:0:0:0:
256,192,88263,1,0,0:0:0:0:
256,192,88325,1,2,0:0:0:0:
256,192,88388,1,0,0:0:0:0:
256,192,88450,1,2,0:0:0:0:
256,192,88513,1,0,0:0:0:0:
256,192,88575,1,2,0:0:0:0:
256,192,88638,1,0,0:0:0:0:
256,192,88700,1,2,0:0:0:0:
256,192,88763,1,0,0:0:0:0:
256,192,88888,1,0,0:0:0:0:
256,192,88950,1,2,0:0:0:0:
256,192,89013,1,2,0:0:0:0:
256,192,89075,1,0,0:0:0:0:
256,192,89138,1,0,0:0:0:0:
256,192,89200,1,0,0:0:0:0:
256,192,89263,1,2,0:0:0:0:
256,192,89325,1,2,0:0:0:0:
256,192,89388,1,2,0:0:0:0:
256,192,89450,1,2,0:0:0:0:
256,192,89513,1,0,0:0:0:0:
256,192,89575,1,2,0:0:0:0:
256,192,89638,1,2,0:0:0:0:
256,192,89700,1,2,0:0:0:0:
256,192,89763,1,2,0:0:0:0:
256,192,89825,1,2,0:0:0:0:
256,192,89888,1,0,0:0:0:0:
256,192,90013,1,2,0:0:0:0:
256,192,90075,1,2,0:0:0:0:
256,192,90138,1,2,0:0:0:0:
256,192,90200,1,2,0:0:0:0:
256,192,90263,1,0,0:0:0:0:
256,192,90388,1,0,0:0:0:0:
256,192,90450,1,2,0:0:0:0:
256,192,90513,1,0,0:0:0:0:
256,192,90554,1,2,0:0:0:0:
256,192,90596,1,0,0:0:0:0:
256,192,90638,1,2,0:0:0:0:
256,192,90700,1,0,0:0:0:0:
256,192,90763,1,0,0:0:0:0:
256,192,90888,1,0,0:0:0:0:
256,192,90950,1,0,0:0:0:0:
256,192,91013,1,0,0:0:0:0:
256,192,91075,1,0,0:0:0:0:
256,192,91138,1,2,0:0:0:0:
256,192,91200,1,2,0:0:0:0:
256,192,91263,1,2,0:0:0:0:
256,192,91388,1,2,0:0:0:0:
256,192,91450,1,0,0:0:0:0:
256,192,91513,1,0,0:0:0:0:
256,192,91575,1,2,0:0:0:0:
256,192,91638,1,2,0:0:0:0:
256,192,91700,1,0,0:0:0:0:
256,192,91763,1,0,0:0:0:0:
256,192,91825,1,2,0:0:0:0:
256,192,91888,1,0,0:0:0:0:
256,192,91950,1,0,0:0:0:0:
256,192,92013,1,0,0:0:0:0:
256,192,92075,1,2,0:0:0:0:
256,192,92138,1,2,0:0:0:0:
256,192,92200,1,2,0:0:0:0:
256,192,92263,1,4,0:0:0:0:
256,192,92388,1,2,0:0:0:0:
256,192,92450,1,2,0:0:0:0:
256,192,92513,1,0,0:0:0:0:
256,192,92575,1,2,0:0:0:0:
256,192,92638,1,0,0:0:0:0:
256,192,92700,1,0,0:0:0:0:
256,192,92763,1,2,0:0:0:0:
256,192,92825,1,0,0:0:0:0:
256,192,92888,1,2,0:0:0:0:
256,192,92950,1,2,0:0:0:0:
256,192,92992,1,2,0:0:0:0:
256,192,93033,1,0,0:0:0:0:
256,192,93075,1,0,0:0:0:0:
256,192,93117,1,2,0:0:0:0:
256,192,93158,1,0,0:0:0:0:
256,192,93200,1,2,0:0:0:0:
256,192,93263,1,2,0:0:0:0:
256,192,93325,1,0,0:0:0:0:
256,192,93388,1,6,0:0:0:0:
256,192,93513,1,2,0:0:0:0:
256,192,93575,1,2,0:0:0:0:
256,192,93638,1,0,0:0:0:0:
256,192,93700,1,2,0:0:0:0:
256,192,93763,1,0,0:0:0:0:
256,192,93825,1,0,0:0:0:0:
256,192,93888,1,2,0:0:0:0:
256,192,93950,1,2,0:0:0:0:
256,192,94013,1,0,0:0:0:0:
256,192,94075,1,2,0:0:0:0:
256,192,94138,1,2,0:0:0:0:
256,192,94200,1,0,0:0:0:0:
256,192,94263,1,2,0:0:0:0:
256,192,94325,1,0,0:0:0:0:
256,192,94388,1,0,0:0:0:0:
256,192,94450,1,2,0:0:0:0:
256,192,94513,1,2,0:0:0:0:
256,192,94638,1,0,0:0:0:0:
256,192,94700,1,2,0:0:0:0:
256,192,94763,1,0,0:0:0:0:
256,192,94825,1,2,0:0:0:0:
256,192,94888,1,2,0:0:0:0:
256,192,94950,1,2,0:0:0:0:
256,192,95013,1,2,0:0:0:0:
256,192,95075,1,2,0:0:0:0:
256,192,95138,1,0,0:0:0:0:
256,192,95200,1,2,0:0:0:0:
256,192,95263,1,2,0:0:0:0:
256,192,95325,1,2,0:0:0:0:
256,192,95388,1,0,0:0:0:0:
256,192,95513,1,0,0:0:0:0:
256,192,95575,1,0,0:0:0:0:
256,192,95638,1,2,0:0:0:0:
256,192,95700,1,0,0:0:0:0:
256,192,95763,1,0,0:0:0:0:
256,192,95825,1,0,0:0:0:0:
256,192,95888,1,2,0:0:0:0:
256,192,95950,1,2,0:0:0:0:
256,192,96013,1,2,0:0:0:0:
256,192,96075,1,0,0:0:0:0:
256,192,96138,1,2,0:0:0:0:
256,192,96200,1,2,0:0:0:0:
256,192,96263,1,0,0:0:0:0:
256,192,96304,1,0,0:0:0:0:
256,192,96346,1,0,0:0:0:0:
256,192,96388,1,2,0:0:0:0:
256,192,96513,1,2,0:0:0:0:
256,192,96575,1,2,0:0:0:0:
256,192,96638,1,0,0:0:0:0:
256,192,96700,1,2,0:0:0:0:
256,192,96763,1,2,0:0:0:0:
256,192,96804,1,2,0:0:0:0:
256,192,96846,1,2,0:0:0:0:
256,192,96888,1,0,0:0:0:0:
256,192,96929,1,2,0:0:0:0:
256,192,96971,1,0,0:0:0:0:
256,192,97013,1,0,0:0:0:0:
256,192,97075,1,2,0:0:0:0:
256,192,97138,1,0,0:0:0:0:
256,192,97200,1,0,0:0:0:0:
256,192,97263,1,0,0:0:0:0:
256,192,97325,1,2,0:0:0:0:
256,192,97388,1,0,0:0:0:0:
256,192,97450,1,2,0:0:0:0:
256,192,97513,1,0,0:0:0:0:
256,192,97575,1,0,0:0:0:0:
256,192,97638,1,2,0:0:0:0:
256,192,97763,1,0,0:0:0:0:
256,192,97825,1,0,0:0:0:0:
256,192,97888,1,0,0:0:0:0:
256,192,98013,1,0,0:0:0:0:
256,192,98075,1,0,0:0:0:0:
256,192,98138,1,2,0:0:0:0:
256,192,98200,1,2,0:0:0:0:
256,192,98263,1,0,0:0:0:0:
256,192,98325,1,0,0:0:0:0:
256,192,98388,1,2,0:0:0:0:
256,192,98450,1,2,0:0:0:0:
256,192,98513,1,0,0:0:0:0:
256,192,98575,1,2,0:0:0:0:
256,192,98638,1,0,0:0:0:0:
256,192,98700,1,0,0:0:0:0:
256,192,98763,1,0,0:0:0:0:
256,192,98825,1,2,0:0:0:0:
256,192,98888,1,0,0:0:0:0:
256,192,98950,1,2,0:0:0:0:
256,192,99013,1,2,0:0:0:0:
256,192,99138,1,2,0:0:0:0:
256,192,99200,1,2,0:0:0:0:
256,192,99263,1,2,0:0:0:0:
256,192,99325,1,0,0:0:0:0:
256,192,99388,1,0,0:0:0:0:
256,192,99429,1,0,0:0:0:0:
256,192,99471,1,0,0:0:0:0:
256,192,99513,1,2,0:0:0:0:
256,192,99575,1,0,0:0:0:0:
256,192,99638,1,2,0:0:0:0:
256,192,99763,1,2,0:0:0:0:
256,192,99825,1,2,0:0:0:0:
256,192,99888,1,0,0:0:0:0:
256,192,99950,1,2,0:0:0:0:
256,192,100013,1,0,0:0:0:0:
256,192,100075,1,0,0:0:0:0:
256,192,100138,1,0,0:0:0:0:
256,192,100179,1,0,0:0:0:0:
256,192,100221,1,0,0:0:0:0:
256,192,100263,1,0,0:0:0:0:
256,192,100325,1,0,0:0:0:0:
256,192,100388,1,2,0:0:0:0:
256,192,100450,1,2,0:0:0:0:
256,192,100513,1,2,0:0:0:0:
256,192,100575,1,0,0:0:0:0:
256,192,100638,1,0,0:0:0:0:
256,192,100700,1,0,0:0:0:0:
256,192,100763,1,2,0:0:0:0:
256,192,100888,1,4,0:0:0:0:
256,192,101013,1,0,0:0:0:0:
256,192,101075,1,0,0:0:0:0:
256,192,101138,1,2,0:0:0:0:
256,192,101200,1,2,0:0:0:0:
256,192,101263,1,2,0:0:0:0:
256,192,101325,1,2,0:0:0:0:
256,192,101388,1,0,0:0:0:0:
256,192,101513,1,2,0:0:0:0:
256,192,101575,1,2,0:0:0:0:
256,192,101638,1,2,0:0:0:0:
256,192,101700,1,2,0:0:0:0:
256,192,101763,1,0,0:0:0:0:
256,192,101825,1,2,0:0:0:0:
256,192,101888,1,0,0:0:0:0:
256,192,101950,1,2,0:0:0:0:
256,192,102013,1,0,0:0:0:0:
256,192,102138,1,2,0:0:0:0:
256,192,102200,1,2,0:0:0:0:
256,192,102263,1,2,0:0:0:0:
256,192,102325,1,2,0:0:0:0:
256,192,102388,1,2,0:0:0:0:
256,192,102429,1,2,0:0:0:0:
256,192,102471,1,2,0:0:0:0:
256,192,102513,1,2,0:0:0:0:
256,192,102554,1,2,0:0:0:0:
256,192,102596,1,2,0:0:0:0:
256,192,102638,1,0,0:0:0:0:
256,192,102700,1,2,0:0:0:0:
256,192,102763,1,2,0:0:0:0:
256,192,102825,1,0,0:0:0:0:
256,192,102888,1,0,0:0:0:0:
256,192,103013,1,2,0:0:0:0:
256,192,103075,1,0,0:0:0:0:
256,192,103138,1,2,0:0:0:0:
256,192,103200,1,2,0:0:0:0:
256,192,103263,1,2,0:0:0:0:
256,192,103325,1,0,0:0:0:0:
256,192,103388,1,6,0:0:0:0:
256,192,103513,1,0,0:0:0:0:
256,192,103575,1,0,0:0:0:0:
256,192,103638,1,2,0:0:0:0:
256,192,103700,1,2,0:0:0:0:
256,192,103763,1,0,0:0:0:0:
256,192,103825,1,2,0:0:0:0:
256,192,103888,1,2,0:0:0:0:
256,192,103950,1,2,0:0:0:0:
256,192,104013,1,2,0:0:0:0:
256,192,104075,1,2,0:0:0:0:
256,192,104138,1,0,0:0:0:0:
256,192,104200,1,2,0:0:0:0:
256,192,104263,1,0,0:0:0:0:
256,192,104325,1,0,0:0:0:0:
256,192,104388,1,0,0:0:0:0:
256,192,104450,1,2,0:0:0:0:
256,192,104513,1,2,0:0:0:0:
256,192,104638,1,2,0:0:0:0:
256,192,104700,1,0,0:0:0:0:
256,192,104763,1,0,0:0:0:0:
256,192,104825,1,2,0:0:0:0:
256,192,104888,1,2,0:0:0:0:
256,192,104950,1,2,0:0:0:0:
256,192,105013,1,2,0:0:0:0:
256,192,105075,1,2,0:0:0:0:
256,192,105138,1,0,0:0:0:0:
256,192,105200,1,0,0:0:0:0:
256,192,105263,1,0,0:0:0:0:
256,192,105325,1,0,0:0:0:0:
256,192,105388,1,0,0:0:0:0:
256,192,105450,1,0,0:0:0:0:
256,192,105513,1,2,0:0:0:0:
256,192,105575,1,2,0:0:0:0:
256,192,105638,1,0,0:0:0:0:
256,192,105763,1,0,0:0:0:0:
256,192,105825,1,0,0:0:0:0:
256,192,105888,1,2,0:0:0:0:
256,192,106013,1,2,0:0:0:0:
256,192,106075,1,2,0:0:0:0:
256,192,106138,1,2,0:0:0:0:
256,192,106200,1,2,0:0:0:0:
256,192,106263,1,2,0:0:0:0:
256,192,106325,1,0,0:0:0:0:
256,192,106367,1,0,0:0:0:0:
256,192,106408,1,0,0:0:0:0:
256,192,106450,1,0,0:0:0:0:
256,192,106513,1,0,0:0:0:0:
256,192,106575,1,0,0:0:0:0:
256,192,106638,1,0,0:0:0:0:
256,192,106763,1,2,0:0:0:0:
256,192,106825,1,0,0:0:0:0:
256,192,106888,1,2,0:0:0:0:
256,192,106950,1,2,0:0:0:0:
256,192,107013,1,0,0:0:0:0:
256,192,107075,1,0,0:0:0:0:
256,192,107138,1,2,0:0:0:0:
256,192,107200,1,0,0:0:0:0:
256,192,107263,1,2,0:0:0:0:
256,192,107388,1,2,0:0:0:0:
256,192,107450,1,2,0:0:0:0:
256,192,107513,1,2,0:0:0:0:
256,192,107575,1,0,0:0:0:0:
256,192,107638,1,0,0:0:0:0:
256,192,107763,1,2,0:0:0:0:
256,192,107825,1,2,0:0:0:0:
256,192,107888,1,2,0:0:0:0:
256,192,107950,1,0,0:0:0:0:
256,192,108013,1,0,0:0:0:0:
256,192,108075,1,0,0:0:0:0:
256,192,108138,1,2,0:0:0:0:
256,192,108200,1,0,0:0:0:0:
256,192,108263,1,0,0:0:0:0:
256,192,108325,1,0,0:0:0:0:
256,192,108388,1,6,0:0:0:0:
256,192,108513,1,2,0:0:0:0:
256,192,108575,1,0,0:0:0:0:
256,192,108638,1,0,0:0:0:0:
256,192,108700,1,0,0:0:0:0:
256,192,108763,1,0,0:0:0:0:
256,192,108825,1,0,0:0:0:0:
256,192,108888,1,0,0:0:0:0:
256,192,108950,1,2,0:0:0:0:
256,192,109013,1,0,0:0:0:0:
256,192,109075,1,0,0:0:0:0:
256,192,109138,1,2,0:0:0:0:
256,192,109200,1,0,0:0:0:0:
256,192,109263,1,0,0:0:0:0:
256,192,109325,1,2,0:0:0:0:
256,192,109388,1,2,0:0:0:0:
256,192,109450,1,0,0:0:0:0:
256,192,109513,1,2,0:0:0:0:
256,192,109638,1,0,0:0:0:0:
256,192,109700,1,0,0:0:0:0:
256,192,109763,1,2,0:0:0:0:
256,192,109825,1,0,0:0:0:0:
256,192,109888,1,0,0:0:0:0:
256,192,110013,1,4,0:0:0:0:
256,192,110138,1,0,0:0:0:0:
256,192,110200,1,0,0:0:0:0:
256,192,110263,1,2,0:0:0:0:
256,192,110325,1,2,0:0:0:0:
256,192,110388,1,2,0:0:0:0:
256,192,110450,1,2,0:0:0:0:
256,192,110492,1,0,0:0:0:0:
256,192,110533,1,2,0:0:0:0:
256,192,110575,1,2,0:0:0:0:
256,192,110638,1,0,0:0:0:0:
256,192,110763,1,2,0:0:0:0:
256,192,110825,1,2,0:0:0:0:
256,192,110888,1,2,0:0:0:0:
256,192,111013,1,4,0:0:0:0:
256,192,111138,1,0,0:0:0:0:
256,192,111200,1,0,0:0:0:0:
256,192,111263,1,0,0:0:0:0:
256,192,111325,1,2,0:0:0:0:
256,192,111388,1,0,0:0:0:0:
256,192,111450,1,2,0:0:0:0:
256,192,111513,1,0,0:0:0:0:
256,192,111575,1,0,0:0:0:0:
256,192,111638,1,2,0:0:0:0:
256,192,111700,1,0,0:0:0:0:
256,192,111763,1,2,0:0:0:0:
256,192,111825,1,2,0:0:0:0:
256,192,111888,1,0,0:0:0:0:
256,192,111950,1,2,0:0:0:0:
256,192,112013,1,0,0:0:0:0:
256,192,112138,1,0,0:0:0:0:
256,192,112263,1,4,0:0:0:0:
256,192,112388,1,2,0:0:0:0:
256,192,112429,1,2,0:0:0:0:
256,192,112471,1,0,0:0:0:0:
256,192,112513,1,0,0:0:0:0:
256,192,112575,1,2,0:0:0:0:
256,192,112638,1,2,0:0:0:0:
256,192,112700,1,2,0:0:0:0:
256,192,112763,1,0,0:0:0:0:
256,192,112825,1,2,0:0:0:0:
256,192,112888,1,4,0:0:0:0:
256,192,113013,1,2,0:0:0:0:
256,192,113075,1,0,0:0:0:0:
256,192,113138,1,2,0:0:0:0:
256,192,113200,1,0,0:0:0:0:
256,192,113263,1,2,0:0:0:0:
256,192,113325,1,2,0:0:0:0:
256,192,113388,1,2,0:0:0:0:
256,192,113450,1,0,0:0:0:0:
256,192,113513,1,0,0:0:0:0:
256,192,113575,1,0,0:0:0:0:
256,192,113638,1,0,0:0:0:0:
256,192,113700,1,0,0:0:0:0:
256,192,113763,1,2,0:0:0:0:
256,192,113825,1,2,0:0:0:0:
256,192,113888,1,0,0:0:0:0:
256,192,113950,1,0,0:0:0:0:
256,192,114013,1,2,0:0:0:0:
256,192,114138,1,2,0:0:0:0:
256,192,114200,1,2,0:0:0:0:
256,192,114263,1,2,0:0:0:0:
256,192,114325,1,2,0:0:0:0:
256,192,114367,1,2,0:0:0:0:
256,192,114408,1,0,0:0:0:0:
256,192,114450,1,2,0:0:0:0:
256,192,114492,1,0,0:0:0:0:
256,192,114533,1,2,0:0:0:0:
256,192,114575,1,2,0:0:0:0:
256,192,114638,1,4,0:0:0:0:
256,192,114763,1,0,0:0:0:0:
256,192,114825,1,0,0:0:0:0:
256,192,114888,1,2,0:0:0:0:
256,192,115013,1,2,0:0:0:0:
256,192,115075,1,0,0:0:0:0:
256,192,115138,1,0,0:0:0:0:
256,192,115200,1,2,0:0:0:0:
256,192,115263,1,0,0:0:0:0:
256,192,115325,1,2,0:0:0:0:
256,192,115388,1,2,0:0:0:0:
256,192,115450,1,2,0:0:0:0:
256,192,115513,1,2,0:0:0:0:
256,192,115575,1,0,0:0:0:0:
256,192,115638,1,2,0:0:0:0:
256,192,115700,1,2,0:0:0:0:
256,192,115763,1,2,0:0:0:0:
256,192,115825,1,2,0:0:0:0:
256,192,115888,1,4,0:0:0:0:
256,192,116013,1,0,0:0:0:0:
256,192,116075,1,0,0:0:0:0:
256,192,116138,1,0,0:0:0:0:
256,192,116200,1,2,0:0:0:0:
256,192,116263,1,0,0:0:0:0:
256,192,116304,1,0,0:0:0:0:
256,192,116346,1,0,0:0:0:0:
256,192,116388,1,2,0:0:0:0:
256,192,116450,1,0,0:0:0:0:
256,192,116513,1,6,0:0:0:0:
256,192,116638,1,2,0:0:0:0:
256,192,116700,1,0,0:0:0:0:
256,192,116763,1,0,0:0:0:0:
256,192,116825,1,0,0:0:0:0:
256,192,116888,1,0,0:0:0:0:
256,192,116950,1,2,0:0:0:0:
256,192,117013,1,0,0:0:0:0:
256,192,117075,1,2,0:0:0:0:
256,192,117138,1,2,0:0:0:0:
256,192,117200,1,2,0:0:0:0:
256,192,117263,1,2,0:0:0:0:
256,192,117325,1,0,0:0:0:0:
256,192,117388,1,2,0:0:0:0:
256,192,117450,1,2,0:0:0:0:
256,192,117513,1,0,0:0:0:0:
256,192,117638,1,2,0:0:0:0:
256,192,117700,1,2,0:0:0:0:
256,192,117763,1,0,0:0:0:0:
256,192,117825,1,0,0:0:0:0:
256,192,117888,1,2,0:0:0:0:
256,192,117950,1,2,0:0:0:0:
256,192,118013,1,2,0:0:0:0:
256,192,118075,1,2,0:0:0:0:
256,192,118117,1,0,0:0:0:0:
256,192,118158,1,0,0:0:0:0:
256,192,118200,1,2,0:0:0:0:
256,192,118263,1,0,0:0:0:0:
256,192,118304,1,0,0:0:0:0:
256,192,118346,1,2,0:0:0:0:
256,192,118388,1,2,0:0:0:0:
256,192,118450,1,2,0:0:0:0:
256,192,118492,1,0,0:0:0:0:
256,192,118533,1,0,0:0:0:0:
256,192,118575,1,0,0:0:0:0:
256,192,118638,1,0,0:0:0:0:
256,192,118700,1,0,0:0:0:0:
256,192,118763,1,2,0:0:0:0:
256,192,118825,1,2,0:0:0:0:
256,192,118888,1,2,0:0:0:0:
256,192,119013,1,2,0:0:0:0:
256,192,119075,1,2,0:0:0:0:
256,192,119138,1,2,0:0:0:0:
256,192,119179,1,2,0:0:0:0:
256,192,119221,1,2,0:0:0:0:
256,192,119263,1,2,0:0:0:0:
256,192,119325,1,2,0:0:0:0:
256,192,119388,1,2,0:0:0:0:
256,192,119429,1,0,0:0:0:0:
256,192,119471,1,0,0:0:0:0:
256,192,119513,1,0,0:0:0:0:
256,192,119638,1,0,0:0:0:0:
256,192,119700,1,2,0:0:0:0:
256,192,119763,1,2,0:0:0:0:
256,192,119825,1,2,0:0:0:0:
256,192,119888,1,2,0:0:0:0:
256,192,120013,1,0,0:0:0:0:
256,192,120075,1,0,0:0:0:0:
256,192,120138,1,2,0:0:0:0:
256,192,120200,1,2,0:0:0:0:
256,192,120263,1,2,0:0:0:0:
256,192,120325,1,0,0:0:0:0:
256,192,120388,1,2,0:0:0:0:
256,192,120450,1,2,0:0:0:0:
256,192,120513,1,0,0:0:0:0:
256,192,120638,1,4,0:0:0:0:
256,192,120763,1,2,0:0:0:0:
256,192,120804,1,2,0:0:0:0:
256,192,120846,1,2,0:0:0:0:
256,192,120888,1,0,0:0:0:0:
256,192,120950,1,2,0:0:0:0:
256,192,121013,1,0,0:0:0:0:
256,192,121075,1,0,0:0:0:0:
256,192,121138,1,2,0:0:0:0:
256,192,121263,1,0,0:0:0:0:
256,192,121325,1,2,0:0:0:0:
256,192,121367,1,2,0:0:0:0:
256,192,121408,1,0,0:0:0:0:
256,192,121450,1,0,0:0:0:0:
256,192,121492,1,2,0:0:0:0:
256,192,121533,1,2,0:0:0:0:
256,192,121575,1,0,0:0:0:0:
256,192,121638,1,0,0:0:0:0:
256,192,121700,1,2,0:0:0:0:
256,192,121763,1,2,0:0:0:0:
256,192,121825,1,2,0:0:0:0:
256,192,121888,1,0,0:0:0:0:
256,192,121950,1,2,0:0:0:0:
256,192,122013,1,2,0:0:0:0:
256,192,122075,1,0,0:0:0:0:
256,192,122138,1,2,0:0:0:0:
256,192,122263,1,0,0:0:0:0:
256,192,122388,1,0,0:0:0:0:
256,192,122450,1,2,0:0:0:0:
256,192,122513,1,2,0:0:0:0:
256,192,122575,1,0,0:0:0:0:
256,192,122638,1,0,0:0:0:0:
256,192,122700,1,0,0:0:0:0:
256,192,122763,1,2,0:0:0:0:
256,192,122825,1,2,0:0:0:0:
256,192,122888,1,0,0:0:0:0:
256,192,122950,1,2,0:0:0:0:
256,192,123013,1,0,0:0:0:0:
256,192,123075,1,0,0:0:0:0:
256,192,123138,1,0,0:0:0:0:
256,192,123200,1,2,0:0:0:0:
256,192,123263,1,0,0:0:0:0:
256,192,123388,1,2,0:0:0:0:
256,192,123513,1,0,0:0:0:0:
256,192,123575,1,2,0:0:0:0:
256,192,123638,1,2,0:0:0:0:
256,192,123700,1,2,0:0:0:0:
256,192,123763,1,0,0:0:0:0:
256,192,123888,1,4,0:0:0:0:
256,192,124013,1,0,0:0:0:0:
256,192,124075,1,0,0:0:0:0:
256,192,124138,1,2,0:0:0:0:
256,192,124200,1,0,0:0:0:0:
256,192,124263,1,0,0:0:0:0:
256,192,124325,1,0,0:0:0:0:
256,192,124388,1,2,0:0:0:0:
256,192,124450,1,0,0:0:0:0:
256,192,124513,1,0,0:0:0:0:
256,192,124575,1,0,0:0:0:0:
256,192,124638,1,0,0:0:0:0:
256,192,124700,1,0,0:0:0:0:
256,192,124763,1,2,0:0:0:0:
256,192,124825,1,0,0:0:0:0:
256,192,124888,1,2,0:0:0:0:
256,192,125013,1,2,0:0:0:0:
256,192,125075,1,0,0:0:0:0:
256,192,125138,1,0,0:0:0:0:
256,192,125200,1,2,0:0:0:0:
256,192,125263,1,4,0:0:0:0:
256,192,125388,1,0,0:0:0:0:
256,192,125450,1,0,0:0:0:0:
256,192,125513,1,2,0:0:0:0:
256,192,125554,1,2,0:0:0:0:
256,192,125596,1,2,0:0:0:0:
256,192,125638,1,2,0:0:0:0:
256,192,125763,1,0,0:0:0:0:
256,192,125825,1,0,0:0:0:0:
256,192,125888,1,2,0:0:0:0:
256,192,126013,1,0,0:0:0:0:
256,192,126075,1,2,0:0:0:0:
256,192,126138,1,0,0:0:0:0:
256,192,126200,1,0,0:0:0:0:
256,192,126263,1,2,0:0:0:0:
256,192,126325,1,2,0:0:0:0:
256,192,126388,1,0,0:0:0:0:
256,192,126450,1,2,0:0:0:0:
256,192,126513,1,4,0:0:0:0:
256,192,126638,1,2,0:0:0:0:
256,192,126700,1,0,0:0:0:0:
256,192,126763,1,2,0:0:0:0:
256,192,126825,1,2,0:0:0:0:
256,192,126888,1,2,0:0:0:0:
256,192,126950,1,2,0:0:0:0:
256,192,127013,1,2,0:0:0:0:
256,192,127075,1,2,0:0:0:0:
256,192,127138,1,0,0:0:0:0:
256,192,127200,1,2,0:0:0:0:
256,192,127263,1,4,0:0:0:0:
256,192,127388,1,0,0:0:0:0:
256,192,127450,1,2,0:0:0:0:
256,192,127513,1,2,0:0:0:0:
256,192,127554,1,2,0:0:0:0:
256,192,127596,1,2,0:0:0:0:
256,192,127638,1,2,0:0:0:0:
256,192,127679,1,2,0:0:0:0:
256,192,127721,1,0,0:0:0:0:
256,192,127763,1,2,0:0:0:0:
256,192,127825,1,2,0:0:0:0:
256,192,127888,1,2,0:0:0:0:
256,192,127950,1,0,0:0:0:0:
256,192,128013,1,2,0:0:0:0:
256,192,128075,1,0,0:0:0:0:
256,192,128138,1,2,0:0:0:0:
256,192,128200,1,2,0:0:0:0:
256,192,128263,1,0,0:0:0:0:
256,192,128325,1,0,0:0:0:0:
256,192,128388,1,6,0:0:0:0:
256,192,128513,1,0,0:0:0:0:
256,192,128575,1,0,0:0:0:0:
256,192,128638,1,2,0:0:0:0:
256,192,128700,1,2,0:0:0:0:
256,192,128763,1,0,0:0:0:0:
256,192,128888,1,0,0:0:0:0:
256,192,128929,1,0,0:0:0:0:
256,192,128971,1,2,0:0:0:0:
256,192,129013,1,0,0:0:0:0:
256,192,129075,1,0,0:0:0:0:
256,192,129138,1,2,0:0:0:0:
256,192,129200,1,2,0:0:0:0:
256,192,129263,1,0,0:0:0:0:
256,192,129388,1,0,0:0:0:0:
256,192,129450,1,2,0:0:0:0:
256,192,129513,1,2,0:0:0:0:
256,192,129575,1,0,0:0:0:0:
256,192,129638,1,0,0:0:0:0:
256,192,129763,1,0,0:0:0:0:
256,192,129825,1,2,0:0:0:0:
256,192,129888,1,4,0:0:0:0:
256,192,130013,1,2,0:0:0:0:
256,192,130075,1,0,0:0:0:0:
256,192,130138,1,2,0:0:0:0:
256,192,130263,1,2,0:0:0:0:
256,192,130325,1,0,0:0:0:0:
256,192,130388,1,6,0:0:0:0:
256,192,130513,1,2,0:0:0:0:
256,192,130575,1,0,0:0:0:0:
256,192,130638,1,0,0:0:0:0:
256,192,130700,1,2,0:0:0:0:
256,192,130763,1,0,0:0:0:0:
256,192,130888,1,0,0:0:0:0:
256,192,130950,1,2,0:0:0:0:
256,192,131013,1,0,0:0:0:0:
256,192,131138,1,2,0:0:0:0:
256,192,131263,1,0,0:0:0:0:
256,192,131325,1,0,0:0:0:0:
256,192,131388,1,2,0:0:0:0:
256,192,131450,1,0,0:0:0:0:
256,192,131513,1,2,0:0:0:0:
256,192,131575,1,2,0:0:0:0:
256,192,131638,1,0,0:0:0:0:
256,192,131763,1,2,0:0:0:0:
256,192,131825,1,2,0:0:0:0:
256,192,131888,1,2,0:0:0:0:
256,192,131950,1,0,0:0:0:0:
256,192,132013,1,0,0:0:0:0:
256,192,132075,1,2,0:0:0:0:
256,192,132138,1,0,0:0:0:0:
256,192,132200,1,2,0:0:0:0:
256,192,132263,1,2,0:0:0:0:
256,192,132325,1,0,0:0:0:0:
256,192,132367,1,2,0:0:0:0:
256,192,132408,1,2,0:0:0:0:
256,192,132450,1,2,0:0:0:0:
256,192,132492,1,0,0:0:0:0:
256,192,132533,1,0,0:0:0:0:
256,192,132575,1,0,0:0:0:0:
256,192,132638,1,2,0:0:0:0:
256,192,132700,1,0,0:0:0:0:
256,192,132763,1,2,0:0:0:0:
256,192,132888,1,4,0:0:0:0:
256,192,133013,1,0,0:0:0:0:
256,192,133075,1,2,0:0:0:0:
256,192,133138,1,2,0:0:0:0:
256,192,133200,1,2,0:0:0:0:
256,192,133263,1,2,0:0:0:0:
256,192,133325,1,0,0:0:0:0:
256,192,133367,1,2,0:0:0:0:
256,192,133408,1,2,0:0:0:0:
256,192,133450,1,0,0:0:0:0:
256,192,133513,1,2,0:0:0:0:
256,192,133575,1,0,0:0:0:0:
256,192,133638,1,0,0:0:0:0:
256,192,133700,1,2,0:0:0:0:
256,192,133763,1,2,0:0:0:0:
256,192,133888,1,6,0:0:0:0:
256,192,134013,1,0,0:0:0:0:
256,192,134075,1,0,0:0:0:0:
256,192,134138,1,0,0:0:0:0:
256,192,134200,1,0,0:0:0:0:
256,192,134263,1,0,0:0:0:0:
256,192,134325,1,0,0:0:0:0:
256,192,134388,1,0,0:0:0:0:
256,192,134450,1,0,0:0:0:0:
256,192,134513,1,2,0:0:0:0:
256,192,134575,1,2,0:0:0:0:
256,192,134638,1,2,0:0:0:0:
256,192,134700,1,0,0:0:0:0:
256,192,134763,1,0,0:0:0:0:
256,192,134825,1,0,0:0:0:0:
256,192,134867,1,2,0:0:0:0:
256,192,134908,1,2,0:0:0:0:
256,192,134950,1,0,0:0:0:0:
256,192,135013,1,0,0:0:0:0:
256,192,135138,1,0,0:0:0:0:
256,192,135263,1,0,0:0:0:0:
256,192,135325,1,2,0:0:0:0:
256,192,135388,1,2,0:0:0:0:
256,192,135513,1,2,0:0:0:0:
256,192,135575,1,2,0:0:0:0:
256,192,135638,1,2,0:0:0:0:
256,192,135700,1,0,0:0:0:0:
256,192,135763,1,2,0:0:0:0:
256,192,135888,1,2,0:0:0:0:
256,192,135950,1,0,0:0:0:0:
256,192,136013,1,0,0:0:0:0:
256,192,136075,1,0,0:0:0:0:
256,192,136138,1,0,0:0:0:0:
256,192,136200,1,0,0:0:0:0:
256,192,136263,1,2,0:0:0:0:
256,192,136325,1,0,0:0:0:0:
256,192,136388,1,2,0:0:0:0:
256,192,136450,1,0,0:0:0:0:
256,192,136513,1,2,0:0:0:0:
256,192,136575,1,0,0:0:0:0:
256,192,136638,1,0,0:0:0:0:
256,192,136700,1,2,0:0:0:0:
256,192,136763,1,4,0:0:0:0:
256,192,136888,1,0,0:0:0:0:
256,192,136950,1,2,0:0:0:0:
256,192,137013,1,0,0:0:0:0:
256,192,137075,1,2,0:0:0:0:
256,192,137138,1,0,0:0:0:0:
256,192,137263,1,0,0:0:0:0:
256,192,137325,1,0,0:0:0:0:
256,192,137388,1,2,0:0:0:0:
256,192,137450,1,2,0:0:0:0:
256,192,137513,1,2,0:0:0:0:
256,192,137575,1,0,0:0:0:0:
256,192,137638,1,0,0:0:0:0:
256,192,137700,1,2,0:0:0:0:
256,192,137742,1,2,0:0:0:0:
256,192,137783,1,0,0:0:0:0:
256,192,137825,1,0,0:0:0:0:
256,192,137888,1,2,0:0:0:0:
256,192,137950,1,0,0:0:0:0:
256,192,138013,1,2,0:0:0:0:
256,192,138075,1,2,0:0:0:0:
256,192,138138,1,2,0:0:0:0:
256,192,138179,1,0,0:0:0:0:
256,192,138221,1,2,0:0:0:0:
256,192,138263,1,2,0:0:0:0:
256,192,138325,1,0,0:0:0:0:
256,192,138388,1,6,0:0:0:0:
256,192,138513,1,0,0:0:0:0:
256,192,138575,1,2,0:0:0:0:
256,192,138638,1,0,0:0:0:0:
256,192,138700,1,2,0:0:0:0:
256,192,138763,1,2,0:0:0:0:
256,192,138825,1,2,0:0:0:0:
256,192,138888,1,0,0:0:0:0:
256,192,138950,1,0,0:0:0:0:
256,192,139013,1,2,0:0:0:0:
256,192,139075,1,0,0:0:0:0:
256,192,139138,1,2,0:0:0:0:
256,192,139200,1,2,0:0:0:0:
256,192,139263,1,0,0:0:0:0:
256,192,139325,1,0,0:0:0:0:
256,192,139388,1,6,0:0:0:0:
256,192,139513,1,0,0:0:0:0:
256,192,139575,1,2,0:0:0:0:
256,192,139638,1,0,0:0:0:0:
256,192,139700,1,0,0:0:0:0:
256,192,139742,1,0,0:0:0:0:
256,192,139783,1,2,0:0:0:0:
256,192,139825,1,2,0:0:0:0:
256,192,139888,1,4,0:0:0:0:
256,192,140013,1,0,0:0:0:0:
256,192,140075,1,2,0:0:0:0:
256,192,140138,1,0,0:0:0:0:
256,192,140200,1,0,0:0:0:0:
256,192,140263,1,0,0:0:0:0:
256,192,140325,1,0,0:0:0:0:
256,192,140388,1,2,0:0:0:0:
256,192,140450,1,0,0:0:0:0:
256,192,140513,1,6,0:0:0:0:
256,192,140638,1,2,0:0:0:0:
256,192,140700,1,0,0:0:0:0:
256,192,140763,1,0,0:0:0:0:
256,192,140825,1,2,0:0:0:0:
256,192,140888,1,0,0:0:0:0:
256,192,140950,1,0,0:0:0:0:
256,192,141013,1,2,0:0:0:0:
256,192,141075,1,0,0:0:0:0:
256,192,141138,1,2,0:0:0:0:
256,192,141200,1,2,0:0:0:0:
256,192,141263,1,0,0:0:0:0:
256,192,141325,1,0,0:0:0:0:
256,192,141388,1,0,0:0:0:0:
256,192,141513,1,2,0:0:0:0:
256,192,141638,1,0,0:0:0:0:
256,192,141700,1,0,0:0:0:0:
256,192,141763,1,2,0:0:0:0:
256,192,141825,1,0,0:0:0:0:
256,192,141888,1,0,0:0:0:0:
256,192,141950,1,2,0:0:0:0:
256,192,142013,1,0,0:0:0:0:
256,192,142075,1,2,0:0:0:0:
256,192,142138,1,0,0:0:0:0:
256,192,142200,1,2,0:0:0:0:
256,192,142263,1,4,0:0:0:0:
256,192,142388,1,0,0:0:0:0:
256,192,142450,1,0,0:0:0:0:
256,192,142513,1,0,0:0:0:0:
256,192,142638,1,0,0:0:0:0:
256,192,142700,1,0,0:0:0:0:
256,192,142763,1,0,0:0:0:0:
256,192,142825,1,0,0:0:0:0:
256,192,142888,1,2,0:0:0:0:
256,192,142950,1,2,0:0:0:0:
256,192,143013,1,2,0:0:0:0:
256,192,143075,1,0,0:0:0:0:
256,192,143138,1,2,0:0:0:0:
256,192,143200,1,2,0:0:0:0:
256,192,143263,1,0,0:0:0:0:
256,192,143325,1,0,0:0:0:0:
256,192,143388,1,2,0:0:0:0:
256,192,143513,1,2,0:0:0:0:
256,192,143575,1,0,0:0:0:0:
256,192,143638,1,2,0:0:0:0:
256,192,143763,1,0,0:0:0:0:
256,192,143825,1,0,0:0:0:0:
256,192,143888,1,2,0:0:0:0:
256,192,143950,1,0,0:0:0:0:
256,192,144013,1,0,0:0:0:0:
256,192,144054,1,0,0:0:0:0:
256,192,144096,1,0,0:0:0:0:
256,192,144138,1,0,0:0:0:0:
256,192,144200,1,0,0:0:0:0:
256,192,144263,1,2,0:0:0:0:
256,192,144325,1,0,0:0:0:0:
256,192,144388,1,6,0:0:0:0:
256,192,144513,1,2,0:0:0:0:
256,192,144575,1,2,0:0:0:0:
256,192,144638,1,2,0:0:0:0:
256,192,144700,1,0,0:0:0:0:
256,192,144763,1,2,0:0:0:0:
256,192,144825,1,0,0:0:0:0:
256,192,144888,1,0,0:0:0:0:
256,192,145013,1,0,0:0:0:0:
256,192,145075,1,2,0:0:0:0:
256,192,145138,1,0,0:0:0:0:
256,192,145263,1,0,0:0:0:0:
256,192,145304,1,0,0:0:0:0:
256,192,145346,1,2,0:0:0:0:
256,192,145388,1,2,0:0:0:0:
256,192,145450,1,2,0:0:0:0:
256,192,145513,1,0,0:0:0:0:
256,192,145575,1,2,0:0:0:0:
256,192,145638,1,0,0:0:0:0:
256,192,145700,1,2,0:0:0:0:
256,192,145763,1,2,0:0:0:0:
256,192,145825,1,2,0:0:0:0:
256,192,145888,1,2,0:0:0:0:
256,192,145950,1,0,0:0:0:0:
256,192,146013,1,2,0:0:0:0:
256,192,146138,1,0,0:0:0:0:
256,192,146200,1,2,0:0:0:0:
256,192,146263,1,2,0:0:0:0:
256,192,146325,1,0,0:0:0:0:
256,192,146388,1,0,0:0:0:0:
256,192,146450,1,2,0:0:0:0:
256,192,146513,1,2,0:0:0:0:
256,192,146575,1,0,0:0:0:0:
256,192,146638,1,0,0:0:0:0:
256,192,146679,1,0,0:0:0:0:
256,192,146721,1,0,0:0:0:0:
256,192,146763,1,2,0:0:0:0:
256,192,146825,1,2,0:0:0:0:
256,192,146888,1,2,0:0:0:0:
256,192,147013,1,2,0:0:0:0:
256,192,147075,1,0,0:0:0:0:
256,192,147138,1,2,0:0:0:0:
256,192,147200,1,0,0:0:0:0:
256,192,147263,1,2,0:0:0:0:
256,192,147325,1,0,0:0:0:0:
256,192,147388,1,2,0:0:0:0:
256,192,147450,1,0,0:0:0:0:
256,192,147513,1,2,0:0:0:0:
256,192,147575,1,2,0:0:0:0:
256,192,147638,1,2,0:0:0:0:
256,192,147700,1,0,0:0:0:0:
256,192,147763,1,2,0:0:0:0:
256,192,147825,1,0,0:0:0:0:
256,192,147888,1,0,0:0:0:0:
256,192,148013,1,0,0:0:0:0:
256,192,148054,1,2,0:0:0:0:
256,192,148096,1,0,0:0:0:0:
256,192,148138,1,0,0:0:0:0:
256,192,148200,1,2,0:0:0:0:
256,192,148263,1,2,0:0:0:0:
256,192,148325,1,2,0:0:0:0:
256,192,148388,1,2,0:0:0:0:
256,192,148450,1,0,0:0:0:0:
256,192,148513,1,2,0:0:0:0:
256,192,148575,1,0,0:0:0:0:
256,192,148638,1,2,0:0:0:0:
256,192,148700,1,0,0:0:0:0:
256,192,148763,1,2,0:0:0:0:
256,192,148825,1,0,0:0:0:0:
256,192,148867,1,0,0:0:0:0:
256,192,148908,1,0,0:0:0:0:
256,192,148950,1,2,0:0:0:0:
256,192,149013,1,0,0:0:0:0:
256,192,149138,1,2,0:0:0:0:
256,192,149200,1,0,0:0:0:0:
256,192,149263,1,2,0:0:0:0:
256,192,149325,1,2,0:0:0:0:
256,192,149367,1,2,0:0:0:0:
256,192,149408,1,2,0:0:0:0:
256,192,149450,1,2,0:0:0:0:
256,192,149492,1,0,0:0:0:0:
256,192,149533,1,2,0:0:0:0:
256,192,149575,1,0,0:0:0:0:
256,192,149638,1,2,0:0:0:0:
256,192,149700,1,0,0:0:0:0:
256,192,149763,1,0,0:0:0:0:
256,192,149825,1,2,0:0:0:0:
256,192,149888,1,2,0:0:0:0:
256,192,149950,1,2,0:0:0:0:
256,192,150013,1,2,0:0:0:0:
256,192,150075,1,2,0:0:0:0:
256,192,150138,1,0,0:0:0:0:
256,192,150200,1,0,0:0:0:0:
256,192,150263,1,0,0:0:0:0:
256,192,150325,1,2,0:0:0:0:
256,192,150388,1,2,0:0:0:0:
256,192,150513,1,0,0:0:0:0:
256,192,150575,1,2,0:0:0:0:
256,192,150638,1,2,0:0:0:0:
256,192,150700,1,0,0:0:0:0:
256,192,150763,1,2,0:0:0:0:
256,192,150825,1,0,0:0:0:0:
256,192,150888,1,2,0:0:0:0:
256,192,150950,1,2,0:0:0:0:
256,192,151013,1,0,0:0:0:0:
256,192,151138,1,2,0:0:0:0:
256,192,151200,1,2,0:0:0:0:
256,192,151263,1,2,0:0:0:0:
256,192,151325,1,0,0:0:0:0:
256,192,151388,1,2,0:0:0:0:
256,192,151450,1,2,0:0:0:0:
256,192,151513,1,0,0:0:0:0:
256,192,151575,1,2,0:0:0:0:
256,192,151638,1,0,0:0:0:0:
256,192,151700,1,2,0:0:0:0:
256,192,151763,1,0,0:0:0:0:
256,192,151888,1,2,0:0:0:0:
256,192,151950,1,2,0:0:0:0:
256,192,152013,1,0,0:0:0:0:
256,192,152075,1,2,0:0:0:0:
256,192,152138,1,2,0:0:0:0:
256,192,152200,1,2,0:0:0:0:
256,192,152263,1,2,0:0:0:0:
256,192,152325,1,2,0:0:0:0:
256,192,152388,1,2,0:0:0:0:
256,192,152450,1,2,0:0:0:0:
256,192,152513,1,0,0:0:0:0:
256,192,152575,1,2,0:0:0:0:
256,192,152638,1,0,0:0:0:0:
256,192,152763,1,0,0:0:0:0:
256,192,152825,1,0,0:0:0:0:
256,192,152888,1,2,0:0:0:0:
256,192,152950,1,2,0:0:0:0:
256,192,153013,1,2,0:0:0:0:
256,192,153075,1,0,0:0:0:0:
256,192,153138,1,0,0:0:0:0:
256,192,153200,1,0,0:0:0:0:
256,192,153263,1,6,0:0:0:0:
256,192,153388,1,0,0:0:0:0:
256,192,153450,1,2,0:0:0:0:
256,192,153492,1,2,0:0:0:0:
256,192,153533,1,2,0:0:0:0:
256,192,153575,1,0,0:0:0:0:
256,192,153617,1,2,0:0:0:0:
256,192,153658,1,0,0:0:0:0:
256,192,153700,1,0,0:0:0:0:
256,192,153763,1,2,0:0:0:0:
256,192,153825,1,0,0:0:0:0:
256,192,153888,1,2,0:0:0:0:
256,192,153950,1,0,0:0:0:0:
256,192,154013,1,2,0:0:0:0:
256,192,154075,1,2,0:0:0:0:
256,192,154138,1,2,0:0:0:0:
256,192,154200,1,2,0:0:0:0:
256,192,154263,1,2,0:0:0:0:
256,192,154325,1,0,0:0:0:0:
256,192,154388,1,0,0:0:0:0:
256,192,154450,1,0,0:0:0:0:
256,192,154513,1,0,0:0:0:0:
256,192,154575,1,0,0:0:0:0:
256,192,154638,1,2,0:0:0:0:
256,192,154763,1,2,0:0:0:0:
256,192,154825,1,2,0:0:0:0:
256,192,154888,1,2,0:0:0:0:
256,192,154950,1,0,0:0:0:0:
256,192,155013,1,0,0:0:0:0:
256,192,155075,1,0,0:0:0:0:
256,192,155138,1,2,0:0:0:0:
256,192,155200,1,2,0:0:0:0:
256,192,155263,1,2,0:0:0:0:
256,192,155325,1,0,0:0:0:0:
256,192,155388,1,2,0:0:0:0:
256,192,155450,1,2,0:0:0:0:
256,192,155492,1,2,0:0:0:0:
256,192,155533,1,0,0:0:0:0:
256,192,155575,1,0,0:0:0:0:
256,192,155617,1,2,0:0:0:0:
256,192,155658,1,2,0:0:0:0:
256,192,155700,1,2,0:0:0:0:
256,192,155762,1,0,0:0:0:0:
256,192,155825,1,0,0:0:0:0:
256,192,155887,1,2,0:0:0:0:
256,192,156012,1,2,0:0:0:0:
256,192,156075,1,0,0:0:0:0:
256,192,156137,1,2,0:0:0:0:
256,192,156200,1,2,0:0:0:0:
256,192,156262,1,2,0:0:0:0:
256,192,156325,1,2,0:0:0:0:
256,192,156387,1,0,0:0:0:0:
256,192,156450,1,0,0:0:0:0:
256,192,156492,1,2,0:0:0:0:
256,192,156533,1,0,0:0:0:0:
256,192,156575,1,2,0:0:0:0:
256,192,156617,1,0,0:0:0:0:
256,192,156658,1,0,0:0:0:0:
256,192,156700,1,0,0:0:0:0:
256,192,156762,1,2,0:0:0:0:
256,192,156825,1,0,0:0:0:0:
256,192,156887,1,0,0:0:0:0:
256,192,156950,1,0,0:0:0:0:
256,192,157012,1,0,0:0:0:0:
256,192,157075,1,0,0:0:0:0:
256,192,157137,1,0,0:0:0:0:
256,192,157200,1,0,0:0:0:0:
256,192,157262,1,6,0:0:0:0:
256,192,157387,1,2,0:0:0:0:
256,192,157450,1,2,0:0:0:0:
256,192,157512,1,2,0:0:0:0:
256,192,157575,1,2,0:0:0:0:
256,192,157637,1,0,0:0:0:0:
256,192,157700,1,0,0:0:0:0:
256,192,157762,1,6,0:0:0:0:
256,192,157887,1,2,0:0:0:0:
256,192,157950,1,0,0:0:0:0:
256,192,158012,1,2,0:0:0:0:
256,192,158075,1,2,0:0:0:0:
256,192,158137,1,0,0:0:0:0:
256,192,158200,1,2,0:0:0:0:
256,192,158262,1,2,0:0:0:0:
256,192,158325,1,0,0:0:0:0:
256,192,158387,1,6,0:0:0:0:
256,192,158512,1,0,0:0:0:0:
256,192,158575,1,0,0:0:0:0:
256,192,158637,1,0,0:0:0:0:
256,192,158700,1,2,0:0:0:0:
256,192,158762,1,0,0:0:0:0:
256,192,158825,1,2,0:0:0:0:
256,192,158887,1,0,0:0:0:0:
256,192,158950,1,2,0:0:0:0:
256,192,159012,1,0,0:0:0:0:
256,192,159075,1,2,0:0:0:0:
256,192,159137,1,0,0:0:0:0:
256,192,159200,1,0,0:0:0:0:
256,192,159262,1,2,0:0:0:0:
256,192,159325,1,2,0:0:0:0:
256,192,159387,1,0,0:0:0:0:
256,192,159512,1,2,0:0:0:0:
256,192,159575,1,2,0:0:0:0:
256,192,159637,1,0,0:0:0:0:
256,192,159679,1,0,0:0:0:0:
256,192,159721,1,2,0:0:0:0:
256,192,159762,1,2,0:0:0:0:
256,192,159804,1,0,0:0:0:0:
256,192,159846,1,2,0:0:0:0:
256,192,159887,1,0,0:0:0:0:
256,192,159950,1,0,0:0:0:0:
256,192,160012,1,2,0:0:0:0:
256,192,160075,1,2,0:0:0:0:
256,192,160137,1,2,0:0:0:0:
256,192,160200,1,0,0:0:0:0:
256,192,160262,1,2,0:0:0:0:
256,192,160325,1,2,0:0:0:0:
256,192,160387,1,0,0:0:0:0:
256,192,160512,1,0,0:0:0:0:
256,192,160575,1,0,0:0:0:0:
256,192,160637,1,0,0:0:0:0:
256,192,160700,1,0,0:0:0:0:
256,192,160762,1,2,0:0:0:0:
