osu file format v14

[General]
AudioFilename: freedman.mp3
AudioLeadIn: 0
PreviewTime: 80580
Countdown: 0
SampleSet: None
StackLeniency: 0.7
Mode: 1
LetterboxInBreaks: 0
EpilepsyWarning: 1
WidescreenStoryboard: 1

[Editor]
Bookmarks: 76200,130825,139388
DistanceSpacing: 1.5
BeatDivisor: 4
GridSize: 32
TimelineZoom: 1

[Metadata]
Title:FREEDMAN
TitleUnicode:FREEDMAN
Artist:FujuniseikouyuuP
ArtistUnicode:不純異性交遊P
Creator:DarkStoorM
Version:W-TaikoGen
Source:
Tags:HujuniseikouyuuP Vocaloid Megpoid GUMI Nanahoshi Kangengakudan Seven Stars Orchestra W_h_i_t_e Raose iyasine nouk qoot8123
BeatmapID:1959969
BeatmapSetID:938311

[Difficulty]
HPDrainRate:0
CircleSize:4
OverallDifficulty:8
ApproachRate:6
SliderMultiplier:1.6
SliderTickRate:1

[Events]
//Background and Video events
0,0,"freedman.png",0,0
//Break Periods
//Storyboard Layer 0 (Background)
//Storyboard Layer 1 (Fail)
//Storyboard Layer 2 (Pass)
//Storyboard Layer 3 (Foreground)
//Storyboard Sound Samples

[TimingPoints]
638,250,4,1,0,90,1,0
80638,-100,4,1,0,90,0,1
100888,-100,4,1,0,90,0,0
140638,-100,4,1,0,90,0,1
160638,-100,4,1,0,90,0,0

[Colours]
Combo1 : 255,0,128
Combo2 : 192,192,192
Combo3 : 0,255,0
Combo4 : 255,255,255

[HitObjects]
256,192,638,5,0,0:0:0:0:
256,192,700,1,0,0:0:0:0:
256,192,763,1,2,0:0:0:0:
256,192,825,1,2,0:0:0:0:
256,192,888,1,4,0:0:0:0:
256,192,1013,1,2,0:0:0:0:
256,192,1075,1,0,0:0:0:0:
256,192,1138,1,0,0:0:0:0:
256,192,1200,1,0,0:0:0:0:
256,192,1263,1,2,0:0:0:0:
256,192,1388,1,2,0:0:0:0:
256,192,1450,1,2,0:0:0:0:
256,192,1513,1,2,0:0:0:0:
256,192,1638,1,2,0:0:0:0:
256,192,1700,1,2,0:0:0:0:
256,192,1763,1,2,0:0:0:0:
256,192,1888,1,2,0:0:0:0:
256,192,1950,1,0,0:0:0:0:
256,192,2013,1,0,0:0:0:0:
256,192,2075,1,2,0:0:0:0:
256,192,2138,1,0,0:0:0:0:
256,192,2200,1,0,0:0:0:0:
256,192,2263,1,0,0:0:0:0:
256,192,2325,1,0,0:0:0:0:
256,192,2388,1,2,0:0:0:0:
256,192,2513,1,2,0:0:0:0:
256,192,2575,1,0,0:0:0:0:
256,192,2638,1,0,0:0:0:0:
256,192,2700,1,0,0:0:0:0:
256,192,2763,1,0,0:0:0:0:
256,192,2825,1,2,0:0:0:0:
256,192,2888,1,2,0:0:0:0:
256,192,2950,1,2,0:0:0:0:
256,192,3013,1,2,0:0:0:0:
256,192,3138,1,2,0:0:0:0:
256,192,3200,1,0,0:0:0:0:
256,192,3263,1,2,0:0:0:0:
256,192,3325,1,2,0:0:0:0:
256,192,3388,1,2,0:0:0:0:
256,192,3450,1,0,0:0:0:0:
256,192,3513,1,0,0:0:0:0:
256,192,3575,1,2,0:0:0:0:
256,192,3638,1,0,0:0:0:0:
256,192,3763,1,0,0:0:0:0:
256,192,3825,1,0,0:0:0:0:
256,192,3888,1,0,0:0:0:0:
256,192,3950,1,0,0:0:0:0:
256,192,4013,1,2,0:0:0:0:
256,192,4138,1,0,0:0:0:0:
256,192,4263,1,2,0:0:0:0:
256,192,4325,1,0,0:0:0:0:
256,192,4388,1,2,0:0:0:0:
256,192,4450,1,0,0:0:0:0:
256,192,4513,1,2,0:0:0:0:
256,192,4575,1,0,0:0:0:0:
256,192,4638,1,2,0:0:0:0:
256,192,4700,1,0,0:0:0:0:
256,192,4763,1,0,0:0:0:0:
256,192,4888,1,2,0:0:0:0:
256,192,5013,1,2,0:0:0:0:
256,192,5075,1,2,0:0:0:0:
256,192,5138,1,2,0:0:0:0:
256,192,5200,1,2,0:0:0:0:
256,192,5263,1,2,0:0:0:0:
256,192,5325,1,0,0:0:0:0:
256,192,5388,1,0,0:0:0:0:
256,192,5450,1,0,0:0:0:0:
256,192,5513,1,2,0:0:0:0:
256,192,5638,1,2,0:0:0:0:
256,192,5700,1,2,0:0:0:0:
256,192,5763,1,2,0:0:0:0:
256,192,5825,1,2,0:0:0:0:
256,192,5888,1,0,0:0:0:0:
256,192,6013,1,2,0:0:0:0:
256,192,6138,1,2,0:0:0:0:
256,192,6200,1,2,0:0:0:0:
256,192,6263,1,2,0:0:0:0:
256,192,6325,1,0,0:0:0:0:
256,192,6388,1,0,0:0:0:0:
256,192,6450,1,0,0:0:0:0:
256,192,6513,1,2,0:0:0:0:
256,192,6575,1,2,0:0:0:0:
256,192,6638,1,0,0:0:0:0:
256,192,6763,1,2,0:0:0:0:
256,192,6825,1,2,0:0:0:0:
256,192,6888,1,2,0:0:0:0:
256,192,6950,1,2,0:0:0:0:
256,192,7013,1,2,0:0:0:0:
256,192,7075,1,2,0:0:0:0:
256,192,7138,1,2,0:0:0:0:
256,192,7263,1,0,0:0:0:0:
256,192,7325,1,0,0:0:0:0:
256,192,7388,1,2,0:0:0:0:
256,192,7450,1,0,0:0:0:0:
256,192,7513,1,0,0:0:0:0:
256,192,7575,1,0,0:0:0:0:
256,192,7638,1,0,0:0:0:0:
256,192,7700,1,2,0:0:0:0:
256,192,7763,1,2,0:0:0:0:
256,192,7888,1,0,0:0:0:0:
256,192,8013,1,0,0:0:0:0:
256,192,8075,1,0,0:0:0:0:
256,192,8138,1,0,0:0:0:0:
256,192,8200,1,2,0:0:0:0:
256,192,8263,1,4,0:0:0:0:
256,192,8388,1,2,0:0:0:0:
256,192,8513,1,2,0:0:0:0:
256,192,8638,1,0,0:0:0:0:
256,192,8700,1,0,0:0:0:0:
256,192,8763,1,0,0:0:0:0:
256,192,8825,1,2,0:0:0:0:
256,192,8888,1,2,0:0:0:0:
256,192,8950,1,2,0:0:0:0:
256,192,9013,1,2,0:0:0:0:
256,192,9075,1,2,0:0:0:0:
256,192,9138,1,2,0:0:0:0:
256,192,9263,1,0,0:0:0:0:
256,192,9325,1,0,0:0:0:0:
256,192,9388,1,0,0:0:0:0:
256,192,9450,1,0,0:0:0:0:
256,192,9513,1,0,0:0:0:0:
256,192,9575,1,0,0:0:0:0:
256,192,9638,1,2,0:0:0:0:
256,192,9700,1,2,0:0:0:0:
256,192,9763,1,0,0:0:0:0:
256,192,9888,1,0,0:0:0:0:
256,192,9950,1,2,0:0:0:0:
256,192,10013,1,0,0:0:0:0:
256,192,10138,1,6,0:0:0:0:
256,192,10263,1,0,0:0:0:0:
256,192,10325,1,2,0:0:0:0:
256,192,10388,1,0,0:0:0:0:
256,192,10513,1,2,0:0:0:0:
256,192,10575,1,2,0:0:0:0:
256,192,10638,1,2,0:0:0:0:
256,192,10700,1,0,0:0:0:0:
256,192,10763,1,2,0:0:0:0:
256,192,10825,1,0,0:0:0:0:
256,192,10888,1,2,0:0:0:0:
256,192,11013,1,2,0:0:0:0:
256,192,11075,1,2,0:0:0:0:
256,192,11138,1,2,0:0:0:0:
256,192,11200,1,0,0:0:0:0:
256,192,11263,1,6,0:0:0:0:
256,192,11388,1,6,0:0:0:0:
256,192,11513,1,0,0:0:0:0:
256,192,11575,1,0,0:0:0:0:
256,192,11638,1,2,0:0:0:0:
256,192,11700,1,0,0:0:0:0:
256,192,11763,1,2,0:0:0:0:
256,192,11825,1,2,0:0:0:0:
256,192,11888,1,0,0:0:0:0:
256,192,11950,1,2,0:0:0:0:
256,192,12013,1,2,0:0:0:0:
256,192,12138,1,0,0:0:0:0:
256,192,12200,1,0,0:0:0:0:
256,192,12263,1,2,0:0:0:0:
256,192,12325,1,0,0:0:0:0:
256,192,12388,1,2,0:0:0:0:
256,192,12513,1,2,0:0:0:0:
256,192,12575,1,2,0:0:0:0:
256,192,12638,1,0,0:0:0:0:
256,192,12700,1,2,0:0:0:0:
256,192,12763,1,2,0:0:0:0:
256,192,12888,1,0,0:0:0:0:
256,192,12950,1,2,0:0:0:0:
256,192,13013,1,2,0:0:0:0:
256,192,13138,1,2,0:0:0:0:
256,192,13200,1,2,0:0:0:0:
256,192,13263,1,2,0:0:0:0:
256,192,13388,1,2,0:0:0:0:
256,192,13450,1,2,0:0:0:0:
256,192,13513,1,2,0:0:0:0:
256,192,13575,1,2,0:0:0:0:
256,192,13638,1,0,0:0:0:0:
256,192,13700,1,2,0:0:0:0:
256,192,13763,1,2,0:0:0:0:
256,192,13825,1,2,0:0:0:0:
256,192,13888,1,2,0:0:0:0:
256,192,14013,1,2,0:0:0:0:
256,192,14075,1,2,0:0:0:0:
256,192,14138,1,2,0:0:0:0:
256,192,14200,1,2,0:0:0:0:
256,192,14263,1,2,0:0:0:0:
256,192,14325,1,0,0:0:0:0:
256,192,14388,1,2,0:0:0:0:
256,192,14513,1,2,0:0:0:0:
256,192,14575,1,0,0:0:0:0:
256,192,14638,1,2,0:0:0:0:
256,192,14700,1,0,0:0:0:0:
256,192,14763,1,2,0:0:0:0:
256,192,14888,1,4,0:0:0:0:
256,192,15013,1,0,0:0:0:0:
256,192,15075,1,0,0:0:0:0:
256,192,15138,1,6,0:0:0:0:
256,192,15263,1,2,0:0:0:0:
256,192,15325,1,0,0:0:0:0:
256,192,15388,1,0,0:0:0:0:
256,192,15513,1,0,0:0:0:0:
256,192,15575,1,0,0:0:0:0:
256,192,15638,1,2,0:0:0:0:
256,192,15700,1,0,0:0:0:0:
256,192,15763,1,6,0:0:0:0:
256,192,15888,1,2,0:0:0:0:
256,192,15950,1,2,0:0:0:0:
256,192,16013,1,2,0:0:0:0:
256,192,16075,1,2,0:0:0:0:
256,192,16138,1,0,0:0:0:0:
256,192,16200,1,0,0:0:0:0:
256,192,16263,1,0,0:0:0:0:
256,192,16325,1,0,0:0:0:0:
256,192,16388,1,2,0:0:0:0:
256,192,16513,1,2,0:0:0:0:
256,192,16638,1,2,0:0:0:0:
256,192,16700,1,2,0:0:0:0:
256,192,16763,1,2,0:0:0:0:
256,192,16825,1,0,0:0:0:0:
256,192,16888,1,2,0:0:0:0:
256,192,16950,1,0,0:0:0:0:
256,192,17013,1,0,0:0:0:0:
256,192,17075,1,2,0:0:0:0:
256,192,17138,1,0,0:0:0:0:
256,192,17263,1,0,0:0:0:0:
256,192,17388,1,2,0:0:0:0:
256,192,17513,1,0,0:0:0:0:
256,192,17575,1,0,0:0:0:0:
256,192,17638,1,0,0:0:0:0:
256,192,17700,1,0,0:0:0:0:
256,192,17763,1,0,0:0:0:0:
256,192,17825,1,0,0:0:0:0:
256,192,17888,1,2,0:0:0:0:
256,192,17950,1,0,0:0:0:0:
256,192,18013,1,0,0:0:0:0:
256,192,18138,1,0,0:0:0:0:
256,192,18263,1,2,0:0:0:0:
256,192,18325,1,2,0:0:0:0:
256,192,18388,1,0,0:0:0:0:
256,192,18450,1,2,0:0:0:0:
256,192,18513,1,2,0:0:0:0:
256,192,18575,1,2,0:0:0:0:
256,192,18638,1,0,0:0:0:0:
256,192,18700,1,2,0:0:0:0:
256,192,18763,1,0,0:0:0:0:
256,192,18888,1,0,0:0:0:0:
256,192,18950,1,0,0:0:0:0:
256,192,19013,1,2,0:0:0:0:
256,192,19138,1,2,0:0:0:0:
256,192,19200,1,2,0:0:0:0:
256,192,19263,1,2,0:0:0:0:
256,192,19325,1,2,0:0:0:0:
256,192,19388,1,2,0:0:0:0:
256,192,19450,1,0,0:0:0:0:
256,192,19513,1,0,0:0:0:0:
256,192,19575,1,0,0:0:0:0:
256,192,19638,1,2,0:0:0:0:
256,192,19763,1,0,0:0:0:0:
256,192,19825,1,2,0:0:0:0:
256,192,19888,1,4,0:0:0:0:
256,192,20013,1,2,0:0:0:0:
256,192,20075,1,2,0:0:0:0:
256,192,20138,1,2,0:0:0:0:
256,192,20200,1,2,0:0:0:0:
256,192,20263,1,0,0:0:0:0:
256,192,20325,1,0,0:0:0:0:
256,192,20388,1,0,0:0:0:0:
256,192,20450,1,2,0:0:0:0:
256,192,20513,1,2,0:0:0:0:
256,192,20638,1,2,0:0:0:0:
256,192,20700,1,0,0:0:0:0:
256,192,20763,1,2,0:0:0:0:
256,192,20825,1,2,0:0:0:0:
256,192,20888,1,0,0:0:0:0:
256,192,20950,1,2,0:0:0:0:
256,192,21013,1,0,0:0:0:0:
256,192,21138,1,2,0:0:0:0:
256,192,21200,1,0,0:0:0:0:
256,192,21263,1,2,0:0:0:0:
256,192,21325,1,0,0:0:0:0:
256,192,21388,1,2,0:0:0:0:
256,192,21450,1,2,0:0:0:0:
256,192,21513,1,2,0:0:0:0:
256,192,21575,1,2,0:0:0:0:
256,192,21638,1,0,0:0:0:0:
256,192,21763,1,2,0:0:0:0:
256,192,21888,1,0,0:0:0:0:
256,192,21950,1,0,0:0:0:0:
256,192,22013,1,2,0:0:0:0:
256,192,22075,1,0,0:0:0:0:
256,192,22138,1,0,0:0:0:0:
256,192,22200,1,0,0:0:0:0:
256,192,22263,1,2,0:0:0:0:
256,192,22388,1,0,0:0:0:0:
256,192,22450,1,2,0:0:0:0:
256,192,22513,1,0,0:0:0:0:
256,192,22575,1,2,0:0:0:0:
256,192,22638,1,2,0:0:0:0:
256,192,22763,1,2,0:0:0:0:
256,192,22888,1,2,0:0:0:0:
256,192,22950,1,0,0:0:0:0:
256,192,23013,1,2,0:0:0:0:
256,192,23075,1,2,0:0:0:0:
256,192,23138,1,0,0:0:0:0:
256,192,23200,1,0,0:0:0:0:
256,192,23263,1,2,0:0:0:0:
256,192,23325,1,2,0:0:0:0:
256,192,23388,1,0,0:0:0:0:
256,192,23513,1,0,0:0:0:0:
256,192,23575,1,0,0:0:0:0:
256,192,23638,1,2,0:0:0:0:
256,192,23700,1,2,0:0:0:0:
256,192,23763,1,0,0:0:0:0:
256,192,23825,1,0,0:0:0:0:
256,192,23888,1,0,0:0:0:0:
256,192,23950,1,0,0:0:0:0:
256,192,24013,1,0,0:0:0:0:
256,192,24138,1,0,0:0:0:0:
256,192,24263,1,0,0:0:0:0:
256,192,24325,1,0,0:0:0:0:
256,192,24388,1,6,0:0:0:0:
256,192,24513,1,2,0:0:0:0:
256,192,24575,1,2,0:0:0:0:
256,192,24638,1,2,0:0:0:0:
256,192,24700,1,0,0:0:0:0:
256,192,24763,1,2,0:0:0:0:
256,192,24825,1,2,0:0:0:0:
256,192,24888,1,2,0:0:0:0:
256,192,24950,1,0,0:0:0:0:
256,192,25013,1,2,0:0:0:0:
256,192,25138,1,0,0:0:0:0:
256,192,25200,1,2,0:0:0:0:
256,192,25263,1,2,0:0:0:0:
256,192,25325,1,0,0:0:0:0:
256,192,25388,1,6,0:0:0:0:
256,192,25513,1,6,0:0:0:0:
256,192,25638,1,0,0:0:0:0:
256,192,25700,1,2,0:0:0:0:
256,192,25763,1,2,0:0:0:0:
256,192,25888,1,2,0:0:0:0:
256,192,25950,1,2,0:0:0:0:
256,192,26013,1,0,0:0:0:0:
256,192,26075,1,2,0:0:0:0:
256,192,26138,1,0,0:0:0:0:
256,192,26200,1,0,0:0:0:0:
256,192,26263,1,0,0:0:0:0:
256,192,26388,1,0,0:0:0:0:
256,192,26450,1,0,0:0:0:0:
256,192,26513,1,2,0:0:0:0:
256,192,26575,1,0,0:0:0:0:
256,192,26638,1,0,0:0:0:0:
256,192,26700,1,0,0:0:0:0:
256,192,26763,1,2,0:0:0:0:
256,192,26825,1,2,0:0:0:0:
256,192,26888,1,0,0:0:0:0:
256,192,27013,1,0,0:0:0:0:
256,192,27075,1,0,0:0:0:0:
256,192,27138,1,2,0:0:0:0:
256,192,27200,1,2,0:0:0:0:
256,192,27263,1,0,0:0:0:0:
256,192,27325,1,0,0:0:0:0:
256,192,27388,1,2,0:0:0:0:
256,192,27513,1,2,0:0:0:0:
256,192,27575,1,2,0:0:0:0:
256,192,27638,1,2,0:0:0:0:
256,192,27700,1,2,0:0:0:0:
256,192,27763,1,0,0:0:0:0:
256,192,27825,1,0,0:0:0:0:
256,192,27888,1,2,0:0:0:0:
256,192,28013,1,0,0:0:0:0:
256,192,28075,1,0,0:0:0:0:
256,192,28138,1,0,0:0:0:0:
256,192,28200,1,2,0:0:0:0:
256,192,28263,1,0,0:0:0:0:
256,192,28325,1,0,0:0:0:0:
256,192,28388,1,0,0:0:0:0:
256,192,28513,1,2,0:0:0:0:
256,192,28575,1,0,0:0:0:0:
256,192,28638,1,0,0:0:0:0:
256,192,28763,1,0,0:0:0:0:
256,192,28825,1,2,0:0:0:0:
256,192,28888,1,2,0:0:0:0:
256,192,28950,1,0,0:0:0:0:
256,192,29013,1,2,0:0:0:0:
256,192,29138,1,0,0:0:0:0:
256,192,29200,1,2,0:0:0:0:
256,192,29263,1,0,0:0:0:0:
256,192,29325,1,0,0:0:0:0:
256,192,29388,1,2,0:0:0:0:
256,192,29450,1,0,0:0:0:0:
256,192,29513,1,2,0:0:0:0:
256,192,29575,1,0,0:0:0:0:
256,192,29638,1,2,0:0:0:0:
256,192,29763,1,2,0:0:0:0:
256,192,29825,1,2,0:0:0:0:
256,192,29888,1,0,0:0:0:0:
256,192,29950,1,2,0:0:0:0:
256,192,30013,1,2,0:0:0:0:
256,192,30075,1,2,0:0:0:0:
256,192,30138,1,2,0:0:0:0:
256,192,30200,1,2,0:0:0:0:
256,192,30263,1,2,0:0:0:0:
256,192,30388,1,2,0:0:0:0:
256,192,30450,1,0,0:0:0:0:
256,192,30513,1,6,0:0:0:0:
256,192,30638,1,0,0:0:0:0:
256,192,30700,1,2,0:0:0:0:
256,192,30763,1,2,0:0:0:0:
256,192,30825,1,0,0:0:0:0:
256,192,30888,1,2,0:0:0:0:
256,192,30950,1,2,0:0:0:0:
256,192,31013,1,0,0:0:0:0:
256,192,31138,1,2,0:0:0:0:
256,192,31200,1,2,0:0:0:0:
256,192,31263,1,0,0:0:0:0:
256,192,31325,1,2,0:0:0:0:
256,192,31388,1,0,0:0:0:0:
256,192,31513,1,0,0:0:0:0:
256,192,31575,1,2,0:0:0:0:
256,192,31638,1,2,0:0:0:0:
256,192,31700,1,0,0:0:0:0:
256,192,31763,1,2,0:0:0:0:
256,192,31825,1,0,0:0:0:0:
256,192,31888,1,0,0:0:0:0:
256,192,31950,1,0,0:0:0:0:
256,192,32013,1,2,0:0:0:0:
256,192,32138,1,2,0:0:0:0:
256,192,32200,1,2,0:0:0:0:
256,192,32263,1,0,0:0:0:0:
256,192,32325,1,2,0:0:0:0:
256,192,32388,1,4,0:0:0:0:
256,192,32513,1,2,0:0:0:0:
256,192,32575,1,0,0:0:0:0:
256,192,32638,1,0,0:0:0:0:
256,192,32763,1,0,0:0:0:0:
256,192,32825,1,2,0:0:0:0:
256,192,32888,1,2,0:0:0:0:
256,192,32950,1,2,0:0:0:0:
256,192,33013,1,4,0:0:0:0:
256,192,33138,1,2,0:0:0:0:
256,192,33200,1,0,0:0:0:0:
256,192,33263,1,0,0:0:0:0:
256,192,33325,1,2,0:0:0:0:
256,192,33388,1,2,0:0:0:0:
256,192,33513,1,2,0:0:0:0:
256,192,33575,1,2,0:0:0:0:
256,192,33638,1,0,0:0:0:0:
256,192,33700,1,2,0:0:0:0:
256,192,33763,1,4,0:0:0:0:
256,192,33888,1,0,0:0:0:0:
256,192,34013,1,2,0:0:0:0:
256,192,34075,1,0,0:0:0:0:
256,192,34138,1,2,0:0:0:0:
256,192,34200,1,2,0:0:0:0:
256,192,34263,1,0,0:0:0:0:
256,192,34388,1,0,0:0:0:0:
256,192,34450,1,2,0:0:0:0:
256,192,34513,1,0,0:0:0:0:
256,192,34575,1,2,0:0:0:0:
256,192,34638,1,0,0:0:0:0:
256,192,34700,1,0,0:0:0:0:
256,192,34763,1,0,0:0:0:0:
256,192,34825,1,2,0:0:0:0:
256,192,34888,1,0,0:0:0:0:
256,192,35013,1,2,0:0:0:0:
256,192,35138,1,2,0:0:0:0:
256,192,35200,1,2,0:0:0:0:
256,192,35263,1,0,0:0:0:0:
256,192,35325,1,0,0:0:0:0:
256,192,35388,1,0,0:0:0:0:
256,192,35513,1,2,0:0:0:0:
256,192,35638,1,0,0:0:0:0:
256,192,35700,1,2,0:0:0:0:
256,192,35763,1,2,0:0:0:0:
256,192,35825,1,2,0:0:0:0:
256,192,35888,1,0,0:0:0:0:
256,192,35950,1,0,0:0:0:0:
256,192,36013,1,2,0:0:0:0:
256,192,36075,1,0,0:0:0:0:
256,192,36138,1,0,0:0:0:0:
256,192,36263,1,2,0:0:0:0:
256,192,36325,1,2,0:0:0:0:
256,192,36388,1,2,0:0:0:0:
256,192,36450,1,2,0:0:0:0:
256,192,36513,1,2,0:0:0:0:
256,192,36638,1,2,0:0:0:0:
256,192,36700,1,0,0:0:0:0:
256,192,36763,1,2,0:0:0:0:
256,192,36825,1,2,0:0:0:0:
256,192,36888,1,2,0:0:0:0:
256,192,37013,1,2,0:0:0:0:
256,192,37138,1,2,0:0:0:0:
256,192,37263,1,4,0:0:0:0:
256,192,37388,1,0,0:0:0:0:
256,192,37450,1,0,0:0:0:0:
256,192,37513,1,0,0:0:0:0:
256,192,37575,1,2,0:0:0:0:
256,192,37638,1,0,0:0:0:0:
256,192,37700,1,2,0:0:0:0:
256,192,37763,1,0,0:0:0:0:
256,192,37825,1,0,0:0:0:0:
256,192,37888,1,0,0:0:0:0:
256,192,38013,1,2,0:0:0:0:
256,192,38075,1,0,0:0:0:0:
256,192,38138,1,2,0:0:0:0:
256,192,38200,1,2,0:0:0:0:
256,192,38263,1,0,0:0:0:0:
256,192,38325,1,2,0:0:0:0:
256,192,38388,1,2,0:0:0:0:
256,192,38450,1,0,0:0:0:0:
256,192,38513,1,2,0:0:0:0:
256,192,38638,1,0,0:0:0:0:
256,192,38700,1,0,0:0:0:0:
256,192,38763,1,0,0:0:0:0:
256,192,38825,1,0,0:0:0:0:
256,192,38888,1,0,0:0:0:0:
256,192,38950,1,2,0:0:0:0:
256,192,39013,1,0,0:0:0:0:
256,192,39075,1,0,0:0:0:0:
256,192,39138,1,0,0:0:0:0:
256,192,39263,1,2,0:0:0:0:
256,192,39325,1,2,0:0:0:0:
256,192,39388,1,0,0:0:0:0:
256,192,39450,1,2,0:0:0:0:
256,192,39513,1,4,0:0:0:0:
256,192,39638,1,2,0:0:0:0:
256,192,39700,1,0,0:0:0:0:
256,192,39763,1,2,0:0:0:0:
256,192,39888,1,0,0:0:0:0:
256,192,39950,1,2,0:0:0:0:
256,192,40013,1,2,0:0:0:0:
256,192,40075,1,2,0:0:0:0:
256,192,40138,1,4,0:0:0:0:
256,192,40263,1,4,0:0:0:0:
256,192,40388,1,2,0:0:0:0:
256,192,40450,1,2,0:0:0:0:
256,192,40513,1,2,0:0:0:0:
256,192,40638,1,2,0:0:0:0:
256,192,40700,1,2,0:0:0:0:
256,192,40763,1,0,0:0:0:0:
256,192,40888,1,4,0:0:0:0:
256,192,41013,1,0,0:0:0:0:
256,192,41075,1,2,0:0:0:0:
256,192,41138,1,2,0:0:0:0:
256,192,41200,1,0,0:0:0:0:
256,192,41263,1,2,0:0:0:0:
256,192,41325,1,0,0:0:0:0:
256,192,41388,1,2,0:0:0:0:
256,192,41450,1,0,0:0:0:0:
256,192,41513,1,2,0:0:0:0:
256,192,41638,1,0,0:0:0:0:
256,192,41700,1,0,0:0:0:0:
256,192,41763,1,0,0:0:0:0:
256,192,41825,1,0,0:0:0:0:
256,192,41888,1,0,0:0:0:0:
256,192,41950,1,0,0:0:0:0:
256,192,42013,1,0,0:0:0:0:
256,192,42075,1,2,0:0:0:0:
256,192,42138,1,0,0:0:0:0:
256,192,42263,1,4,0:0:0:0:
256,192,42388,1,0,0:0:0:0:
256,192,42450,1,2,0:0:0:0:
256,192,42513,1,2,0:0:0:0:
256,192,42575,1,0,0:0:0:0:
256,192,42638,1,0,0:0:0:0:
256,192,42763,1,0,0:0:0:0:
256,192,42825,1,0,0:0:0:0:
256,192,42888,1,2,0:0:0:0:
256,192,43013,1,2,0:0:0:0:
256,192,43075,1,0,0:0:0:0:
256,192,43138,1,0,0:0:0:0:
256,192,43263,1,2,0:0:0:0:
256,192,43325,1,2,0:0:0:0:
256,192,43388,1,2,0:0:0:0:
256,192,43450,1,0,0:0:0:0:
256,192,43513,1,2,0:0:0:0:
256,192,43638,1,2,0:0:0:0:
256,192,43763,1,2,0:0:0:0:
256,192,43825,1,2,0:0:0:0:
256,192,43888,1,2,0:0:0:0:
256,192,43950,1,2,0:0:0:0:
256,192,44013,1,2,0:0:0:0:
256,192,44075,1,0,0:0:0:0:
256,192,44138,1,2,0:0:0:0:
256,192,44263,1,2,0:0:0:0:
256,192,44388,1,4,0:0:0:0:
256,192,44513,1,2,0:0:0:0:
256,192,44575,1,0,0:0:0:0:
256,192,44638,1,2,0:0:0:0:
256,192,44700,1,2,0:0:0:0:
256,192,44763,1,0,0:0:0:0:
256,192,44825,1,0,0:0:0:0:
256,192,44888,1,2,0:0:0:0:
256,192,44950,1,0,0:0:0:0:
256,192,45013,1,0,0:0:0:0:
256,192,45138,1,2,0:0:0:0:
256,192,45263,1,2,0:0:0:0:
256,192,45325,1,0,0:0:0:0:
256,192,45388,1,2,0:0:0:0:
256,192,45450,1,2,0:0:0:0:
256,192,45513,1,0,0:0:0:0:
256,192,45638,1,2,0:0:0:0:
256,192,45700,1,0,0:0:0:0:
256,192,45763,1,2,0:0:0:0:
256,192,45825,1,2,0:0:0:0:
256,192,45888,1,2,0:0:0:0:
256,192,46013,1,2,0:0:0:0:
256,192,46075,1,0,0:0:0:0:
256,192,46138,1,2,0:0:0:0:
256,192,46263,1,0,0:0:0:0:
256,192,46325,1,2,0:0:0:0:
256,192,46388,1,2,0:0:0:0:
256,192,46450,1,0,0:0:0:0:
256,192,46513,1,2,0:0:0:0:
256,192,46575,1,2,0:0:0:0:
256,192,46638,1,2,0:0:0:0:
256,192,46700,1,0,0:0:0:0:
256,192,46763,1,6,0:0:0:0:
256,192,46888,1,0,0:0:0:0:
256,192,46950,1,2,0:0:0:0:
256,192,47013,1,0,0:0:0:0:
256,192,47075,1,0,0:0:0:0:
256,192,47138,1,2,0:0:0:0:
256,192,47200,1,2,0:0:0:0:
256,192,47263,1,2,0:0:0:0:
256,192,47325,1,0,0:0:0:0:
256,192,47388,1,2,0:0:0:0:
256,192,47513,1,6,0:0:0:0:
256,192,47638,1,2,0:0:0:0:
256,192,47700,1,0,0:0:0:0:
256,192,47763,1,2,0:0:0:0:
256,192,47888,1,0,0:0:0:0:
256,192,47950,1,0,0:0:0:0:
256,192,48013,1,6,0:0:0:0:
256,192,48138,1,0,0:0:0:0:
256,192,48200,1,2,0:0:0:0:
256,192,48263,1,0,0:0:0:0:
256,192,48388,1,2,0:0:0:0:
256,192,48450,1,2,0:0:0:0:
256,192,48513,1,0,0:0:0:0:
256,192,48575,1,0,0:0:0:0:
256,192,48638,1,2,0:0:0:0:
256,192,48700,1,0,0:0:0:0:
256,192,48763,1,0,0:0:0:0:
256,192,48825,1,2,0:0:0:0:
256,192,48888,1,2,0:0:0:0:
256,192,49013,1,4,0:0:0:0:
256,192,49138,1,2,0:0:0:0:
256,192,49200,1,0,0:0:0:0:
256,192,49263,1,2,0:0:0:0:
256,192,49388,1,0,0:0:0:0:
256,192,49450,1,2,0:0:0:0:
256,192,49513,1,4,0:0:0:0:
256,192,49638,1,0,0:0:0:0:
256,192,49700,1,2,0:0:0:0:
256,192,49763,1,2,0:0:0:0:
256,192,49825,1,2,0:0:0:0:
256,192,49888,1,2,0:0:0:0:
256,192,49950,1,0,0:0:0:0:
256,192,50013,1,0,0:0:0:0:
256,192,50075,1,0,0:0:0:0:
256,192,50138,1,6,0:0:0:0:
256,192,50263,1,4,0:0:0:0:
256,192,50388,1,0,0:0:0:0:
256,192,50450,1,2,0:0:0:0:
256,192,50513,1,0,0:0:0:0:
256,192,50638,1,0,0:0:0:0:
256,192,50700,1,2,0:0:0:0:
256,192,50763,1,0,0:0:0:0:
256,192,50888,1,0,0:0:0:0:
256,192,50950,1,0,0:0:0:0:
256,192,51013,1,2,0:0:0:0:
256,192,51075,1,2,0:0:0:0:
256,192,51138,1,2,0:0:0:0:
256,192,51263,1,2,0:0:0:0:
256,192,51325,1,0,0:0:0:0:
256,192,51388,1,0,0:0:0:0:
256,192,51450,1,0,0:0:0:0:
256,192,51513,1,0,0:0:0:0:
256,192,51638,1,0,0:0:0:0:
256,192,51763,1,0,0:0:0:0:
256,192,51825,1,2,0:0:0:0:
256,192,51888,1,2,0:0:0:0:
256,192,51950,1,2,0:0:0:0:
256,192,52013,1,0,0:0:0:0:
256,192,52138,1,2,0:0:0:0:
256,192,52200,1,0,0:0:0:0:
256,192,52263,1,2,0:0:0:0:
256,192,52325,1,2,0:0:0:0:
256,192,52388,1,2,0:0:0:0:
256,192,52513,1,0,0:0:0:0:
256,192,52575,1,2,0:0:0:0:
256,192,52638,1,0,0:0:0:0:
256,192,52700,1,2,0:0:0:0:
256,192,52763,1,0,0:0:0:0:
256,192,52888,1,6,0:0:0:0:
256,192,53013,1,0,0:0:0:0:
256,192,53075,1,0,0:0:0:0:
256,192,53138,1,2,0:0:0:0:
256,192,53200,1,2,0:0:0:0:
256,192,53263,1,2,0:0:0:0:
256,192,53325,1,2,0:0:0:0:
256,192,53388,1,2,0:0:0:0:
256,192,53513,1,0,0:0:0:0:
256,192,53575,1,0,0:0:0:0:
256,192,53638,1,0,0:0:0:0:
256,192,53700,1,2,0:0:0:0:
256,192,53763,1,4,0:0:0:0:
256,192,53888,1,2,0:0:0:0:
256,192,53950,1,0,0:0:0:0:
256,192,54013,1,2,0:0:0:0:
256,192,54138,1,0,0:0:0:0:
256,192,54200,1,2,0:0:0:0:
256,192,54263,1,4,0:0:0:0:
256,192,54388,1,2,0:0:0:0:
256,192,54513,1,2,0:0:0:0:
256,192,54575,1,2,0:0:0:0:
256,192,54638,1,0,0:0:0:0:
256,192,54700,1,0,0:0:0:0:
256,192,54763,1,0,0:0:0:0:
256,192,54825,1,2,0:0:0:0:
256,192,54888,1,2,0:0:0:0:
256,192,54950,1,2,0:0:0:0:
256,192,55013,1,0,0:0:0:0:
256,192,55138,1,2,0:0:0:0:
256,192,55200,1,2,0:0:0:0:
256,192,55263,1,2,0:0:0:0:
256,192,55325,1,2,0:0:0:0:
256,192,55388,1,0,0:0:0:0:
256,192,55450,1,0,0:0:0:0:
256,192,55513,1,0,0:0:0:0:
256,192,55638,1,2,0:0:0:0:
256,192,55700,1,2,0:0:0:0:
256,192,55763,1,2,0:0:0:0:
256,192,55825,1,2,0:0:0:0:
256,192,55888,1,4,0:0:0:0:
256,192,56013,1,0,0:0:0:0:
256,192,56075,1,0,0:0:0:0:
256,192,56138,1,2,0:0:0:0:
256,192,56200,1,0,0:0:0:0:
256,192,56263,1,2,0:0:0:0:
256,192,56388,1,0,0:0:0:0:
256,192,56450,1,0,0:0:0:0:
256,192,56513,1,0,0:0:0:0:
256,192,56575,1,2,0:0:0:0:
256,192,56638,1,2,0:0:0:0:
256,192,56763,1,0,0:0:0:0:
256,192,56825,1,2,0:0:0:0:
256,192,56888,1,0,0:0:0:0:
256,192,56950,1,2,0:0:0:0:
256,192,57013,1,0,0:0:0:0:
256,192,57075,1,2,0:0:0:0:
256,192,57138,1,0,0:0:0:0:
256,192,57263,1,2,0:0:0:0:
256,192,57325,1,2,0:0:0:0:
256,192,57388,1,0,0:0:0:0:
256,192,57513,1,2,0:0:0:0:
256,192,57575,1,0,0:0:0:0:
256,192,57638,1,2,0:0:0:0:
256,192,57700,1,2,0:0:0:0:
256,192,57763,1,0,0:0:0:0:
256,192,57825,1,0,0:0:0:0:
256,192,57888,1,2,0:0:0:0:
256,192,57950,1,0,0:0:0:0:
256,192,58013,1,0,0:0:0:0:
256,192,58138,1,2,0:0:0:0:
256,192,58200,1,2,0:0:0:0:
256,192,58263,1,2,0:0:0:0:
256,192,58325,1,2,0:0:0:0:
256,192,58388,1,2,0:0:0:0:
256,192,58450,1,0,0:0:0:0:
256,192,58513,1,2,0:0:0:0:
256,192,58575,1,0,0:0:0:0:
256,192,58638,1,2,0:0:0:0:
256,192,58763,1,0,0:0:0:0:
256,192,58825,1,0,0:0:0:0:
256,192,58888,1,2,0:0:0:0:
256,192,58950,1,0,0:0:0:0:
256,192,59013,1,2,0:0:0:0:
256,192,59075,1,2,0:0:0:0:
256,192,59138,1,2,0:0:0:0:
256,192,59200,1,2,0:0:0:0:
256,192,59263,1,4,0:0:0:0:
256,192,59388,1,0,0:0:0:0:
256,192,59450,1,0,0:0:0:0:
256,192,59513,1,2,0:0:0:0:
256,192,59575,1,2,0:0:0:0:
256,192,59638,1,0,0:0:0:0:
256,192,59700,1,2,0:0:0:0:
256,192,59763,1,0,0:0:0:0:
256,192,59825,1,0,0:0:0:0:
256,192,59888,1,6,0:0:0:0:
256,192,60013,1,0,0:0:0:0:
256,192,60075,1,0,0:0:0:0:
256,192,60138,1,0,0:0:0:0:
256,192,60200,1,0,0:0:0:0:
256,192,60263,1,2,0:0:0:0:
256,192,60325,1,2,0:0:0:0:
256,192,60388,1,0,0:0:0:0:
256,192,60513,1,2,0:0:0:0:
256,192,60575,1,2,0:0:0:0:
256,192,60638,1,4,0:0:0:0:
256,192,60763,1,2,0:0:0:0:
256,192,60825,1,0,0:0:0:0:
256,192,60888,1,0,0:0:0:0:
256,192,60950,1,2,0:0:0:0:
256,192,61013,1,2,0:0:0:0:
256,192,61075,1,0,0:0:0:0:
256,192,61138,1,0,0:0:0:0:
256,192,61263,1,2,0:0:0:0:
256,192,61325,1,0,0:0:0:0:
256,192,61388,1,0,0:0:0:0:
256,192,61450,1,2,0:0:0:0:
256,192,61513,1,2,0:0:0:0:
256,192,61575,1,0,0:0:0:0:
256,192,61638,1,0,0:0:0:0:
256,192,61700,1,0,0:0:0:0:
256,192,61763,1,2,0:0:0:0:
256,192,61888,1,2,0:0:0:0:
256,192,61950,1,0,0:0:0:0:
256,192,62013,1,2,0:0:0:0:
256,192,62075,1,0,0:0:0:0:
256,192,62138,1,0,0:0:0:0:
256,192,62200,1,0,0:0:0:0:
256,192,62263,1,2,0:0:0:0:
256,192,62325,1,0,0:0:0:0:
256,192,62388,1,0,0:0:0:0:
256,192,62513,1,0,0:0:0:0:
256,192,62575,1,2,0:0:0:0:
256,192,62638,1,2,0:0:0:0:
256,192,62700,1,2,0:0:0:0:
256,192,62763,1,0,0:0:0:0:
256,192,62888,1,0,0:0:0:0:
256,192,62950,1,0,0:0:0:0:
256,192,63013,1,2,0:0:0:0:
256,192,63075,1,0,0:0:0:0:
256,192,63138,1,0,0:0:0:0:
256,192,63200,1,2,0:0:0:0:
256,192,63263,1,2,0:0:0:0:
256,192,63388,1,0,0:0:0:0:
256,192,63450,1,2,0:0:0:0:
256,192,63513,1,0,0:0:0:0:
256,192,63575,1,0,0:0:0:0:
256,192,63638,1,0,0:0:0:0:
256,192,63700,1,2,0:0:0:0:
256,192,63763,1,2,0:0:0:0:
256,192,63825,1,0,0:0:0:0:
256,192,63888,1,0,0:0:0:0:
256,192,64013,1,0,0:0:0:0:
256,192,64075,1,2,0:0:0:0:
256,192,64138,1,2,0:0:0:0:
256,192,64263,1,2,0:0:0:0:
256,192,64325,1,0,0:0:0:0:
256,192,64388,1,2,0:0:0:0:
256,192,64450,1,2,0:0:0:0:
256,192,64513,1,0,0:0:0:0:
256,192,64575,1,2,0:0:0:0:
256,192,64638,1,0,0:0:0:0:
256,192,64700,1,0,0:0:0:0:
256,192,64763,1,2,0:0:0:0:
256,192,64888,1,0,0:0:0:0:
256,192,64950,1,2,0:0:0:0:
256,192,65013,1,0,0:0:0:0:
256,192,65075,1,2,0:0:0:0:
256,192,65138,1,0,0:0:0:0:
256,192,65263,1,0,0:0:0:0:
256,192,65325,1,0,0:0:0:0:
256,192,65388,1,0,0:0:0:0:
256,192,65450,1,0,0:0:0:0:
256,192,65513,1,6,0:0:0:0:
256,192,65638,1,0,0:0:0:0:
256,192,65700,1,2,0:0:0:0:
256,192,65763,1,2,0:0:0:0:
256,192,65825,1,2,0:0:0:0:
256,192,65888,1,2,0:0:0:0:
256,192,65950,1,0,0:0:0:0:
256,192,66013,1,6,0:0:0:0:
256,192,66138,1,2,0:0:0:0:
256,192,66263,1,2,0:0:0:0:
256,192,66388,1,2,0:0:0:0:
256,192,66450,1,2,0:0:0:0:
256,192,66513,1,0,0:0:0:0:
256,192,66638,1,2,0:0:0:0:
256,192,66763,1,0,0:0:0:0:
256,192,66825,1,0,0:0:0:0:
256,192,66888,1,0,0:0:0:0:
256,192,66950,1,0,0:0:0:0:
256,192,67013,1,2,0:0:0:0:
256,192,67075,1,2,0:0:0:0:
256,192,67138,1,2,0:0:0:0:
256,192,67200,1,2,0:0:0:0:
256,192,67263,1,0,0:0:0:0:
256,192,67388,1,0,0:0:0:0:
256,192,67450,1,2,0:0:0:0:
256,192,67513,1,2,0:0:0:0:
256,192,67575,1,2,0:0:0:0:
256,192,67638,1,2,0:0:0:0:
256,192,67700,1,0,0:0:0:0:
256,192,67763,1,2,0:0:0:0:
256,192,67825,1,0,0:0:0:0:
256,192,67888,1,6,0:0:0:0:
256,192,68013,1,0,0:0:0:0:
256,192,68138,1,0,0:0:0:0:
256,192,68200,1,0,0:0:0:0:
256,192,68263,1,2,0:0:0:0:
256,192,68325,1,0,0:0:0:0:
256,192,68388,1,2,0:0:0:0:
256,192,68513,1,2,0:0:0:0:
256,192,68575,1,2,0:0:0:0:
256,192,68638,1,0,0:0:0:0:
256,192,68700,1,2,0:0:0:0:
256,192,68763,1,0,0:0:0:0:
256,192,68888,1,2,0:0:0:0:
256,192,68950,1,2,0:0:0:0:
256,192,69013,1,0,0:0:0:0:
256,192,69075,1,2,0:0:0:0:
256,192,69138,1,0,0:0:0:0:
256,192,69200,1,2,0:0:0:0:
256,192,69263,1,2,0:0:0:0:
256,192,69325,1,0,0:0:0:0:
256,192,69388,1,2,0:0:0:0:
256,192,69513,1,0,0:0:0:0:
256,192,69638,1,0,0:0:0:0:
256,192,69763,1,6,0:0:0:0:
256,192,69888,1,2,0:0:0:0:
256,192,69950,1,0,0:0:0:0:
256,192,70013,1,2,0:0:0:0:
256,192,70075,1,2,0:0:0:0:
256,192,70138,1,0,0:0:0:0:
256,192,70200,1,2,0:0:0:0:
256,192,70263,1,2,0:0:0:0:
256,192,70325,1,0,0:0:0:0:
256,192,70388,1,0,0:0:0:0:
256,192,70513,1,0,0:0:0:0:
256,192,70575,1,2,0:0:0:0:
256,192,70638,1,2,0:0:0:0:
256,192,70700,1,0,0:0:0:0:
256,192,70763,1,2,0:0:0:0:
256,192,70888,1,0,0:0:0:0:
256,192,70950,1,0,0:0:0:0:
256,192,71013,1,0,0:0:0:0:
256,192,71075,1,2,0:0:0:0:
256,192,71138,1,2,0:0:0:0:
256,192,71200,1,0,0:0:0:0:
256,192,71263,1,0,0:0:0:0:
256,192,71325,1,0,0:0:0:0:
256,192,71388,1,2,0:0:0:0:
256,192,71513,1,6,0:0:0:0:
256,192,71638,1,2,0:0:0:0:
256,192,71700,1,0,0:0:0:0:
256,192,71763,1,0,0:0:0:0:
256,192,71825,1,0,0:0:0:0:
256,192,71888,1,0,0:0:0:0:
256,192,72013,1,0,0:0:0:0:
256,192,72075,1,0,0:0:0:0:
256,192,72138,1,2,0:0:0:0:
256,192,72200,1,2,0:0:0:0:
256,192,72263,1,0,0:0:0:0:
256,192,72388,1,4,0:0:0:0:
256,192,72513,1,0,0:0:0:0:
256,192,72575,1,2,0:0:0:0:
256,192,72638,1,2,0:0:0:0:
256,192,72763,1,2,0:0:0:0:
256,192,72825,1,0,0:0:0:0:
256,192,72888,1,0,0:0:0:0:
256,192,72950,1,0,0:0:0:0:
256,192,73013,1,2,0:0:0:0:
256,192,73075,1,0,0:0:0:0:
256,192,73138,1,2,0:0:0:0:
256,192,73200,1,0,0:0:0:0:
256,192,73263,1,6,0:0:0:0:
256,192,73388,1,0,0:0:0:0:
256,192,73450,1,2,0:0:0:0:
256,192,73513,1,6,0:0:0:0:
256,192,73638,1,0,0:0:0:0:
256,192,73700,1,2,0:0:0:0:
256,192,73763,1,2,0:0:0:0:
256,192,73888,1,0,0:0:0:0:
256,192,74013,1,2,0:0:0:0:
256,192,74075,1,0,0:0:0:0:
256,192,74138,1,6,0:0:0:0:
256,192,74263,1,0,0:0:0:0:
256,192,74325,1,2,0:0:0:0:
256,192,74388,1,0,0:0:0:0:
256,192,74450,1,0,0:0:0:0:
256,192,74513,1,0,0:0:0:0:
256,192,74638,1,2,0:0:0:0:
256,192,74763,1,0,0:0:0:0:
256,192,74825,1,0,0:0:0:0:
256,192,74888,1,0,0:0:0:0:
256,192,74950,1,2,0:0:0:0:
256,192,75013,1,0,0:0:0:0:
256,192,75138,1,0,0:0:0:0:
256,192,75263,1,2,0:0:0:0:
256,192,75325,1,0,0:0:0:0:
256,192,75388,1,2,0:0:0:0:
256,192,75450,1,0,0:0:0:0:
256,192,75513,1,6,0:0:0:0:
256,192,75638,1,2,0:0:0:0:
256,192,75700,1,0,0:0:0:0:
256,192,75763,1,0,0:0:0:0:
256,192,75825,1,0,0:0:0:0:
256,192,75888,1,0,0:0:0:0:
256,192,75950,1,2,0:0:0:0:
256,192,76013,1,2,0:0:0:0:
256,192,76075,1,0,0:0:0:0:
256,192,76138,1,0,0:0:0:0:
256,192,76263,1,0,0:0:0:0:
256,192,76325,1,2,0:0:0:0:
256,192,76388,1,0,0:0:0:0:
256,192,76450,1,0,0:0:0:0:
256,192,76513,1,0,0:0:0:0:
256,192,76575,1,2,0:0:0:0:
256,192,76638,1,2,0:0:0:0:
256,192,76700,1,2,0:0:0:0:
256,192,76763,1,2,0:0:0:0:
256,192,76888,1,2,0:0:0:0:
256,192,76950,1,2,0:0:0:0:
256,192,77013,1,0,0:0:0:0:
256,192,77075,1,0,0:0:0:0:
256,192,77138,1,2,0:0:0:0:
256,192,77263,1,0,0:0:0:0:
256,192,77325,1,2,0:0:0:0:
256,192,77388,1,0,0:0:0:0:
256,192,77513,1,0,0:0:0:0:
256,192,77575,1,0,0:0:0:0:
256,192,77638,1,2,0:0:0:0:
256,192,77763,1,2,0:0:0:0:
256,192,77825,1,2,0:0:0:0:
256,192,77888,1,4,0:0:0:0:
256,192,78013,1,0,0:0:0:0:
256,192,78075,1,2,0:0:0:0:
256,192,78138,1,0,0:0:0:0:
256,192,78200,1,0,0:0:0:0:
256,192,78263,1,2,0:0:0:0:
256,192,78388,1,2,0:0:0:0:
256,192,78450,1,2,0:0:0:0:
256,192,78513,1,2,0:0:0:0:
256,192,78638,1,0,0:0:0:0:
256,192,78763,1,2,0:0:0:0:
256,192,78825,1,2,0:0:0:0:
256,192,78888,1,0,0:0:0:0:
256,192,78950,1,2,0:0:0:0:
256,192,79013,1,4,0:0:0:0:
256,192,79138,1,2,0:0:0:0:
256,192,79200,1,2,0:0:0:0:
256,192,79263,1,2,0:0:0:0:
256,192,79325,1,2,0:0:0:0:
256,192,79388,1,0,0:0:0:0:
256,192,79513,1,0,0:0:0:0:
256,192,79575,1,0,0:0:0:0:
256,192,79638,1,2,0:0:0:0:
256,192,79700,1,2,0:0:0:0:
256,192,79763,1,4,0:0:0:0:
256,192,79888,1,2,0:0:0:0:
256,192,79950,1,0,0:0:0:0:
256,192,80013,1,2,0:0:0:0:
256,192,80075,1,0,0:0:0:0:
256,192,80138,1,0,0:0:0:0:
256,192,80200,1,0,0:0:0:0:
256,192,80263,1,0,0:0:0:0:
256,192,80325,1,0,0:0:0:0:
256,192,80388,1,2,0:0:0:0:
256,192,80513,1,2,0:0:0:0:
256,192,80575,1,0,0:0:0:0:
256,192,80638,1,0,0:0:0:0:
256,192,80700,1,2,0:0:0:0:
256,192,80763,1,0,0:0:0:0:
256,192,80825,1,2,0:0:0:0:
256,192,80888,1,2,0:0:0:0:
256,192,80950,1,0,0:0:0:0:
256,192,81013,1,0,0:0:0:0:
256,192,81138,1,6,0:0:0:0:
256,192,81263,1,0,0:0:0:0:
256,192,81325,1,2,0:0:0:0:
256,192,81388,1,0,0:0:0:0:
256,192,81513,1,2,0:0:0:0:
256,192,81638,1,0,0:0:0:0:
256,192,81700,1,0,0:0:0:0:
256,192,81763,1,0,0:0:0:0:
256,192,81825,1,2,0:0:0:0:
256,192,81888,1,0,0:0:0:0:
256,192,82013,1,0,0:0:0:0:
256,192,82138,1,0,0:0:0:0:
256,192,82200,1,0,0:0:0:0:
256,192,82263,1,2,0:0:0:0:
256,192,82325,1,0,0:0:0:0:
256,192,82388,1,0,0:0:0:0:
256,192,82450,1,2,0:0:0:0:
256,192,82513,1,2,0:0:0:0:
256,192,82575,1,2,0:0:0:0:
256,192,82638,1,0,0:0:0:0:
256,192,82763,1,0,0:0:0:0:
256,192,82825,1,2,0:0:0:0:
256,192,82888,1,2,0:0:0:0:
256,192,82950,1,2,0:0:0:0:
256,192,83013,1,0,0:0:0:0:
256,192,83075,1,2,0:0:0:0:
256,192,83138,1,0,0:0:0:0:
256,192,83200,1,0,0:0:0:0:
256,192,83263,1,2,0:0:0:0:
256,192,83388,1,0,0:0:0:0:
256,192,83450,1,0,0:0:0:0:
256,192,83513,1,2,0:0:0:0:
256,192,83575,1,2,0:0:0:0:
256,192,83638,1,2,0:0:0:0:
256,192,83700,1,0,0:0:0:0:
256,192,83763,1,2,0:0:0:0:
256,192,83825,1,2,0:0:0:0:
256,192,83888,1,0,0:0:0:0:
256,192,84013,1,2,0:0:0:0:
256,192,84075,1,0,0:0:0:0:
256,192,84138,1,0,0:0:0:0:
256,192,84200,1,2,0:0:0:0:
256,192,84263,1,2,0:0:0:0:
256,192,84388,1,2,0:0:0:0:
256,192,84450,1,2,0:0:0:0:
256,192,84513,1,2,0:0:0:0:
256,192,84575,1,2,0:0:0:0:
256,192,84638,1,2,0:0:0:0:
256,192,84700,1,2,0:0:0:0:
256,192,84763,1,0,0:0:0:0:
256,192,84825,1,2,0:0:0:0:
256,192,84888,1,2,0:0:0:0:
256,192,85013,1,2,0:0:0:0:
256,192,85075,1,0,0:0:0:0:
256,192,85138,1,6,0:0:0:0:
256,192,85263,1,2,0:0:0:0:
256,192,85325,1,0,0:0:0:0:
256,192,85388,1,2,0:0:0:0:
256,192,85450,1,2,0:0:0:0:
256,192,85513,1,4,0:0:0:0:
256,192,85638,1,6,0:0:0:0:
256,192,85763,1,0,0:0:0:0:
256,192,85825,1,0,0:0:0:0:
256,192,85888,1,2,0:0:0:0:
256,192,85950,1,0,0:0:0:0:
256,192,86013,1,0,0:0:0:0:
256,192,86075,1,0,0:0:0:0:
256,192,86138,1,2,0:0:0:0:
256,192,86263,1,0,0:0:0:0:
256,192,86325,1,2,0:0:0:0:
256,192,86388,1,4,0:0:0:0:
256,192,86513,1,2,0:0:0:0:
256,192,86575,1,2,0:0:0:0:
256,192,86638,1,2,0:0:0:0:
256,192,86700,1,2,0:0:0:0:
256,192,86763,1,2,0:0:0:0:
256,192,86888,1,0,0:0:0:0:
256,192,86950,1,2,0:0:0:0:
256,192,87013,1,2,0:0:0:0:
256,192,87075,1,2,0:0:0:0:
256,192,87138,1,2,0:0:0:0:
256,192,87200,1,2,0:0:0:0:
256,192,87263,1,0,0:0:0:0:
256,192,87325,1,0,0:0:0:0:
256,192,87388,1,0,0:0:0:0:
256,192,87513,1,2,0:0:0:0:
256,192,87575,1,2,0:0:0:0:
256,192,87638,1,0,0:0:0:0:
256,192,87700,1,2,0:0:0:0:
256,192,87763,1,0,0:0:0:0:
256,192,87888,1,0,0:0:0:0:
256,192,87950,1,2,0:0:0:0:
256,192,88013,1,0,0:0:0:0:
256,192,88075,1,0,0:0:0:0:
256,192,88138,1,0,0:0:0:0:
256,192,88200,1,2,0:0:0:0:
256,192,88263,1,4,0:0:0:0:
256,192,88388,1,2,0:0:0:0:
256,192,88450,1,0,0:0:0:0:
256,192,88513,1,2,0:0:0:0:
256,192,88638,1,2,0:0:0:0:
256,192,88763,1,0,0:0:0:0:
256,192,88825,1,2,0:0:0:0:
256,192,88888,1,0,0:0:0:0:
256,192,88950,1,0,0:0:0:0:
256,192,89013,1,0,0:0:0:0:
256,192,89075,1,2,0:0:0:0:
256,192,89138,1,2,0:0:0:0:
256,192,89200,1,2,0:0:0:0:
256,192,89263,1,4,0:0:0:0:
256,192,89388,1,2,0:0:0:0:
256,192,89450,1,0,0:0:0:0:
256,192,89513,1,2,0:0:0:0:
256,192,89575,1,2,0:0:0:0:
256,192,89638,1,0,0:0:0:0:
256,192,89700,1,2,0:0:0:0:
256,192,89763,1,0,0:0:0:0:
256,192,89825,1,2,0:0:0:0:
256,192,89888,1,4,0:0:0:0:
256,192,90013,1,6,0:0:0:0:
256,192,90138,1,0,0:0:0:0:
256,192,90200,1,0,0:0:0:0:
256,192,90263,1,2,0:0:0:0:
256,192,90325,1,2,0:0:0:0:
256,192,90388,1,0,0:0:0:0:
256,192,90450,1,2,0:0:0:0:
256,192,90513,1,0,0:0:0:0:
256,192,90575,1,2,0:0:0:0:
256,192,90638,1,0,0:0:0:0:
256,192,90763,1,0,0:0:0:0:
256,192,90825,1,0,0:0:0:0:
256,192,90888,1,2,0:0:0:0:
256,192,91013,1,2,0:0:0:0:
256,192,91075,1,2,0:0:0:0:
256,192,91138,1,0,0:0:0:0:
256,192,91200,1,0,0:0:0:0:
256,192,91263,1,2,0:0:0:0:
256,192,91325,1,2,0:0:0:0:
256,192,91388,1,0,0:0:0:0:
256,192,91450,1,2,0:0:0:0:
256,192,91513,1,2,0:0:0:0:
256,192,91638,1,0,0:0:0:0:
256,192,91763,1,2,0:0:0:0:
256,192,91888,1,0,0:0:0:0:
256,192,91950,1,0,0:0:0:0:
256,192,92013,1,0,0:0:0:0:
256,192,92075,1,0,0:0:0:0:
256,192,92138,1,2,0:0:0:0:
256,192,92200,1,0,0:0:0:0:
256,192,92263,1,2,0:0:0:0:
256,192,92325,1,2,0:0:0:0:
256,192,92388,1,0,0:0:0:0:
256,192,92513,1,0,0:0:0:0:
256,192,92575,1,2,0:0:0:0:
256,192,92638,1,0,0:0:0:0:
256,192,92700,1,0,0:0:0:0:
256,192,92763,1,0,0:0:0:0:
256,192,92825,1,2,0:0:0:0:
256,192,92888,1,2,0:0:0:0:
256,192,92950,1,0,0:0:0:0:
256,192,93013,1,2,0:0:0:0:
256,192,93138,1,2,0:0:0:0:
256,192,93200,1,0,0:0:0:0:
256,192,93263,1,2,0:0:0:0:
256,192,93325,1,0,0:0:0:0:
256,192,93388,1,0,0:0:0:0:
256,192,93450,1,0,0:0:0:0:
256,192,93513,1,2,0:0:0:0:
256,192,93575,1,2,0:0:0:0:
256,192,93638,1,0,0:0:0:0:
256,192,93763,1,0,0:0:0:0:
256,192,93888,1,0,0:0:0:0:
256,192,94013,1,0,0:0:0:0:
256,192,94075,1,2,0:0:0:0:
256,192,94138,1,2,0:0:0:0:
256,192,94200,1,0,0:0:0:0:
256,192,94263,1,2,0:0:0:0:
256,192,94325,1,2,0:0:0:0:
256,192,94388,1,2,0:0:0:0:
256,192,94450,1,0,0:0:0:0:
256,192,94513,1,0,0:0:0:0:
256,192,94638,1,2,0:0:0:0:
256,192,94700,1,0,0:0:0:0:
256,192,94763,1,0,0:0:0:0:
256,192,94888,1,0,0:0:0:0:
256,192,94950,1,0,0:0:0:0:
256,192,95013,1,0,0:0:0:0:
256,192,95075,1,0,0:0:0:0:
256,192,95138,1,0,0:0:0:0:
256,192,95263,1,0,0:0:0:0:
256,192,95325,1,2,0:0:0:0:
256,192,95388,1,2,0:0:0:0:
256,192,95450,1,0,0:0:0:0:
256,192,95513,1,0,0:0:0:0:
256,192,95575,1,0,0:0:0:0:
256,192,95638,1,2,0:0:0:0:
256,192,95700,1,2,0:0:0:0:
256,192,95763,1,0,0:0:0:0:
256,192,95888,1,2,0:0:0:0:
256,192,95950,1,2,0:0:0:0:
256,192,96013,1,0,0:0:0:0:
256,192,96075,1,0,0:0:0:0:
256,192,96138,1,2,0:0:0:0:
256,192,96200,1,2,0:0:0:0:
256,192,96263,1,2,0:0:0:0:
256,192,96325,1,0,0:0:0:0:
256,192,96388,1,0,0:0:0:0:
256,192,96513,1,0,0:0:0:0:
256,192,96575,1,2,0:0:0:0:
256,192,96638,1,0,0:0:0:0:
256,192,96700,1,2,0:0:0:0:
256,192,96763,1,0,0:0:0:0:
256,192,96825,1,2,0:0:0:0:
256,192,96888,1,0,0:0:0:0:
256,192,97013,1,0,0:0:0:0:
256,192,97075,1,2,0:0:0:0:
256,192,97138,1,0,0:0:0:0:
256,192,97200,1,0,0:0:0:0:
256,192,97263,1,0,0:0:0:0:
256,192,97325,1,2,0:0:0:0:
256,192,97388,1,0,0:0:0:0:
256,192,97513,1,0,0:0:0:0:
256,192,97575,1,0,0:0:0:0:
256,192,97638,1,0,0:0:0:0:
256,192,97700,1,0,0:0:0:0:
256,192,97763,1,2,0:0:0:0:
256,192,97888,1,0,0:0:0:0:
256,192,97950,1,0,0:0:0:0:
256,192,98013,1,2,0:0:0:0:
256,192,98075,1,0,0:0:0:0:
256,192,98138,1,0,0:0:0:0:
256,192,98200,1,0,0:0:0:0:
256,192,98263,1,0,0:0:0:0:
256,192,98325,1,0,0:0:0:0:
256,192,98388,1,0,0:0:0:0:
256,192,98513,1,0,0:0:0:0:
256,192,98575,1,2,0:0:0:0:
256,192,98638,1,2,0:0:0:0:
256,192,98700,1,2,0:0:0:0:
256,192,98763,1,4,0:0:0:0:
256,192,98888,1,2,0:0:0:0:
256,192,98950,1,0,0:0:0:0:
256,192,99013,1,0,0:0:0:0:
256,192,99075,1,0,0:0:0:0:
256,192,99138,1,2,0:0:0:0:
256,192,99263,1,0,0:0:0:0:
256,192,99325,1,0,0:0:0:0:
256,192,99388,1,2,0:0:0:0:
256,192,99450,1,2,0:0:0:0:
256,192,99513,1,0,0:0:0:0:
256,192,99638,1,2,0:0:0:0:
256,192,99763,1,2,0:0:0:0:
256,192,99825,1,2,0:0:0:0:
256,192,99888,1,0,0:0:0:0:
256,192,99950,1,2,0:0:0:0:
256,192,100013,1,0,0:0:0:0:
256,192,100138,1,0,0:0:0:0:
256,192,100200,1,0,0:0:0:0:
256,192,100263,1,2,0:0:0:0:
256,192,100325,1,2,0:0:0:0:
256,192,100388,1,4,0:0:0:0:
256,192,100513,1,4,0:0:0:0:
256,192,100638,1,0,0:0:0:0:
256,192,100763,1,0,0:0:0:0:
256,192,100825,1,2,0:0:0:0:
256,192,100888,1,2,0:0:0:0:
256,192,100950,1,0,0:0:0:0:
256,192,101013,1,6,0:0:0:0:
256,192,101138,1,0,0:0:0:0:
256,192,101200,1,2,0:0:0:0:
256,192,101263,1,2,0:0:0:0:
256,192,101388,1,0,0:0:0:0:
256,192,101450,1,2,0:0:0:0:
256,192,101513,1,0,0:0:0:0:
256,192,101575,1,2,0:0:0:0:
256,192,101638,1,2,0:0:0:0:
256,192,101700,1,2,0:0:0:0:
256,192,101763,1,4,0:0:0:0:
256,192,101888,1,0,0:0:0:0:
256,192,102013,1,0,0:0:0:0:
256,192,102075,1,2,0:0:0:0:
256,192,102138,1,0,0:0:0:0:
256,192,102200,1,2,0:0:0:0:
256,192,102263,1,2,0:0:0:0:
256,192,102325,1,2,0:0:0:0:
256,192,102388,1,0,0:0:0:0:
256,192,102450,1,2,0:0:0:0:
256,192,102513,1,0,0:0:0:0:
256,192,102638,1,2,0:0:0:0:
256,192,102763,1,2,0:0:0:0:
256,192,102825,1,2,0:0:0:0:
256,192,102888,1,2,0:0:0:0:
256,192,102950,1,0,0:0:0:0:
256,192,103013,1,0,0:0:0:0:
256,192,103075,1,2,0:0:0:0:
256,192,103138,1,2,0:0:0:0:
256,192,103263,1,2,0:0:0:0:
256,192,103325,1,2,0:0:0:0:
256,192,103388,1,2,0:0:0:0:
256,192,103450,1,0,0:0:0:0:
256,192,103513,1,0,0:0:0:0:
256,192,103575,1,2,0:0:0:0:
256,192,103638,1,0,0:0:0:0:
256,192,103700,1,2,0:0:0:0:
256,192,103763,1,0,0:0:0:0:
256,192,103888,1,0,0:0:0:0:
256,192,103950,1,2,0:0:0:0:
256,192,104013,1,0,0:0:0:0:
256,192,104075,1,0,0:0:0:0:
256,192,104138,1,6,0:0:0:0:
256,192,104263,1,2,0:0:0:0:
256,192,104325,1,2,0:0:0:0:
256,192,104388,1,0,0:0:0:0:
256,192,104450,1,2,0:0:0:0:
256,192,104513,1,2,0:0:0:0:
256,192,104575,1,0,0:0:0:0:
256,192,104638,1,2,0:0:0:0:
256,192,104700,1,0,0:0:0:0:
256,192,104763,1,6,0:0:0:0:
256,192,104888,1,4,0:0:0:0:
256,192,105013,1,2,0:0:0:0:
256,192,105075,1,2,0:0:0:0:
256,192,105138,1,2,0:0:0:0:
256,192,105200,1,2,0:0:0:0:
256,192,105263,1,0,0:0:0:0:
256,192,105388,1,2,0:0:0:0:
256,192,105450,1,2,0:0:0:0:
256,192,105513,1,0,0:0:0:0:
256,192,105575,1,0,0:0:0:0:
256,192,105638,1,2,0:0:0:0:
256,192,105763,1,4,0:0:0:0:
256,192,105888,1,2,0:0:0:0:
256,192,105950,1,2,0:0:0:0:
256,192,106013,1,2,0:0:0:0:
256,192,106075,1,2,0:0:0:0:
256,192,106138,1,0,0:0:0:0:
256,192,106200,1,0,0:0:0:0:
256,192,106263,1,0,0:0:0:0:
256,192,106325,1,0,0:0:0:0:
256,192,106388,1,2,0:0:0:0:
256,192,106513,1,0,0:0:0:0:
256,192,106575,1,2,0:0:0:0:
256,192,106638,1,2,0:0:0:0:
256,192,106763,1,0,0:0:0:0:
256,192,106825,1,0,0:0:0:0:
256,192,106888,1,0,0:0:0:0:
256,192,106950,1,2,0:0:0:0:
256,192,107013,1,2,0:0:0:0:
256,192,107075,1,2,0:0:0:0:
256,192,107138,1,2,0:0:0:0:
256,192,107200,1,0,0:0:0:0:
256,192,107263,1,6,0:0:0:0:
256,192,107388,1,0,0:0:0:0:
256,192,107450,1,2,0:0:0:0:
256,192,107513,1,0,0:0:0:0:
256,192,107575,1,0,0:0:0:0:
256,192,107638,1,2,0:0:0:0:
256,192,107700,1,2,0:0:0:0:
256,192,107763,1,2,0:0:0:0:
256,192,107825,1,2,0:0:0:0:
256,192,107888,1,2,0:0:0:0:
256,192,108013,1,0,0:0:0:0:
256,192,108075,1,2,0:0:0:0:
256,192,108138,1,2,0:0:0:0:
256,192,108200,1,0,0:0:0:0:
256,192,108263,1,0,0:0:0:0:
256,192,108325,1,2,0:0:0:0:
256,192,108388,1,0,0:0:0:0:
256,192,108450,1,2,0:0:0:0:
256,192,108513,1,2,0:0:0:0:
256,192,108638,1,0,0:0:0:0:
256,192,108700,1,0,0:0:0:0:
256,192,108763,1,2,0:0:0:0:
256,192,108825,1,2,0:0:0:0:
256,192,108888,1,2,0:0:0:0:
256,192,108950,1,0,0:0:0:0:
256,192,109013,1,0,0:0:0:0:
256,192,109075,1,2,0:0:0:0:
256,192,109138,1,4,0:0:0:0:
256,192,109263,1,0,0:0:0:0:
256,192,109325,1,0,0:0:0:0:
256,192,109388,1,2,0:0:0:0:
256,192,109450,1,2,0:0:0:0:
256,192,109513,1,2,0:0:0:0:
256,192,109575,1,2,0:0:0:0:
256,192,109638,1,0,0:0:0:0:
256,192,109700,1,2,0:0:0:0:
256,192,109763,1,0,0:0:0:0:
256,192,109888,1,0,0:0:0:0:
256,192,109950,1,2,0:0:0:0:
256,192,110013,1,2,0:0:0:0:
256,192,110075,1,0,0:0:0:0:
256,192,110138,1,2,0:0:0:0:
256,192,110263,1,2,0:0:0:0:
256,192,110325,1,0,0:0:0:0:
256,192,110388,1,2,0:0:0:0:
256,192,110450,1,2,0:0:0:0:
256,192,110513,1,0,0:0:0:0:
256,192,110575,1,0,0:0:0:0:
256,192,110638,1,2,0:0:0:0:
256,192,110700,1,0,0:0:0:0:
256,192,110763,1,0,0:0:0:0:
256,192,110888,1,0,0:0:0:0:
256,192,110950,1,2,0:0:0:0:
256,192,111013,1,2,0:0:0:0:
256,192,111075,1,2,0:0:0:0:
256,192,111138,1,0,0:0:0:0:
256,192,111263,1,2,0:0:0:0:
256,192,111325,1,2,0:0:0:0:
256,192,111388,1,2,0:0:0:0:
256,192,111450,1,2,0:0:0:0:
256,192,111513,1,0,0:0:0:0:
256,192,111575,1,0,0:0:0:0:
256,192,111638,1,0,0:0:0:0:
256,192,111763,1,0,0:0:0:0:
256,192,111825,1,2,0:0:0:0:
256,192,111888,1,0,0:0:0:0:
256,192,111950,1,2,0:0:0:0:
256,192,112013,1,0,0:0:0:0:
256,192,112075,1,0,0:0:0:0:
256,192,112138,1,2,0:0:0:0:
256,192,112200,1,2,0:0:0:0:
256,192,112263,1,0,0:0:0:0:
256,192,112388,1,2,0:0:0:0:
256,192,112450,1,2,0:0:0:0:
256,192,112513,1,0,0:0:0:0:
256,192,112575,1,2,0:0:0:0:
256,192,112638,1,0,0:0:0:0:
256,192,112763,1,2,0:0:0:0:
256,192,112888,1,2,0:0:0:0:
256,192,112950,1,2,0:0:0:0:
256,192,113013,1,2,0:0:0:0:
256,192,113075,1,0,0:0:0:0:
256,192,113138,1,2,0:0:0:0:
256,192,113263,1,0,0:0:0:0:
256,192,113325,1,2,0:0:0:0:
256,192,113388,1,2,0:0:0:0:
256,192,113450,1,0,0:0:0:0:
256,192,113513,1,6,0:0:0:0:
256,192,113638,1,2,0:0:0:0:
256,192,113763,1,0,0:0:0:0:
256,192,113888,1,0,0:0:0:0:
256,192,113950,1,2,0:0:0:0:
256,192,114013,1,0,0:0:0:0:
256,192,114075,1,0,0:0:0:0:
256,192,114138,1,0,0:0:0:0:
256,192,114200,1,0,0:0:0:0:
256,192,114263,1,0,0:0:0:0:
256,192,114325,1,0,0:0:0:0:
256,192,114388,1,0,0:0:0:0:
256,192,114513,1,2,0:0:0:0:
256,192,114575,1,2,0:0:0:0:
256,192,114638,1,0,0:0:0:0:
256,192,114700,1,0,0:0:0:0:
256,192,114763,1,2,0:0:0:0:
256,192,114888,1,0,0:0:0:0:
256,192,114950,1,0,0:0:0:0:
256,192,115013,1,0,0:0:0:0:
256,192,115075,1,2,0:0:0:0:
256,192,115138,1,0,0:0:0:0:
256,192,115200,1,0,0:0:0:0:
256,192,115263,1,2,0:0:0:0:
256,192,115388,1,0,0:0:0:0:
256,192,115450,1,0,0:0:0:0:
256,192,115513,1,2,0:0:0:0:
256,192,115575,1,2,0:0:0:0:
256,192,115638,1,4,0:0:0:0:
256,192,115763,1,0,0:0:0:0:
256,192,115825,1,0,0:0:0:0:
256,192,115888,1,2,0:0:0:0:
256,192,115950,1,2,0:0:0:0:
256,192,116013,1,0,0:0:0:0:
256,192,116138,1,2,0:0:0:0:
256,192,116263,1,2,0:0:0:0:
256,192,116325,1,0,0:0:0:0:
256,192,116388,1,0,0:0:0:0:
256,192,116450,1,2,0:0:0:0:
256,192,116513,1,0,0:0:0:0:
256,192,116575,1,2,0:0:0:0:
256,192,116638,1,2,0:0:0:0:
256,192,116700,1,0,0:0:0:0:
256,192,116763,1,0,0:0:0:0:
256,192,116888,1,0,0:0:0:0:
256,192,116950,1,2,0:0:0:0:
256,192,117013,1,2,0:0:0:0:
256,192,117138,1,0,0:0:0:0:
256,192,117200,1,2,0:0:0:0:
256,192,117263,1,0,0:0:0:0:
256,192,117325,1,0,0:0:0:0:
256,192,117388,1,0,0:0:0:0:
256,192,117450,1,2,0:0:0:0:
256,192,117513,1,4,0:0:0:0:
256,192,117638,1,6,0:0:0:0:
256,192,117763,1,2,0:0:0:0:
256,192,117825,1,0,0:0:0:0:
256,192,117888,1,0,0:0:0:0:
256,192,117950,1,0,0:0:0:0:
256,192,118013,1,2,0:0:0:0:
256,192,118075,1,2,0:0:0:0:
256,192,118138,1,0,0:0:0:0:
256,192,118200,1,2,0:0:0:0:
256,192,118263,1,4,0:0:0:0:
256,192,118388,1,0,0:0:0:0:
256,192,118450,1,2,0:0:0:0:
256,192,118513,1,0,0:0:0:0:
256,192,118575,1,2,0:0:0:0:
256,192,118638,1,0,0:0:0:0:
256,192,118700,1,0,0:0:0:0:
256,192,118763,1,0,0:0:0:0:
256,192,118825,1,2,0:0:0:0:
256,192,118888,1,4,0:0:0:0:
256,192,119013,1,4,0:0:0:0:
256,192,119138,1,0,0:0:0:0:
256,192,119200,1,2,0:0:0:0:
256,192,119263,1,0,0:0:0:0:
256,192,119325,1,2,0:0:0:0:
256,192,119388,1,0,0:0:0:0:
256,192,119450,1,2,0:0:0:0:
256,192,119513,1,0,0:0:0:0:
256,192,119575,1,2,0:0:0:0:
256,192,119638,1,2,0:0:0:0:
256,192,119763,1,2,0:0:0:0:
256,192,119825,1,0,0:0:0:0:
256,192,119888,1,6,0:0:0:0:
256,192,120013,1,2,0:0:0:0:
256,192,120075,1,0,0:0:0:0:
256,192,120138,1,2,0:0:0:0:
256,192,120200,1,0,0:0:0:0:
256,192,120263,1,6,0:0:0:0:
256,192,120388,1,0,0:0:0:0:
256,192,120450,1,2,0:0:0:0:
256,192,120513,1,0,0:0:0:0:
256,192,120638,1,2,0:0:0:0:
256,192,120700,1,2,0:0:0:0:
256,192,120763,1,2,0:0:0:0:
256,192,120825,1,2,0:0:0:0:
256,192,120888,1,0,0:0:0:0:
256,192,120950,1,0,0:0:0:0:
256,192,121013,1,2,0:0:0:0:
256,192,121075,1,0,0:0:0:0:
256,192,121138,1,2,0:0:0:0:
256,192,121263,1,2,0:0:0:0:
256,192,121325,1,2,0:0:0:0:
256,192,121388,1,0,0:0:0:0:
256,192,121450,1,0,0:0:0:0:
256,192,121513,1,6,0:0:0:0:
256,192,121638,1,0,0:0:0:0:
256,192,121700,1,0,0:0:0:0:
256,192,121763,1,2,0:0:0:0:
256,192,121825,1,0,0:0:0:0:
256,192,121888,1,2,0:0:0:0:
256,192,122013,1,2,0:0:0:0:
256,192,122075,1,2,0:0:0:0:
256,192,122138,1,2,0:0:0:0:
256,192,122200,1,2,0:0:0:0:
256,192,122263,1,2,0:0:0:0:
256,192,122325,1,0,0:0:0:0:
256,192,122388,1,2,0:0:0:0:
256,192,122450,1,0,0:0:0:0:
256,192,122513,1,2,0:0:0:0:
256,192,122638,1,0,0:0:0:0:
256,192,122700,1,0,0:0:0:0:
256,192,122763,1,0,0:0:0:0:
256,192,122825,1,2,0:0:0:0:
256,192,122888,1,0,0:0:0:0:
256,192,123013,1,0,0:0:0:0:
256,192,123075,1,2,0:0:0:0:
256,192,123138,1,2,0:0:0:0:
256,192,123200,1,0,0:0:0:0:
256,192,123263,1,2,0:0:0:0:
256,192,123325,1,2,0:0:0:0:
256,192,123388,1,4,0:0:0:0:
256,192,123513,1,0,0:0:0:0:
256,192,123575,1,0,0:0:0:0:
256,192,123638,1,2,0:0:0:0:
256,192,123700,1,2,0:0:0:0:
256,192,123763,1,2,0:0:0:0:
256,192,123825,1,0,0:0:0:0:
256,192,123888,1,2,0:0:0:0:
256,192,123950,1,2,0:0:0:0:
256,192,124013,1,2,0:0:0:0:
256,192,124138,1,2,0:0:0:0:
256,192,124200,1,0,0:0:0:0:
256,192,124263,1,0,0:0:0:0:
256,192,124325,1,0,0:0:0:0:
256,192,124388,1,2,0:0:0:0:
256,192,124513,1,2,0:0:0:0:
256,192,124575,1,0,0:0:0:0:
256,192,124638,1,2,0:0:0:0:
256,192,124700,1,0,0:0:0:0:
256,192,124763,1,0,0:0:0:0:
256,192,124888,1,2,0:0:0:0:
256,192,124950,1,0,0:0:0:0:
256,192,125013,1,2,0:0:0:0:
256,192,125075,1,0,0:0:0:0:
256,192,125138,1,0,0:0:0:0:
256,192,125200,1,2,0:0:0:0:
256,192,125263,1,2,0:0:0:0:
256,192,125388,1,2,0:0:0:0:
256,192,125450,1,2,0:0:0:0:
256,192,125513,1,0,0:0:0:0:
256,192,125638,1,0,0:0:0:0:
256,192,125700,1,2,0:0:0:0:
256,192,125763,1,0,0:0:0:0:
256,192,125825,1,2,0:0:0:0:
256,192,125888,1,4,0:0:0:0:
256,192,126013,1,0,0:0:0:0:
256,192,126075,1,0,0:0:0:0:
256,192,126138,1,2,0:0:0:0:
256,192,126200,1,2,0:0:0:0:
256,192,126263,1,2,0:0:0:0:
256,192,126325,1,0,0:0:0:0:
256,192,126388,1,2,0:0:0:0:
256,192,126513,1,0,0:0:0:0:
256,192,126575,1,2,0:0:0:0:
256,192,126638,1,0,0:0:0:0:
256,192,126700,1,2,0:0:0:0:
256,192,126763,1,2,0:0:0:0:
256,192,126825,1,2,0:0:0:0:
256,192,126888,1,0,0:0:0:0:
256,192,126950,1,2,0:0:0:0:
256,192,127013,1,2,0:0:0:0:
256,192,127138,1,0,0:0:0:0:
256,192,127200,1,2,0:0:0:0:
256,192,127263,1,2,0:0:0:0:
256,192,127325,1,2,0:0:0:0:
256,192,127388,1,2,0:0:0:0:
256,192,127450,1,0,0:0:0:0:
256,192,127513,1,2,0:0:0:0:
256,192,127575,1,0,0:0:0:0:
256,192,127638,1,0,0:0:0:0:
256,192,127763,1,2,0:0:0:0:
256,192,127825,1,0,0:0:0:0:
256,192,127888,1,0,0:0:0:0:
256,192,127950,1,0,0:0:0:0:
256,192,128013,1,2,0:0:0:0:
256,192,128138,1,2,0:0:0:0:
256,192,128200,1,0,0:0:0:0:
256,192,128263,1,2,0:0:0:0:
256,192,128325,1,0,0:0:0:0:
256,192,128388,1,6,0:0:0:0:
256,192,128513,1,0,0:0:0:0:
256,192,128575,1,2,0:0:0:0:
256,192,128638,1,2,0:0:0:0:
256,192,128700,1,2,0:0:0:0:
256,192,128763,1,4,0:0:0:0:
256,192,128888,1,2,0:0:0:0:
256,192,128950,1,2,0:0:0:0:
256,192,129013,1,0,0:0:0:0:
256,192,129075,1,2,0:0:0:0:
256,192,129138,1,0,0:0:0:0:
256,192,129263,1,2,0:0:0:0:
256,192,129325,1,0,0:0:0:0:
256,192,129388,1,2,0:0:0:0:
256,192,129450,1,2,0:0:0:0:
256,192,129513,1,2,0:0:0:0:
256,192,129638,1,0,0:0:0:0:
256,192,129700,1,2,0:0:0:0:
256,192,129763,1,4,0:0:0:0:
256,192,129888,1,2,0:0:0:0:
256,192,129950,1,0,0:0:0:0:
256,192,130013,1,2,0:0:0:0:
256,192,130075,1,2,0:0:0:0:
256,192,130138,1,2,0:0:0:0:
256,192,130200,1,2,0:0:0:0:
256,192,130263,1,0,0:0:0:0:
256,192,130325,1,2,0:0:0:0:
256,192,130388,1,0,0:0:0:0:
256,192,130513,1,2,0:0:0:0:
256,192,130575,1,0,0:0:0:0:
256,192,130638,1,0,0:0:0:0:
256,192,130700,1,2,0:0:0:0:
256,192,130763,1,2,0:0:0:0:
256,192,130825,1,0,0:0:0:0:
256,192,130888,1,0,0:0:0:0:
256,192,130950,1,0,0:0:0:0:
256,192,131013,1,2,0:0:0:0:
256,192,131138,1,6,0:0:0:0:
256,192,131263,1,0,0:0:0:0:
256,192,131325,1,0,0:0:0:0:
256,192,131388,1,2,0:0:0:0:
256,192,131450,1,0,0:0:0:0:
256,192,131513,1,2,0:0:0:0:
256,192,131638,1,0,0:0:0:0:
256,192,131700,1,2,0:0:0:0:
256,192,131763,1,2,0:0:0:0:
256,192,131825,1,0,0:0:0:0:
256,192,131888,1,2,0:0:0:0:
256,192,132013,1,2,0:0:0:0:
256,192,132075,1,0,0:0:0:0:
256,192,132138,1,0,0:0:0:0:
256,192,132200,1,2,0:0:0:0:
256,192,132263,1,2,0:0:0:0:
256,192,132388,1,2,0:0:0:0:
256,192,132513,1,2,0:0:0:0:
256,192,132575,1,2,0:0:0:0:
256,192,132638,1,2,0:0:0:0:
256,192,132700,1,0,0:0:0:0:
256,192,132763,1,0,0:0:0:0:
256,192,132825,1,2,0:0:0:0:
256,192,132888,1,0,0:0:0:0:
256,192,132950,1,2,0:0:0:0:
256,192,133013,1,0,0:0:0:0:
256,192,133138,1,2,0:0:0:0:
256,192,133200,1,2,0:0:0:0:
256,192,133263,1,0,0:0:0:0:
256,192,133325,1,0,0:0:0:0:
256,192,133388,1,0,0:0:0:0:
256,192,133450,1,0,0:0:0:0:
256,192,133513,1,2,0:0:0:0:
256,192,133575,1,2,0:0:0:0:
256,192,133638,1,2,0:0:0:0:
256,192,133763,1,2,0:0:0:0:
256,192,133825,1,2,0:0:0:0:
256,192,133888,1,2,0:0:0:0:
256,192,133950,1,2,0:0:0:0:
256,192,134013,1,0,0:0:0:0:
256,192,134138,1,2,0:0:0:0:
256,192,134200,1,0,0:0:0:0:
256,192,134263,1,0,0:0:0:0:
256,192,134325,1,0,0:0:0:0:
256,192,134388,1,0,0:0:0:0:
256,192,134513,1,0,0:0:0:0:
256,192,134575,1,2,0:0:0:0:
256,192,134638,1,2,0:0:0:0:
256,192,134700,1,0,0:0:0:0:
256,192,134763,1,2,0:0:0:0:
256,192,134888,1,2,0:0:0:0:
256,192,134950,1,0,0:0:0:0:
256,192,135013,1,2,0:0:0:0:
256,192,135075,1,0,0:0:0:0:
256,192,135138,1,0,0:0:0:0:
256,192,135200,1,0,0:0:0:0:
256,192,135263,1,0,0:0:0:0:
256,192,135388,1,2,0:0:0:0:
256,192,135450,1,2,0:0:0:0:
256,192,135513,1,4,0:0:0:0:
256,192,135638,1,0,0:0:0:0:
256,192,135700,1,0,0:0:0:0:
256,192,135763,1,0,0:0:0:0:
256,192,135825,1,2,0:0:0:0:
256,192,135888,1,2,0:0:0:0:
256,192,135950,1,2,0:0:0:0:
256,192,136013,1,0,0:0:0:0:
256,192,136075,1,0,0:0:0:0:
256,192,136138,1,2,0:0:0:0:
256,192,136263,1,0,0:0:0:0:
256,192,136325,1,2,0:0:0:0:
256,192,136388,1,2,0:0:0:0:
256,192,136450,1,0,0:0:0:0:
256,192,136513,1,0,0:0:0:0:
256,192,136575,1,0,0:0:0:0:
256,192,136638,1,2,0:0:0:0:
256,192,136700,1,2,0:0:0:0:
256,192,136763,1,2,0:0:0:0:
256,192,136888,1,6,0:0:0:0:
256,192,137013,1,2,0:0:0:0:
256,192,137075,1,0,0:0:0:0:
256,192,137138,1,2,0:0:0:0:
256,192,137200,1,0,0:0:0:0:
256,192,137263,1,0,0:0:0:0:
256,192,137388,1,0,0:0:0:0:
256,192,137513,1,2,0:0:0:0:
256,192,137575,1,2,0:0:0:0:
256,192,137638,1,0,0:0:0:0:
256,192,137700,1,2,0:0:0:0:
256,192,137763,1,0,0:0:0:0:
256,192,137888,1,4,0:0:0:0:
256,192,138013,1,0,0:0:0:0:
256,192,138075,1,0,0:0:0:0:
256,192,138138,1,2,0:0:0:0:
256,192,138200,1,2,0:0:0:0:
256,192,138263,1,0,0:0:0:0:
256,192,138325,1,2,0:0:0:0:
256,192,138388,1,2,0:0:0:0:
256,192,138513,1,6,0:0:0:0:
256,192,138638,1,2,0:0:0:0:
256,192,138763,1,0,0:0:0:0:
256,192,138888,1,2,0:0:0:0:
256,192,138950,1,0,0:0:0:0:
256,192,139013,1,2,0:0:0:0:
256,192,139075,1,2,0:0:0:0:
256,192,139138,1,0,0:0:0:0:
256,192,139200,1,0,0:0:0:0:
256,192,139263,1,0,0:0:0:0:
256,192,139388,1,0,0:0:0:0:
256,192,139450,1,2,0:0:0:0:
256,192,139513,1,0,0:0:0:0:
256,192,139575,1,2,0:0:0:0:
256,192,139638,1,4,0:0:0:0:
256,192,139763,1,2,0:0:0:0:
256,192,139825,1,2,0:0:0:0:
256,192,139888,1,0,0:0:0:0:
256,192,139950,1,0,0:0:0:0:
256,192,140013,1,2,0:0:0:0:
256,192,140138,1,0,0:0:0:0:
256,192,140200,1,0,0:0:0:0:
256,192,140263,1,2,0:0:0:0:
256,192,140325,1,0,0:0:0:0:
256,192,140388,1,2,0:0:0:0:
256,192,140450,1,2,0:0:0:0:
256,192,140513,1,2,0:0:0:0:
256,192,140575,1,2,0:0:0:0:
256,192,140638,1,4,0:0:0:0:
256,192,140763,1,2,0:0:0:0:
256,192,140825,1,2,0:0:0:0:
256,192,140888,1,4,0:0:0:0:
256,192,141013,1,6,0:0:0:0:
256,192,141138,1,2,0:0:0:0:
256,192,141263,1,0,0:0:0:0:
256,192,141325,1,0,0:0:0:0:
256,192,141388,1,0,0:0:0:0:
256,192,141450,1,0,0:0:0:0:
256,192,141513,1,0,0:0:0:0:
256,192,141638,1,0,0:0:0:0:
256,192,141700,1,2,0:0:0:0:
256,192,141763,1,0,0:0:0:0:
256,192,141825,1,2,0:0:0:0:
256,192,141888,1,2,0:0:0:0:
256,192,142013,1,0,0:0:0:0:
256,192,142075,1,2,0:0:0:0:
256,192,142138,1,2,0:0:0:0:
256,192,142200,1,0,0:0:0:0:
256,192,142263,1,2,0:0:0:0:
256,192,142388,1,0,0:0:0:0:
256,192,142450,1,0,0:0:0:0:
256,192,142513,1,0,0:0:0:0:
256,192,142575,1,0,0:0:0:0:
256,192,142638,1,0,0:0:0:0:
256,192,142763,1,2,0:0:0:0:
256,192,142825,1,0,0:0:0:0:
256,192,142888,1,2,0:0:0:0:
256,192,142950,1,0,0:0:0:0:
256,192,143013,1,0,0:0:0:0:
256,192,143138,1,0,0:0:0:0:
256,192,143263,1,4,0:0:0:0:
256,192,143388,1,2,0:0:0:0:
256,192,143450,1,2,0:0:0:0:
256,192,143513,1,0,0:0:0:0:
256,192,143575,1,2,0:0:0:0:
256,192,143638,1,0,0:0:0:0:
256,192,143763,1,2,0:0:0:0:
256,192,143825,1,2,0:0:0:0:
256,192,143888,1,0,0:0:0:0:
256,192,143950,1,0,0:0:0:0:
256,192,144013,1,0,0:0:0:0:
256,192,144075,1,0,0:0:0:0:
256,192,144138,1,0,0:0:0:0:
256,192,144200,1,2,0:0:0:0:
256,192,144263,1,2,0:0:0:0:
256,192,144388,1,0,0:0:0:0:
256,192,144450,1,2,0:0:0:0:
256,192,144513,1,0,0:0:0:0:
256,192,144575,1,0,0:0:0:0:
256,192,144638,1,0,0:0:0:0:
256,192,144700,1,0,0:0:0:0:
256,192,144763,1,0,0:0:0:0:
256,192,144825,1,2,0:0:0:0:
256,192,144888,1,2,0:0:0:0:
256,192,145013,1,6,0:0:0:0:
256,192,145138,1,2,0:0:0:0:
256,192,145200,1,0,0:0:0:0:
256,192,145263,1,0,0:0:0:0:
256,192,145325,1,0,0:0:0:0:
256,192,145388,1,2,0:0:0:0:
256,192,145450,1,2,0:0:0:0:
256,192,145513,1,2,0:0:0:0:
256,192,145575,1,2,0:0:0:0:
256,192,145638,1,4,0:0:0:0:
256,192,145763,1,0,0:0:0:0:
256,192,145825,1,0,0:0:0:0:
256,192,145888,1,0,0:0:0:0:
256,192,145950,1,0,0:0:0:0:
256,192,146013,1,2,0:0:0:0:
256,192,146075,1,0,0:0:0:0:
256,192,146138,1,0,0:0:0:0:
256,192,146263,1,0,0:0:0:0:
256,192,146325,1,0,0:0:0:0:
256,192,146388,1,0,0:0:0:0:
256,192,146450,1,0,0:0:0:0:
256,192,146513,1,6,0:0:0:0:
256,192,146638,1,2,0:0:0:0:
256,192,146763,1,0,0:0:0:0:
256,192,146888,1,2,0:0:0:0:
256,192,147013,1,0,0:0:0:0:
256,192,147075,1,0,0:0:0:0:
256,192,147138,1,2,0:0:0:0:
256,192,147200,1,0,0:0:0:0:
256,192,147263,1,2,0:0:0:0:
256,192,147325,1,0,0:0:0:0:
256,192,147388,1,0,0:0:0:0:
256,192,147450,1,2,0:0:0:0:
256,192,147513,1,2,0:0:0:0:
256,192,147638,1,0,0:0:0:0:
256,192,147700,1,2,0:0:0:0:
256,192,147763,1,2,0:0:0:0:
256,192,147825,1,0,0:0:0:0:
256,192,147888,1,2,0:0:0:0:
256,192,148013,1,2,0:0:0:0:
256,192,148075,1,0,0:0:0:0:
256,192,148138,1,0,0:0:0:0:
256,192,148200,1,0,0:0:0:0:
256,192,148263,1,2,0:0:0:0:
256,192,148388,1,2,0:0:0:0:
256,192,148450,1,2,0:0:0:0:
256,192,148513,1,2,0:0:0:0:
256,192,148575,1,2,0:0:0:0:
256,192,148638,1,0,0:0:0:0:
256,192,148700,1,2,0:0:0:0:
256,192,148763,1,0,0:0:0:0:
256,192,148825,1,0,0:0:0:0:
256,192,148888,1,0,0:0:0:0:
256,192,149013,1,0,0:0:0:0:
256,192,149075,1,2,0:0:0:0:
256,192,149138,1,2,0:0:0:0:
256,192,149200,1,2,0:0:0:0:
256,192,149263,1,0,0:0:0:0:
256,192,149388,1,0,0:0:0:0:
256,192,149450,1,0,0:0:0:0:
256,192,149513,1,0,0:0:0:0:
256,192,149575,1,0,0:0:0:0:
256,192,149638,1,6,0:0:0:0:
256,192,149763,1,2,0:0:0:0:
256,192,149825,1,0,0:0:0:0:
256,192,149888,1,2,0:0:0:0:
256,192,149950,1,2,0:0:0:0:
256,192,150013,1,2,0:0:0:0:
256,192,150075,1,0,0:0:0:0:
256,192,150138,1,6,0:0:0:0:
256,192,150263,1,0,0:0:0:0:
256,192,150325,1,2,0:0:0:0:
256,192,150388,1,2,0:0:0:0:
256,192,150450,1,0,0:0:0:0:
256,192,150513,1,2,0:0:0:0:
256,192,150638,1,2,0:0:0:0:
256,192,150700,1,2,0:0:0:0:
256,192,150763,1,2,0:0:0:0:
256,192,150825,1,2,0:0:0:0:
256,192,150888,1,0,0:0:0:0:
256,192,150950,1,2,0:0:0:0:
256,192,151013,1,2,0:0:0:0:
256,192,151075,1,0,0:0:0:0:
256,192,151138,1,6,0:0:0:0:
256,192,151263,1,0,0:0:0:0:
256,192,151388,1,0,0:0:0:0:
256,192,151450,1,0,0:0:0:0:
256,192,151513,1,0,0:0:0:0:
256,192,151575,1,2,0:0:0:0:
256,192,151638,1,0,0:0:0:0:
256,192,151763,1,0,0:0:0:0:
256,192,151825,1,2,0:0:0:0:
256,192,151888,1,2,0:0:0:0:
256,192,151950,1,0,0:0:0:0:
256,192,152013,1,2,0:0:0:0:
256,192,152075,1,2,0:0:0:0:
256,192,152138,1,4,0:0:0:0:
256,192,152263,1,2,0:0:0:0:
256,192,152325,1,2,0:0:0:0:
256,192,152388,1,0,0:0:0:0:
256,192,152450,1,0,0:0:0:0:
256,192,152513,1,0,0:0:0:0:
256,192,152575,1,2,0:0:0:0:
256,192,152638,1,2,0:0:0:0:
256,192,152700,1,0,0:0:0:0:
256,192,152763,1,0,0:0:0:0:
256,192,152888,1,2,0:0:0:0:
256,192,152950,1,2,0:0:0:0:
256,192,153013,1,2,0:0:0:0:
256,192,153075,1,0,0:0:0:0:
256,192,153138,1,2,0:0:0:0:
256,192,153200,1,0,0:0:0:0:
256,192,153263,1,0,0:0:0:0:
256,192,153388,1,2,0:0:0:0:
256,192,153450,1,0,0:0:0:0:
256,192,153513,1,2,0:0:0:0:
256,192,153575,1,0,0:0:0:0:
256,192,153638,1,2,0:0:0:0:
256,192,153700,1,2,0:0:0:0:
256,192,153763,1,0,0:0:0:0:
256,192,153888,1,2,0:0:0:0:
256,192,153950,1,0,0:0:0:0:
256,192,154013,1,2,0:0:0:0:
256,192,154075,1,0,0:0:0:0:
256,192,154138,1,2,0:0:0:0:
256,192,154263,1,0,0:0:0:0:
256,192,154325,1,2,0:0:0:0:
256,192,154388,1,0,0:0:0:0:
256,192,154450,1,2,0:0:0:0:
256,192,154513,1,0,0:0:0:0:
256,192,154575,1,2,0:0:0:0:
256,192,154638,1,0,0:0:0:0:
256,192,154700,1,2,0:0:0:0:
256,192,154763,1,2,0:0:0:0:
256,192,154888,1,6,0:0:0:0:
256,192,155013,1,2,0:0:0:0:
256,192,155075,1,0,0:0:0:0:
256,192,155138,1,2,0:0:0:0:
256,192,155200,1,0,0:0:0:0:
256,192,155263,1,0,0:0:0:0:
256,192,155388,1,0,0:0:0:0:
256,192,155450,1,0,0:0:0:0:
256,192,155513,1,0,0:0:0:0:
256,192,155575,1,2,0:0:0:0:
256,192,155638,1,2,0:0:0:0:
256,192,155700,1,2,0:0:0:0:
256,192,155763,1,4,0:0:0:0:
256,192,155888,1,0,0:0:0:0:
256,192,155950,1,2,0:0:0:0:
256,192,156013,1,2,0:0:0:0:
256,192,156075,1,2,0:0:0:0:
256,192,156138,1,2,0:0:0:0:
256,192,156200,1,2,0:0:0:0:
256,192,156263,1,2,0:0:0:0:
256,192,156325,1,2,0:0:0:0:
256,192,156388,1,0,0:0:0:0:
256,192,156513,1,2,0:0:0:0:
256,192,156575,1,0,0:0:0:0:
256,192,156638,1,2,0:0:0:0:
256,192,156700,1,2,0:0:0:0:
256,192,156763,1,2,0:0:0:0:
256,192,156888,1,2,0:0:0:0:
256,192,156950,1,0,0:0:0:0:
256,192,157013,1,2,0:0:0:0:
256,192,157075,1,2,0:0:0:0:
256,192,157138,1,0,0:0:0:0:
256,192,157200,1,2,0:0:0:0:
256,192,157263,1,2,0:0:0:0:
256,192,157325,1,2,0:0:0:0:
256,192,157388,1,0,0:0:0:0:
256,192,157513,1,0,0:0:0:0:
256,192,157575,1,2,0:0:0:0:
256,192,157638,1,0,0:0:0:0:
256,192,157700,1,0,0:0:0:0:
256,192,157763,1,6,0:0:0:0:
256,192,157888,1,2,0:0:0:0:
256,192,157950,1,0,0:0:0:0:
256,192,158013,1,0,0:0:0:0:
256,192,158075,1,2,0:0:0:0:
256,192,158138,1,4,0:0:0:0:
256,192,158263,1,2,0:0:0:0:
256,192,158325,1,0,0:0:0:0:
256,192,158388,1,2,0:0:0:0:
256,192,158450,1,2,0:0:0:0:
256,192,158513,1,2,0:0:0:0:
256,192,158575,1,0,0:0:0:0:
256,192,158638,1,2,0:0:0:0:
256,192,158700,1,2,0:0:0:0:
256,192,158763,1,4,0:0:0:0:
256,192,158888,1,0,0:0:0:0:
256,192,158950,1,0,0:0:0:0:
256,192,159013,1,2,0:0:0:0:
256,192,159075,1,2,0:0:0:0:
256,192,159138,1,0,0:0:0:0:
256,192,159263,1,2,0:0:0:0:
256,192,159325,1,2,0:0:0:0:
256,192,159388,1,0,0:0:0:0:
256,192,159450,1,2,0:0:0:0:
256,192,159513,1,2,0:0:0:0:
256,192,159575,1,0,0:0:0:0:
256,192,159638,1,0,0:0:0:0:
256,192,159763,1,2,0:0:0:0:
256,192,159825,1,2,0:0:0:0:
256,192,159888,1,0,0:0:0:0:
256,192,160013,1,2,0:0:0:0:
256,192,160138,1,2,0:0:0:0:
256,192,160200,1,2,0:0:0:0:
256,192,160263,1,0,0:0:0:0:
256,192,160325,1,2,0:0:0:0:
256,192,160388,1,2,0:0:0:0:
256,192,160450,1,2,0:0:0:0:
256,192,160513,1,2,0:0:0:0:
256,192,160575,1,2,0:0:0:0:
256,192,160638,1,2,0:0:0:0:
