osu file format v14

[General]
AudioFilename: freedman.mp3
AudioLeadIn: 0
PreviewTime: 80580
Countdown: 0
SampleSet: None
StackLeniency: 0.7
Mode: 1
LetterboxInBreaks: 0
EpilepsyWarning: 1
WidescreenStoryboard: 1

[Editor]
Bookmarks: 76200,130825,139388
DistanceSpacing: 1.5
BeatDivisor: 4
GridSize: 32
TimelineZoom: 1

[Metadata]
Title:FREEDMAN
TitleUnicode:FREEDMAN
Artist:FujuniseikouyuuP
ArtistUnicode:不純異性交遊P
Creator:DarkStoorM
Version:I^2-TriTaikoGen
Source:
Tags:HujuniseikouyuuP Vocaloid Megpoid GUMI Nanahoshi Kangengakudan Seven Stars Orchestra W_h_i_t_e Raose iyasine nouk qoot8123
BeatmapID:1959956
BeatmapSetID:938311

[Difficulty]
HPDrainRate:0
CircleSize:4
OverallDifficulty:8
ApproachRate:6
SliderMultiplier:1.6
SliderTickRate:1

[Events]
//Background and Video events
0,0,"freedman.png",0,0
//Break Periods
//Storyboard Layer 0 (Background)
//Storyboard Layer 1 (Fail)
//Storyboard Layer 2 (Pass)
//Storyboard Layer 3 (Foreground)
//Storyboard Sound Samples

[TimingPoints]
638,250,4,1,0,90,1,0
80638,-100,4,1,0,90,0,1
100888,-100,4,1,0,90,0,0
140638,-100,4,1,0,90,0,1
160638,-100,4,1,0,90,0,0

[Colours]
Combo1 : 255,0,128
Combo2 : 192,192,192
Combo3 : 0,255,0
Combo4 : 255,255,255

[HitObjects]
256,192,638,1,0,0:0:0:0:
256,192,700,1,2,0:0:0:0:
256,192,763,1,0,0:0:0:0:
256,192,825,1,0,0:0:0:0:
256,192,888,1,2,0:0:0:0:
256,192,1013,1,2,0:0:0:0:
256,192,1075,1,2,0:0:0:0:
256,192,1117,1,0,0:0:0:0:
256,192,1158,1,0,0:0:0:0:
256,192,1200,1,0,0:0:0:0:
256,192,1263,1,2,0:0:0:0:
256,192,1325,1,2,0:0:0:0:
256,192,1388,1,0,0:0:0:0:
256,192,1450,1,0,0:0:0:0:
256,192,1492,1,2,0:0:0:0:
256,192,1533,1,2,0:0:0:0:
256,192,1575,1,2,0:0:0:0:
256,192,1638,1,0,0:0:0:0:
256,192,1763,1,0,0:0:0:0:
256,192,1825,1,2,0:0:0:0:
256,192,1888,1,0,0:0:0:0:
256,192,2013,1,4,0:0:0:0:
256,192,2138,1,0,0:0:0:0:
256,192,2263,1,0,0:0:0:0:
256,192,2388,1,6,0:0:0:0:
256,192,2513,1,2,0:0:0:0:
256,192,2575,1,2,0:0:0:0:
256,192,2638,1,0,0:0:0:0:
256,192,2763,1,0,0:0:0:0:
256,192,2825,1,0,0:0:0:0:
256,192,2888,1,2,0:0:0:0:
256,192,2950,1,2,0:0:0:0:
256,192,3013,1,0,0:0:0:0:
256,192,3075,1,2,0:0:0:0:
256,192,3138,1,4,0:0:0:0:
256,192,3263,1,2,0:0:0:0:
256,192,3325,1,2,0:0:0:0:
256,192,3388,1,2,0:0:0:0:
256,192,3450,1,0,0:0:0:0:
256,192,3513,1,0,0:0:0:0:
256,192,3575,1,2,0:0:0:0:
256,192,3638,1,0,0:0:0:0:
256,192,3763,1,2,0:0:0:0:
256,192,3825,1,2,0:0:0:0:
256,192,3888,1,0,0:0:0:0:
256,192,3950,1,0,0:0:0:0:
256,192,4013,1,6,0:0:0:0:
256,192,4138,1,2,0:0:0:0:
256,192,4200,1,0,0:0:0:0:
256,192,4263,1,2,0:0:0:0:
256,192,4304,1,0,0:0:0:0:
256,192,4346,1,0,0:0:0:0:
256,192,4388,1,2,0:0:0:0:
256,192,4429,1,0,0:0:0:0:
256,192,4471,1,0,0:0:0:0:
256,192,4513,1,2,0:0:0:0:
256,192,4575,1,2,0:0:0:0:
256,192,4638,1,4,0:0:0:0:
256,192,4763,1,4,0:0:0:0:
256,192,4888,1,2,0:0:0:0:
256,192,5013,1,2,0:0:0:0:
256,192,5075,1,2,0:0:0:0:
256,192,5138,1,2,0:0:0:0:
256,192,5200,1,0,0:0:0:0:
256,192,5263,1,2,0:0:0:0:
256,192,5325,1,0,0:0:0:0:
256,192,5388,1,6,0:0:0:0:
256,192,5513,1,6,0:0:0:0:
256,192,5638,1,2,0:0:0:0:
256,192,5700,1,0,0:0:0:0:
256,192,5763,1,0,0:0:0:0:
256,192,5825,1,0,0:0:0:0:
256,192,5888,1,0,0:0:0:0:
256,192,5950,1,0,0:0:0:0:
256,192,6013,1,0,0:0:0:0:
256,192,6138,1,0,0:0:0:0:
256,192,6179,1,2,0:0:0:0:
256,192,6221,1,2,0:0:0:0:
256,192,6263,1,0,0:0:0:0:
256,192,6325,1,0,0:0:0:0:
256,192,6388,1,2,0:0:0:0:
256,192,6513,1,4,0:0:0:0:
256,192,6638,1,0,0:0:0:0:
256,192,6700,1,0,0:0:0:0:
256,192,6763,1,2,0:0:0:0:
256,192,6888,1,2,0:0:0:0:
256,192,6950,1,2,0:0:0:0:
256,192,7013,1,2,0:0:0:0:
256,192,7138,1,0,0:0:0:0:
256,192,7263,1,0,0:0:0:0:
256,192,7325,1,0,0:0:0:0:
256,192,7388,1,2,0:0:0:0:
256,192,7450,1,2,0:0:0:0:
256,192,7513,1,4,0:0:0:0:
256,192,7638,1,0,0:0:0:0:
256,192,7679,1,2,0:0:0:0:
256,192,7721,1,0,0:0:0:0:
256,192,7763,1,0,0:0:0:0:
256,192,7825,1,0,0:0:0:0:
256,192,7888,1,2,0:0:0:0:
256,192,8013,1,0,0:0:0:0:
256,192,8075,1,2,0:0:0:0:
256,192,8138,1,2,0:0:0:0:
256,192,8200,1,0,0:0:0:0:
256,192,8263,1,2,0:0:0:0:
256,192,8388,1,2,0:0:0:0:
256,192,8450,1,2,0:0:0:0:
256,192,8513,1,0,0:0:0:0:
256,192,8638,1,2,0:0:0:0:
256,192,8700,1,2,0:0:0:0:
256,192,8763,1,2,0:0:0:0:
256,192,8825,1,0,0:0:0:0:
256,192,8888,1,2,0:0:0:0:
256,192,8950,1,0,0:0:0:0:
256,192,9013,1,6,0:0:0:0:
256,192,9138,1,2,0:0:0:0:
256,192,9263,1,0,0:0:0:0:
256,192,9325,1,0,0:0:0:0:
256,192,9388,1,2,0:0:0:0:
256,192,9513,1,2,0:0:0:0:
256,192,9575,1,0,0:0:0:0:
256,192,9638,1,0,0:0:0:0:
256,192,9763,1,2,0:0:0:0:
256,192,9825,1,0,0:0:0:0:
256,192,9888,1,2,0:0:0:0:
256,192,9950,1,2,0:0:0:0:
256,192,10013,1,0,0:0:0:0:
256,192,10138,1,0,0:0:0:0:
256,192,10179,1,0,0:0:0:0:
256,192,10221,1,2,0:0:0:0:
256,192,10263,1,2,0:0:0:0:
256,192,10325,1,0,0:0:0:0:
256,192,10388,1,0,0:0:0:0:
256,192,10450,1,2,0:0:0:0:
256,192,10513,1,2,0:0:0:0:
256,192,10575,1,0,0:0:0:0:
256,192,10617,1,0,0:0:0:0:
256,192,10658,1,0,0:0:0:0:
256,192,10700,1,0,0:0:0:0:
256,192,10763,1,2,0:0:0:0:
256,192,10888,1,0,0:0:0:0:
256,192,10950,1,2,0:0:0:0:
256,192,11013,1,0,0:0:0:0:
256,192,11075,1,2,0:0:0:0:
256,192,11138,1,0,0:0:0:0:
256,192,11200,1,2,0:0:0:0:
256,192,11263,1,0,0:0:0:0:
256,192,11388,1,0,0:0:0:0:
256,192,11513,1,0,0:0:0:0:
256,192,11575,1,0,0:0:0:0:
256,192,11638,1,2,0:0:0:0:
256,192,11700,1,0,0:0:0:0:
256,192,11763,1,2,0:0:0:0:
256,192,11888,1,2,0:0:0:0:
256,192,11950,1,2,0:0:0:0:
256,192,11992,1,2,0:0:0:0:
256,192,12033,1,0,0:0:0:0:
256,192,12075,1,2,0:0:0:0:
256,192,12137,1,0,0:0:0:0:
256,192,12179,1,2,0:0:0:0:
256,192,12221,1,2,0:0:0:0:
256,192,12262,1,2,0:0:0:0:
256,192,12325,1,0,0:0:0:0:
256,192,12387,1,6,0:0:0:0:
256,192,12512,1,2,0:0:0:0:
256,192,12575,1,2,0:0:0:0:
256,192,12637,1,0,0:0:0:0:
256,192,12700,1,0,0:0:0:0:
256,192,12762,1,0,0:0:0:0:
256,192,12825,1,2,0:0:0:0:
256,192,12887,1,2,0:0:0:0:
256,192,13012,1,2,0:0:0:0:
256,192,13075,1,0,0:0:0:0:
256,192,13137,1,6,0:0:0:0:
256,192,13262,1,0,0:0:0:0:
256,192,13387,1,4,0:0:0:0:
256,192,13512,1,0,0:0:0:0:
256,192,13575,1,2,0:0:0:0:
256,192,13637,1,0,0:0:0:0:
256,192,13700,1,0,0:0:0:0:
256,192,13762,1,0,0:0:0:0:
256,192,13887,1,2,0:0:0:0:
256,192,14012,1,0,0:0:0:0:
256,192,14075,1,2,0:0:0:0:
256,192,14137,1,0,0:0:0:0:
256,192,14200,1,0,0:0:0:0:
256,192,14262,1,2,0:0:0:0:
256,192,14387,1,2,0:0:0:0:
256,192,14512,1,2,0:0:0:0:
256,192,14637,1,2,0:0:0:0:
256,192,14700,1,0,0:0:0:0:
256,192,14762,1,2,0:0:0:0:
256,192,14825,1,2,0:0:0:0:
256,192,14887,1,0,0:0:0:0:
256,192,15012,1,0,0:0:0:0:
256,192,15137,1,2,0:0:0:0:
256,192,15262,1,2,0:0:0:0:
256,192,15325,1,2,0:0:0:0:
256,192,15387,1,0,0:0:0:0:
256,192,15512,1,2,0:0:0:0:
256,192,15554,1,0,0:0:0:0:
256,192,15596,1,2,0:0:0:0:
256,192,15637,1,2,0:0:0:0:
256,192,15700,1,2,0:0:0:0:
256,192,15762,1,2,0:0:0:0:
256,192,15825,1,0,0:0:0:0:
256,192,15887,1,2,0:0:0:0:
256,192,15950,1,2,0:0:0:0:
256,192,16012,1,0,0:0:0:0:
256,192,16137,1,0,0:0:0:0:
256,192,16200,1,2,0:0:0:0:
256,192,16262,1,0,0:0:0:0:
256,192,16325,1,2,0:0:0:0:
256,192,16387,1,2,0:0:0:0:
256,192,16512,1,2,0:0:0:0:
256,192,16637,1,2,0:0:0:0:
256,192,16700,1,0,0:0:0:0:
256,192,16762,1,2,0:0:0:0:
256,192,16887,1,0,0:0:0:0:
256,192,16950,1,0,0:0:0:0:
256,192,17012,1,2,0:0:0:0:
256,192,17075,1,0,0:0:0:0:
256,192,17137,1,0,0:0:0:0:
256,192,17262,1,6,0:0:0:0:
256,192,17387,1,0,0:0:0:0:
256,192,17512,1,2,0:0:0:0:
256,192,17575,1,2,0:0:0:0:
256,192,17637,1,0,0:0:0:0:
256,192,17700,1,2,0:0:0:0:
256,192,17762,1,0,0:0:0:0:
256,192,17887,1,2,0:0:0:0:
256,192,18012,1,0,0:0:0:0:
256,192,18137,1,0,0:0:0:0:
256,192,18200,1,2,0:0:0:0:
256,192,18262,1,0,0:0:0:0:
256,192,18325,1,2,0:0:0:0:
256,192,18387,1,0,0:0:0:0:
256,192,18512,1,0,0:0:0:0:
256,192,18575,1,0,0:0:0:0:
256,192,18637,1,0,0:0:0:0:
256,192,18700,1,0,0:0:0:0:
256,192,18762,1,0,0:0:0:0:
256,192,18825,1,0,0:0:0:0:
256,192,18887,1,0,0:0:0:0:
256,192,19012,1,0,0:0:0:0:
256,192,19075,1,0,0:0:0:0:
256,192,19137,1,0,0:0:0:0:
256,192,19200,1,2,0:0:0:0:
256,192,19262,1,0,0:0:0:0:
256,192,19304,1,0,0:0:0:0:
256,192,19346,1,0,0:0:0:0:
256,192,19387,1,2,0:0:0:0:
256,192,19512,1,0,0:0:0:0:
256,192,19637,1,0,0:0:0:0:
256,192,19700,1,2,0:0:0:0:
256,192,19762,1,0,0:0:0:0:
256,192,19887,1,2,0:0:0:0:
256,192,19950,1,0,0:0:0:0:
256,192,19992,1,2,0:0:0:0:
256,192,20033,1,2,0:0:0:0:
256,192,20075,1,2,0:0:0:0:
256,192,20117,1,2,0:0:0:0:
256,192,20158,1,2,0:0:0:0:
256,192,20200,1,0,0:0:0:0:
256,192,20263,1,2,0:0:0:0:
256,192,20304,1,0,0:0:0:0:
256,192,20346,1,2,0:0:0:0:
256,192,20388,1,0,0:0:0:0:
256,192,20429,1,2,0:0:0:0:
256,192,20471,1,2,0:0:0:0:
256,192,20513,1,2,0:0:0:0:
256,192,20575,1,2,0:0:0:0:
256,192,20617,1,2,0:0:0:0:
256,192,20658,1,2,0:0:0:0:
256,192,20700,1,0,0:0:0:0:
256,192,20742,1,2,0:0:0:0:
256,192,20783,1,0,0:0:0:0:
256,192,20825,1,0,0:0:0:0:
256,192,20888,1,0,0:0:0:0:
256,192,20950,1,0,0:0:0:0:
256,192,21013,1,2,0:0:0:0:
256,192,21138,1,0,0:0:0:0:
256,192,21263,1,2,0:0:0:0:
256,192,21388,1,2,0:0:0:0:
256,192,21450,1,0,0:0:0:0:
256,192,21513,1,0,0:0:0:0:
256,192,21554,1,2,0:0:0:0:
256,192,21596,1,2,0:0:0:0:
256,192,21638,1,0,0:0:0:0:
256,192,21700,1,2,0:0:0:0:
256,192,21763,1,2,0:0:0:0:
256,192,21888,1,6,0:0:0:0:
256,192,22013,1,0,0:0:0:0:
256,192,22138,1,0,0:0:0:0:
256,192,22200,1,0,0:0:0:0:
256,192,22263,1,0,0:0:0:0:
256,192,22325,1,2,0:0:0:0:
256,192,22388,1,0,0:0:0:0:
256,192,22513,1,2,0:0:0:0:
256,192,22575,1,2,0:0:0:0:
256,192,22638,1,2,0:0:0:0:
256,192,22700,1,0,0:0:0:0:
256,192,22763,1,2,0:0:0:0:
256,192,22825,1,2,0:0:0:0:
256,192,22888,1,2,0:0:0:0:
256,192,23013,1,2,0:0:0:0:
256,192,23138,1,2,0:0:0:0:
256,192,23263,1,0,0:0:0:0:
256,192,23325,1,2,0:0:0:0:
256,192,23388,1,2,0:0:0:0:
256,192,23450,1,2,0:0:0:0:
256,192,23513,1,4,0:0:0:0:
256,192,23638,1,2,0:0:0:0:
256,192,23679,1,0,0:0:0:0:
256,192,23721,1,2,0:0:0:0:
256,192,23763,1,4,0:0:0:0:
256,192,23888,1,0,0:0:0:0:
256,192,23950,1,0,0:0:0:0:
256,192,24013,1,0,0:0:0:0:
256,192,24075,1,0,0:0:0:0:
256,192,24138,1,0,0:0:0:0:
256,192,24200,1,2,0:0:0:0:
256,192,24263,1,2,0:0:0:0:
256,192,24388,1,0,0:0:0:0:
256,192,24450,1,2,0:0:0:0:
256,192,24513,1,0,0:0:0:0:
256,192,24575,1,0,0:0:0:0:
256,192,24638,1,0,0:0:0:0:
256,192,24763,1,0,0:0:0:0:
256,192,24825,1,0,0:0:0:0:
256,192,24888,1,2,0:0:0:0:
256,192,25013,1,0,0:0:0:0:
256,192,25075,1,0,0:0:0:0:
256,192,25138,1,2,0:0:0:0:
256,192,25263,1,2,0:0:0:0:
256,192,25325,1,0,0:0:0:0:
256,192,25388,1,0,0:0:0:0:
256,192,25429,1,0,0:0:0:0:
256,192,25471,1,2,0:0:0:0:
256,192,25513,1,0,0:0:0:0:
256,192,25638,1,2,0:0:0:0:
256,192,25763,1,0,0:0:0:0:
256,192,25888,1,0,0:0:0:0:
256,192,26013,1,2,0:0:0:0:
256,192,26138,1,0,0:0:0:0:
256,192,26200,1,2,0:0:0:0:
256,192,26263,1,0,0:0:0:0:
256,192,26388,1,0,0:0:0:0:
256,192,26429,1,0,0:0:0:0:
256,192,26471,1,2,0:0:0:0:
256,192,26513,1,2,0:0:0:0:
256,192,26554,1,0,0:0:0:0:
256,192,26596,1,0,0:0:0:0:
256,192,26638,1,0,0:0:0:0:
256,192,26700,1,2,0:0:0:0:
256,192,26763,1,2,0:0:0:0:
256,192,26825,1,0,0:0:0:0:
256,192,26888,1,0,0:0:0:0:
256,192,26950,1,0,0:0:0:0:
256,192,27013,1,0,0:0:0:0:
256,192,27138,1,2,0:0:0:0:
256,192,27200,1,2,0:0:0:0:
256,192,27263,1,2,0:0:0:0:
256,192,27325,1,2,0:0:0:0:
256,192,27388,1,4,0:0:0:0:
256,192,27513,1,2,0:0:0:0:
256,192,27575,1,2,0:0:0:0:
256,192,27638,1,0,0:0:0:0:
256,192,27700,1,0,0:0:0:0:
256,192,27763,1,0,0:0:0:0:
256,192,27825,1,2,0:0:0:0:
256,192,27888,1,2,0:0:0:0:
256,192,28013,1,0,0:0:0:0:
256,192,28054,1,0,0:0:0:0:
256,192,28096,1,2,0:0:0:0:
256,192,28138,1,0,0:0:0:0:
256,192,28179,1,2,0:0:0:0:
256,192,28221,1,0,0:0:0:0:
256,192,28263,1,2,0:0:0:0:
256,192,28325,1,2,0:0:0:0:
256,192,28388,1,2,0:0:0:0:
256,192,28450,1,2,0:0:0:0:
256,192,28513,1,2,0:0:0:0:
256,192,28575,1,2,0:0:0:0:
256,192,28638,1,4,0:0:0:0:
256,192,28763,1,0,0:0:0:0:
256,192,28888,1,2,0:0:0:0:
256,192,29013,1,2,0:0:0:0:
256,192,29075,1,0,0:0:0:0:
256,192,29138,1,0,0:0:0:0:
256,192,29200,1,2,0:0:0:0:
256,192,29263,1,0,0:0:0:0:
256,192,29325,1,0,0:0:0:0:
256,192,29388,1,0,0:0:0:0:
256,192,29513,1,2,0:0:0:0:
256,192,29575,1,2,0:0:0:0:
256,192,29638,1,4,0:0:0:0:
256,192,29763,1,0,0:0:0:0:
256,192,29825,1,0,0:0:0:0:
256,192,29888,1,2,0:0:0:0:
256,192,29950,1,2,0:0:0:0:
256,192,30013,1,0,0:0:0:0:
256,192,30138,1,2,0:0:0:0:
256,192,30263,1,2,0:0:0:0:
256,192,30325,1,0,0:0:0:0:
256,192,30388,1,0,0:0:0:0:
256,192,30450,1,0,0:0:0:0:
256,192,30513,1,2,0:0:0:0:
256,192,30638,1,0,0:0:0:0:
256,192,30700,1,2,0:0:0:0:
256,192,30763,1,2,0:0:0:0:
256,192,30825,1,0,0:0:0:0:
256,192,30888,1,2,0:0:0:0:
256,192,31013,1,0,0:0:0:0:
256,192,31075,1,0,0:0:0:0:
256,192,31138,1,2,0:0:0:0:
256,192,31263,1,0,0:0:0:0:
256,192,31325,1,0,0:0:0:0:
256,192,31388,1,2,0:0:0:0:
256,192,31450,1,0,0:0:0:0:
256,192,31513,1,6,0:0:0:0:
256,192,31638,1,0,0:0:0:0:
256,192,31700,1,0,0:0:0:0:
256,192,31763,1,2,0:0:0:0:
256,192,31888,1,2,0:0:0:0:
256,192,31950,1,2,0:0:0:0:
256,192,32013,1,2,0:0:0:0:
256,192,32075,1,2,0:0:0:0:
256,192,32138,1,0,0:0:0:0:
256,192,32263,1,2,0:0:0:0:
256,192,32325,1,2,0:0:0:0:
256,192,32388,1,0,0:0:0:0:
256,192,32513,1,0,0:0:0:0:
256,192,32638,1,4,0:0:0:0:
256,192,32763,1,4,0:0:0:0:
256,192,32888,1,0,0:0:0:0:
256,192,32950,1,2,0:0:0:0:
256,192,33013,1,2,0:0:0:0:
256,192,33075,1,0,0:0:0:0:
256,192,33138,1,2,0:0:0:0:
256,192,33200,1,0,0:0:0:0:
256,192,33263,1,2,0:0:0:0:
256,192,33388,1,6,0:0:0:0:
256,192,33513,1,0,0:0:0:0:
256,192,33575,1,2,0:0:0:0:
256,192,33638,1,4,0:0:0:0:
256,192,33763,1,0,0:0:0:0:
256,192,33888,1,0,0:0:0:0:
256,192,33950,1,2,0:0:0:0:
256,192,34013,1,2,0:0:0:0:
256,192,34138,1,2,0:0:0:0:
256,192,34263,1,0,0:0:0:0:
256,192,34388,1,0,0:0:0:0:
256,192,34450,1,2,0:0:0:0:
256,192,34513,1,0,0:0:0:0:
256,192,34575,1,0,0:0:0:0:
256,192,34638,1,6,0:0:0:0:
256,192,34763,1,0,0:0:0:0:
256,192,34804,1,0,0:0:0:0:
256,192,34846,1,0,0:0:0:0:
256,192,34888,1,2,0:0:0:0:
256,192,34950,1,0,0:0:0:0:
256,192,35013,1,0,0:0:0:0:
256,192,35075,1,0,0:0:0:0:
256,192,35117,1,0,0:0:0:0:
256,192,35158,1,0,0:0:0:0:
256,192,35200,1,2,0:0:0:0:
256,192,35263,1,4,0:0:0:0:
256,192,35388,1,0,0:0:0:0:
256,192,35513,1,6,0:0:0:0:
256,192,35638,1,0,0:0:0:0:
256,192,35700,1,0,0:0:0:0:
256,192,35763,1,0,0:0:0:0:
256,192,35825,1,0,0:0:0:0:
256,192,35888,1,0,0:0:0:0:
256,192,35950,1,2,0:0:0:0:
256,192,35992,1,0,0:0:0:0:
256,192,36033,1,2,0:0:0:0:
256,192,36075,1,2,0:0:0:0:
256,192,36117,1,2,0:0:0:0:
256,192,36158,1,0,0:0:0:0:
256,192,36200,1,2,0:0:0:0:
256,192,36263,1,0,0:0:0:0:
256,192,36388,1,2,0:0:0:0:
256,192,36450,1,0,0:0:0:0:
256,192,36513,1,2,0:0:0:0:
256,192,36575,1,2,0:0:0:0:
256,192,36638,1,0,0:0:0:0:
256,192,36763,1,2,0:0:0:0:
256,192,36825,1,0,0:0:0:0:
256,192,36888,1,2,0:0:0:0:
256,192,36950,1,0,0:0:0:0:
256,192,37013,1,0,0:0:0:0:
256,192,37075,1,2,0:0:0:0:
256,192,37138,1,4,0:0:0:0:
256,192,37263,1,0,0:0:0:0:
256,192,37388,1,6,0:0:0:0:
256,192,37513,1,0,0:0:0:0:
256,192,37575,1,0,0:0:0:0:
256,192,37617,1,2,0:0:0:0:
256,192,37658,1,2,0:0:0:0:
256,192,37700,1,2,0:0:0:0:
256,192,37742,1,2,0:0:0:0:
256,192,37783,1,2,0:0:0:0:
256,192,37825,1,2,0:0:0:0:
256,192,37888,1,0,0:0:0:0:
256,192,38013,1,2,0:0:0:0:
256,192,38075,1,2,0:0:0:0:
256,192,38117,1,0,0:0:0:0:
256,192,38158,1,0,0:0:0:0:
256,192,38200,1,2,0:0:0:0:
256,192,38262,1,0,0:0:0:0:
256,192,38325,1,2,0:0:0:0:
256,192,38387,1,4,0:0:0:0:
256,192,38512,1,0,0:0:0:0:
256,192,38637,1,0,0:0:0:0:
256,192,38679,1,2,0:0:0:0:
256,192,38721,1,0,0:0:0:0:
256,192,38762,1,0,0:0:0:0:
256,192,38804,1,0,0:0:0:0:
256,192,38846,1,2,0:0:0:0:
256,192,38887,1,2,0:0:0:0:
256,192,38950,1,2,0:0:0:0:
256,192,39012,1,0,0:0:0:0:
256,192,39075,1,0,0:0:0:0:
256,192,39137,1,2,0:0:0:0:
256,192,39262,1,0,0:0:0:0:
256,192,39387,1,0,0:0:0:0:
256,192,39450,1,2,0:0:0:0:
256,192,39512,1,2,0:0:0:0:
256,192,39575,1,2,0:0:0:0:
256,192,39637,1,0,0:0:0:0:
256,192,39762,1,0,0:0:0:0:
256,192,39887,1,0,0:0:0:0:
256,192,40012,1,0,0:0:0:0:
256,192,40137,1,0,0:0:0:0:
256,192,40262,1,0,0:0:0:0:
256,192,40325,1,0,0:0:0:0:
256,192,40387,1,0,0:0:0:0:
256,192,40450,1,0,0:0:0:0:
256,192,40512,1,2,0:0:0:0:
256,192,40637,1,4,0:0:0:0:
256,192,40762,1,0,0:0:0:0:
256,192,40804,1,0,0:0:0:0:
256,192,40846,1,2,0:0:0:0:
256,192,40887,1,0,0:0:0:0:
256,192,40950,1,0,0:0:0:0:
256,192,41012,1,2,0:0:0:0:
256,192,41075,1,0,0:0:0:0:
256,192,41137,1,6,0:0:0:0:
256,192,41262,1,2,0:0:0:0:
256,192,41387,1,0,0:0:0:0:
256,192,41450,1,0,0:0:0:0:
256,192,41512,1,2,0:0:0:0:
256,192,41637,1,0,0:0:0:0:
256,192,41700,1,2,0:0:0:0:
256,192,41762,1,2,0:0:0:0:
256,192,41825,1,2,0:0:0:0:
256,192,41887,1,2,0:0:0:0:
256,192,41950,1,2,0:0:0:0:
256,192,42012,1,2,0:0:0:0:
256,192,42137,1,2,0:0:0:0:
256,192,42179,1,2,0:0:0:0:
256,192,42221,1,0,0:0:0:0:
256,192,42262,1,0,0:0:0:0:
256,192,42325,1,2,0:0:0:0:
256,192,42387,1,0,0:0:0:0:
256,192,42450,1,0,0:0:0:0:
256,192,42512,1,0,0:0:0:0:
256,192,42637,1,0,0:0:0:0:
256,192,42679,1,0,0:0:0:0:
256,192,42721,1,2,0:0:0:0:
256,192,42762,1,2,0:0:0:0:
256,192,42804,1,0,0:0:0:0:
256,192,42846,1,2,0:0:0:0:
256,192,42887,1,2,0:0:0:0:
256,192,42950,1,0,0:0:0:0:
256,192,43012,1,0,0:0:0:0:
256,192,43075,1,0,0:0:0:0:
256,192,43117,1,2,0:0:0:0:
256,192,43158,1,2,0:0:0:0:
256,192,43200,1,0,0:0:0:0:
256,192,43242,1,2,0:0:0:0:
256,192,43283,1,2,0:0:0:0:
256,192,43325,1,0,0:0:0:0:
256,192,43387,1,2,0:0:0:0:
256,192,43512,1,0,0:0:0:0:
256,192,43575,1,2,0:0:0:0:
256,192,43637,1,2,0:0:0:0:
256,192,43700,1,2,0:0:0:0:
256,192,43762,1,0,0:0:0:0:
256,192,43804,1,2,0:0:0:0:
256,192,43846,1,0,0:0:0:0:
256,192,43887,1,2,0:0:0:0:
256,192,43929,1,0,0:0:0:0:
256,192,43971,1,0,0:0:0:0:
256,192,44012,1,6,0:0:0:0:
256,192,44137,1,2,0:0:0:0:
256,192,44262,1,0,0:0:0:0:
256,192,44387,1,0,0:0:0:0:
256,192,44512,1,0,0:0:0:0:
256,192,44575,1,2,0:0:0:0:
256,192,44637,1,2,0:0:0:0:
256,192,44700,1,0,0:0:0:0:
256,192,44762,1,0,0:0:0:0:
256,192,44825,1,0,0:0:0:0:
256,192,44887,1,2,0:0:0:0:
256,192,45012,1,0,0:0:0:0:
256,192,45137,1,2,0:0:0:0:
256,192,45179,1,2,0:0:0:0:
256,192,45221,1,0,0:0:0:0:
256,192,45262,1,2,0:0:0:0:
256,192,45325,1,2,0:0:0:0:
256,192,45387,1,2,0:0:0:0:
256,192,45450,1,2,0:0:0:0:
256,192,45512,1,2,0:0:0:0:
256,192,45637,1,0,0:0:0:0:
256,192,45700,1,0,0:0:0:0:
256,192,45762,1,6,0:0:0:0:
256,192,45887,1,0,0:0:0:0:
256,192,45950,1,2,0:0:0:0:
256,192,45992,1,0,0:0:0:0:
256,192,46033,1,0,0:0:0:0:
256,192,46075,1,2,0:0:0:0:
256,192,46117,1,2,0:0:0:0:
256,192,46158,1,0,0:0:0:0:
256,192,46200,1,2,0:0:0:0:
256,192,46262,1,4,0:0:0:0:
256,192,46387,1,0,0:0:0:0:
256,192,46450,1,2,0:0:0:0:
256,192,46512,1,0,0:0:0:0:
256,192,46637,1,2,0:0:0:0:
256,192,46700,1,0,0:0:0:0:
256,192,46762,1,2,0:0:0:0:
256,192,46825,1,0,0:0:0:0:
256,192,46887,1,2,0:0:0:0:
256,192,46950,1,2,0:0:0:0:
256,192,47012,1,0,0:0:0:0:
256,192,47137,1,2,0:0:0:0:
256,192,47200,1,0,0:0:0:0:
256,192,47262,1,0,0:0:0:0:
256,192,47325,1,2,0:0:0:0:
256,192,47387,1,0,0:0:0:0:
256,192,47512,1,6,0:0:0:0:
256,192,47637,1,0,0:0:0:0:
256,192,47700,1,2,0:0:0:0:
256,192,47762,1,0,0:0:0:0:
256,192,47825,1,2,0:0:0:0:
256,192,47887,1,2,0:0:0:0:
256,192,48012,1,2,0:0:0:0:
256,192,48075,1,2,0:0:0:0:
256,192,48137,1,2,0:0:0:0:
256,192,48262,1,6,0:0:0:0:
256,192,48387,1,2,0:0:0:0:
256,192,48512,1,0,0:0:0:0:
256,192,48575,1,2,0:0:0:0:
256,192,48637,1,0,0:0:0:0:
256,192,48762,1,2,0:0:0:0:
256,192,48825,1,2,0:0:0:0:
256,192,48887,1,2,0:0:0:0:
256,192,48950,1,2,0:0:0:0:
256,192,49012,1,2,0:0:0:0:
256,192,49075,1,2,0:0:0:0:
256,192,49137,1,4,0:0:0:0:
256,192,49262,1,0,0:0:0:0:
256,192,49325,1,0,0:0:0:0:
256,192,49387,1,0,0:0:0:0:
256,192,49512,1,0,0:0:0:0:
256,192,49637,1,2,0:0:0:0:
256,192,49700,1,0,0:0:0:0:
256,192,49762,1,2,0:0:0:0:
256,192,49825,1,0,0:0:0:0:
256,192,49887,1,6,0:0:0:0:
256,192,50012,1,2,0:0:0:0:
256,192,50075,1,2,0:0:0:0:
256,192,50137,1,4,0:0:0:0:
256,192,50262,1,0,0:0:0:0:
256,192,50387,1,0,0:0:0:0:
256,192,50450,1,2,0:0:0:0:
256,192,50512,1,2,0:0:0:0:
256,192,50575,1,2,0:0:0:0:
256,192,50637,1,0,0:0:0:0:
256,192,50762,1,0,0:0:0:0:
256,192,50825,1,2,0:0:0:0:
256,192,50887,1,0,0:0:0:0:
256,192,50950,1,0,0:0:0:0:
256,192,51012,1,0,0:0:0:0:
256,192,51075,1,2,0:0:0:0:
256,192,51137,1,2,0:0:0:0:
256,192,51179,1,2,0:0:0:0:
256,192,51221,1,0,0:0:0:0:
256,192,51262,1,2,0:0:0:0:
256,192,51304,1,0,0:0:0:0:
256,192,51346,1,0,0:0:0:0:
256,192,51387,1,6,0:0:0:0:
256,192,51512,1,0,0:0:0:0:
256,192,51637,1,2,0:0:0:0:
256,192,51700,1,0,0:0:0:0:
256,192,51762,1,0,0:0:0:0:
256,192,51825,1,2,0:0:0:0:
256,192,51867,1,2,0:0:0:0:
256,192,51908,1,2,0:0:0:0:
256,192,51950,1,2,0:0:0:0:
256,192,51992,1,0,0:0:0:0:
256,192,52033,1,0,0:0:0:0:
256,192,52075,1,2,0:0:0:0:
256,192,52137,1,0,0:0:0:0:
256,192,52200,1,2,0:0:0:0:
256,192,52262,1,2,0:0:0:0:
256,192,52387,1,2,0:0:0:0:
256,192,52512,1,2,0:0:0:0:
256,192,52575,1,0,0:0:0:0:
256,192,52637,1,2,0:0:0:0:
256,192,52762,1,0,0:0:0:0:
256,192,52825,1,0,0:0:0:0:
256,192,52887,1,2,0:0:0:0:
256,192,52950,1,0,0:0:0:0:
256,192,53012,1,2,0:0:0:0:
256,192,53137,1,0,0:0:0:0:
256,192,53200,1,2,0:0:0:0:
256,192,53262,1,2,0:0:0:0:
256,192,53325,1,0,0:0:0:0:
256,192,53387,1,6,0:0:0:0:
256,192,53512,1,2,0:0:0:0:
256,192,53575,1,2,0:0:0:0:
256,192,53637,1,2,0:0:0:0:
256,192,53700,1,0,0:0:0:0:
256,192,53762,1,2,0:0:0:0:
256,192,53825,1,2,0:0:0:0:
256,192,53887,1,0,0:0:0:0:
256,192,54012,1,0,0:0:0:0:
256,192,54075,1,2,0:0:0:0:
256,192,54137,1,0,0:0:0:0:
256,192,54200,1,0,0:0:0:0:
256,192,54262,1,2,0:0:0:0:
256,192,54325,1,0,0:0:0:0:
256,192,54387,1,6,0:0:0:0:
256,192,54512,1,2,0:0:0:0:
256,192,54575,1,0,0:0:0:0:
256,192,54637,1,0,0:0:0:0:
256,192,54700,1,0,0:0:0:0:
256,192,54762,1,0,0:0:0:0:
256,192,54825,1,2,0:0:0:0:
256,192,54887,1,0,0:0:0:0:
256,192,54929,1,0,0:0:0:0:
256,192,54971,1,2,0:0:0:0:
256,192,55012,1,2,0:0:0:0:
256,192,55054,1,0,0:0:0:0:
256,192,55096,1,2,0:0:0:0:
256,192,55137,1,2,0:0:0:0:
256,192,55262,1,0,0:0:0:0:
256,192,55387,1,0,0:0:0:0:
256,192,55512,1,2,0:0:0:0:
256,192,55575,1,2,0:0:0:0:
256,192,55637,1,0,0:0:0:0:
256,192,55700,1,0,0:0:0:0:
256,192,55762,1,0,0:0:0:0:
256,192,55825,1,0,0:0:0:0:
256,192,55887,1,0,0:0:0:0:
256,192,56012,1,2,0:0:0:0:
256,192,56075,1,0,0:0:0:0:
256,192,56137,1,2,0:0:0:0:
256,192,56200,1,0,0:0:0:0:
256,192,56262,1,0,0:0:0:0:
256,192,56325,1,2,0:0:0:0:
256,192,56387,1,0,0:0:0:0:
256,192,56512,1,0,0:0:0:0:
256,192,56575,1,2,0:0:0:0:
256,192,56637,1,0,0:0:0:0:
256,192,56700,1,0,0:0:0:0:
256,192,56762,1,2,0:0:0:0:
256,192,56887,1,2,0:0:0:0:
256,192,56950,1,0,0:0:0:0:
256,192,57012,1,0,0:0:0:0:
256,192,57137,1,2,0:0:0:0:
256,192,57200,1,2,0:0:0:0:
256,192,57242,1,2,0:0:0:0:
256,192,57283,1,2,0:0:0:0:
256,192,57325,1,2,0:0:0:0:
256,192,57367,1,0,0:0:0:0:
256,192,57408,1,2,0:0:0:0:
256,192,57450,1,0,0:0:0:0:
256,192,57512,1,0,0:0:0:0:
256,192,57575,1,2,0:0:0:0:
256,192,57637,1,4,0:0:0:0:
256,192,57762,1,2,0:0:0:0:
256,192,57887,1,0,0:0:0:0:
256,192,57950,1,2,0:0:0:0:
256,192,58012,1,4,0:0:0:0:
256,192,58137,1,2,0:0:0:0:
256,192,58200,1,0,0:0:0:0:
256,192,58262,1,2,0:0:0:0:
256,192,58304,1,2,0:0:0:0:
256,192,58346,1,0,0:0:0:0:
256,192,58387,1,0,0:0:0:0:
256,192,58450,1,2,0:0:0:0:
256,192,58512,1,4,0:0:0:0:
256,192,58637,1,2,0:0:0:0:
256,192,58700,1,0,0:0:0:0:
256,192,58762,1,2,0:0:0:0:
256,192,58887,1,2,0:0:0:0:
256,192,58950,1,0,0:0:0:0:
256,192,59012,1,2,0:0:0:0:
256,192,59075,1,0,0:0:0:0:
256,192,59137,1,2,0:0:0:0:
256,192,59262,1,0,0:0:0:0:
256,192,59325,1,0,0:0:0:0:
256,192,59387,1,0,0:0:0:0:
256,192,59450,1,2,0:0:0:0:
256,192,59512,1,0,0:0:0:0:
256,192,59637,1,0,0:0:0:0:
256,192,59679,1,0,0:0:0:0:
256,192,59721,1,0,0:0:0:0:
256,192,59762,1,2,0:0:0:0:
256,192,59825,1,2,0:0:0:0:
256,192,59867,1,0,0:0:0:0:
256,192,59908,1,0,0:0:0:0:
256,192,59950,1,0,0:0:0:0:
256,192,60012,1,2,0:0:0:0:
256,192,60075,1,0,0:0:0:0:
256,192,60137,1,2,0:0:0:0:
256,192,60262,1,2,0:0:0:0:
256,192,60325,1,0,0:0:0:0:
256,192,60387,1,0,0:0:0:0:
256,192,60512,1,6,0:0:0:0:
256,192,60637,1,0,0:0:0:0:
256,192,60762,1,0,0:0:0:0:
256,192,60887,1,0,0:0:0:0:
256,192,61012,1,2,0:0:0:0:
256,192,61075,1,2,0:0:0:0:
256,192,61137,1,0,0:0:0:0:
256,192,61200,1,0,0:0:0:0:
256,192,61262,1,2,0:0:0:0:
256,192,61387,1,6,0:0:0:0:
256,192,61512,1,2,0:0:0:0:
256,192,61575,1,0,0:0:0:0:
256,192,61637,1,0,0:0:0:0:
256,192,61700,1,2,0:0:0:0:
256,192,61762,1,4,0:0:0:0:
256,192,61887,1,0,0:0:0:0:
256,192,61950,1,2,0:0:0:0:
256,192,62012,1,2,0:0:0:0:
256,192,62075,1,0,0:0:0:0:
256,192,62137,1,2,0:0:0:0:
256,192,62200,1,0,0:0:0:0:
256,192,62262,1,6,0:0:0:0:
256,192,62387,1,6,0:0:0:0:
256,192,62512,1,0,0:0:0:0:
256,192,62637,1,0,0:0:0:0:
256,192,62700,1,0,0:0:0:0:
256,192,62742,1,2,0:0:0:0:
256,192,62783,1,2,0:0:0:0:
256,192,62825,1,0,0:0:0:0:
256,192,62867,1,2,0:0:0:0:
256,192,62908,1,0,0:0:0:0:
256,192,62950,1,0,0:0:0:0:
256,192,63012,1,6,0:0:0:0:
256,192,63137,1,0,0:0:0:0:
256,192,63200,1,2,0:0:0:0:
256,192,63262,1,0,0:0:0:0:
256,192,63325,1,2,0:0:0:0:
256,192,63387,1,4,0:0:0:0:
256,192,63512,1,2,0:0:0:0:
256,192,63575,1,2,0:0:0:0:
256,192,63637,1,2,0:0:0:0:
256,192,63700,1,0,0:0:0:0:
256,192,63762,1,0,0:0:0:0:
256,192,63804,1,0,0:0:0:0:
256,192,63846,1,2,0:0:0:0:
256,192,63887,1,0,0:0:0:0:
256,192,63929,1,0,0:0:0:0:
256,192,63971,1,2,0:0:0:0:
256,192,64012,1,4,0:0:0:0:
256,192,64137,1,2,0:0:0:0:
256,192,64200,1,0,0:0:0:0:
256,192,64242,1,2,0:0:0:0:
256,192,64283,1,2,0:0:0:0:
256,192,64325,1,0,0:0:0:0:
256,192,64387,1,0,0:0:0:0:
256,192,64450,1,0,0:0:0:0:
256,192,64512,1,2,0:0:0:0:
256,192,64637,1,2,0:0:0:0:
256,192,64700,1,2,0:0:0:0:
256,192,64762,1,0,0:0:0:0:
256,192,64887,1,0,0:0:0:0:
256,192,64950,1,0,0:0:0:0:
256,192,65012,1,2,0:0:0:0:
256,192,65075,1,0,0:0:0:0:
256,192,65137,1,2,0:0:0:0:
256,192,65262,1,0,0:0:0:0:
256,192,65387,1,6,0:0:0:0:
256,192,65512,1,2,0:0:0:0:
256,192,65554,1,2,0:0:0:0:
256,192,65596,1,0,0:0:0:0:
256,192,65637,1,0,0:0:0:0:
256,192,65762,1,0,0:0:0:0:
256,192,65887,1,2,0:0:0:0:
256,192,66012,1,2,0:0:0:0:
256,192,66075,1,0,0:0:0:0:
256,192,66137,1,2,0:0:0:0:
256,192,66200,1,0,0:0:0:0:
256,192,66262,1,2,0:0:0:0:
256,192,66325,1,0,0:0:0:0:
256,192,66387,1,2,0:0:0:0:
256,192,66512,1,0,0:0:0:0:
256,192,66575,1,0,0:0:0:0:
256,192,66637,1,0,0:0:0:0:
256,192,66700,1,0,0:0:0:0:
256,192,66762,1,2,0:0:0:0:
256,192,66887,1,0,0:0:0:0:
256,192,67012,1,2,0:0:0:0:
256,192,67075,1,0,0:0:0:0:
256,192,67137,1,0,0:0:0:0:
256,192,67200,1,0,0:0:0:0:
256,192,67262,1,2,0:0:0:0:
256,192,67325,1,2,0:0:0:0:
256,192,67387,1,0,0:0:0:0:
256,192,67512,1,2,0:0:0:0:
256,192,67575,1,2,0:0:0:0:
256,192,67637,1,2,0:0:0:0:
256,192,67700,1,2,0:0:0:0:
256,192,67762,1,0,0:0:0:0:
256,192,67887,1,2,0:0:0:0:
256,192,68012,1,6,0:0:0:0:
256,192,68137,1,2,0:0:0:0:
256,192,68200,1,2,0:0:0:0:
256,192,68262,1,0,0:0:0:0:
256,192,68325,1,2,0:0:0:0:
256,192,68387,1,0,0:0:0:0:
256,192,68512,1,2,0:0:0:0:
256,192,68575,1,0,0:0:0:0:
256,192,68637,1,0,0:0:0:0:
256,192,68700,1,0,0:0:0:0:
256,192,68762,1,0,0:0:0:0:
256,192,68825,1,0,0:0:0:0:
256,192,68887,1,2,0:0:0:0:
256,192,69012,1,0,0:0:0:0:
256,192,69075,1,0,0:0:0:0:
256,192,69137,1,0,0:0:0:0:
256,192,69200,1,0,0:0:0:0:
256,192,69262,1,2,0:0:0:0:
256,192,69387,1,2,0:0:0:0:
256,192,69450,1,2,0:0:0:0:
256,192,69512,1,2,0:0:0:0:
256,192,69575,1,2,0:0:0:0:
256,192,69637,1,0,0:0:0:0:
256,192,69700,1,0,0:0:0:0:
256,192,69762,1,2,0:0:0:0:
256,192,69887,1,0,0:0:0:0:
256,192,70012,1,2,0:0:0:0:
256,192,70137,1,0,0:0:0:0:
256,192,70262,1,2,0:0:0:0:
256,192,70325,1,2,0:0:0:0:
256,192,70387,1,0,0:0:0:0:
256,192,70450,1,2,0:0:0:0:
256,192,70512,1,4,0:0:0:0:
256,192,70637,1,2,0:0:0:0:
256,192,70762,1,0,0:0:0:0:
256,192,70825,1,2,0:0:0:0:
256,192,70887,1,0,0:0:0:0:
256,192,71012,1,6,0:0:0:0:
256,192,71137,1,0,0:0:0:0:
256,192,71200,1,0,0:0:0:0:
256,192,71262,1,0,0:0:0:0:
256,192,71325,1,0,0:0:0:0:
256,192,71367,1,0,0:0:0:0:
256,192,71408,1,2,0:0:0:0:
256,192,71450,1,2,0:0:0:0:
256,192,71512,1,0,0:0:0:0:
256,192,71575,1,2,0:0:0:0:
256,192,71637,1,4,0:0:0:0:
256,192,71762,1,2,0:0:0:0:
256,192,71825,1,2,0:0:0:0:
256,192,71887,1,2,0:0:0:0:
256,192,71950,1,0,0:0:0:0:
256,192,72012,1,0,0:0:0:0:
256,192,72075,1,0,0:0:0:0:
256,192,72137,1,2,0:0:0:0:
256,192,72262,1,2,0:0:0:0:
256,192,72387,1,2,0:0:0:0:
256,192,72450,1,2,0:0:0:0:
256,192,72512,1,2,0:0:0:0:
256,192,72575,1,0,0:0:0:0:
256,192,72637,1,0,0:0:0:0:
256,192,72762,1,0,0:0:0:0:
256,192,72804,1,2,0:0:0:0:
256,192,72846,1,2,0:0:0:0:
256,192,72887,1,2,0:0:0:0:
256,192,72929,1,0,0:0:0:0:
256,192,72971,1,0,0:0:0:0:
256,192,73012,1,0,0:0:0:0:
256,192,73075,1,2,0:0:0:0:
256,192,73137,1,2,0:0:0:0:
256,192,73200,1,2,0:0:0:0:
256,192,73262,1,0,0:0:0:0:
256,192,73387,1,2,0:0:0:0:
256,192,73450,1,2,0:0:0:0:
256,192,73512,1,2,0:0:0:0:
256,192,73575,1,2,0:0:0:0:
256,192,73637,1,4,0:0:0:0:
256,192,73762,1,2,0:0:0:0:
256,192,73825,1,2,0:0:0:0:
256,192,73887,1,2,0:0:0:0:
256,192,74012,1,0,0:0:0:0:
256,192,74137,1,2,0:0:0:0:
256,192,74200,1,0,0:0:0:0:
256,192,74262,1,6,0:0:0:0:
256,192,74387,1,0,0:0:0:0:
256,192,74450,1,0,0:0:0:0:
256,192,74512,1,2,0:0:0:0:
256,192,74575,1,0,0:0:0:0:
256,192,74637,1,2,0:0:0:0:
256,192,74762,1,0,0:0:0:0:
256,192,74887,1,0,0:0:0:0:
256,192,75012,1,2,0:0:0:0:
256,192,75137,1,2,0:0:0:0:
256,192,75200,1,0,0:0:0:0:
256,192,75262,1,2,0:0:0:0:
256,192,75325,1,0,0:0:0:0:
256,192,75387,1,2,0:0:0:0:
256,192,75450,1,2,0:0:0:0:
256,192,75512,1,2,0:0:0:0:
256,192,75554,1,0,0:0:0:0:
256,192,75596,1,0,0:0:0:0:
256,192,75637,1,2,0:0:0:0:
256,192,75762,1,2,0:0:0:0:
256,192,75825,1,2,0:0:0:0:
256,192,75887,1,0,0:0:0:0:
256,192,75950,1,0,0:0:0:0:
256,192,76012,1,2,0:0:0:0:
256,192,76137,1,0,0:0:0:0:
256,192,76200,1,0,0:0:0:0:
256,192,76262,1,0,0:0:0:0:
256,192,76325,1,0,0:0:0:0:
256,192,76387,1,2,0:0:0:0:
256,192,76512,1,0,0:0:0:0:
256,192,76575,1,0,0:0:0:0:
256,192,76637,1,2,0:0:0:0:
256,192,76700,1,0,0:0:0:0:
256,192,76762,1,2,0:0:0:0:
256,192,76887,1,2,0:0:0:0:
256,192,76950,1,0,0:0:0:0:
256,192,77012,1,0,0:0:0:0:
256,192,77075,1,0,0:0:0:0:
256,192,77137,1,2,0:0:0:0:
256,192,77200,1,0,0:0:0:0:
256,192,77262,1,0,0:0:0:0:
256,192,77387,1,0,0:0:0:0:
256,192,77450,1,2,0:0:0:0:
256,192,77512,1,2,0:0:0:0:
256,192,77575,1,0,0:0:0:0:
256,192,77637,1,0,0:0:0:0:
256,192,77700,1,0,0:0:0:0:
256,192,77762,1,2,0:0:0:0:
256,192,77804,1,2,0:0:0:0:
256,192,77846,1,0,0:0:0:0:
256,192,77887,1,2,0:0:0:0:
256,192,77929,1,2,0:0:0:0:
256,192,77971,1,0,0:0:0:0:
256,192,78012,1,2,0:0:0:0:
256,192,78137,1,0,0:0:0:0:
256,192,78200,1,2,0:0:0:0:
256,192,78262,1,0,0:0:0:0:
256,192,78325,1,0,0:0:0:0:
256,192,78387,1,2,0:0:0:0:
256,192,78450,1,2,0:0:0:0:
256,192,78512,1,4,0:0:0:0:
256,192,78637,1,0,0:0:0:0:
256,192,78700,1,0,0:0:0:0:
256,192,78762,1,0,0:0:0:0:
256,192,78825,1,2,0:0:0:0:
256,192,78887,1,0,0:0:0:0:
256,192,79012,1,0,0:0:0:0:
256,192,79075,1,2,0:0:0:0:
256,192,79137,1,2,0:0:0:0:
256,192,79200,1,0,0:0:0:0:
256,192,79262,1,0,0:0:0:0:
256,192,79325,1,2,0:0:0:0:
256,192,79387,1,0,0:0:0:0:
256,192,79512,1,2,0:0:0:0:
256,192,79575,1,2,0:0:0:0:
256,192,79637,1,2,0:0:0:0:
256,192,79700,1,2,0:0:0:0:
256,192,79762,1,0,0:0:0:0:
256,192,79887,1,0,0:0:0:0:
256,192,80012,1,0,0:0:0:0:
256,192,80075,1,0,0:0:0:0:
256,192,80137,1,0,0:0:0:0:
256,192,80200,1,2,0:0:0:0:
256,192,80262,1,0,0:0:0:0:
256,192,80387,1,0,0:0:0:0:
256,192,80450,1,0,0:0:0:0:
256,192,80512,1,2,0:0:0:0:
256,192,80575,1,0,0:0:0:0:
256,192,80637,1,6,0:0:0:0:
256,192,80762,1,2,0:0:0:0:
256,192,80887,1,2,0:0:0:0:
256,192,80950,1,0,0:0:0:0:
256,192,81012,1,0,0:0:0:0:
256,192,81075,1,2,0:0:0:0:
256,192,81137,1,0,0:0:0:0:
256,192,81262,1,2,0:0:0:0:
256,192,81325,1,2,0:0:0:0:
256,192,81387,1,2,0:0:0:0:
256,192,81450,1,0,0:0:0:0:
256,192,81512,1,6,0:0:0:0:
256,192,81637,1,2,0:0:0:0:
256,192,81700,1,0,0:0:0:0:
256,192,81762,1,0,0:0:0:0:
256,192,81825,1,0,0:0:0:0:
256,192,81887,1,2,0:0:0:0:
256,192,82012,1,2,0:0:0:0:
256,192,82075,1,0,0:0:0:0:
256,192,82137,1,0,0:0:0:0:
256,192,82200,1,0,0:0:0:0:
256,192,82262,1,0,0:0:0:0:
256,192,82325,1,2,0:0:0:0:
256,192,82367,1,0,0:0:0:0:
256,192,82408,1,2,0:0:0:0:
256,192,82450,1,0,0:0:0:0:
256,192,82492,1,0,0:0:0:0:
256,192,82533,1,0,0:0:0:0:
256,192,82575,1,0,0:0:0:0:
256,192,82637,1,2,0:0:0:0:
256,192,82762,1,2,0:0:0:0:
256,192,82825,1,2,0:0:0:0:
256,192,82867,1,0,0:0:0:0:
256,192,82908,1,2,0:0:0:0:
256,192,82950,1,0,0:0:0:0:
256,192,82992,1,2,0:0:0:0:
256,192,83033,1,2,0:0:0:0:
256,192,83075,1,0,0:0:0:0:
256,192,83137,1,0,0:0:0:0:
256,192,83200,1,2,0:0:0:0:
256,192,83262,1,0,0:0:0:0:
256,192,83387,1,2,0:0:0:0:
256,192,83512,1,0,0:0:0:0:
256,192,83554,1,0,0:0:0:0:
256,192,83596,1,2,0:0:0:0:
256,192,83637,1,0,0:0:0:0:
256,192,83679,1,2,0:0:0:0:
256,192,83721,1,0,0:0:0:0:
256,192,83762,1,0,0:0:0:0:
256,192,83825,1,2,0:0:0:0:
256,192,83887,1,4,0:0:0:0:
256,192,84012,1,0,0:0:0:0:
256,192,84075,1,2,0:0:0:0:
256,192,84137,1,0,0:0:0:0:
256,192,84200,1,2,0:0:0:0:
256,192,84262,1,0,0:0:0:0:
256,192,84325,1,2,0:0:0:0:
256,192,84387,1,2,0:0:0:0:
256,192,84512,1,2,0:0:0:0:
256,192,84575,1,2,0:0:0:0:
256,192,84637,1,0,0:0:0:0:
256,192,84700,1,0,0:0:0:0:
256,192,84762,1,6,0:0:0:0:
256,192,84887,1,0,0:0:0:0:
256,192,85012,1,0,0:0:0:0:
256,192,85137,1,2,0:0:0:0:
256,192,85200,1,0,0:0:0:0:
256,192,85262,1,0,0:0:0:0:
256,192,85325,1,0,0:0:0:0:
256,192,85387,1,6,0:0:0:0:
256,192,85512,1,2,0:0:0:0:
256,192,85575,1,2,0:0:0:0:
256,192,85637,1,0,0:0:0:0:
256,192,85700,1,2,0:0:0:0:
256,192,85762,1,2,0:0:0:0:
256,192,85887,1,2,0:0:0:0:
256,192,85950,1,0,0:0:0:0:
256,192,86012,1,2,0:0:0:0:
256,192,86075,1,0,0:0:0:0:
256,192,86137,1,2,0:0:0:0:
256,192,86262,1,2,0:0:0:0:
256,192,86325,1,0,0:0:0:0:
256,192,86387,1,2,0:0:0:0:
256,192,86450,1,0,0:0:0:0:
256,192,86512,1,0,0:0:0:0:
256,192,86554,1,2,0:0:0:0:
256,192,86596,1,0,0:0:0:0:
256,192,86637,1,6,0:0:0:0:
256,192,86762,1,4,0:0:0:0:
256,192,86887,1,0,0:0:0:0:
256,192,86929,1,0,0:0:0:0:
256,192,86971,1,0,0:0:0:0:
256,192,87013,1,2,0:0:0:0:
256,192,87054,1,2,0:0:0:0:
256,192,87096,1,2,0:0:0:0:
256,192,87138,1,0,0:0:0:0:
256,192,87263,1,0,0:0:0:0:
256,192,87325,1,2,0:0:0:0:
256,192,87388,1,0,0:0:0:0:
256,192,87450,1,0,0:0:0:0:
256,192,87513,1,2,0:0:0:0:
256,192,87575,1,0,0:0:0:0:
256,192,87638,1,6,0:0:0:0:
256,192,87763,1,0,0:0:0:0:
256,192,87825,1,2,0:0:0:0:
256,192,87888,1,0,0:0:0:0:
256,192,87929,1,0,0:0:0:0:
256,192,87971,1,0,0:0:0:0:
256,192,88013,1,2,0:0:0:0:
256,192,88054,1,2,0:0:0:0:
256,192,88096,1,2,0:0:0:0:
256,192,88138,1,0,0:0:0:0:
256,192,88263,1,2,0:0:0:0:
256,192,88325,1,0,0:0:0:0:
256,192,88388,1,2,0:0:0:0:
256,192,88450,1,0,0:0:0:0:
256,192,88513,1,6,0:0:0:0:
256,192,88638,1,2,0:0:0:0:
256,192,88700,1,0,0:0:0:0:
256,192,88763,1,2,0:0:0:0:
256,192,88825,1,0,0:0:0:0:
256,192,88888,1,2,0:0:0:0:
256,192,89013,1,2,0:0:0:0:
256,192,89138,1,2,0:0:0:0:
256,192,89263,1,2,0:0:0:0:
256,192,89325,1,2,0:0:0:0:
256,192,89388,1,2,0:0:0:0:
256,192,89450,1,0,0:0:0:0:
256,192,89513,1,2,0:0:0:0:
256,192,89638,1,6,0:0:0:0:
256,192,89763,1,2,0:0:0:0:
256,192,89825,1,0,0:0:0:0:
256,192,89888,1,2,0:0:0:0:
256,192,89950,1,0,0:0:0:0:
256,192,90013,1,0,0:0:0:0:
256,192,90075,1,0,0:0:0:0:
256,192,90138,1,0,0:0:0:0:
256,192,90263,1,2,0:0:0:0:
256,192,90388,1,6,0:0:0:0:
256,192,90513,1,2,0:0:0:0:
256,192,90575,1,2,0:0:0:0:
256,192,90638,1,2,0:0:0:0:
256,192,90700,1,2,0:0:0:0:
256,192,90763,1,0,0:0:0:0:
256,192,90888,1,4,0:0:0:0:
256,192,91013,1,0,0:0:0:0:
256,192,91138,1,2,0:0:0:0:
256,192,91200,1,0,0:0:0:0:
256,192,91263,1,2,0:0:0:0:
256,192,91325,1,0,0:0:0:0:
256,192,91388,1,2,0:0:0:0:
256,192,91513,1,2,0:0:0:0:
256,192,91638,1,2,0:0:0:0:
256,192,91763,1,2,0:0:0:0:
256,192,91825,1,2,0:0:0:0:
256,192,91888,1,0,0:0:0:0:
256,192,91950,1,0,0:0:0:0:
256,192,92013,1,2,0:0:0:0:
256,192,92138,1,0,0:0:0:0:
256,192,92200,1,2,0:0:0:0:
256,192,92263,1,2,0:0:0:0:
256,192,92325,1,0,0:0:0:0:
256,192,92388,1,0,0:0:0:0:
256,192,92450,1,0,0:0:0:0:
256,192,92513,1,2,0:0:0:0:
256,192,92554,1,0,0:0:0:0:
256,192,92596,1,2,0:0:0:0:
256,192,92638,1,0,0:0:0:0:
256,192,92679,1,2,0:0:0:0:
256,192,92721,1,0,0:0:0:0:
256,192,92763,1,2,0:0:0:0:
256,192,92888,1,0,0:0:0:0:
256,192,92950,1,2,0:0:0:0:
256,192,93013,1,2,0:0:0:0:
256,192,93075,1,2,0:0:0:0:
256,192,93138,1,4,0:0:0:0:
256,192,93263,1,0,0:0:0:0:
256,192,93325,1,0,0:0:0:0:
256,192,93388,1,6,0:0:0:0:
256,192,93513,1,2,0:0:0:0:
256,192,93638,1,2,0:0:0:0:
256,192,93700,1,2,0:0:0:0:
256,192,93763,1,0,0:0:0:0:
256,192,93825,1,2,0:0:0:0:
256,192,93888,1,2,0:0:0:0:
256,192,94013,1,2,0:0:0:0:
256,192,94075,1,0,0:0:0:0:
256,192,94138,1,2,0:0:0:0:
256,192,94200,1,2,0:0:0:0:
256,192,94263,1,2,0:0:0:0:
256,192,94325,1,0,0:0:0:0:
256,192,94388,1,2,0:0:0:0:
256,192,94513,1,2,0:0:0:0:
256,192,94575,1,2,0:0:0:0:
256,192,94638,1,2,0:0:0:0:
256,192,94763,1,0,0:0:0:0:
256,192,94825,1,0,0:0:0:0:
256,192,94888,1,2,0:0:0:0:
256,192,95013,1,0,0:0:0:0:
256,192,95138,1,0,0:0:0:0:
256,192,95200,1,0,0:0:0:0:
256,192,95263,1,2,0:0:0:0:
256,192,95325,1,0,0:0:0:0:
256,192,95388,1,2,0:0:0:0:
256,192,95513,1,2,0:0:0:0:
256,192,95638,1,4,0:0:0:0:
256,192,95763,1,2,0:0:0:0:
256,192,95825,1,2,0:0:0:0:
256,192,95888,1,2,0:0:0:0:
256,192,95950,1,2,0:0:0:0:
256,192,96013,1,0,0:0:0:0:
256,192,96138,1,2,0:0:0:0:
256,192,96200,1,2,0:0:0:0:
256,192,96263,1,0,0:0:0:0:
256,192,96325,1,0,0:0:0:0:
256,192,96388,1,6,0:0:0:0:
256,192,96513,1,0,0:0:0:0:
256,192,96575,1,0,0:0:0:0:
256,192,96638,1,2,0:0:0:0:
256,192,96700,1,2,0:0:0:0:
256,192,96763,1,0,0:0:0:0:
256,192,96804,1,2,0:0:0:0:
256,192,96846,1,0,0:0:0:0:
256,192,96888,1,2,0:0:0:0:
256,192,97013,1,2,0:0:0:0:
256,192,97075,1,0,0:0:0:0:
256,192,97138,1,6,0:0:0:0:
256,192,97263,1,2,0:0:0:0:
256,192,97325,1,0,0:0:0:0:
256,192,97388,1,0,0:0:0:0:
256,192,97450,1,2,0:0:0:0:
256,192,97513,1,4,0:0:0:0:
256,192,97638,1,0,0:0:0:0:
256,192,97700,1,0,0:0:0:0:
256,192,97763,1,0,0:0:0:0:
256,192,97825,1,2,0:0:0:0:
256,192,97888,1,0,0:0:0:0:
256,192,98013,1,0,0:0:0:0:
256,192,98138,1,2,0:0:0:0:
256,192,98263,1,2,0:0:0:0:
256,192,98388,1,0,0:0:0:0:
256,192,98450,1,0,0:0:0:0:
256,192,98513,1,2,0:0:0:0:
256,192,98638,1,0,0:0:0:0:
256,192,98700,1,0,0:0:0:0:
256,192,98763,1,2,0:0:0:0:
256,192,98825,1,2,0:0:0:0:
256,192,98888,1,4,0:0:0:0:
256,192,99013,1,2,0:0:0:0:
256,192,99075,1,2,0:0:0:0:
256,192,99138,1,0,0:0:0:0:
256,192,99200,1,2,0:0:0:0:
256,192,99263,1,0,0:0:0:0:
256,192,99325,1,2,0:0:0:0:
256,192,99388,1,0,0:0:0:0:
256,192,99513,1,2,0:0:0:0:
256,192,99638,1,6,0:0:0:0:
256,192,99763,1,0,0:0:0:0:
256,192,99825,1,2,0:0:0:0:
256,192,99888,1,2,0:0:0:0:
256,192,99950,1,2,0:0:0:0:
256,192,100013,1,0,0:0:0:0:
256,192,100075,1,0,0:0:0:0:
256,192,100138,1,6,0:0:0:0:
256,192,100263,1,6,0:0:0:0:
256,192,100388,1,6,0:0:0:0:
256,192,100513,1,0,0:0:0:0:
256,192,100575,1,0,0:0:0:0:
256,192,100638,1,2,0:0:0:0:
256,192,100700,1,2,0:0:0:0:
256,192,100763,1,0,0:0:0:0:
256,192,100825,1,2,0:0:0:0:
256,192,100888,1,4,0:0:0:0:
256,192,101013,1,0,0:0:0:0:
256,192,101075,1,0,0:0:0:0:
256,192,101138,1,0,0:0:0:0:
256,192,101200,1,2,0:0:0:0:
256,192,101263,1,2,0:0:0:0:
256,192,101325,1,0,0:0:0:0:
256,192,101388,1,2,0:0:0:0:
256,192,101513,1,0,0:0:0:0:
256,192,101638,1,0,0:0:0:0:
256,192,101700,1,2,0:0:0:0:
256,192,101763,1,0,0:0:0:0:
256,192,101825,1,2,0:0:0:0:
256,192,101888,1,0,0:0:0:0:
256,192,102013,1,4,0:0:0:0:
256,192,102138,1,0,0:0:0:0:
256,192,102263,1,4,0:0:0:0:
256,192,102388,1,2,0:0:0:0:
256,192,102450,1,0,0:0:0:0:
256,192,102513,1,0,0:0:0:0:
256,192,102575,1,2,0:0:0:0:
256,192,102638,1,0,0:0:0:0:
256,192,102763,1,0,0:0:0:0:
256,192,102888,1,0,0:0:0:0:
256,192,102950,1,0,0:0:0:0:
256,192,103013,1,0,0:0:0:0:
256,192,103075,1,2,0:0:0:0:
256,192,103138,1,0,0:0:0:0:
256,192,103263,1,2,0:0:0:0:
256,192,103325,1,0,0:0:0:0:
256,192,103367,1,0,0:0:0:0:
256,192,103408,1,0,0:0:0:0:
256,192,103450,1,2,0:0:0:0:
256,192,103492,1,0,0:0:0:0:
256,192,103533,1,2,0:0:0:0:
256,192,103575,1,2,0:0:0:0:
256,192,103638,1,4,0:0:0:0:
256,192,103763,1,2,0:0:0:0:
256,192,103825,1,0,0:0:0:0:
256,192,103888,1,0,0:0:0:0:
256,192,103950,1,2,0:0:0:0:
256,192,104013,1,2,0:0:0:0:
256,192,104075,1,0,0:0:0:0:
256,192,104138,1,2,0:0:0:0:
256,192,104263,1,0,0:0:0:0:
256,192,104325,1,0,0:0:0:0:
256,192,104388,1,2,0:0:0:0:
256,192,104450,1,0,0:0:0:0:
256,192,104513,1,0,0:0:0:0:
256,192,104638,1,2,0:0:0:0:
256,192,104763,1,0,0:0:0:0:
256,192,104825,1,2,0:0:0:0:
256,192,104888,1,2,0:0:0:0:
256,192,104950,1,0,0:0:0:0:
256,192,105013,1,2,0:0:0:0:
256,192,105138,1,0,0:0:0:0:
256,192,105200,1,2,0:0:0:0:
256,192,105263,1,2,0:0:0:0:
256,192,105304,1,0,0:0:0:0:
256,192,105346,1,2,0:0:0:0:
256,192,105388,1,0,0:0:0:0:
256,192,105450,1,2,0:0:0:0:
256,192,105513,1,2,0:0:0:0:
256,192,105638,1,0,0:0:0:0:
256,192,105763,1,0,0:0:0:0:
256,192,105825,1,0,0:0:0:0:
256,192,105888,1,2,0:0:0:0:
256,192,105950,1,0,0:0:0:0:
256,192,106013,1,2,0:0:0:0:
256,192,106138,1,2,0:0:0:0:
256,192,106200,1,0,0:0:0:0:
256,192,106263,1,0,0:0:0:0:
256,192,106325,1,0,0:0:0:0:
256,192,106388,1,0,0:0:0:0:
256,192,106450,1,0,0:0:0:0:
256,192,106513,1,2,0:0:0:0:
256,192,106638,1,0,0:0:0:0:
256,192,106700,1,2,0:0:0:0:
256,192,106763,1,0,0:0:0:0:
256,192,106825,1,2,0:0:0:0:
256,192,106888,1,4,0:0:0:0:
256,192,107013,1,0,0:0:0:0:
256,192,107138,1,2,0:0:0:0:
256,192,107200,1,2,0:0:0:0:
256,192,107263,1,0,0:0:0:0:
256,192,107304,1,0,0:0:0:0:
256,192,107346,1,0,0:0:0:0:
256,192,107388,1,2,0:0:0:0:
256,192,107429,1,0,0:0:0:0:
256,192,107471,1,2,0:0:0:0:
256,192,107513,1,0,0:0:0:0:
256,192,107575,1,2,0:0:0:0:
256,192,107638,1,4,0:0:0:0:
256,192,107763,1,2,0:0:0:0:
256,192,107825,1,0,0:0:0:0:
256,192,107888,1,6,0:0:0:0:
256,192,108013,1,0,0:0:0:0:
256,192,108075,1,2,0:0:0:0:
256,192,108117,1,0,0:0:0:0:
256,192,108158,1,0,0:0:0:0:
256,192,108200,1,2,0:0:0:0:
256,192,108242,1,2,0:0:0:0:
256,192,108283,1,0,0:0:0:0:
256,192,108325,1,0,0:0:0:0:
256,192,108388,1,0,0:0:0:0:
256,192,108450,1,2,0:0:0:0:
256,192,108513,1,0,0:0:0:0:
256,192,108638,1,0,0:0:0:0:
256,192,108700,1,2,0:0:0:0:
256,192,108763,1,2,0:0:0:0:
256,192,108825,1,2,0:0:0:0:
256,192,108888,1,0,0:0:0:0:
256,192,109013,1,2,0:0:0:0:
256,192,109075,1,2,0:0:0:0:
256,192,109138,1,2,0:0:0:0:
256,192,109200,1,0,0:0:0:0:
256,192,109263,1,6,0:0:0:0:
256,192,109388,1,4,0:0:0:0:
256,192,109513,1,0,0:0:0:0:
256,192,109575,1,2,0:0:0:0:
256,192,109638,1,2,0:0:0:0:
256,192,109700,1,0,0:0:0:0:
256,192,109763,1,2,0:0:0:0:
256,192,109825,1,2,0:0:0:0:
256,192,109867,1,0,0:0:0:0:
256,192,109908,1,0,0:0:0:0:
256,192,109950,1,0,0:0:0:0:
256,192,109992,1,2,0:0:0:0:
256,192,110033,1,2,0:0:0:0:
256,192,110075,1,0,0:0:0:0:
256,192,110138,1,2,0:0:0:0:
256,192,110263,1,4,0:0:0:0:
256,192,110388,1,2,0:0:0:0:
256,192,110450,1,0,0:0:0:0:
256,192,110513,1,2,0:0:0:0:
256,192,110575,1,2,0:0:0:0:
256,192,110638,1,2,0:0:0:0:
256,192,110763,1,0,0:0:0:0:
256,192,110825,1,0,0:0:0:0:
256,192,110888,1,0,0:0:0:0:
256,192,111013,1,2,0:0:0:0:
256,192,111075,1,0,0:0:0:0:
256,192,111138,1,0,0:0:0:0:
256,192,111263,1,0,0:0:0:0:
256,192,111325,1,0,0:0:0:0:
256,192,111388,1,2,0:0:0:0:
256,192,111450,1,0,0:0:0:0:
256,192,111513,1,6,0:0:0:0:
256,192,111638,1,2,0:0:0:0:
256,192,111700,1,2,0:0:0:0:
256,192,111763,1,2,0:0:0:0:
256,192,111825,1,0,0:0:0:0:
256,192,111888,1,2,0:0:0:0:
256,192,112013,1,6,0:0:0:0:
256,192,112138,1,2,0:0:0:0:
256,192,112200,1,0,0:0:0:0:
256,192,112263,1,0,0:0:0:0:
256,192,112325,1,0,0:0:0:0:
256,192,112388,1,0,0:0:0:0:
256,192,112429,1,0,0:0:0:0:
256,192,112471,1,2,0:0:0:0:
256,192,112513,1,2,0:0:0:0:
256,192,112554,1,2,0:0:0:0:
256,192,112596,1,0,0:0:0:0:
256,192,112638,1,2,0:0:0:0:
256,192,112763,1,4,0:0:0:0:
256,192,112888,1,2,0:0:0:0:
256,192,113013,1,4,0:0:0:0:
256,192,113138,1,2,0:0:0:0:
256,192,113263,1,0,0:0:0:0:
256,192,113388,1,2,0:0:0:0:
256,192,113513,1,0,0:0:0:0:
256,192,113638,1,0,0:0:0:0:
256,192,113700,1,2,0:0:0:0:
256,192,113763,1,0,0:0:0:0:
256,192,113825,1,2,0:0:0:0:
256,192,113888,1,2,0:0:0:0:
256,192,113950,1,0,0:0:0:0:
256,192,114013,1,2,0:0:0:0:
256,192,114138,1,4,0:0:0:0:
256,192,114263,1,2,0:0:0:0:
256,192,114325,1,0,0:0:0:0:
256,192,114388,1,0,0:0:0:0:
256,192,114450,1,0,0:0:0:0:
256,192,114513,1,0,0:0:0:0:
256,192,114638,1,2,0:0:0:0:
256,192,114700,1,0,0:0:0:0:
256,192,114763,1,0,0:0:0:0:
256,192,114888,1,2,0:0:0:0:
256,192,114950,1,0,0:0:0:0:
256,192,115013,1,2,0:0:0:0:
256,192,115138,1,4,0:0:0:0:
256,192,115263,1,0,0:0:0:0:
256,192,115325,1,2,0:0:0:0:
256,192,115388,1,2,0:0:0:0:
256,192,115450,1,2,0:0:0:0:
256,192,115513,1,0,0:0:0:0:
256,192,115575,1,2,0:0:0:0:
256,192,115638,1,4,0:0:0:0:
256,192,115763,1,0,0:0:0:0:
256,192,115825,1,2,0:0:0:0:
256,192,115888,1,2,0:0:0:0:
256,192,115950,1,0,0:0:0:0:
256,192,116013,1,2,0:0:0:0:
256,192,116138,1,4,0:0:0:0:
256,192,116263,1,6,0:0:0:0:
256,192,116388,1,4,0:0:0:0:
256,192,116513,1,0,0:0:0:0:
256,192,116554,1,0,0:0:0:0:
256,192,116596,1,2,0:0:0:0:
256,192,116638,1,0,0:0:0:0:
256,192,116700,1,2,0:0:0:0:
256,192,116763,1,2,0:0:0:0:
256,192,116804,1,0,0:0:0:0:
256,192,116846,1,0,0:0:0:0:
256,192,116888,1,2,0:0:0:0:
256,192,116950,1,0,0:0:0:0:
256,192,117013,1,0,0:0:0:0:
256,192,117075,1,2,0:0:0:0:
256,192,117138,1,0,0:0:0:0:
256,192,117263,1,2,0:0:0:0:
256,192,117325,1,0,0:0:0:0:
256,192,117388,1,2,0:0:0:0:
256,192,117450,1,0,0:0:0:0:
256,192,117513,1,0,0:0:0:0:
256,192,117554,1,0,0:0:0:0:
256,192,117596,1,2,0:0:0:0:
256,192,117638,1,2,0:0:0:0:
256,192,117763,1,0,0:0:0:0:
256,192,117888,1,0,0:0:0:0:
256,192,117950,1,2,0:0:0:0:
256,192,118013,1,0,0:0:0:0:
256,192,118075,1,0,0:0:0:0:
256,192,118138,1,2,0:0:0:0:
256,192,118263,1,2,0:0:0:0:
256,192,118325,1,0,0:0:0:0:
256,192,118388,1,0,0:0:0:0:
256,192,118450,1,2,0:0:0:0:
256,192,118513,1,4,0:0:0:0:
256,192,118638,1,0,0:0:0:0:
256,192,118700,1,0,0:0:0:0:
256,192,118763,1,2,0:0:0:0:
256,192,118825,1,2,0:0:0:0:
256,192,118888,1,0,0:0:0:0:
256,192,118950,1,0,0:0:0:0:
256,192,119013,1,6,0:0:0:0:
256,192,119138,1,0,0:0:0:0:
256,192,119200,1,2,0:0:0:0:
256,192,119263,1,0,0:0:0:0:
256,192,119325,1,2,0:0:0:0:
256,192,119388,1,0,0:0:0:0:
256,192,119513,1,6,0:0:0:0:
256,192,119638,1,6,0:0:0:0:
256,192,119763,1,0,0:0:0:0:
256,192,119888,1,0,0:0:0:0:
256,192,119950,1,0,0:0:0:0:
256,192,120013,1,2,0:0:0:0:
256,192,120054,1,2,0:0:0:0:
256,192,120096,1,2,0:0:0:0:
256,192,120138,1,0,0:0:0:0:
256,192,120200,1,0,0:0:0:0:
256,192,120263,1,2,0:0:0:0:
256,192,120388,1,4,0:0:0:0:
256,192,120513,1,0,0:0:0:0:
256,192,120638,1,0,0:0:0:0:
256,192,120763,1,0,0:0:0:0:
256,192,120825,1,0,0:0:0:0:
256,192,120888,1,2,0:0:0:0:
256,192,120950,1,2,0:0:0:0:
256,192,121013,1,0,0:0:0:0:
256,192,121138,1,0,0:0:0:0:
256,192,121200,1,0,0:0:0:0:
256,192,121263,1,0,0:0:0:0:
256,192,121325,1,2,0:0:0:0:
256,192,121388,1,4,0:0:0:0:
256,192,121513,1,2,0:0:0:0:
256,192,121575,1,2,0:0:0:0:
256,192,121638,1,0,0:0:0:0:
256,192,121700,1,0,0:0:0:0:
256,192,121763,1,2,0:0:0:0:
256,192,121825,1,0,0:0:0:0:
256,192,121888,1,0,0:0:0:0:
256,192,122013,1,2,0:0:0:0:
256,192,122075,1,2,0:0:0:0:
256,192,122138,1,0,0:0:0:0:
256,192,122200,1,0,0:0:0:0:
256,192,122263,1,0,0:0:0:0:
256,192,122388,1,2,0:0:0:0:
256,192,122513,1,0,0:0:0:0:
256,192,122575,1,2,0:0:0:0:
256,192,122638,1,0,0:0:0:0:
256,192,122700,1,2,0:0:0:0:
256,192,122763,1,4,0:0:0:0:
256,192,122888,1,2,0:0:0:0:
256,192,122950,1,0,0:0:0:0:
256,192,123013,1,0,0:0:0:0:
256,192,123075,1,0,0:0:0:0:
256,192,123138,1,2,0:0:0:0:
256,192,123263,1,2,0:0:0:0:
256,192,123388,1,2,0:0:0:0:
256,192,123450,1,2,0:0:0:0:
256,192,123513,1,0,0:0:0:0:
256,192,123575,1,2,0:0:0:0:
256,192,123638,1,4,0:0:0:0:
256,192,123763,1,0,0:0:0:0:
256,192,123825,1,2,0:0:0:0:
256,192,123888,1,2,0:0:0:0:
256,192,123950,1,0,0:0:0:0:
256,192,124013,1,2,0:0:0:0:
256,192,124138,1,0,0:0:0:0:
256,192,124200,1,0,0:0:0:0:
256,192,124263,1,0,0:0:0:0:
256,192,124304,1,2,0:0:0:0:
256,192,124346,1,0,0:0:0:0:
256,192,124388,1,2,0:0:0:0:
256,192,124450,1,0,0:0:0:0:
256,192,124513,1,0,0:0:0:0:
256,192,124575,1,0,0:0:0:0:
256,192,124638,1,2,0:0:0:0:
256,192,124763,1,2,0:0:0:0:
256,192,124888,1,2,0:0:0:0:
256,192,124950,1,2,0:0:0:0:
256,192,125013,1,2,0:0:0:0:
256,192,125075,1,0,0:0:0:0:
256,192,125138,1,0,0:0:0:0:
256,192,125200,1,0,0:0:0:0:
256,192,125263,1,0,0:0:0:0:
256,192,125388,1,2,0:0:0:0:
256,192,125513,1,0,0:0:0:0:
256,192,125638,1,0,0:0:0:0:
256,192,125763,1,2,0:0:0:0:
256,192,125888,1,0,0:0:0:0:
256,192,125950,1,0,0:0:0:0:
256,192,126013,1,2,0:0:0:0:
256,192,126138,1,0,0:0:0:0:
256,192,126263,1,2,0:0:0:0:
256,192,126325,1,0,0:0:0:0:
256,192,126388,1,2,0:0:0:0:
256,192,126450,1,2,0:0:0:0:
256,192,126513,1,0,0:0:0:0:
256,192,126638,1,0,0:0:0:0:
256,192,126700,1,2,0:0:0:0:
256,192,126763,1,0,0:0:0:0:
256,192,126825,1,0,0:0:0:0:
256,192,126888,1,2,0:0:0:0:
256,192,126950,1,2,0:0:0:0:
256,192,127013,1,2,0:0:0:0:
256,192,127138,1,0,0:0:0:0:
256,192,127200,1,0,0:0:0:0:
256,192,127263,1,6,0:0:0:0:
256,192,127388,1,0,0:0:0:0:
256,192,127450,1,0,0:0:0:0:
256,192,127513,1,0,0:0:0:0:
256,192,127575,1,0,0:0:0:0:
256,192,127638,1,0,0:0:0:0:
256,192,127700,1,2,0:0:0:0:
256,192,127763,1,0,0:0:0:0:
256,192,127888,1,4,0:0:0:0:
256,192,128013,1,2,0:0:0:0:
256,192,128075,1,0,0:0:0:0:
256,192,128138,1,2,0:0:0:0:
256,192,128200,1,2,0:0:0:0:
256,192,128263,1,0,0:0:0:0:
256,192,128325,1,2,0:0:0:0:
256,192,128388,1,0,0:0:0:0:
256,192,128513,1,0,0:0:0:0:
256,192,128575,1,0,0:0:0:0:
256,192,128617,1,2,0:0:0:0:
256,192,128658,1,0,0:0:0:0:
256,192,128700,1,2,0:0:0:0:
256,192,128742,1,2,0:0:0:0:
256,192,128783,1,2,0:0:0:0:
256,192,128825,1,0,0:0:0:0:
256,192,128888,1,2,0:0:0:0:
256,192,128950,1,2,0:0:0:0:
256,192,129013,1,2,0:0:0:0:
256,192,129138,1,4,0:0:0:0:
256,192,129263,1,0,0:0:0:0:
256,192,129325,1,0,0:0:0:0:
256,192,129388,1,2,0:0:0:0:
256,192,129429,1,2,0:0:0:0:
256,192,129471,1,0,0:0:0:0:
256,192,129513,1,2,0:0:0:0:
256,192,129575,1,2,0:0:0:0:
256,192,129638,1,2,0:0:0:0:
256,192,129763,1,0,0:0:0:0:
256,192,129888,1,0,0:0:0:0:
256,192,129950,1,0,0:0:0:0:
256,192,130013,1,2,0:0:0:0:
256,192,130075,1,0,0:0:0:0:
256,192,130138,1,2,0:0:0:0:
256,192,130200,1,2,0:0:0:0:
256,192,130263,1,4,0:0:0:0:
256,192,130388,1,2,0:0:0:0:
256,192,130450,1,2,0:0:0:0:
256,192,130513,1,4,0:0:0:0:
256,192,130638,1,2,0:0:0:0:
256,192,130700,1,0,0:0:0:0:
256,192,130763,1,2,0:0:0:0:
256,192,130825,1,2,0:0:0:0:
256,192,130888,1,4,0:0:0:0:
256,192,131013,1,2,0:0:0:0:
256,192,131075,1,0,0:0:0:0:
256,192,131138,1,2,0:0:0:0:
256,192,131200,1,0,0:0:0:0:
256,192,131263,1,6,0:0:0:0:
256,192,131388,1,0,0:0:0:0:
256,192,131450,1,2,0:0:0:0:
256,192,131513,1,2,0:0:0:0:
256,192,131638,1,0,0:0:0:0:
256,192,131763,1,0,0:0:0:0:
256,192,131825,1,2,0:0:0:0:
256,192,131888,1,0,0:0:0:0:
256,192,131950,1,2,0:0:0:0:
256,192,132013,1,2,0:0:0:0:
256,192,132075,1,2,0:0:0:0:
256,192,132138,1,0,0:0:0:0:
256,192,132263,1,0,0:0:0:0:
256,192,132325,1,0,0:0:0:0:
256,192,132388,1,2,0:0:0:0:
256,192,132450,1,2,0:0:0:0:
256,192,132513,1,2,0:0:0:0:
256,192,132575,1,2,0:0:0:0:
256,192,132638,1,6,0:0:0:0:
256,192,132763,1,4,0:0:0:0:
256,192,132888,1,2,0:0:0:0:
256,192,132950,1,2,0:0:0:0:
256,192,133013,1,0,0:0:0:0:
256,192,133075,1,2,0:0:0:0:
256,192,133138,1,0,0:0:0:0:
256,192,133200,1,0,0:0:0:0:
256,192,133263,1,0,0:0:0:0:
256,192,133388,1,0,0:0:0:0:
256,192,133513,1,2,0:0:0:0:
256,192,133575,1,2,0:0:0:0:
256,192,133638,1,0,0:0:0:0:
256,192,133700,1,0,0:0:0:0:
256,192,133763,1,2,0:0:0:0:
256,192,133888,1,2,0:0:0:0:
256,192,133950,1,0,0:0:0:0:
256,192,134013,1,2,0:0:0:0:
256,192,134075,1,0,0:0:0:0:
256,192,134138,1,6,0:0:0:0:
256,192,134263,1,2,0:0:0:0:
256,192,134325,1,2,0:0:0:0:
256,192,134388,1,2,0:0:0:0:
256,192,134450,1,2,0:0:0:0:
256,192,134513,1,0,0:0:0:0:
256,192,134575,1,2,0:0:0:0:
256,192,134638,1,0,0:0:0:0:
256,192,134763,1,4,0:0:0:0:
256,192,134888,1,0,0:0:0:0:
256,192,134929,1,0,0:0:0:0:
256,192,134971,1,2,0:0:0:0:
256,192,135013,1,0,0:0:0:0:
256,192,135075,1,2,0:0:0:0:
256,192,135138,1,0,0:0:0:0:
256,192,135179,1,2,0:0:0:0:
256,192,135221,1,0,0:0:0:0:
256,192,135263,1,0,0:0:0:0:
256,192,135325,1,2,0:0:0:0:
256,192,135388,1,4,0:0:0:0:
256,192,135513,1,2,0:0:0:0:
256,192,135575,1,2,0:0:0:0:
256,192,135638,1,0,0:0:0:0:
256,192,135763,1,2,0:0:0:0:
256,192,135888,1,2,0:0:0:0:
256,192,135950,1,2,0:0:0:0:
256,192,136013,1,2,0:0:0:0:
256,192,136075,1,0,0:0:0:0:
256,192,136138,1,2,0:0:0:0:
256,192,136263,1,0,0:0:0:0:
256,192,136325,1,0,0:0:0:0:
256,192,136388,1,2,0:0:0:0:
256,192,136450,1,2,0:0:0:0:
256,192,136513,1,0,0:0:0:0:
256,192,136638,1,2,0:0:0:0:
256,192,136700,1,0,0:0:0:0:
256,192,136763,1,0,0:0:0:0:
256,192,136825,1,2,0:0:0:0:
256,192,136888,1,2,0:0:0:0:
256,192,137013,1,2,0:0:0:0:
256,192,137075,1,0,0:0:0:0:
256,192,137138,1,0,0:0:0:0:
256,192,137200,1,0,0:0:0:0:
256,192,137263,1,2,0:0:0:0:
256,192,137388,1,0,0:0:0:0:
256,192,137429,1,0,0:0:0:0:
256,192,137471,1,2,0:0:0:0:
256,192,137513,1,0,0:0:0:0:
256,192,137575,1,2,0:0:0:0:
256,192,137638,1,0,0:0:0:0:
256,192,137700,1,0,0:0:0:0:
256,192,137763,1,6,0:0:0:0:
256,192,137888,1,2,0:0:0:0:
256,192,137950,1,2,0:0:0:0:
256,192,138013,1,2,0:0:0:0:
256,192,138075,1,2,0:0:0:0:
256,192,138138,1,0,0:0:0:0:
256,192,138263,1,4,0:0:0:0:
256,192,138388,1,2,0:0:0:0:
256,192,138450,1,2,0:0:0:0:
256,192,138513,1,0,0:0:0:0:
256,192,138575,1,2,0:0:0:0:
256,192,138638,1,0,0:0:0:0:
256,192,138700,1,0,0:0:0:0:
256,192,138763,1,2,0:0:0:0:
256,192,138888,1,2,0:0:0:0:
256,192,139013,1,0,0:0:0:0:
256,192,139138,1,2,0:0:0:0:
256,192,139200,1,2,0:0:0:0:
256,192,139263,1,0,0:0:0:0:
256,192,139325,1,0,0:0:0:0:
256,192,139388,1,2,0:0:0:0:
256,192,139450,1,2,0:0:0:0:
256,192,139513,1,0,0:0:0:0:
256,192,139638,1,2,0:0:0:0:
256,192,139700,1,2,0:0:0:0:
256,192,139763,1,0,0:0:0:0:
256,192,139825,1,2,0:0:0:0:
256,192,139888,1,2,0:0:0:0:
256,192,139950,1,2,0:0:0:0:
256,192,140013,1,4,0:0:0:0:
256,192,140138,1,0,0:0:0:0:
256,192,140200,1,2,0:0:0:0:
256,192,140263,1,2,0:0:0:0:
256,192,140325,1,0,0:0:0:0:
256,192,140388,1,2,0:0:0:0:
256,192,140450,1,0,0:0:0:0:
256,192,140492,1,0,0:0:0:0:
256,192,140533,1,0,0:0:0:0:
256,192,140575,1,0,0:0:0:0:
256,192,140638,1,6,0:0:0:0:
256,192,140763,1,2,0:0:0:0:
256,192,140888,1,0,0:0:0:0:
256,192,141013,1,0,0:0:0:0:
256,192,141075,1,0,0:0:0:0:
256,192,141138,1,0,0:0:0:0:
256,192,141200,1,2,0:0:0:0:
256,192,141263,1,2,0:0:0:0:
256,192,141388,1,2,0:0:0:0:
256,192,141450,1,2,0:0:0:0:
256,192,141513,1,0,0:0:0:0:
256,192,141575,1,2,0:0:0:0:
256,192,141638,1,0,0:0:0:0:
256,192,141763,1,2,0:0:0:0:
256,192,141825,1,0,0:0:0:0:
256,192,141888,1,2,0:0:0:0:
256,192,141950,1,0,0:0:0:0:
256,192,142013,1,2,0:0:0:0:
256,192,142138,1,0,0:0:0:0:
256,192,142200,1,0,0:0:0:0:
256,192,142263,1,0,0:0:0:0:
256,192,142325,1,2,0:0:0:0:
256,192,142388,1,2,0:0:0:0:
256,192,142450,1,2,0:0:0:0:
256,192,142513,1,0,0:0:0:0:
256,192,142638,1,2,0:0:0:0:
256,192,142679,1,0,0:0:0:0:
256,192,142721,1,0,0:0:0:0:
256,192,142763,1,2,0:0:0:0:
256,192,142825,1,2,0:0:0:0:
256,192,142888,1,0,0:0:0:0:
256,192,142950,1,0,0:0:0:0:
256,192,143013,1,2,0:0:0:0:
256,192,143138,1,2,0:0:0:0:
256,192,143200,1,2,0:0:0:0:
256,192,143263,1,2,0:0:0:0:
256,192,143325,1,2,0:0:0:0:
256,192,143388,1,0,0:0:0:0:
256,192,143513,1,0,0:0:0:0:
256,192,143575,1,0,0:0:0:0:
256,192,143638,1,2,0:0:0:0:
256,192,143700,1,0,0:0:0:0:
256,192,143763,1,2,0:0:0:0:
256,192,143888,1,0,0:0:0:0:
256,192,144013,1,2,0:0:0:0:
256,192,144075,1,0,0:0:0:0:
256,192,144138,1,2,0:0:0:0:
256,192,144200,1,0,0:0:0:0:
256,192,144263,1,6,0:0:0:0:
256,192,144388,1,0,0:0:0:0:
256,192,144450,1,2,0:0:0:0:
256,192,144513,1,2,0:0:0:0:
256,192,144554,1,2,0:0:0:0:
256,192,144596,1,2,0:0:0:0:
256,192,144638,1,0,0:0:0:0:
256,192,144679,1,2,0:0:0:0:
256,192,144721,1,0,0:0:0:0:
256,192,144763,1,2,0:0:0:0:
256,192,144888,1,0,0:0:0:0:
256,192,144950,1,2,0:0:0:0:
256,192,145013,1,2,0:0:0:0:
256,192,145075,1,0,0:0:0:0:
256,192,145138,1,6,0:0:0:0:
256,192,145263,1,0,0:0:0:0:
256,192,145325,1,2,0:0:0:0:
256,192,145388,1,0,0:0:0:0:
256,192,145450,1,2,0:0:0:0:
256,192,145513,1,4,0:0:0:0:
256,192,145638,1,0,0:0:0:0:
256,192,145700,1,2,0:0:0:0:
256,192,145763,1,4,0:0:0:0:
256,192,145888,1,2,0:0:0:0:
256,192,145950,1,2,0:0:0:0:
256,192,146013,1,0,0:0:0:0:
256,192,146054,1,0,0:0:0:0:
256,192,146096,1,2,0:0:0:0:
256,192,146138,1,2,0:0:0:0:
256,192,146179,1,0,0:0:0:0:
256,192,146221,1,2,0:0:0:0:
256,192,146263,1,0,0:0:0:0:
256,192,146325,1,2,0:0:0:0:
256,192,146367,1,0,0:0:0:0:
256,192,146408,1,2,0:0:0:0:
256,192,146450,1,2,0:0:0:0:
256,192,146492,1,2,0:0:0:0:
256,192,146533,1,0,0:0:0:0:
256,192,146575,1,2,0:0:0:0:
256,192,146638,1,0,0:0:0:0:
256,192,146700,1,2,0:0:0:0:
256,192,146763,1,0,0:0:0:0:
256,192,146888,1,0,0:0:0:0:
256,192,146950,1,0,0:0:0:0:
256,192,147013,1,2,0:0:0:0:
256,192,147075,1,2,0:0:0:0:
256,192,147138,1,0,0:0:0:0:
256,192,147263,1,0,0:0:0:0:
256,192,147325,1,2,0:0:0:0:
256,192,147367,1,0,0:0:0:0:
256,192,147408,1,0,0:0:0:0:
256,192,147450,1,2,0:0:0:0:
256,192,147492,1,0,0:0:0:0:
256,192,147533,1,0,0:0:0:0:
256,192,147575,1,2,0:0:0:0:
256,192,147637,1,2,0:0:0:0:
256,192,147700,1,2,0:0:0:0:
256,192,147762,1,0,0:0:0:0:
256,192,147825,1,0,0:0:0:0:
256,192,147887,1,6,0:0:0:0:
256,192,148012,1,0,0:0:0:0:
256,192,148075,1,2,0:0:0:0:
256,192,148137,1,0,0:0:0:0:
256,192,148200,1,0,0:0:0:0:
256,192,148242,1,2,0:0:0:0:
256,192,148283,1,0,0:0:0:0:
256,192,148325,1,0,0:0:0:0:
256,192,148387,1,2,0:0:0:0:
256,192,148450,1,0,0:0:0:0:
256,192,148512,1,0,0:0:0:0:
256,192,148637,1,2,0:0:0:0:
256,192,148700,1,0,0:0:0:0:
256,192,148762,1,0,0:0:0:0:
256,192,148825,1,0,0:0:0:0:
256,192,148887,1,0,0:0:0:0:
256,192,149012,1,2,0:0:0:0:
256,192,149137,1,2,0:0:0:0:
256,192,149200,1,2,0:0:0:0:
256,192,149262,1,2,0:0:0:0:
256,192,149325,1,0,0:0:0:0:
256,192,149387,1,2,0:0:0:0:
256,192,149512,1,0,0:0:0:0:
256,192,149575,1,2,0:0:0:0:
256,192,149637,1,0,0:0:0:0:
256,192,149679,1,0,0:0:0:0:
256,192,149721,1,0,0:0:0:0:
256,192,149762,1,2,0:0:0:0:
256,192,149825,1,0,0:0:0:0:
256,192,149887,1,0,0:0:0:0:
256,192,150012,1,0,0:0:0:0:
256,192,150075,1,0,0:0:0:0:
256,192,150137,1,0,0:0:0:0:
256,192,150200,1,2,0:0:0:0:
256,192,150262,1,4,0:0:0:0:
256,192,150387,1,2,0:0:0:0:
256,192,150512,1,4,0:0:0:0:
256,192,150637,1,2,0:0:0:0:
256,192,150700,1,2,0:0:0:0:
256,192,150762,1,2,0:0:0:0:
256,192,150825,1,2,0:0:0:0:
256,192,150887,1,4,0:0:0:0:
256,192,151012,1,6,0:0:0:0:
256,192,151137,1,0,0:0:0:0:
256,192,151262,1,0,0:0:0:0:
256,192,151325,1,0,0:0:0:0:
256,192,151387,1,2,0:0:0:0:
256,192,151450,1,0,0:0:0:0:
256,192,151512,1,2,0:0:0:0:
256,192,151575,1,0,0:0:0:0:
256,192,151637,1,6,0:0:0:0:
256,192,151762,1,2,0:0:0:0:
256,192,151825,1,0,0:0:0:0:
256,192,151887,1,2,0:0:0:0:
256,192,151950,1,2,0:0:0:0:
256,192,152012,1,2,0:0:0:0:
256,192,152075,1,0,0:0:0:0:
256,192,152137,1,0,0:0:0:0:
256,192,152262,1,4,0:0:0:0:
256,192,152387,1,0,0:0:0:0:
256,192,152450,1,2,0:0:0:0:
256,192,152512,1,2,0:0:0:0:
256,192,152575,1,2,0:0:0:0:
256,192,152637,1,2,0:0:0:0:
256,192,152762,1,0,0:0:0:0:
256,192,152825,1,2,0:0:0:0:
256,192,152887,1,0,0:0:0:0:
256,192,153012,1,0,0:0:0:0:
256,192,153137,1,4,0:0:0:0:
256,192,153262,1,0,0:0:0:0:
256,192,153325,1,0,0:0:0:0:
256,192,153387,1,2,0:0:0:0:
256,192,153450,1,0,0:0:0:0:
256,192,153512,1,0,0:0:0:0:
256,192,153637,1,6,0:0:0:0:
256,192,153762,1,4,0:0:0:0:
256,192,153887,1,0,0:0:0:0:
256,192,153950,1,0,0:0:0:0:
256,192,154012,1,2,0:0:0:0:
256,192,154075,1,2,0:0:0:0:
256,192,154137,1,0,0:0:0:0:
256,192,154262,1,0,0:0:0:0:
256,192,154325,1,2,0:0:0:0:
256,192,154387,1,0,0:0:0:0:
256,192,154450,1,2,0:0:0:0:
256,192,154512,1,0,0:0:0:0:
256,192,154637,1,0,0:0:0:0:
256,192,154700,1,2,0:0:0:0:
256,192,154762,1,2,0:0:0:0:
256,192,154825,1,0,0:0:0:0:
256,192,154867,1,2,0:0:0:0:
256,192,154908,1,0,0:0:0:0:
256,192,154950,1,2,0:0:0:0:
256,192,154992,1,0,0:0:0:0:
256,192,155033,1,0,0:0:0:0:
256,192,155075,1,2,0:0:0:0:
256,192,155137,1,4,0:0:0:0:
256,192,155262,1,0,0:0:0:0:
256,192,155325,1,0,0:0:0:0:
256,192,155387,1,0,0:0:0:0:
256,192,155450,1,0,0:0:0:0:
256,192,155512,1,0,0:0:0:0:
256,192,155575,1,2,0:0:0:0:
256,192,155637,1,4,0:0:0:0:
256,192,155762,1,0,0:0:0:0:
256,192,155825,1,2,0:0:0:0:
256,192,155887,1,2,0:0:0:0:
256,192,155950,1,0,0:0:0:0:
256,192,156012,1,0,0:0:0:0:
256,192,156054,1,0,0:0:0:0:
256,192,156096,1,0,0:0:0:0:
256,192,156137,1,0,0:0:0:0:
256,192,156179,1,0,0:0:0:0:
256,192,156221,1,2,0:0:0:0:
256,192,156262,1,0,0:0:0:0:
256,192,156325,1,2,0:0:0:0:
256,192,156387,1,4,0:0:0:0:
256,192,156512,1,0,0:0:0:0:
256,192,156575,1,0,0:0:0:0:
256,192,156637,1,6,0:0:0:0:
256,192,156762,1,0,0:0:0:0:
256,192,156887,1,2,0:0:0:0:
256,192,157012,1,0,0:0:0:0:
256,192,157075,1,2,0:0:0:0:
256,192,157137,1,0,0:0:0:0:
256,192,157200,1,0,0:0:0:0:
256,192,157262,1,0,0:0:0:0:
256,192,157304,1,0,0:0:0:0:
256,192,157346,1,0,0:0:0:0:
256,192,157387,1,0,0:0:0:0:
256,192,157429,1,0,0:0:0:0:
256,192,157471,1,0,0:0:0:0:
256,192,157512,1,2,0:0:0:0:
256,192,157637,1,2,0:0:0:0:
256,192,157700,1,2,0:0:0:0:
256,192,157762,1,0,0:0:0:0:
256,192,157825,1,2,0:0:0:0:
256,192,157887,1,0,0:0:0:0:
256,192,157950,1,2,0:0:0:0:
256,192,158012,1,0,0:0:0:0:
256,192,158137,1,0,0:0:0:0:
256,192,158262,1,0,0:0:0:0:
256,192,158325,1,0,0:0:0:0:
256,192,158387,1,0,0:0:0:0:
256,192,158450,1,0,0:0:0:0:
256,192,158512,1,6,0:0:0:0:
256,192,158637,1,2,0:0:0:0:
256,192,158700,1,2,0:0:0:0:
256,192,158762,1,0,0:0:0:0:
256,192,158887,1,0,0:0:0:0:
256,192,159012,1,4,0:0:0:0:
256,192,159137,1,2,0:0:0:0:
256,192,159179,1,0,0:0:0:0:
256,192,159221,1,2,0:0:0:0:
256,192,159262,1,0,0:0:0:0:
256,192,159304,1,0,0:0:0:0:
256,192,159346,1,0,0:0:0:0:
256,192,159387,1,2,0:0:0:0:
256,192,159450,1,2,0:0:0:0:
256,192,159512,1,2,0:0:0:0:
256,192,159575,1,0,0:0:0:0:
256,192,159617,1,2,0:0:0:0:
256,192,159658,1,0,0:0:0:0:
256,192,159700,1,0,0:0:0:0:
256,192,159742,1,2,0:0:0:0:
256,192,159783,1,2,0:0:0:0:
256,192,159825,1,2,0:0:0:0:
256,192,159887,1,0,0:0:0:0:
256,192,159950,1,0,0:0:0:0:
256,192,160012,1,6,0:0:0:0:
256,192,160137,1,6,0:0:0:0:
256,192,160262,1,0,0:0:0:0:
256,192,160325,1,2,0:0:0:0:
256,192,160387,1,0,0:0:0:0:
256,192,160450,1,2,0:0:0:0:
256,192,160512,1,4,0:0:0:0:
256,192,160637,1,4,0:0:0:0:
