osu file format v14

[General]
AudioFilename: audio.mp3
AudioLeadIn: 0
PreviewTime: 59589
Countdown: 0
SampleSet: Soft
StackLeniency: 0.2
Mode: 0
LetterboxInBreaks: 0
WidescreenStoryboard: 1

[Editor]
Bookmarks: 14083,34308,43746,46443
DistanceSpacing: 0.2
BeatDivisor: 4
GridSize: 32
TimelineZoom: 2.4

[Metadata]
Title:Chikatto Chika Chikattsu
TitleUnicode:チカっとチカ千花っ♡
Artist:Fujiwara Chika (CV. Kohara Konomi)
ArtistUnicode:藤原千花(CV.小原好美)
Creator:revoh
Version:Normal
Source:かぐや様は告らせたい~天才たちの恋愛頭脳戦~
Tags:bakugou salty saltking japanese anime big brain Kaguya-sama: Love Is War pop jpop
BeatmapID:1946283
BeatmapSetID:919479

[Difficulty]
HPDrainRate:4
CircleSize:3
OverallDifficulty:5
ApproachRate:6
SliderMultiplier:1.8
SliderTickRate:1

[Events]
//Background and Video events
0,0,"rYGowgXDECVVCbyIw3LfY8szdDl.jpg",0,0
//Break Periods
//Storyboard Layer 0 (Background)
//Storyboard Layer 1 (Fail)
//Storyboard Layer 2 (Pass)
//Storyboard Layer 3 (Foreground)
//Storyboard Layer 4 (Overlay)
//Storyboard Sound Samples

[TimingPoints]
3297,337.078651685393,4,2,1,100,1,0
3971,-200,4,2,1,50,0,0
12061,-200,4,2,1,5,0,0
12735,-200,4,2,1,50,0,0
13240,-200,4,2,1,5,0,0
13409,-200,4,2,1,50,0,0
13914,-200,4,2,1,5,0,0
14083,-125,4,1,1,75,0,0
15431,-250,4,1,1,75,0,0
16611,-250,4,1,1,5,0,0
16948,-125,4,1,1,75,0,0
45094,-125,4,2,1,75,0,0
46274,-125,4,2,1,5,0,0
46443,-166.666666666667,4,2,1,60,0,0
54532,-125,4,1,1,75,0,0
59420,-125,4,1,1,5,0,0
59589,-125,4,1,1,75,0,0
59926,-100,4,1,1,75,0,1
68016,-100,4,1,1,75,0,0
77622,-125,4,1,1,75,0,0
84195,-100,4,1,1,75,0,0

[Colours]
Combo1 : 72,104,255
Combo2 : 255,21,86
Combo3 : 91,91,91
Combo4 : 255,245,66

[HitObjects]
73,307,3971,6,0,B|129:322|172:305|135:275|196:261|260:278,2,180,2|2|2,0:0|0:0|0:0,0:0:0:0:
337,337,5993,1,2,0:0:0:0:
425,112,8016,6,0,P|408:161|439:295,2,180,2|2|2,0:0|0:0|0:0,0:0:0:0:
333,335,10038,1,2,0:0:0:0:
336,338,11386,5,2,0:0:0:0:
336,338,12735,5,2,0:0:0:0:
336,338,13409,5,2,0:0:0:0:
336,338,14083,6,0,B|297:275|297:275|291:197,1,144,6|2,0:0|0:0,0:0:0:0:
287,104,14757,2,0,P|220:91|138:121,1,144,6|2,0:0|0:0,0:0:0:0:
77,195,15431,6,0,B|34:5|34:5|22:106,1,288,10|0,0:0|0:0,0:0:0:0:
28,304,16948,6,0,P|73:289|116:301,1,72,8|8,0:0|0:0,0:0:0:0:
170,347,17285,2,0,P|215:362|258:350,1,72,8|8,0:0|0:0,0:0:0:0:
355,274,17791,5,2,0:0:0:0:
470,350,18128,6,0,P|455:280|458:179,1,144,8|4,0:0|0:0,0:0:0:0:
464,104,18634,2,0,B|407:117|407:117|313:113,1,144,8|8,0:0|0:0,0:0:0:0:
226,191,19139,2,0,P|231:142|224:87,1,72,4|0,0:0|0:0,0:0:0:0:
139,33,19476,2,0,P|134:82|141:137,2,72,8|0|4,0:0|0:0|0:0,0:0:0:0:
90,190,19982,2,0,P|99:237|88:345,1,144,8|8,0:0|0:0,0:0:0:0:
255,325,20488,2,0,B|219:315|219:315|161:321,1,72,4|0,0:0|0:0,0:0:0:0:
354,355,20825,6,0,L|367:207,1,144,8|4,0:0|0:0,0:0:0:0:
380,105,21330,2,0,B|338:108|338:108|231:85,1,144,8|8,0:0|0:0,0:0:0:0:
102,150,21836,2,0,L|183:145,1,72,8|8,0:0|0:0,0:0:0:0:
28,304,22341,6,0,P|73:289|116:301,1,72,8|8,0:0|0:0,0:0:0:0:
170,347,22678,2,0,P|215:362|258:350,1,72,8|8,0:0|0:0,0:0:0:0:
438,318,23521,6,0,P|422:248|445:181,1,144,8|4,0:0|0:0,0:0:0:0:
400,98,24027,2,0,B|347:84|347:84|231:92,1,144,8|8,0:0|0:0,0:0:0:0:
134,171,24532,2,0,L|216:164,1,72,4|0,0:0|0:0,0:0:0:0:
278,248,24870,6,0,L|202:258,2,72,8|0|4,0:0|0:0|0:0,0:0:0:0:
371,236,25375,2,0,P|432:266|432:334,1,144,8|8,0:0|0:0,0:0:0:0:
351,384,25881,1,4,0:0:0:0:
118,360,26218,6,0,B|127:265|127:265|112:192,1,144,8|4,0:0|0:0,0:0:0:0:
58,130,26723,2,0,P|104:136|194:90,1,144,8|8,0:0|0:0,0:0:0:0:
254,27,27229,2,0,P|282:23|339:52,1,72,8|0,0:0|0:0,0:0:0:0:
406,109,27566,6,0,B|394:158|394:158|404:203,2,72,8|0|4,0:0|0:0|0:0,0:0:0:0:
440,264,28072,2,0,P|371:279|296:252,1,144,8|8,0:0|0:0,0:0:0:0:
222,299,28577,2,0,B|221:247|221:247|195:197,1,108,4|0,0:0|0:0,0:0:0:0:
172,169,28914,6,0,P|121:156|33:216,1,144,8|4,0:0|0:0,0:0:0:0:
1,303,29420,2,0,P|52:316|140:256,1,144,8|8,0:0|0:0,0:0:0:0:
218,303,29926,2,0,L|306:309,1,72,4|0,0:0|0:0,0:0:0:0:
394,342,30263,6,0,B|383:283|383:283|403:182,1,144,8|4,0:0|0:0,0:0:0:0:
470,125,30768,2,0,P|412:96|312:111,1,144,8|8,0:0|0:0,0:0:0:0:
247,164,31274,1,4,0:0:0:0:
16,68,31611,6,0,P|78:57|110:73,1,72,10|0,0:0|0:0,0:0:0:0:
96,152,31948,2,0,P|34:163|2:147,1,72,6|8,0:0|0:0,0:0:0:0:
181,46,32285,6,0,P|243:35|275:51,1,72,2|8,0:0|0:0,0:0:0:0:
261,130,32622,2,0,P|199:141|167:125,1,72,6|0,0:0|0:0,0:0:0:0:
345,21,32959,6,0,P|407:10|439:26,1,72,10|8,0:0|0:0,0:0:0:0:
434,169,33296,2,0,P|372:180|340:164,1,72,10|8,0:0|0:0,0:0:0:0:
507,76,33634,1,10,0:0:0:0:
463,314,34308,6,0,B|396:338|396:338|298:339,1,144,8|4,0:0|0:0,0:0:0:0:
237,309,34813,2,0,L|81:310,1,144,8|8,0:0|0:0,0:0:0:0:
0,307,35319,2,0,P|16:251|7:213,1,72,4|0,0:0|0:0,0:0:0:0:
4,147,35656,6,0,B|43:137|43:137|92:155,2,72,8|0|4,0:0|0:0|0:0,0:0:0:0:
138,203,36162,2,0,B|212:222|212:222|306:187,1,144,8|8,0:0|0:0,0:0:0:0:
344,123,36667,1,4,0:0:0:0:
428,19,37004,6,0,P|388:8|267:22,1,144,8|4,0:0|0:0,0:0:0:0:
228,76,37510,2,0,P|188:87|67:73,1,144,8|8,0:0|0:0,0:0:0:0:
7,41,38016,2,0,L|0:125,1,72,4|0,0:0|0:0,0:0:0:0:
49,198,38353,6,0,L|52:277,2,72,8|0|4,0:0|0:0|0:0,0:0:0:0:
58,363,38858,2,0,P|115:341|212:367,1,144,8|8,0:0|0:0,0:0:0:0:
287,371,39364,1,4,0:0:0:0:
398,228,39701,6,0,B|343:213|343:213|224:237,1,144,8|4,0:0|0:0,0:0:0:0:
162,251,40207,2,0,P|171:186|153:93,1,144,8|8,0:0|0:0,0:0:0:0:
124,27,40712,2,0,L|202:16,1,72,4|0,0:0|0:0,0:0:0:0:
265,79,41049,6,0,L|421:57,1,144,8|4,0:0|0:0,0:0:0:0:
501,46,41555,2,0,P|490:113|499:217,1,144,8|8,0:0|0:0,0:0:0:0:
493,276,42061,2,0,L|489:357,1,72,4|0,0:0|0:0,0:0:0:0:
406,376,42398,6,0,B|340:358|340:358|250:382,1,144,8|4,0:0|0:0,0:0:0:0:
176,354,42903,2,0,L|191:195,1,144,8|8,0:0|0:0,0:0:0:0:
225,127,43409,2,0,P|163:120|134:142,1,72,4|0,0:0|0:0,0:0:0:0:
72,174,43746,5,10,0:0:0:0:
101,296,44420,5,10,0:0:0:0:
187,205,45094,5,10,0:0:0:0:
256,192,45179,12,0,46274,0:0:0:0:
395,101,46443,6,0,P|340:84|416:209,1,377.999988464356,10|0,0:0|0:0,0:0:0:0:
398,344,47791,6,0,B|342:314|263:321|289:360|216:373|130:343|130:343|159:292|154:240,1,377.999988464356,8|0,0:0|0:0,0:0:0:0:
90,160,49139,6,0,B|21:126|21:126|153:83|153:83|256:118|256:118|309:87,1,377.999988464356,8|0,0:0|0:0,0:0:0:0:
396,30,50488,6,0,B|445:80|456:152|411:209|411:209|366:212|294:258|279:333,1,377.999988464356,8|0,0:0|0:0,0:0:0:0:
204,368,51836,6,0,P|186:324|26:289,1,215.999993408203,8|12,0:0|0:0,0:0:0:0:
53,96,53184,6,0,P|80:134|25:288,1,215.999993408203,8|12,0:0|0:0,0:0:0:0:
182,197,54195,6,0,L|234:166,1,53.9999983520508,2|0,0:0|0:0,0:0:0:0:
306,110,54532,6,0,P|355:123|463:111,1,144,8|4,0:0|0:0,0:0:0:0:
488,201,55038,2,0,B|466:239|466:239|469:357,1,144,8|8,0:0|0:0,0:0:0:0:
386,378,55544,2,0,L|311:377,1,72,4|0,0:0|0:0,0:0:0:0:
224,320,55881,6,0,P|154:313|87:335,1,108,8|0,0:0|0:0,0:0:0:0:
85,337,56218,2,0,B|92:296|92:296|85:252,1,72,4|8,0:0|0:0,0:0:0:0:
46,187,56555,2,0,P|39:122|163:150,1,216,0|0,0:0|0:0,0:0:0:0:
204,218,57229,5,10,0:0:0:0:
305,142,57903,5,10,0:0:0:0:
320,270,58577,5,10,0:0:0:0:
457,185,59589,5,2,0:0:0:0:
469,53,59926,6,0,P|384:30|291:67,1,180,8|6,0:0|0:0,0:0:0:0:
227,136,60431,2,0,B|166:158|166:158|34:140,1,180,10|10,0:0|0:0,0:0:0:0:
16,233,60937,2,0,P|28:280|16:337,1,90,6|2,0:0|0:0,0:0:0:0:
102,375,61274,6,0,L|191:364,1,90,10|2,0:0|0:0,0:0:0:0:
249,270,61611,1,6,0:0:0:0:
303,328,61780,2,0,B|421:321|421:321|461:265,1,180,8|8,0:0|0:0,0:0:0:0:
447,177,62285,1,6,0:0:0:0:
421,54,62454,1,2,0:0:0:0:
372,116,62622,6,0,P|294:133|181:107,1,180,8|6,0:0|0:0,0:0:0:0:
106,58,63128,2,0,B|114:116|114:116|82:244,1,180,10|10,0:0|0:0,0:0:0:0:
107,312,63634,2,0,L|15:313,1,90,6|2,0:0|0:0,0:0:0:0:
183,364,63971,6,0,P|230:351|282:371,1,90,10|2,0:0|0:0,0:0:0:0:
332,302,64308,2,0,P|379:315|431:294,1,90,6|10,0:0|0:0,0:0:0:0:
459,222,64645,2,0,B|435:166|435:166|451:35,1,180,2|6,0:0|0:0,0:0:0:0:
366,70,65150,1,2,0:0:0:0:
294,114,65319,6,0,B|207:106|207:106|127:56,1,180,8|6,0:0|0:0,0:0:0:0:
44,65,65825,2,0,P|54:125|29:245,1,180,10|10,0:0|0:0,0:0:0:0:
41,341,66330,2,0,B|93:331|93:331|153:348,1,90,6|2,0:0|0:0,0:0:0:0:
218,359,66667,6,0,P|306:361|389:291,1,180,10|4,0:0|0:0,0:0:0:0:
382,224,67173,2,0,B|376:133|376:133|405:32,1,180,8|8,0:0|0:0,0:0:0:0:
292,89,67679,2,0,L|192:87,1,90,4|0,0:0|0:0,0:0:0:0:
83,85,68016,5,8,0:0:0:0:
200,192,68690,5,8,0:0:0:0:
40,243,69364,5,8,0:0:0:0:
170,370,70038,6,0,P|231:350|331:361,1,135,0|0,0:0|0:0,0:0:0:0:
345,363,70375,2,0,B|363:308|363:308|360:207,1,135,8|0,0:0|0:0,0:0:0:0:
358,185,70712,6,0,P|353:89|376:0,1,180,8|4,0:0|0:0,0:0:0:0:
275,36,71218,2,0,B|216:47|216:47|87:40,1,180,8|8,0:0|0:0,0:0:0:0:
3,37,71723,2,0,L|4:132,1,90,4|0,0:0|0:0,0:0:0:0:
76,247,72061,5,8,0:0:0:0:
201,180,72735,5,8,0:0:0:0:
194,322,73409,5,8,0:0:0:0:
333,260,74083,5,10,0:0:0:0:
422,332,74420,6,0,P|410:249|418:176,1,135,0|0,0:0|0:0,0:0:0:0:
425,154,74757,6,0,B|432:110|432:110|427:59,1,90,10|10,0:0|0:0,0:0:0:0:
291,108,75263,5,2,0:0:0:0:
224,168,75431,2,0,B|217:212|217:212|222:263,1,90,10|10,0:0|0:0,0:0:0:0:
58,384,75937,5,2,0:0:0:0:
125,324,76105,2,0,B|132:280|132:280|127:229,1,90,10|2,0:0|0:0,0:0:0:0:
62,167,76443,2,0,B|55:123|55:123|60:72,1,90,10|2,0:0|0:0,0:0:0:0:
376,357,77622,6,0,P|361:312|373:269,1,72,8|8,0:0|0:0,0:0:0:0:
419,215,77959,2,0,P|434:170|422:127,1,72,8|8,0:0|0:0,0:0:0:0:
334,28,78465,5,2,0:0:0:0:
224,128,78802,6,0,P|148:143|55:115,1,144,8|4,0:0|0:0,0:0:0:0:
34,201,79308,2,0,L|22:357,1,144,8|8,0:0|0:0,0:0:0:0:
109,359,79813,2,0,B|146:354|146:354|208:362,1,72,4|0,0:0|0:0,0:0:0:0:
272,370,80150,6,0,B|344:373|344:373|424:336,1,144,8|4,0:0|0:0,0:0:0:0:
431,255,80656,2,0,P|408:201|435:115,1,144,8|8,0:0|0:0,0:0:0:0:
465,37,81162,2,0,L|371:32,1,72,4|0,0:0|0:0,0:0:0:0:
284,103,81499,6,0,L|195:106,1,72,8|0,0:0|0:0,0:0:0:0:
136,58,81836,2,0,L|47:55,1,72,4|8,0:0|0:0,0:0:0:0:
62,137,82173,2,0,L|65:226,1,72,0|8,0:0|0:0,0:0:0:0:
17,285,82510,2,0,L|14:374,1,72,4|0,0:0|0:0,0:0:0:0:
113,366,82847,6,0,P|166:353|275:375,1,144,8|4,0:0|0:0,0:0:0:0:
336,383,83353,2,0,B|361:308|361:308|365:229,1,144,8|8,0:0|0:0,0:0:0:0:
301,179,83858,2,0,P|295:133|301:93,1,72,4|0,0:0|0:0,0:0:0:0:
270,25,84195,6,0,B|234:38|234:38|178:31,1,90,10|0,0:0|0:0,0:0:0:0:
97,18,84532,2,0,B|61:5|61:5|5:12,1,90,14|0,0:0|0:0,0:0:0:0:
139,115,84870,6,0,B|175:128|175:128|231:121,1,90,14|0,0:0|0:0,0:0:0:0:
310,103,85207,2,0,B|346:90|346:90|402:97,1,90,14|0,0:0|0:0,0:0:0:0:
445,206,85544,6,0,P|393:197|355:217,1,90,14|0,0:0|0:0,0:0:0:0:
370,298,85881,2,0,P|422:307|460:287,1,90,14|0,0:0|0:0,0:0:0:0:
273,220,86218,6,0,P|221:211|183:231,1,90,14|0,0:0|0:0,0:0:0:0:
194,312,86555,2,0,P|246:321|284:301,1,90,14|0,0:0|0:0,0:0:0:0:
81,282,86892,6,0,P|95:209|80:154,1,90,14|0,0:0|0:0,0:0:0:0:
30,129,87229,2,0,P|16:56|31:1,1,90,14|0,0:0|0:0,0:0:0:0:
116,70,87566,6,0,P|189:84|244:69,1,90,14|0,0:0|0:0,0:0:0:0:
269,19,87903,2,0,P|342:5|397:20,1,90,14|0,0:0|0:0,0:0:0:0:
451,80,88240,5,14,0:0:0:0:
452,98,88409,1,12,0:0:0:0:
453,115,88577,1,14,0:0:0:0:
454,132,88746,1,12,0:0:0:0:
387,182,88914,5,14,0:0:0:0:
380,217,89083,1,12,0:0:0:0:
376,253,89251,1,14,0:0:0:0:
372,289,89420,1,8,0:0:0:0:
255,191,91611,5,8,0:0:0:0:
256,192,91695,12,0,95656,0:0:0:0:
