osu file format v14

[General]
AudioFilename: audio.mp3
AudioLeadIn: 0
PreviewTime: -1
Countdown: 1
SampleSet: Normal
StackLeniency: 0.4
Mode: 0
LetterboxInBreaks: 0
WidescreenStoryboard: 0

[Editor]
DistanceSpacing: 0.6
BeatDivisor: 4
GridSize: 32
TimelineZoom: 2.4

[Metadata]
Title:Chikatto Chika Chikattsu
TitleUnicode:チカっとチカ千花っ♡
Artist:Fujiwara Chika (CV. Kohara Konomi)
ArtistUnicode:藤原千花(CV.小原好美)
Creator:revoh
Version:Extra
Source:かぐや様は告らせたい~天才たちの恋愛頭脳戦~
Tags:bakugou
BeatmapID:1920140
BeatmapSetID:919479

[Difficulty]
HPDrainRate:5
CircleSize:4.2
OverallDifficulty:9
ApproachRate:9
SliderMultiplier:2.4
SliderTickRate:1

[Events]
//Background and Video events
0,0,"rYGowgXDECVVCbyIw3LfY8szdDl.jpg",0,0
//Break Periods
//Storyboard Layer 0 (Background)
//Storyboard Layer 1 (Fail)
//Storyboard Layer 2 (Pass)
//Storyboard Layer 3 (Foreground)
//Storyboard Layer 4 (Overlay)
//Storyboard Sound Samples

[TimingPoints]
3297,337.078651685393,4,2,1,100,1,0
3971,-200,4,2,1,50,0,0
11386,-500,4,2,1,50,0,0
12061,-500,4,2,1,5,0,0
12735,-200,4,2,1,50,0,0
13240,-200,4,2,1,5,0,0
13409,-200,4,2,1,50,0,0
13914,-200,4,2,1,5,0,0
14083,-125,4,1,1,75,0,0
14757,-100,4,1,1,75,0,0
15431,-200,4,1,1,75,0,0
16611,-200,4,1,1,5,0,0
16948,-200,4,1,1,75,0,0
18128,-142.857142857143,4,1,1,75,0,0
42398,-125,4,1,1,75,0,0
42903,-111.111111111111,4,1,1,75,0,0
43409,-100,4,1,1,75,0,0
45094,-250.000000000001,4,2,1,75,0,0
46274,-250.000000000001,4,2,1,5,0,0
46443,-200,4,2,1,60,0,0
54532,-142.857142857143,4,1,1,75,0,0
56218,-125,4,1,1,75,0,0
56555,-111.111111111111,4,1,1,75,0,0
58577,-250,4,1,1,75,0,0
59420,-250,4,1,1,5,0,0
59589,-250,4,1,1,75,0,0
59757,-111.111111111111,4,1,1,75,0,1
68016,-142.857142857143,4,1,1,75,0,0
70712,-111.111111111111,4,1,1,75,0,0
74420,-99.9999999999999,4,1,1,75,0,0
78802,-142.857142857143,4,1,1,75,0,0
84195,-111.111111111111,4,1,1,75,0,0

[Colours]
Combo1 : 72,104,255
Combo2 : 255,21,86
Combo3 : 91,91,91
Combo4 : 255,245,66

[HitObjects]
85,50,3971,6,0,L|338:30,1,240,2|2,0:0|0:0,0:0:0:0:
253,174,5319,2,0,L|0:154,1,240,2|2,0:0|0:0,0:0:0:0:
426,347,8016,6,0,B|443:264|443:264|417:107,1,240,2|2,0:0|0:0,0:0:0:0:
240,14,9364,2,0,B|223:97|223:97|248:250,1,240,2|2,0:0|0:0,0:0:0:0:
53,319,11386,6,0,L|156:314,1,96,2|0,0:0|0:0,0:0:0:0:
53,319,12735,6,0,L|259:308,1,180,2|0,0:0|0:0,0:0:0:0:
79,317,13409,6,0,L|285:306,1,180,2|0,0:0|0:0,0:0:0:0:
117,315,14083,6,0,L|228:309,1,96,6|0,0:0|0:0,0:0:0:0:
293,230,14420,2,0,L|197:234,1,96,2|0,0:0|0:0,0:0:0:0:
444,322,14757,6,0,B|456:246|425:195|425:195|410:215|404:244,1,180,6|0,0:0|0:0,0:0:0:0:
405,239,15094,2,0,P|421:174|405:116,1,120,2|0,0:0|0:0,0:0:0:0:
60,86,15431,6,0,B|157:69|157:69|196:82|250:67|250:67|232:114|232:114|314:107|411:124,1,420,10|0,0:0|0:0,0:0:0:0:
190,278,16948,5,8,0:0:0:0:
51,244,17117,1,8,0:0:0:0:
140,196,17285,1,8,0:0:0:0:
101,332,17454,1,8,0:0:0:0:
416,321,17791,5,2,0:0:0:0:
362,53,18128,6,0,P|329:145|369:233,1,167.999994873047,8|4,0:0|0:0,0:0:0:0:
412,318,18634,2,0,B|364:310|364:310|310:341|310:341|254:326,1,167.999994873047,8|8,0:0|0:0,0:0:0:0:
97,281,19139,2,0,L|115:393,1,83.9999974365235,4|0,0:0|0:0,0:0:0:0:
110,135,19476,6,0,P|60:135|14:171,2,83.9999974365235,8|0|4,0:0|0:0|0:0,0:0:0:0:
206,177,19982,2,0,B|269:205|269:205|381:178,1,167.999994873047,8|8,0:0|0:0,0:0:0:0:
415,28,20488,1,4,0:0:0:0:
313,83,20656,1,0,0:0:0:0:
472,140,20825,6,0,P|490:208|473:310,1,167.999994873047,8|4,0:0|0:0,0:0:0:0:
356,343,21330,2,0,B|293:315|293:315|181:342,1,167.999994873047,8|8,0:0|0:0,0:0:0:0:
56,226,21836,1,8,0:0:0:0:
43,316,22004,1,8,0:0:0:0:
276,182,22341,5,8,0:0:0:0:
235,44,22510,1,8,0:0:0:0:
322,97,22678,1,8,0:0:0:0:
184,131,22847,1,8,0:0:0:0:
48,315,23521,6,0,P|132:293|213:334,1,167.999994873047,8|4,0:0|0:0,0:0:0:0:
435,364,24027,2,0,L|249:371,1,167.999994873047,8|8,0:0|0:0,0:0:0:0:
443,269,24532,1,4,0:0:0:0:
364,175,24701,1,0,0:0:0:0:
512,112,24870,6,0,P|475:100|416:107,1,83.9999974365235,8|0,0:0|0:0,0:0:0:0:
274,47,25207,1,4,0:0:0:0:
364,175,25375,2,0,P|289:199|169:185,1,167.999994873047,8|8,0:0|0:0,0:0:0:0:
444,274,25881,1,4,0:0:0:0:
75,318,26218,6,0,B|105:262|105:262|106:146,1,167.999994873047,8|4,0:0|0:0,0:0:0:0:
62,38,26723,1,8,0:0:0:0:
62,38,26892,2,0,P|112:23|162:37,1,83.9999974365235,0|8,0:0|0:0,0:0:0:0:
241,122,27229,1,8,0:0:0:0:
350,68,27398,1,0,0:0:0:0:
350,68,27566,5,8,0:0:0:0:
434,157,27735,1,0,0:0:0:0:
472,48,27903,1,4,0:0:0:0:
322,172,28072,2,0,B|311:232|311:232|320:348,1,167.999994873047,8|8,0:0|0:0,0:0:0:0:
319,338,28577,2,0,P|249:332|191:343,1,125.999996154785,4|0,0:0|0:0,0:0:0:0:
163,362,28914,6,0,P|118:375|52:365,1,83.9999974365235,8|0,0:0|0:0,0:0:0:0:
233,253,29252,1,4,0:0:0:0:
319,338,29420,1,8,0:0:0:0:
454,260,29589,6,0,L|458:159,1,83.9999974365235,0|8,0:0|0:0,0:0:0:0:
355,52,29926,2,0,L|359:153,1,83.9999974365235,4|0,0:0|0:0,0:0:0:0:
116,136,30263,6,0,P|206:117|303:146,1,167.999994873047,8|4,0:0|0:0,0:0:0:0:
44,303,30768,2,0,B|50:265|68:248|68:248|37:203|37:203|48:171|38:127,1,167.999994873047,8|8,0:0|0:0,0:0:0:0:
126,308,31274,1,4,0:0:0:0:
430,283,31611,5,10,0:0:0:0:
387,374,31780,1,0,0:0:0:0:
293,196,31948,5,6,0:0:0:0:
336,287,32117,1,8,0:0:0:0:
428,107,32285,5,2,0:0:0:0:
385,198,32454,1,8,0:0:0:0:
286,17,32622,5,6,0:0:0:0:
329,108,32791,1,0,0:0:0:0:
383,18,32959,5,10,0:0:0:0:
196,118,33128,1,8,0:0:0:0:
429,107,33296,5,10,0:0:0:0:
132,17,33465,1,8,0:0:0:0:
216,327,33634,5,10,0:0:0:0:
54,338,34308,6,0,P|72:279|55:159,1,167.999994873047,8|4,0:0|0:0,0:0:0:0:
46,61,34813,1,8,0:0:0:0:
46,61,34982,2,0,P|108:75|145:52,1,83.9999974365235,0|8,0:0|0:0,0:0:0:0:
221,25,35319,2,0,P|283:11|320:34,1,83.9999974365235,4|0,0:0|0:0,0:0:0:0:
432,66,35656,6,0,B|415:117|415:117|431:156,1,83.9999974365235,8|0,0:0|0:0,0:0:0:0:
479,221,35993,1,4,0:0:0:0:
479,221,36162,2,0,B|504:297|504:297|476:387,1,167.999994873047,8|8,0:0|0:0,0:0:0:0:
499,119,36667,1,4,0:0:0:0:
342,311,37004,6,0,P|261:307|241:316,1,83.9999974365235,8|0,0:0|0:0,0:0:0:0:
187,358,37341,2,0,P|106:362|86:353,1,83.9999974365235,4|8,0:0|0:0,0:0:0:0:
42,188,37679,2,0,B|52:231|52:231|39:294,1,83.9999974365235,0|8,0:0|0:0,0:0:0:0:
18,355,38016,1,4,0:0:0:0:
145,254,38184,1,0,0:0:0:0:
297,380,38353,5,8,0:0:0:0:
336,198,38521,1,0,0:0:0:0:
392,336,38690,5,4,0:0:0:0:
337,93,38858,2,0,B|288:80|237:100|269:125|210:144|156:122,1,167.999994873047,8|8,0:0|0:0,0:0:0:0:
437,130,39364,1,4,0:0:0:0:
75,66,39701,6,0,P|86:128|61:246,1,167.999994873047,8|4,0:0|0:0,0:0:0:0:
36,344,40207,2,0,B|131:331|131:331|222:348,1,167.999994873047,8|8,0:0|0:0,0:0:0:0:
326,296,40712,2,0,P|311:350|317:387,1,83.9999974365235,4|0,0:0|0:0,0:0:0:0:
418,235,41049,6,0,P|439:155|405:54,1,167.999994873047,8|4,0:0|0:0,0:0:0:0:
180,164,41555,2,0,B|242:147|242:147|370:158,1,167.999994873047,8|8,0:0|0:0,0:0:0:0:
118,72,42061,1,4,0:0:0:0:
51,231,42229,1,0,0:0:0:0:
180,164,42398,6,0,P|192:226|171:362,1,192,8|4,0:0|0:0,0:0:0:0:
477,321,42903,2,0,B|397:311|397:311|261:333,1,215.999993408203,8|8,0:0|0:0,0:0:0:0:
379,108,43409,2,0,L|389:248,1,120,4|0,0:0|0:0,0:0:0:0:
451,23,43746,5,10,0:0:0:0:
48,145,44420,5,10,0:0:0:0:
465,301,45094,6,0,B|388:280|289:292|354:362|238:377|144:344,1,336,10|0,0:0|0:0,0:0:0:0:
93,121,46443,5,10,0:0:0:0:
103,279,46611,1,10,0:0:0:0:
0,217,46780,2,0,P|37:208|68:213,1,60,2|0,0:0|0:0,0:0:0:0:
103,279,47117,2,0,P|140:288|171:283,1,60,2|0,0:0|0:0,0:0:0:0:
247,186,47454,2,0,L|244:249,1,60,2|0,0:0|0:0,0:0:0:0:
345,5,47791,5,8,0:0:0:0:
361,162,47959,1,8,0:0:0:0:
458,88,48128,2,0,L|399:85,1,60,2|0,0:0|0:0,0:0:0:0:
292,113,48465,2,0,L|233:119,1,60,2|0,0:0|0:0,0:0:0:0:
117,161,48802,1,2,0:0:0:0:
361,162,49139,5,8,0:0:0:0:
354,321,49308,1,8,0:0:0:0:
458,255,49476,2,0,P|408:243|378:252,1,60,2|0,0:0|0:0,0:0:0:0:
264,314,49813,2,0,L|122:302,1,120,2|2,0:0|0:0,0:0:0:0:
127,47,50488,5,8,0:0:0:0:
144,212,50656,1,8,0:0:0:0:
45,133,50825,2,0,L|122:129,1,60,2|0,0:0|0:0,0:0:0:0:
134,131,51077,1,0,0:0:0:0:
162,140,51162,2,0,P|195:135|223:138,1,60,2|0,0:0|0:0,0:0:0:0:
331,197,51499,1,2,0:0:0:0:
449,63,51836,5,8,0:0:0:0:
450,305,52004,2,0,B|393:305|393:305|349:321|349:321|258:323,1,180,8|12,0:0|0:0,0:0:0:0:
173,254,52679,1,0,0:0:0:0:
173,254,52847,2,0,L|161:322,1,60,2|0,0:0|0:0,0:0:0:0:
36,210,53184,5,8,0:0:0:0:
214,158,53353,2,0,B|307:173|307:173|397:137,1,180,8|12,0:0|0:0,0:0:0:0:
457,44,54195,5,2,0:0:0:0:
482,181,54364,1,0,0:0:0:0:
295,90,54532,6,0,B|202:75|202:75|112:111,1,167.999994873047,8|4,0:0|0:0,0:0:0:0:
38,355,55038,2,0,P|58:289|40:159,1,167.999994873047,8|8,0:0|0:0,0:0:0:0:
142,305,55544,1,4,0:0:0:0:
191,194,55712,1,0,0:0:0:0:
281,358,55881,6,0,P|349:353|440:370,1,125.999996154785,8|0,0:0|0:0,0:0:0:0:
436,374,56218,2,0,B|431:306|431:306|439:233,1,96,4|8,0:0|0:0,0:0:0:0:
358,121,56555,2,0,L|353:254,1,107.999996704102,0|8,0:0|0:0,0:0:0:0:
463,68,56892,1,4,0:0:0:0:
183,6,57229,5,10,0:0:0:0:
21,253,57903,5,10,0:0:0:0:
401,312,58577,6,0,B|372:331|353:353|353:353|349:298|366:260|366:260|352:214|351:162,1,240,10|0,0:0|0:0,0:0:0:0:
371,46,59589,5,2,0:0:0:0:
84,101,59757,1,2,0:0:0:0:
84,101,59926,6,0,P|98:163|71:272,1,161.999995056153,8|0,0:0|0:0,0:0:0:0:
60,294,60263,1,6,0:0:0:0:
186,224,60431,1,10,0:0:0:0:
236,370,60600,2,0,B|291:386|291:386|365:363,1,107.999996704102,2|10,0:0|0:0,0:0:0:0:
489,267,60937,2,0,B|434:251|434:251|360:274,1,107.999996704102,6|2,0:0|0:0,0:0:0:0:
308,123,61274,5,10,0:0:0:0:
294,303,61443,1,2,0:0:0:0:
126,207,61611,2,0,P|181:191|255:214,1,107.999996704102,6|8,0:0|0:0,0:0:0:0:
36,354,61948,2,0,B|55:303|55:303|43:232,1,107.999996704102,2|8,0:0|0:0,0:0:0:0:
125,58,62285,5,6,0:0:0:0:
186,278,62454,1,2,0:0:0:0:
186,278,62622,6,0,P|272:289|329:262,1,107.999996704102,8|2,0:0|0:0,0:0:0:0:
371,169,62959,1,6,0:0:0:0:
428,324,63128,1,10,0:0:0:0:
489,77,63296,2,0,L|367:64,1,107.999996704102,2|10,0:0|0:0,0:0:0:0:
255,122,63634,2,0,B|274:86|274:86|279:3,1,107.999996704102,6|2,0:0|0:0,0:0:0:0:
120,187,63971,5,10,0:0:0:0:
319,236,64139,1,2,0:0:0:0:
36,296,64308,5,6,0:0:0:0:
217,216,64476,1,10,0:0:0:0:
14,24,64645,6,0,B|41:86|30:145|30:145|0:188|-1:260,1,215.999993408203,2|6,0:0|0:0,0:0:0:0:
405,63,65150,1,2,0:0:0:0:
405,63,65319,6,0,B|394:124|394:124|415:252,1,161.999995056153,8|0,0:0|0:0,0:0:0:0:
418,257,65656,1,6,0:0:0:0:
285,344,65825,1,10,0:0:0:0:
185,145,65993,2,0,P|200:197|188:249,1,107.999996704102,2|10,0:0|0:0,0:0:0:0:
54,164,66330,2,0,P|40:99|58:50,1,107.999996704102,6|2,0:0|0:0,0:0:0:0:
40,356,66667,6,0,B|132:326|132:326|275:335,1,215.999993408203,10|4,0:0|0:0,0:0:0:0:
371,157,67173,2,0,P|351:241|377:367,1,215.999993408203,8|8,0:0|0:0,0:0:0:0:
453,62,67679,1,4,0:0:0:0:
98,37,68016,5,8,0:0:0:0:
71,147,68184,1,8,0:0:0:0:
193,262,68690,5,8,0:0:0:0:
193,262,68774,1,0,0:0:0:0:
193,262,68858,1,8,0:0:0:0:
174,104,69027,2,0,B|222:95|222:95|274:110,1,83.9999974365235
416,61,69364,5,8,0:0:0:0:
343,259,69532,1,8,0:0:0:0:
506,162,69701,5,0,0:0:0:0:
256,106,69870,1,0,0:0:0:0:
417,360,70038,6,0,B|340:343|340:343|269:362,1,125.999996154785
274,371,70375,2,0,P|212:375|133:340,1,125.999996154785,8|0,0:0|0:0,0:0:0:0:
129,330,70712,6,0,B|137:268|153:231|153:231|150:175|115:99,1,215.999993408203,8|4,0:0|0:0,0:0:0:0:
408,68,71218,2,0,P|304:55|179:94,1,215.999993408203,8|8,0:0|0:0,0:0:0:0:
481,190,71723,1,4,0:0:0:0:
38,319,72061,5,8,0:0:0:0:
54,157,72229,1,8,0:0:0:0:
197,83,72735,5,8,0:0:0:0:
228,299,72903,1,8,0:0:0:0:
406,317,73409,5,8,0:0:0:0:
442,37,73577,1,8,0:0:0:0:
496,236,74083,5,10,0:0:0:0:
141,158,74252,1,10,0:0:0:0:
416,323,74420,6,0,B|396:329|384:342|384:342|386:261|370:180,1,180
357,50,74757,5,10,0:0:0:0:
86,12,74926,1,10,0:0:0:0:
32,204,75263,5,2,0:0:0:0:
303,166,75432,1,10,0:0:0:0:
38,218,75600,1,10,0:0:0:0:
427,323,75937,5,2,0:0:0:0:
156,285,76106,1,10,0:0:0:0:
421,337,76274,1,2,0:0:0:0:
161,265,76443,1,10,0:0:0:0:
494,189,76611,1,2,0:0:0:0:
56,98,77622,5,8,0:0:0:0:
195,64,77791,1,8,0:0:0:0:
106,16,77959,1,8,0:0:0:0:
145,152,78128,1,8,0:0:0:0:
402,56,78465,5,2,0:0:0:0:
31,313,78802,6,0,P|119:292|217:333,1,167.999994873047,8|4,0:0|0:0,0:0:0:0:
343,198,79308,2,0,B|316:257|316:257|317:380,1,167.999994873047,8|8,0:0|0:0,0:0:0:0:
453,108,79813,1,4,0:0:0:0:
341,51,79982,1,0,0:0:0:0:
236,152,80150,6,0,B|181:155|181:155|132:125|132:125|51:134,1,167.999994873047,8|4,0:0|0:0,0:0:0:0:
73,369,80656,2,0,P|100:282|87:185,1,167.999994873047,8|8,0:0|0:0,0:0:0:0:
210,61,81162,1,4,0:0:0:0:
354,177,81330,1,0,0:0:0:0:
354,177,81499,6,0,P|347:238|356:290,1,83.9999974365235,8|0,0:0|0:0,0:0:0:0:
456,213,81836,2,0,P|463:152|454:100,1,83.9999974365235,4|8,0:0|0:0,0:0:0:0:
385,45,82173,2,0,B|345:59|345:59|286:41,1,83.9999974365235,0|8,0:0|0:0,0:0:0:0:
201,79,82510,2,0,B|161:65|161:65|102:83,1,83.9999974365235,4|0,0:0|0:0,0:0:0:0:
24,281,82847,6,0,P|55:220|29:108,1,167.999994873047,8|4,0:0|0:0,0:0:0:0:
256,335,83353,2,0,B|175:318|175:318|75:340,1,167.999994873047,8|8,0:0|0:0,0:0:0:0:
387,363,83858,1,4,0:0:0:0:
442,248,84027,1,0,0:0:0:0:
442,248,84195,6,0,P|385:237|329:258,1,107.999996704102,10|0,0:0|0:0,0:0:0:0:
205,135,84532,2,0,P|257:123|308:138,1,107.999996704102,14|0,0:0|0:0,0:0:0:0:
467,63,84870,5,14,0:0:0:0:
276,16,85038,1,0,0:0:0:0:
338,253,85207,5,14,0:0:0:0:
405,122,85375,1,0,0:0:0:0:
189,242,85544,6,0,B|201:294|201:294|183:358,1,107.999996704102,14|0,0:0|0:0,0:0:0:0:
36,283,85881,2,0,B|24:231|24:231|42:167,1,107.999996704102,14|0,0:0|0:0,0:0:0:0:
116,57,86218,5,14,0:0:0:0:
189,242,86386,1,0,0:0:0:0:
347,137,86555,5,14,0:0:0:0:
199,110,86723,1,0,0:0:0:0:
403,217,86892,5,14,0:0:0:0:
307,9,87061,1,0,0:0:0:0:
118,219,87229,1,14,0:0:0:0:
409,244,87398,1,0,0:0:0:0:
156,39,87566,5,14,0:0:0:0:
434,207,87735,1,0,0:0:0:0:
107,316,87903,1,14,0:0:0:0:
473,198,88072,1,0,0:0:0:0:
51,112,88240,5,14,0:0:0:0:
290,361,88409,1,14,0:0:0:0:
327,24,88577,1,14,0:0:0:0:
61,229,88746,1,14,0:0:0:0:
405,368,88914,5,14,0:0:0:0:
193,29,89083,1,14,0:0:0:0:
96,376,89252,1,14,0:0:0:0:
347,28,89420,1,14,0:0:0:0:
256,192,91611,5,8,0:0:0:0:
256,192,91695,12,0,95656,0:0:0:0:
