osu file format v14

[General]
AudioFilename: audio.mp3
AudioLeadIn: 0
PreviewTime: 10786
Countdown: 0
SampleSet: Soft
StackLeniency: 0.7
Mode: 0
LetterboxInBreaks: 0
EpilepsyWarning: 1
WidescreenStoryboard: 1

[Editor]
Bookmarks: 31011,40449,43146,51235,56161,72396,88599
DistanceSpacing: 0.8
BeatDivisor: 12
GridSize: 4
TimelineZoom: 1

[Metadata]
Title:Chika 2 Chika ULTIMATE Version
TitleUnicode:千花 2 Чика ULTIMATE Version
Artist:Fujiwara Chika (CV: Kohara Konomi) vs. Arthur Pirozhkov
ArtistUnicode:藤原千花 (CV: 小原好美) vs. Артур Пирожков
Creator:Seto Kousuke
Version:Shmik's Normal
Source:
Tags:Trynna wants to be confessed to love mexican lafayla and japanese eiri- Brains Kaguya-sama: Is War wa Kokurasetai Tensai-tachi no Renai Zunousen pop jpop j anime The Geniuses' War of Love かぐや様は告らせたい ~天才たちの恋愛頭脳戦~ Chikatto チカっとチカ千花っ♡ Aikatsu アイカツ! russian Shmiklak m_a_r_v_o_l_l_o ayyri wuab kuaib ModlesS_Flash
BeatmapID:1982166
BeatmapSetID:949216

[Difficulty]
HPDrainRate:3
CircleSize:3
OverallDifficulty:4
ApproachRate:5
SliderMultiplier:1.2
SliderTickRate:1

[Events]
//Background and Video events
0,0,"ultimate_edit.jpg",0,0
//Break Periods
//Storyboard Layer 0 (Background)
//Storyboard Layer 1 (Fail)
//Storyboard Layer 2 (Pass)
//Storyboard Layer 3 (Foreground)
//Storyboard Sound Samples

[TimingPoints]
0,337.078651685393,4,2,1,50,1,0
674,-100,4,2,1,50,0,0
10786,-100,4,2,1,65,0,0
10955,-100,4,2,1,65,0,0
11123,-100,4,2,1,65,0,0
11629,-100,4,2,1,65,0,0
11797,-100,4,2,1,65,0,0
14578,-100,4,2,1,65,0,0
14831,-100,4,2,1,65,0,0
27471,-100,4,2,1,65,0,0
28314,-100,4,2,1,65,0,0
30337,-100,4,2,1,65,0,0
31011,-100,4,2,1,65,0,0
43146,-100,4,2,1,50,0,0
51235,-100,4,2,1,65,0,0
55279,504.201680672269,4,2,1,60,1,0
55279,-100,4,2,1,60,0,0
56194,506.329113924051,4,2,1,75,1,0
56194,-100,4,2,1,75,0,0
70371,-100,4,2,1,65,0,0
72396,505.47598989048,4,2,1,85,1,0
72396,-100,4,2,1,85,0,1
86549,-100,4,2,1,85,0,0
86844,505.47598989048,4,2,1,85,1,0
88571,337.078651685393,4,2,1,55,1,0
88599,-100,4,2,1,55,0,0
89834,-100,4,2,1,35,0,0
89835,337.078651685393,4,2,1,35,1,0

[Colours]
Combo1 : 255,227,145
Combo2 : 114,222,152
Combo3 : 126,186,231
Combo4 : 245,126,207

[HitObjects]
147,38,674,5,2,0:2:0:0:
109,126,1348,1,2,0:2:0:0:
160,207,2022,1,2,0:2:0:0:
122,295,2696,1,2,0:2:0:0:
122,295,4719,5,2,0:2:0:0:
210,333,5393,1,2,0:2:0:0:
291,282,6067,1,2,0:2:0:0:
379,320,6741,1,2,0:2:0:0:
379,320,8089,5,2,0:2:0:0:
379,320,9438,1,2,0:2:0:0:
325,135,10112,1,2,0:2:0:0:
223,297,10786,6,0,L|349:308,1,120,0|0,3:0|0:0,0:0:0:0:
422,254,11460,2,0,P|432:188|411:128,1,120,0|0,3:0|0:0,0:0:0:0:
349,69,12134,2,0,B|201:51|272:139|107:112,1,240,0|0,3:0|0:0,0:0:0:0:
121,114,13651,6,0,B|132:180|132:180|108:224|108:224|123:304,1,180,0|0,3:0|3:0,0:0:0:0:
188,352,14494,1,4,0:3:0:0:
268,296,14831,6,0,P|277:246|268:160,1,120,0|8,3:0|0:3,0:0:0:0:
288,132,15337,2,0,P|338:123|424:132,1,120,0|0,3:0|3:0,0:0:0:0:
448,156,15842,1,8,0:3:0:0:
496,240,16179,2,0,P|484:304|432:344,1,120,0|8,3:0|0:3,0:0:0:0:
400,352,16685,1,0,3:0:0:0:
308,324,17022,2,0,P|304:280|308:252,1,60,0|8,3:0|0:3,0:0:0:0:
300,168,17528,6,0,P|252:184|180:160,1,120,0|8,3:0|0:3,0:0:0:0:
144,148,18033,2,0,L|152:272,1,120,0|0,3:0|3:0,0:0:0:0:
156,316,18539,1,8,0:3:0:0:
156,316,19044,2,0,B|222:305|222:305|266:329|266:329|346:314,1,180,0|0,3:0|3:0,0:0:0:0:
327,317,20224,6,0,P|332:255|336:176,1,120,0|8,3:0|0:3,0:0:0:0:
301,163,20730,2,0,P|239:168|189:107,1,120,0|0,3:0|3:0,0:0:0:0:
184,88,21235,1,8,0:3:0:0:
256,24,21573,2,0,P|291:28|324:40,1,60,0|0,3:0|0:0,0:0:0:0:
356,60,21910,2,0,P|391:56|424:44,1,60,8|0,0:3|3:0,0:0:0:0:
488,108,22415,1,0,3:0:0:0:
488,108,22584,1,8,0:3:0:0:
420,175,22921,6,0,L|300:168,1,120,0|8,3:0|0:3,0:0:0:0:
266,201,23426,2,0,P|248:248|272:324,1,120,0|0,3:0|3:0,0:0:0:0:
304,344,23932,1,8,0:3:0:0:
400,336,24269,2,0,P|404:302|396:256,1,60,0|0,3:0|3:0,0:0:0:0:
421,234,24606,2,0,P|417:200|425:154,1,60,8|0,0:3|3:0,0:0:0:0:
490,109,25112,1,0,3:0:0:0:
490,109,25280,1,8,0:3:0:0:
440,26,25617,6,0,L|308:38,1,120,0|8,3:0|0:3,0:0:0:0:
293,76,26123,2,0,P|249:84|174:52,1,120,0|0,3:0|3:0,0:0:0:0:
144,26,26629,1,8,0:3:0:0:
48,36,26966,2,0,P|18:85|42:172,1,120,0|8,3:0|0:3,0:0:0:0:
53,182,27471,2,0,B|62:243|62:243|34:289|34:289|31:374,1,180,0|8,3:0|0:3,0:0:0:0:
125,373,28314,5,2,3:3:0:0:
202,316,28651,1,10,0:3:0:0:
232,225,28988,1,2,0:3:0:0:
202,133,29325,1,10,0:3:0:0:
124,80,29662,1,2,3:0:0:0:
124,80,29831,2,0,L|320:64,1,180,8|8,0:3|0:3,0:0:0:0:
303,65,31011,6,0,P|354:92|432:88,1,120,0|8,3:0|0:3,0:0:0:0:
449,126,31516,1,0,3:0:0:0:
400,208,31853,1,0,3:0:0:0:
360,180,32022,2,0,P|312:175|240:211,1,120,8|0,0:3|3:0,0:0:0:0:
168,256,32696,1,8,0:3:0:0:
133,221,32865,2,0,L|125:97,1,120,0|0,3:0|3:0,0:0:0:0:
91,67,33370,1,8,0:3:0:0:
36,146,33707,6,0,L|43:265,1,120,0|8,3:0|0:3,0:0:0:0:
80,300,34213,1,0,3:0:0:0:
168,340,34550,1,0,3:0:0:0:
208,312,34719,2,0,P|227:271|227:195,1,120,8|0,0:3|3:0,0:0:0:0:
192,108,35393,1,8,0:3:0:0:
225,74,35561,2,0,L|348:88,1,120,0|0,3:0|3:0,0:0:0:0:
392,96,36067,1,8,0:3:0:0:
459,163,36404,6,0,P|464:232|456:292,1,120,0|8,3:0|0:3,0:0:0:0:
448,329,36910,2,0,L|275:323,1,120,0|0,3:0|3:0,0:0:0:0:
286,301,37415,1,8,0:3:0:0:
246,213,37752,1,0,3:0:0:0:
152,192,38089,1,8,0:3:0:0:
117,226,38258,2,0,L|112:361,1,120,0|0,3:0|3:0,0:0:0:0:
148,378,38764,1,8,0:3:0:0:
243,367,39101,6,0,P|298:378|362:362,1,120,0|8,3:0|0:3,0:0:0:0:
402,342,39606,1,0,3:0:0:0:
423,248,39943,1,0,3:0:0:0:
423,248,40112,1,8,0:3:0:0:
380,162,40449,1,0,3:0:0:0:
333,345,41123,1,0,3:0:0:0:
216,192,41797,1,0,3:0:0:0:
216,192,43146,6,0,L|208:132,1,60,0|0,3:0|3:0,0:0:0:0:
368,84,44494,6,0,L|360:144,1,60,0|0,3:0|3:0,0:0:0:0:
304,304,45842,6,0,L|296:244,1,60,0|0,3:0|3:0,0:0:0:0:
456,196,47191,6,0,L|448:256,1,60,0|0,3:0|3:0,0:0:0:0:
312,356,48539,6,0,L|248:348,1,60,0|0,3:0|3:0,0:0:0:0:
108,328,49213,1,8,0:3:0:0:
20,160,49887,6,0,L|84:152,1,60,0|0,3:0|3:0,0:0:0:0:
224,132,50561,1,8,0:3:0:0:
208,324,51235,6,0,L|76:320,1,120,0|8,3:0|0:3,0:0:0:0:
48,292,51741,2,0,P|32:240|60:164,1,120,0|0,3:0|3:0,0:0:0:0:
84,144,52247,1,8,0:3:0:0:
151,211,52584,2,0,P|203:230|281:204,1,120,0|8,3:0|0:3,0:0:0:0:
304,192,53089,1,0,3:0:0:0:
376,256,53426,1,0,3:0:0:0:
376,256,53595,1,8,0:3:0:0:
428,176,53932,5,0,3:0:0:0:
428,176,54606,1,0,3:0:0:0:
428,176,55280,1,2,3:2:0:0:
180,352,56194,6,0,L|56:344,2,120,4|2|0,3:2|3:2|3:0,0:0:0:0:
252,308,57459,1,2,0:0:0:0:
312,248,57712,2,0,P|314:213|312:184,1,60,0|2,3:0|0:0,0:0:0:0:
272,112,58219,6,0,P|220:88|144:96,1,120,0|2,3:0|3:2,0:0:0:0:
80,124,58978,1,2,0:2:0:0:
36,196,59231,2,0,L|44:328,1,120,0|0,3:2|3:0,0:0:0:0:
212,324,60244,6,0,L|219:204,2,120,4|2|0,3:2|3:2|3:0,0:0:0:0:
288,360,61510,1,2,0:0:0:0:
360,320,61763,2,0,P|407:315|436:320,1,60,0|2,3:0|0:0,0:0:0:0:
484,260,62269,6,0,L|480:120,1,120,0|2,3:0|3:2,0:0:0:0:
432,72,63029,1,2,0:2:0:0:
368,128,63282,2,0,P|316:124|248:88,1,120,0|0,3:0|3:0,0:0:0:0:
160,232,64295,6,0,P|212:204|272:198,2,120,4|2|0,3:2|3:2|3:0,0:0:0:0:
104,296,65561,1,2,0:0:0:0:
156,360,65814,2,0,L|225:355,1,60,0|2,3:0|0:0,0:0:0:0:
280,304,66320,6,0,P|325:295|412:308,1,120,0|2,3:0|3:2,0:0:0:0:
476,340,67080,1,2,0:2:0:0:
496,260,67333,2,0,P|488:204|496:132,1,120,0|0,3:0|3:0,0:0:0:0:
348,60,68345,6,0,P|353:119|345:178,2,120,4|2|0,3:2|3:2|3:0,0:0:0:0:
268,32,69611,1,2,0:0:0:0:
200,80,69864,2,0,P|160:76|132:68,1,60,0|2,3:0|0:0,0:0:0:0:
68,28,70371,1,2,0:0:0:0:
68,28,72396,6,0,L|60:152,2,120,4|10|2,3:2|0:2|3:2,0:0:0:0:
152,12,73659,1,2,1:2:0:0:
220,64,73912,2,0,P|255:66|284:64,1,60,10|0,0:2|1:0,0:0:0:0:
339,124,74417,6,0,P|340:162|344:200,1,60,2|0,3:2|1:0,0:0:0:0:
308,260,74923,2,0,P|307:298|303:336,1,60,10|0,0:2|1:0,0:0:0:0:
224,340,75428,2,0,L|88:328,1,120,2|10,3:2|0:2,0:0:0:0:
88,160,76439,6,0,L|224:148,2,120,4|10|2,3:2|0:2|3:2,0:0:0:0:
28,104,77703,1,2,1:2:0:0:
88,48,77956,2,0,P|135:43|164:48,1,60,10|0,0:2|1:0,0:0:0:0:
228,68,78461,6,0,P|264:68|296:56,1,60,2|0,3:2|1:0,0:0:0:0:
360,100,78967,2,0,P|396:100|428:112,1,60,10|0,0:2|1:0,0:0:0:0:
472,172,79472,2,0,L|464:312,1,120,2|10,3:2|0:2,0:0:0:0:
296,280,80483,6,0,L|289:160,2,120,4|10|2,3:2|0:2|3:2,0:0:0:0:
220,320,81747,1,2,1:2:0:0:
144,288,82000,2,0,L|75:283,1,60,10|0,0:2|1:0,0:0:0:0:
12,236,82505,6,0,P|8:196|8:164,1,60,2|0,3:2|1:0,0:0:0:0:
44,100,83010,2,0,P|84:96|116:96,1,60,10|0,0:2|1:0,0:0:0:0:
188,108,83516,2,0,P|244:116|316:108,1,120,2|10,3:2|0:2,0:0:0:0:
176,212,84527,6,0,P|116:203|57:208,2,120,4|10|2,3:2|0:2|3:2,0:0:0:0:
252,248,85791,1,2,1:2:0:0:
324,288,86043,2,0,P|364:284|392:276,1,60,10|0,0:2|1:0,0:0:0:0:
444,220,86549,1,2,3:2:0:0:
444,220,88571,5,0,3:0:0:0:
256,192,89834,12,0,93878,0:0:0:0:
