osu file format v14

[General]
AudioFilename: audio.mp3
AudioLeadIn: 0
PreviewTime: 10786
Countdown: 0
SampleSet: Soft
StackLeniency: 0.7
Mode: 0
LetterboxInBreaks: 0
EpilepsyWarning: 1
WidescreenStoryboard: 1

[Editor]
DistanceSpacing: 0.3
BeatDivisor: 4
GridSize: 4
TimelineZoom: 1.4

[Metadata]
Title:Chika 2 Chika ULTIMATE Version
TitleUnicode:千花 2 Чика ULTIMATE Version
Artist:Fujiwara Chika (CV: Kohara Konomi) vs. Arthur Pirozhkov
ArtistUnicode:藤原千花 (CV: 小原好美) vs. Артур Пирожков
Creator:Seto Kousuke
Version:Lafa's Insane
Source:
Tags:Trynna wants to be confessed to love mexican lafayla and japanese eiri- Brains Kaguya-sama: Is War wa Kokurasetai Tensai-tachi no Renai Zunousen pop jpop j anime The Geniuses' War of Love かぐや様は告らせたい ~天才たちの恋愛頭脳戦~ Chikatto チカっとチカ千花っ♡ Aikatsu アイカツ! russian Shmiklak m_a_r_v_o_l_l_o ayyri wuab kuaib ModlesS_Flash
BeatmapID:1982164
BeatmapSetID:949216

[Difficulty]
HPDrainRate:5
CircleSize:4
OverallDifficulty:8
ApproachRate:8.8
SliderMultiplier:1.8
SliderTickRate:1

[Events]
//Background and Video events
0,0,"ultimate_edit.jpg",0,0
//Break Periods
//Storyboard Layer 0 (Background)
//Storyboard Layer 1 (Fail)
//Storyboard Layer 2 (Pass)
//Storyboard Layer 3 (Foreground)
//Storyboard Sound Samples

[TimingPoints]
0,337.078651685393,4,2,1,50,1,0
10786,-100,4,2,1,65,0,0
14831,-111.111111111111,4,2,1,65,0,0
41964,-142.857142857143,4,2,1,65,0,0
43146,-142.857142857143,4,2,1,50,0,0
51234,-111.111111111111,4,2,1,50,0,0
51235,-111.111111111111,4,2,1,65,0,0
55279,504.201680672269,4,2,1,60,1,0
56194,506.329113924051,4,2,1,75,1,0
56194,-71.4285714285714,4,2,1,75,0,0
70371,-71.4285714285714,4,2,1,65,0,0
72206,-71.4285714285714,4,2,1,5,0,0
72396,505.47598989048,4,2,1,85,1,0
72396,-71.4285714285714,4,2,1,85,0,1
86549,-71.4285714285714,4,2,1,85,0,0
86700,-71.4285714285714,4,2,1,55,0,0
86844,505.47598989048,4,2,1,55,1,0
86944,-71.4285714285714,4,2,1,55,0,0
88571,337.078651685393,4,2,1,55,1,0
89835,337.078651685393,4,2,1,55,1,0

[Colours]
Combo1 : 156,222,248
Combo2 : 186,219,185
Combo3 : 217,187,199

[HitObjects]
181,160,10786,5,0,3:0:0:0:
186,231,11460,1,0,3:0:0:0:
193,302,12134,1,0,3:0:0:0:
193,302,13651,5,0,3:0:0:0:
279,219,13820,1,0,3:0:0:0:
157,132,13988,1,0,3:0:0:0:
294,31,14157,1,0,3:0:0:0:
294,31,14831,6,0,P|338:27|380:41,1,80.9999975280763,0|0,3:0|0:0,0:0:0:0:
512,169,15168,1,8,0:3:0:0:
512,169,15337,2,0,B|435:145|435:145|337:174,1,161.999995056153,0|0,3:0|3:0,0:0:0:0:
189,255,15842,1,8,0:3:0:0:
255,131,16011,1,0,0:0:0:0:
290,293,16179,5,0,3:0:0:0:
151,159,16348,1,0,0:0:0:0:
5,250,16516,1,8,0:3:0:0:
5,250,16685,2,0,B|97:223|69:291|182:257,1,161.999995056153,0|0,3:0|3:0,0:0:0:0:
325,208,17191,1,8,0:3:0:0:
435,341,17359,1,0,0:0:0:0:
435,341,17528,6,0,B|428:279|428:279|445:244|445:244|437:165,1,161.999995056153,0|8,3:0|0:3,0:0:0:0:
512,10,18033,2,0,P|465:80|366:57,1,161.999995056153,0|0,3:0|3:0,0:0:0:0:
233,14,18539,1,8,0:3:0:0:
122,113,18707,1,0,0:0:0:0:
146,136,19044,5,0,3:0:0:0:
37,291,19213,1,0,3:0:0:0:
0,132,19382,1,0,3:0:0:0:
146,276,19550,1,0,3:0:0:0:
146,276,20224,6,0,P|195:236|279:264,1,121.499996292114,2|0,3:2|0:0,0:0:0:0:
283,263,20561,1,8,0:3:0:0:
381,344,20730,2,0,B|397:182,1,161.999995056153,2|0,3:2|3:0,0:0:0:0:
488,73,21235,2,0,L|498:153,1,80.9999975280763,8|0,0:3|0:0,0:0:0:0:
357,9,21573,5,2,3:2:0:0:
261,141,21741,1,0,0:0:0:0:
352,254,21910,1,8,0:3:0:0:
352,254,22078,2,0,B|315:279|291:280|291:280|249:232|189:257,1,161.999995056153,0|0,3:0|3:0,0:0:0:0:
29,304,22584,1,8,0:3:0:0:
136,152,22752,1,0,0:0:0:0:
136,152,22921,6,0,P|193:131|272:138,1,121.499996292114,2|0,3:2|0:0,0:0:0:0:
298,149,23258,1,8,0:3:0:0:
375,50,23426,1,0,3:0:0:0:
487,176,23595,2,0,L|496:88,1,80.9999975280763,2|0,0:0|3:0,0:0:0:0:
394,250,23932,1,8,0:3:0:0:
394,250,24101,1,0,0:0:0:0:
287,113,24269,5,0,3:0:0:0:
155,155,24438,1,0,3:0:0:0:
47,43,24606,1,8,0:3:0:0:
47,43,24775,2,0,B|74:109|74:109|56:197,1,161.999995056153,0|0,3:0|3:0,0:0:0:0:
81,384,25280,2,0,P|88:345|110:311,1,80.9999975280763,8|0,0:3|0:0,0:0:0:0:
154,287,25533,1,0,0:0:0:0:
154,287,25617,6,0,B|212:269|212:269|275:292,1,121.499996292114,2|0,3:2|0:0,0:0:0:0:
308,309,25955,1,8,0:3:0:0:
451,209,26123,2,0,L|459:294,1,80.9999975280763,2|0,3:2|0:0,0:0:0:0:
347,105,26460,1,0,3:0:0:0:
347,105,26629,2,0,L|338:190,1,80.9999975280763,8|0,0:3|0:0,0:0:0:0:
347,368,26966,6,0,P|313:311|256:301,1,121.499996292114,2|0,3:2|0:0,0:0:0:0:
214,307,27303,1,8,0:3:0:0:
62,173,27471,2,0,B|153:136|143:213|240:167,1,161.999995056153,2|0,3:2|3:0,0:0:0:0:
358,85,27977,2,0,P|345:123|343:164,1,80.9999975280763,8|0,0:3|0:0,0:0:0:0:
347,202,28230,1,0,0:0:0:0:
347,202,28314,5,2,3:3:0:0:
406,267,28483,1,0,0:0:0:0:
261,369,28651,5,10,0:3:0:0:
279,283,28820,1,0,3:0:0:0:
149,188,28988,5,2,0:3:0:0:
167,274,29157,1,0,3:0:0:0:
313,129,29325,1,10,0:3:0:0:
329,93,29662,5,2,3:0:0:0:
243,77,29831,1,8,0:3:0:0:
389,196,29999,5,8,0:3:0:0:
475,180,30168,1,8,0:3:0:0:
328,318,30337,1,8,0:3:0:0:
328,318,31011,6,0,P|322:257|303:199,1,121.499996292114,2|0,3:2|0:0,0:0:0:0:
285,161,31348,1,8,0:3:0:0:
160,223,31516,1,0,3:0:0:0:
19,139,31685,2,0,P|55:123|103:121,1,80.9999975280763,2|0,0:0|3:0,0:0:0:0:
253,51,32022,2,0,P|212:48|175:32,1,80.9999975280763,8|0,0:3|0:0,0:0:0:0:
370,2,32359,6,0,B|387:169,1,161.999995056153,0|8,3:0|0:3,0:0:0:0:
493,314,32865,2,0,B|509:152,1,161.999995056153,0|0,3:0|3:0,0:0:0:0:
386,338,33370,1,8,0:3:0:0:
267,259,33539,1,0,0:0:0:0:
267,259,33707,6,0,P|303:246|344:242,1,80.9999975280763,2|0,3:2|0:0,0:0:0:0:
225,370,34044,2,0,P|184:367|146:353,1,80.9999975280763,8|0,0:3|3:0,0:0:0:0:
0,234,34382,2,0,B|75:259|75:259|165:232,1,161.999995056153,2|8,0:0|0:3,0:0:0:0:
251,170,34887,1,0,0:0:0:0:
121,81,35056,6,0,P|166:68|209:70,1,80.9999975280763,2|0,3:2|3:0,0:0:0:0:
338,99,35393,1,8,0:3:0:0:
482,7,35561,2,0,B|463:181,1,161.999995056153,2|0,3:2|3:0,0:0:0:0:
428,343,36067,2,0,P|393:307|363:294,1,80.9999975280763,8|0,0:3|0:0,0:0:0:0:
382,258,36320,1,0,0:0:0:0:
382,258,36404,6,0,B|245:271,1,121.499996292114,2|0,3:2|0:0,0:0:0:0:
220,277,36741,1,8,0:3:0:0:
33,229,36910,2,0,P|102:152|159:188,1,161.999995056153,2|0,3:2|3:0,0:0:0:0:
248,305,37415,1,8,0:3:0:0:
342,227,37584,1,0,0:0:0:0:
478,330,37752,6,0,P|451:249|478:163,1,161.999995056153,2|8,3:2|0:3,0:0:0:0:
398,29,38258,2,0,P|397:69|383:109,1,80.9999975280763,2|0,3:2|0:0,0:0:0:0:
311,225,38595,1,0,3:0:0:0:
177,132,38764,2,0,L|261:121,1,80.9999975280763,8|0,0:3|0:0,0:0:0:0:
94,54,39101,6,0,P|70:112|85:192,1,121.499996292114,2|0,3:2|0:0,0:0:0:0:
86,209,39438,1,8,0:3:0:0:
8,337,39606,2,0,B|82:306|82:306|180:326,1,161.999995056153,0|0,3:0|3:0,0:0:0:0:
303,360,40112,1,8,0:3:0:0:
366,199,40280,1,0,0:0:0:0:
366,199,40365,1,0,0:0:0:0:
366,199,40449,2,0,L|425:192,2,40.4999987640381,2|0|2,3:2|0:0|0:0,0:0:0:0:
143,198,41123,2,0,L|83:191,2,40.4999987640381,2|0|2,3:2|0:0|0:0,0:0:0:0:
348,200,41797,5,2,3:2:0:0:
348,200,41966,2,0,P|275:95|272:250,1,377.999988464356,2|0,0:0|0:0,0:0:0:0:
438,282,43146,5,0,3:0:0:0:
438,282,43314,2,0,L|444:344,2,62.9999980773926,0|2|0,3:0|0:0|0:0,0:0:0:0:
501,137,43820,2,0,P|437:170|364:158,1,125.999996154785,2|2,0:0|0:0,0:0:0:0:
177,83,44494,1,0,3:0:0:0:
177,83,44662,2,0,L|183:20,2,62.9999980773926,0|2|0,3:0|0:0|0:0,0:0:0:0:
110,210,45168,2,0,P|98:172|75:141,1,62.9999980773926,2|0,0:0|0:0,0:0:0:0:
210,248,45505,1,2,0:0:0:0:
222,287,45842,5,0,3:0:0:0:
222,287,46011,2,0,P|193:285|159:294,2,62.9999980773926,0|2|0,3:0|0:0|0:0,0:0:0:0:
351,376,46516,2,0,L|337:250,1,125.999996154785,2|2,0:0|0:0,0:0:0:0:
432,104,47191,1,0,3:0:0:0:
432,104,47359,2,0,L|495:110,2,62.9999980773926,0|2|0,3:0|0:0|0:0,0:0:0:0:
354,29,47865,2,0,L|268:37,1,62.9999980773926,2|0,0:0|0:0,0:0:0:0:
189,79,48202,1,2,0:0:0:0:
152,97,48539,5,0,3:0:0:0:
152,97,48707,2,0,P|143:66|145:35,2,62.9999980773926,0|2|2,3:0|0:0|0:0,0:0:0:0:
272,211,49213,1,8,0:3:0:0:
272,211,49382,2,0,P|210:191|138:207,1,125.999996154785,0|0,0:0|0:0,0:0:0:0:
41,234,49887,5,0,3:0:0:0:
42,235,50056,2,0,L|48:298,2,62.9999980773926,0|2|2,3:0|0:0|0:0,0:0:0:0:
138,372,50561,2,0,P|181:328|250:321,1,125.999996154785,8|2,0:3|0:0,0:0:0:0:
383,357,51067,1,0,0:0:0:0:
512,239,51235,6,0,B|446:209|446:209|337:223,1,161.999995056153,2|8,3:2|0:3,0:0:0:0:
232,278,51741,1,0,3:0:0:0:
232,278,51910,1,0,0:0:0:0:
83,171,52078,2,0,B|120:196|144:197|144:197|186:149|246:170,1,161.999995056153,2|0,3:2|0:0,0:0:0:0:
350,65,52584,6,0,L|363:180,1,80.9999975280763,2|0,3:2|0:0,0:0:0:0:
404,341,52921,1,8,0:3:0:0:
458,193,53089,1,0,3:0:0:0:
310,290,53258,1,2,0:0:0:0:
201,229,53426,1,0,3:0:0:0:
100,354,53595,2,0,P|100:313|91:274,1,80.9999975280763,8|0,0:3|0:0,0:0:0:0:
22,110,53932,5,0,3:0:0:0:
301,34,54606,5,0,3:0:0:0:
250,303,55280,5,2,3:2:0:0:
274,319,55783,1,2,0:0:0:0:
306,337,56194,6,0,B|416:373|385:298|503:330,1,188.999994232178,4|0,3:2|0:0,0:0:0:0:
373,176,56700,2,0,P|359:205|354:237,1,62.9999980773926,2|2,3:2|0:0,0:0:0:0:
491,179,56953,2,0,P|487:146|472:116,1,62.9999980773926,2|2,0:0|0:0,0:0:0:0:
414,41,57206,1,0,3:0:0:0:
276,103,57459,1,2,0:0:0:0:
108,10,57712,1,0,3:0:0:0:
108,10,57966,6,0,P|139:67|121:146,1,125.999996154785,2|0,0:0|3:0,0:0:0:0:
7,335,58472,1,2,0:0:0:0:
30,326,58599,1,2,0:0:0:0:
54,323,58725,2,0,P|87:326|129:339,1,62.9999980773926,2|0,3:2|0:0,0:0:0:0:
0,215,58978,2,0,P|33:211|75:198,1,62.9999980773926,2|0,0:2|0:0,0:0:0:0:
230,143,59231,2,0,L|159:136,1,62.9999980773926,0|0,3:2|0:0,0:0:0:0:
266,255,59485,2,0,L|329:249,1,62.9999980773926,2|0,0:0|0:0,0:0:0:0:
512,103,59738,2,0,B|446:95|446:95|403:123|403:123|332:116,1,188.999994232178,0|0,3:0|0:0,0:0:0:0:
109,40,60244,6,0,P|198:38|209:155,1,188.999994232178,4|0,3:2|0:0,0:0:0:0:
145,258,60750,2,0,L|137:187,1,62.9999980773926,2|2,3:2|0:0,0:0:0:0:
268,307,61004,2,0,L|275:236,1,62.9999980773926,2|2,0:0|0:0,0:0:0:0:
264,103,61257,1,0,3:0:0:0:
387,218,61510,1,2,0:0:0:0:
512,88,61763,1,0,3:0:0:0:
512,88,62016,6,0,P|450:73|388:98,1,125.999996154785,2|0,0:0|3:0,0:0:0:0:
236,224,62523,1,2,0:0:0:0:
259,212,62649,1,2,0:0:0:0:
274,192,62776,2,0,L|266:119,1,62.9999980773926,2|0,3:2|0:0,0:0:0:0:
172,17,63029,2,0,L|165:79,1,62.9999980773926,2|0,0:2|0:0,0:0:0:0:
76,206,63282,2,0,P|65:145|16:108,1,125.999996154785,0|2,3:0|0:0,0:0:0:0:
26,317,63788,2,0,B|128:353|115:280|209:307,1,188.999994232178,0|0,3:0|0:0,0:0:0:0:
399,345,64295,6,0,P|307:308|376:266,1,188.999994232178,4|0,3:2|0:0,0:0:0:0:
510,218,64801,2,0,P|479:212|450:199,1,62.9999980773926,2|2,3:2|0:0,0:0:0:0:
283,136,65054,2,0,P|311:122|342:117,1,62.9999980773926,2|2,0:0|0:0,0:0:0:0:
494,104,65307,1,0,3:0:0:0:
369,10,65561,1,2,0:0:0:0:
205,41,65814,1,0,3:0:0:0:
205,41,66067,6,0,L|191:179,1,125.999996154785,2|0,0:0|3:0,0:0:0:0:
284,333,66573,1,2,0:0:0:0:
275,309,66700,1,2,0:0:0:0:
272,285,66826,2,0,P|275:252|288:210,1,62.9999980773926,2|0,3:2|0:0,0:0:0:0:
162,349,67080,2,0,P|159:317|151:287,1,62.9999980773926,2|0,0:2|0:0,0:0:0:0:
23,177,67333,2,0,L|85:183,1,62.9999980773926,0|0,3:0|0:0,0:0:0:0:
233,90,67586,2,0,L|170:96,1,62.9999980773926,2|0,0:0|0:0,0:0:0:0:
343,26,67839,2,0,B|373:114|373:114|331:242,1,188.999994232178,0|0,3:0|0:0,0:0:0:0:
508,319,68345,6,0,B|463:289|434:287|434:287|384:345|312:315,1,188.999994232178,4|0,3:2|0:0,0:0:0:0:
160,306,68852,2,0,P|185:288|226:280,1,62.9999980773926,2|2,3:2|0:0,0:0:0:0:
383,191,69105,2,0,P|354:178|322:177,1,62.9999980773926,2|2,0:0|0:0,0:0:0:0:
171,183,69358,1,0,3:0:0:0:
239,48,69611,1,2,0:0:0:0:
49,92,69864,1,0,3:0:0:0:
49,92,70118,6,0,P|28:150|43:210,1,125.999996154785,2|2,0:0|0:0,0:0:0:0:
225,359,70624,1,2,0:0:0:0:
213,336,70750,1,2,0:0:0:0:
193,321,70877,2,0,L|120:328,1,62.9999980773926,2|0,0:0|0:0,0:0:0:0:
302,266,71130,2,0,L|364:272,1,62.9999980773926,0|2,0:0|0:0,0:0:0:0:
507,133,71383,2,0,L|364:146,1,125.999996154785,2|0,0:0|0:0,0:0:0:0:
223,39,71763,1,2,0:0:0:0:
223,39,71890,2,0,P|260:157|214:210,1,188.999994232178,2|0,0:0|0:0,0:0:0:0:
56,325,72396,6,0,L|181:312,1,125.999996154785,4|0,3:2|0:0,0:0:0:0:
334,253,72775,1,0,1:0:0:0:
334,253,72901,2,0,P|320:283|318:324,1,62.9999980773926,10|2,0:2|0:2,0:0:0:0:
427,164,73154,2,0,P|439:192|443:223,1,62.9999980773926,2|2,1:2|1:2,0:0:0:0:
320,137,73406,1,2,3:2:0:0:
450,55,73659,1,2,1:2:0:0:
268,2,73912,1,10,0:2:0:0:
125,119,74165,1,0,1:0:0:0:
125,119,74291,1,0,1:0:0:0:
125,119,74417,6,0,P|176:92|250:106,1,125.999996154785,2|0,3:2|1:0,0:0:0:0:
404,202,74797,1,0,1:0:0:0:
404,202,74923,2,0,P|353:175|278:189,1,125.999996154785,10|0,0:2|1:0,0:0:0:0:
113,244,75302,1,0,1:0:0:0:
113,244,75428,2,0,L|126:101,1,125.999996154785,2|0,3:2|1:0,0:0:0:0:
256,270,75934,1,10,0:2:0:0:
463,161,76187,1,0,1:0:0:0:
463,161,76313,1,0,1:0:0:0:
463,161,76439,6,0,P|406:188|338:174,1,125.999996154785,4|0,3:2|0:0,0:0:0:0:
224,104,76818,1,0,1:0:0:0:
224,104,76945,2,0,L|231:166,1,62.9999980773926,10|2,0:2|0:2,0:0:0:0:
110,281,77198,2,0,L|117:218,1,62.9999980773926,2|2,1:2|1:2,0:0:0:0:
194,85,77450,1,2,3:2:0:0:
15,160,77703,1,2,1:2:0:0:
108,309,77956,1,10,0:2:0:0:
249,266,78208,1,0,1:0:0:0:
249,266,78335,1,0,1:0:0:0:
249,266,78461,6,0,P|310:256|365:282,1,125.999996154785,2|0,3:2|1:0,0:0:0:0:
512,137,78840,1,0,1:0:0:0:
512,137,78967,2,0,P|455:164|394:154,1,125.999996154785,10|0,0:2|1:0,0:0:0:0:
241,63,79346,1,0,1:0:0:0:
241,63,79472,2,0,L|252:188,2,125.999996154785,2|0|10,3:2|1:0|0:2,0:0:0:0:
17,111,80230,1,0,1:0:0:0:
17,111,80357,1,0,1:0:0:0:
17,111,80483,6,0,P|85:112|117:179,1,125.999996154785,4|0,3:2|0:0,0:0:0:0:
253,261,80862,1,0,1:0:0:0:
253,261,80989,2,0,P|222:268|186:268,1,62.9999980773926,10|2,0:2|0:2,0:0:0:0:
32,344,81241,2,0,P|63:340|98:351,1,62.9999980773926,2|2,1:2|1:2,0:0:0:0:
254,378,81494,1,2,3:2:0:0:
377,287,81747,1,2,1:2:0:0:
221,159,82000,1,10,0:2:0:0:
372,55,82252,1,0,1:0:0:0:
372,55,82379,1,0,1:0:0:0:
372,55,82505,6,0,P|382:116|355:171,1,125.999996154785,2|0,3:2|1:0,0:0:0:0:
213,283,82884,1,0,1:0:0:0:
213,283,83010,2,0,P|186:227|196:166,1,125.999996154785,10|0,0:2|1:0,0:0:0:0:
302,26,83390,1,0,1:0:0:0:
302,26,83516,2,0,L|176:37,1,125.999996154785,2|0,3:2|1:0,0:0:0:0:
21,129,84021,1,10,0:2:0:0:
19,262,84274,1,0,0:0:0:0:
19,262,84401,1,0,1:0:0:0:
19,262,84527,6,0,P|82:275|145:231,1,125.999996154785,4|0,3:2|0:0,0:0:0:0:
278,145,84906,1,0,1:0:0:0:
278,145,85032,2,0,P|249:131|218:132,1,62.9999980773926,10|2,0:2|0:2,0:0:0:0:
350,219,85285,2,0,P|389:217|410:205,1,62.9999980773926,2|2,1:2|1:2,0:0:0:0:
512,133,85538,1,2,3:2:0:0:
330,67,85791,1,2,1:2:0:0:
348,252,86043,1,10,0:2:0:0:
213,183,86296,1,0,1:0:0:0:
213,183,86422,1,0,1:0:0:0:
213,183,86549,6,0,P|158:174|49:222,1,125.999996154785,2|2,3:2|0:0,0:0:0:0:
226,303,87096,2,0,P|280:312|389:264,1,125.999996154785,2|2,0:0|0:0,0:0:0:0:
507,203,87475,1,0,0:0:0:0:
507,203,87602,2,0,L|381:191,1,125.999996154785,2|2,0:0|0:0,0:0:0:0:
457,54,87981,1,0,0:0:0:0:
457,54,88107,2,0,L|332:66,1,125.999996154785,2|0,0:0|0:0,0:0:0:0:
132,84,88571,5,0,3:0:0:0:
256,192,89835,12,0,93879,0:0:0:0:
