osu file format v14

[General]
AudioFilename: audio.mp3
AudioLeadIn: 0
PreviewTime: 10786
Countdown: 0
SampleSet: Soft
StackLeniency: 0.7
Mode: 0
LetterboxInBreaks: 0
EpilepsyWarning: 1
WidescreenStoryboard: 1

[Editor]
Bookmarks: 31011,40449,43146,51235,56161,72396,88599
DistanceSpacing: 0.3
BeatDivisor: 4
GridSize: 4
TimelineZoom: 1.7

[Metadata]
Title:Chika 2 Chika ULTIMATE Version
TitleUnicode:千花 2 Чика ULTIMATE Version
Artist:Fujiwara Chika (CV: Kohara Konomi) vs. Arthur Pirozhkov
ArtistUnicode:藤原千花 (CV: 小原好美) vs. Артур Пирожков
Creator:Seto Kousuke
Version:Expert
Source:
Tags:Trynna wants to be confessed to love mexican lafayla and japanese eiri- Brains Kaguya-sama: Is War wa Kokurasetai Tensai-tachi no Renai Zunousen pop jpop j anime The Geniuses' War of Love かぐや様は告らせたい ~天才たちの恋愛頭脳戦~ Chikatto チカっとチカ千花っ♡ Aikatsu アイカツ! russian Shmiklak m_a_r_v_o_l_l_o ayyri wuab kuaib ModlesS_Flash
BeatmapID:1982162
BeatmapSetID:949216

[Difficulty]
HPDrainRate:5
CircleSize:4
OverallDifficulty:8.5
ApproachRate:9
SliderMultiplier:1.8
SliderTickRate:1

[Events]
//Background and Video events
0,0,"ultimate_edit.jpg",0,0
//Break Periods
//Storyboard Layer 0 (Background)
//Storyboard Layer 1 (Fail)
//Storyboard Layer 2 (Pass)
//Storyboard Layer 3 (Foreground)
//Storyboard Sound Samples

[TimingPoints]
0,337.078651685393,4,2,1,50,1,0
674,-181.818181818181,4,2,1,50,0,0
10786,-117.647058823529,4,2,1,65,0,0
10955,-117.647058823529,4,2,1,5,0,0
11123,-117.647058823529,4,2,1,65,0,0
11629,-117.647058823529,4,2,1,5,0,0
11797,-117.647058823529,4,2,1,65,0,0
14578,-117.647058823529,4,2,1,5,0,0
14831,-100,4,2,1,65,0,0
27471,-76.9230769230769,4,2,1,65,0,0
28314,-100,4,2,1,65,0,0
30337,-250,4,2,1,65,0,0
31011,-100,4,2,1,65,0,0
43146,-181.818181818181,4,2,1,50,0,0
51235,-100,4,2,1,65,0,0
55279,504.201680672269,4,2,1,60,1,0
55279,-133.333333333333,4,2,1,60,0,0
56194,506.329113924051,4,2,1,75,1,0
56194,-55.5555555555556,4,2,1,75,0,0
57206,-66.6666666666667,4,2,1,75,0,0
60244,-55.5555555555556,4,2,1,75,0,0
60750,-66.6666666666667,4,2,1,75,0,0
64295,-55.5555555555556,4,2,1,75,0,0
64801,-66.6666666666667,4,2,1,75,0,0
68345,-55.5555555555556,4,2,1,75,0,0
70371,-100,4,2,1,65,0,0
71890,-133.333333333333,4,2,1,65,0,0
72206,-133.333333333333,4,2,1,5,0,0
72396,505.47598989048,4,2,1,85,1,1
72396,-50,4,2,1,85,0,1
86549,-133.333333333333,4,2,1,55,0,0
86844,505.47598989048,4,2,1,55,1,0
86844,-133.333333333333,4,2,1,55,0,0
88571,337.078651685393,4,2,1,55,1,0
88571,-100,4,2,1,55,0,0
89835,337.078651685393,4,2,1,85,1,0
89835,-434.782608695652,4,2,1,85,0,0
89961,-285.714285714284,4,2,1,35,0,0

[Colours]
Combo1 : 30,125,35
Combo2 : 226,184,191
Combo3 : 116,193,223
Combo4 : 63,114,100

[HitObjects]
407,115,674,6,0,B|408:175|357:205|357:205|351:252|404:296,1,198.000006042481,2|2,0:2|0:2,0:0:0:0:
84,285,2022,2,0,B|123:252|117:205|117:205|66:175|67:115,1,198.000006042481,2|2,0:2|0:2,0:0:0:0:
314,34,4719,6,0,B|258:47|231:85|231:85|200:44|141:35,1,198.000006042481,2|2,0:2|0:2,0:0:0:0:
148,347,6067,2,0,B|200:340|231:299|231:299|258:337|314:350,1,198.000006042481,2|2,0:2|0:2,0:0:0:0:
347,356,8089,5,2,0:2:0:0:
383,337,9438,1,2,0:2:0:0:
422,317,10112,1,2,0:2:0:0:
422,317,10786,6,0,P|444:257|407:210,1,114.750002188683,0|0,3:0|0:0,0:0:0:0:
363,270,11123,1,0,0:0:0:0:
317,35,11460,6,0,P|295:95|332:142,1,114.750002188683,0|0,3:0|0:0,0:0:0:0:
376,82,11797,1,0,0:0:0:0:
179,371,12134,6,0,P|213:339|195:228,1,153.000002918243,0|0,3:0|0:0,0:0:0:0:
75,93,12640,1,0,0:0:0:0:
22,295,12808,2,0,B|139:293|139:293|84:277,1,153.000002918243,0|0,0:0|0:0,0:0:0:0:
104,282,13651,5,0,3:0:0:0:
191,137,13820,1,0,3:0:0:0:
75,169,13988,1,0,3:0:0:0:
233,329,14157,1,0,3:0:0:0:
446,50,14494,6,0,L|439:95,1,38.2500007295609,4|0,0:3|0:0,0:0:0:0:
440,87,14831,6,0,P|364:48|273:110,1,180,0|8,3:0|0:3,0:0:0:0:
360,324,15337,2,0,L|363:145,1,180,0|0,3:0|3:0,0:0:0:0:
213,28,15842,2,0,P|195:66|216:131,1,90,8|0,0:3|0:0,0:0:0:0:
459,218,16179,5,0,3:0:0:0:
272,235,16348,1,0,0:0:0:0:
363,145,16516,1,8,0:3:0:0:
431,344,16685,2,0,B|399:377|399:377|240:373,1,180,0|0,3:0|3:0,0:0:0:0:
173,196,17191,1,8,0:3:0:0:
43,359,17359,1,0,0:0:0:0:
43,359,17443,1,0,0:0:0:0:
43,359,17528,6,0,P|57:285|54:163,1,180,0|8,3:0|0:3,0:0:0:0:
199,24,18033,2,0,P|130:19|132:116,1,180,0|0,3:0|3:0,0:0:0:0:
298,246,18539,1,8,0:3:0:0:
376,50,18707,1,0,0:0:0:0:
376,50,19044,5,0,3:0:0:0:
436,136,19213,1,0,3:0:0:0:
362,234,19382,1,0,3:0:0:0:
453,354,19550,1,0,3:0:0:0:
453,354,20224,6,0,P|389:333|278:368,1,180,0|8,3:0|0:3,0:0:0:0:
23,272,20730,2,0,B|18:348|53:386|53:386|107:362|101:307,1,180,0|0,3:0|3:0,0:0:0:0:
225,155,21235,1,8,0:3:0:0:
129,241,21404,1,0,0:0:0:0:
287,284,21573,6,0,L|386:280,1,90,0|0,3:0|0:0,0:0:0:0:
438,93,21910,1,8,0:3:0:0:
225,155,22078,2,0,P|211:232|301:282,1,180,0|0,3:0|3:0,0:0:0:0:
307,73,22584,2,0,P|275:42|208:40,1,90,8|0,0:3|0:0,0:0:0:0:
39,112,22921,6,0,L|48:318,1,180,0|8,3:0|0:3,0:0:0:0:
304,358,23426,2,0,B|254:345|219:296|219:296|219:333|178:387,1,180,0|0,3:0|3:0,0:0:0:0:
433,298,23932,1,8,0:3:0:0:
343,196,24101,1,0,0:0:0:0:
471,107,24269,6,0,L|469:202,1,90,0|0,3:0|3:0,0:0:0:0:
387,11,24606,1,8,0:3:0:0:
220,117,24775,2,0,P|161:140|103:36,1,180,0|0,3:0|3:0,0:0:0:0:
3,294,25280,2,0,P|80:281|107:311,1,90,8|0,0:3|0:0,0:0:0:0:
347,336,25617,6,0,P|269:329|331:259,1,180,0|8,3:0|0:3,0:0:0:0:
479,152,26123,2,0,B|482:227|482:227|467:260|467:260|476:355,1,180,0|0,3:0|3:0,0:0:0:0:
361,152,26629,1,8,0:3:0:0:
429,44,26797,1,0,0:0:0:0:
223,180,26966,2,0,B|154:199|109:146|109:146|128:117|164:122,1,180,0|8,3:0|0:3,0:0:0:0:
306,239,27471,6,0,P|230:275|83:246,1,233.999989288331,0|0,3:0|3:0,0:0:0:0:
30,30,27977,1,8,0:3:0:0:
30,30,28314,5,2,3:3:0:0:
129,25,28483,1,0,0:0:0:0:
131,134,28651,5,10,0:3:0:0:
32,129,28820,1,0,3:0:0:0:
34,238,28988,5,2,0:3:0:0:
133,233,29157,1,0,3:0:0:0:
131,342,29325,5,10,0:3:0:0:
32,337,29494,1,0,0:0:0:0:
210,181,29662,5,2,3:0:0:0:
271,346,29831,1,8,0:3:0:0:
437,177,29999,5,8,0:3:0:0:
392,347,30168,1,8,0:3:0:0:
321,96,30337,6,0,L|320:182,1,72,8|0,0:3|0:0,0:0:0:0:
320,167,31011,6,0,P|235:135|153:176,1,180,0|8,3:0|0:3,0:0:0:0:
414,296,31516,2,0,B|405:240|405:240|426:206|426:206|413:96,1,180,0|0,3:0|3:0,0:0:0:0:
307,333,32022,1,8,0:3:0:0:
238,224,32191,1,0,0:0:0:0:
125,359,32359,6,0,P|84:361|42:315,1,90,0|0,3:0|0:0,0:0:0:0:
60,128,32696,1,8,0:3:0:0:
148,216,32865,2,0,P|195:223|265:220,1,90,0|0,3:0|0:0,0:0:0:0:
31,232,33202,1,0,3:0:0:0:
168,107,33370,2,0,P|216:114|285:111,1,90,8|0,0:3|0:0,0:0:0:0:
405,249,33707,6,0,P|381:164|435:94,1,180,0|8,3:0|0:3,0:0:0:0:
478,352,34213,2,0,B|451:362|429:365|429:365|373:328|276:350,1,180,0|0,3:0|3:0,0:0:0:0:
233,221,34719,1,8,0:3:0:0:
137,323,34887,1,0,0:0:0:0:
36,151,35056,6,0,P|40:106|51:54,1,90,0|0,3:0|3:0,0:0:0:0:
27,285,35393,1,8,0:3:0:0:
150,76,35561,2,0,P|216:52|330:103,1,180,0|0,3:0|3:0,0:0:0:0:
460,261,36067,1,8,0:3:0:0:
460,261,36404,6,0,P|388:288|258:261,1,180,0|8,3:0|0:3,0:0:0:0:
57,273,36910,2,0,P|84:345|138:267,1,180,0|0,3:0|3:0,0:0:0:0:
219,100,37415,2,0,P|201:144|211:194,1,90,8|0,0:3|0:0,0:0:0:0:
465,144,37752,6,0,P|386:154|271:154,1,180,0|8,3:0|0:3,0:0:0:0:
70,29,38258,2,0,B|108:62|131:102|131:102|141:59|186:8,1,180,0|0,3:0|3:0,0:0:0:0:
370,19,38764,1,8,0:3:0:0:
293,161,38932,1,0,0:0:0:0:
293,161,39016,1,0,0:0:0:0:
293,161,39101,6,0,P|284:215|299:271,1,90,0|0,3:0|0:0,0:0:0:0:
390,356,39438,1,8,0:3:0:0:
209,350,39606,2,0,L|116:343,1,90,0|0,3:0|0:0,0:0:0:0:
59,172,39943,1,0,3:0:0:0:
0,307,40112,1,8,0:3:0:0:
164,231,40280,1,0,0:0:0:0:
13,57,40449,6,0,L|5:103,1,45,2|0,3:2|0:0,0:0:0:0:
100,0,40617,2,0,L|108:46,1,45,2|0,0:0|0:0,0:0:0:0:
200,68,40786,2,0,L|192:114,1,45,2|0,0:0|0:0,0:0:0:0:
488,119,41123,6,0,L|480:163,1,45,2|0,3:2|0:0,0:0:0:0:
389,60,41292,2,0,L|381:14,1,45,2|0,0:0|0:0,0:0:0:0:
302,117,41460,2,0,L|309:161,1,45,2|0,0:0|0:0,0:0:0:0:
90,352,41797,6,0,B|122:235|94:124|-51:200|-80:-22|97:-145|212:87|77:104,1,540,2|0,3:2|0:0,0:0:0:0:
98,98,43146,6,0,P|137:102|165:102,1,49.5000015106202,0|0,3:0|3:0,0:0:0:0:
184,182,43483,2,0,P|214:157|234:137,1,49.5000015106202,2|0,0:0|0:0,0:0:0:0:
218,64,43820,1,2,0:0:0:0:
218,64,43988,1,0,0:0:0:0:
296,104,44157,1,2,0:0:0:0:
296,104,44325,1,0,0:0:0:0:
298,183,44494,6,0,P|294:222|294:250,1,49.5000015106202,0|0,3:0|3:0,0:0:0:0:
388,229,44831,2,0,P|386:204|383:179,1,49.5000015106202,2|0,0:0|0:0,0:0:0:0:
340,302,45168,1,2,0:0:0:0:
256,303,45337,1,0,0:0:0:0:
296,377,45505,1,2,0:0:0:0:
44,361,45842,6,0,P|83:361|111:359,1,49.5000015106202,0|0,3:0|3:0,0:0:0:0:
88,267,46179,2,0,P|48:266|20:268,1,49.5000015106202,2|0,0:0|0:0,0:0:0:0:
169,315,46516,1,2,0:0:0:0:
169,315,46685,1,0,0:0:0:0:
99,169,46853,1,2,0:0:0:0:
99,169,47191,6,0,P|59:169|31:167,1,49.5000015106202,0|0,3:0|3:0,0:0:0:0:
177,118,47528,2,0,P|216:118|244:116,1,49.5000015106202,2|0,0:0|0:0,0:0:0:0:
303,174,47865,1,2,0:0:0:0:
376,115,48033,1,0,0:0:0:0:
446,179,48202,1,2,0:0:0:0:
369,371,48539,6,0,P|329:371|301:369,1,49.5000015106202,0|0,3:0|3:0,0:0:0:0:
253,311,48876,1,2,0:0:0:0:
253,311,49044,1,2,0:0:0:0:
178,369,49213,2,0,P|138:369|110:367,1,49.5000015106202,8|0,0:3|0:0,0:0:0:0:
126,268,49550,2,0,P|165:267|193:269,1,49.5000015106202,2|0,0:0|0:0,0:0:0:0:
245,131,49887,6,0,P|245:170|243:198,1,49.5000015106202,0|0,3:0|3:0,0:0:0:0:
314,243,50224,1,2,0:0:0:0:
314,243,50393,1,2,0:0:0:0:
382,176,50561,2,0,P|381:151|381:126,1,49.5000015106202,8|0,0:3|0:0,0:0:0:0:
453,252,50898,1,2,0:0:0:0:
453,252,51067,1,0,0:0:0:0:
463,72,51235,6,0,P|405:27|306:76,1,180,0|8,3:0|0:3,0:0:0:0:
159,13,51741,2,0,P|144:57|169:116,1,90,0|0,3:0|0:0,0:0:0:0:
20,82,52078,1,0,3:0:0:0:
98,243,52247,2,0,P|144:246|201:242,1,90,8|0,0:3|0:0,0:0:0:0:
484,295,52584,6,0,P|418:324|402:232,1,180,0|8,3:0|0:3,0:0:0:0:
281,319,53089,2,0,P|268:275|290:215,1,90,0|0,3:0|0:0,0:0:0:0:
429,106,53426,1,0,3:0:0:0:
257,51,53595,2,0,L|163:62,1,90,8|0,0:3|0:0,0:0:0:0:
49,314,53932,5,0,3:0:0:0:
371,240,54606,1,0,3:0:0:0:
90,68,55280,6,0,L|7:71,2,67.5000025749208,2|2|2,3:2|0:0|0:0,0:0:0:0:
90,68,56194,6,0,B|88:114|96:141|96:141|78:181|78:181|90:217|90:255|90:255|102:222|167:171,1,242.999992584229,4|0,3:2|0:0,0:0:0:0:
236,210,56700,5,2,3:2:0:0:
203,197,56826,1,2,0:0:0:0:
165,283,56953,1,2,0:0:0:0:
198,296,57080,1,2,0:0:0:0:
287,285,57206,6,0,B|340:283|340:283|369:266|369:266|435:267,1,135.000005149842,0|2,3:0|0:0,0:0:0:0:
399,44,57712,2,0,B|346:46|346:46|317:63|317:63|251:62,1,135.000005149842,0|2,3:0|0:0,0:0:0:0:
41,319,58219,6,0,B|87:346|87:346|89:295|89:295|76:265|76:265|78:184,1,202.500007724762,0|2,3:0|0:0,0:0:0:0:
172,168,58725,2,0,L|171:263,1,67.5000025749208,2|0,3:2|0:0,0:0:0:0:
263,99,58978,2,0,L|262:234,1,135.000005149842,2|0,0:2|3:2,0:0:0:0:
102,107,59485,1,2,0:0:0:0:
172,347,59738,2,0,B|221:350|252:374|252:374|271:354|323:344|323:344|300:340|278:320,1,202.500007724762,0|0,3:0|0:0,0:0:0:0:
368,279,60244,6,0,B|384:287|396:320|396:320|396:282|408:246|408:246|390:206|390:206|402:178|396:133,1,242.999992584229,4|0,3:2|0:0,0:0:0:0:
355,49,60750,5,2,3:2:0:0:
322,36,60877,1,2,0:0:0:0:
239,73,61004,1,2,0:0:0:0:
206,86,61130,1,2,0:0:0:0:
134,34,61257,6,0,B|97:30|97:30|51:70|51:70|-8:65,1,135.000005149842,0|2,3:0|0:0,0:0:0:0:
17,339,61763,2,0,B|54:343|54:343|100:303|100:303|159:308,1,135.000005149842,0|2,3:0|0:0,0:0:0:0:
423,346,62269,6,0,B|355:333|355:333|282:346|282:346|300:316|306:273,1,202.500007724762,0|2,3:0|0:0,0:0:0:0:
398,253,62776,2,0,L|490:271,1,67.5000025749208,2|0,3:2|0:0,0:0:0:0:
358,158,63029,2,0,L|499:185,1,135.000005149842,2|0,0:2|3:0,0:0:0:0:
230,219,63535,1,2,0:0:0:0:
467,15,63788,2,0,B|483:40|483:40|441:36|441:36|408:40|408:40|387:27|387:27|349:32|349:32|289:27,1,202.500007724762,0|0,3:0|0:0,0:0:0:0:
202,47,64295,6,0,B|218:39|229:24|229:24|225:47|242:80|242:80|224:120|224:120|259:167|227:227,1,242.999992584229,4|0,3:2|0:0,0:0:0:0:
154,276,64801,5,2,3:2:0:0:
121,289,64928,1,2,0:0:0:0:
115,187,65054,1,2,0:0:0:0:
148,174,65181,1,2,0:0:0:0:
124,79,65307,6,0,B|88:82|69:78|69:78|52:96|20:112|20:112|58:147,1,135.000005149842,0|2,3:0|0:0,0:0:0:0:
138,374,65814,2,0,B|173:370|192:374|192:374|209:356|241:340|241:340|203:305,1,135.000005149842,0|2,3:0|0:0,0:0:0:0:
357,37,66320,6,0,B|322:92|322:92|385:235,1,202.500007724762,0|2,3:0|0:0,0:0:0:0:
461,169,66826,2,0,L|420:81,1,67.5000025749208,2|0,3:2|0:0,0:0:0:0:
238,142,67080,2,0,L|306:289,1,135.000005149842,2|0,0:2|3:0,0:0:0:0:
357,37,67586,1,2,0:0:0:0:
64,34,67839,1,0,3:0:0:0:
64,34,68345,6,0,B|49:66|49:66|60:107|60:107|47:134|47:134|71:183|40:221|40:221|26:195|29:166,1,242.999992584229,4|0,3:2|0:0,0:0:0:0:
134,140,68852,5,2,3:2:0:0:
167,127,68978,1,2,0:0:0:0:
254,165,69105,1,2,0:0:0:0:
281,187,69231,1,2,0:0:0:0:
279,289,69358,6,0,B|245:317|245:317|185:284|125:312,1,161.999995056153,0|2,3:0|0:0,0:0:0:0:
65,34,69864,2,0,B|99:62|99:62|159:29|219:57,1,161.999995056153,0|2,3:0|0:0,0:0:0:0:
451,243,70371,6,0,P|400:247|347:225,1,90,2|2,0:0|0:0,0:0:0:0:
354,225,70750,1,2,0:0:0:0:
346,213,70877,2,0,L|353:99,1,90,2|2,0:0|0:0,0:0:0:0:
362,115,71257,1,2,0:0:0:0:
372,107,71383,2,0,P|324:114|265:83,1,90,2|2,0:0|0:0,0:0:0:0:
275,92,71763,1,2,0:0:0:0:
266,81,71890,6,0,L|263:196,1,101.250003862381,2|0,0:0|0:0,0:0:0:0:
286,253,72396,6,0,B|241:267|210:238|210:238|186:252|186:252|130:231|97:250|97:250|112:278|158:281,1,270,4|0,3:2|1:0,0:0:0:0:
263,182,72901,5,10,0:2:0:0:
266,80,73027,1,2,0:2:0:0:
174,63,73154,1,2,1:2:0:0:
171,164,73280,1,2,1:2:0:0:
343,133,73406,5,2,3:2:0:0:
24,89,73659,2,0,L|25:210,1,90,2|0,1:2|1:0,0:0:0:0:
117,346,73912,2,0,B|116:308|125:274|125:274|111:246|99:206|99:206|89:232|68:251,1,180,10|0,0:2|1:0,0:0:0:0:
27,321,74291,1,0,1:0:0:0:
138,362,74417,6,0,B|201:363|227:379|227:379|252:363|334:361,1,180,2|0,3:2|1:0,0:0:0:0:
461,280,74797,1,0,1:0:0:0:
411,356,74923,2,0,P|370:274|420:199,1,180,10|0,0:2|1:0,0:0:0:0:
455,24,75302,1,0,1:0:0:0:
393,94,75428,2,0,B|350:115|350:115|174:103,1,180,2|0,3:2|1:0,0:0:0:0:
22,32,75807,1,0,1:0:0:0:
118,27,75934,1,10,0:2:0:0:
13,305,76187,2,0,B|-10:266|-10:266|16:200,1,90,0|0,1:0|1:0,0:0:0:0:
229,211,76439,6,0,B|245:238|272:255|272:255|234:264|200:251|200:251|173:265|173:265|154:251|154:251|123:267|49:251,1,270,4|0,3:2|1:0,0:0:0:0:
309,183,76945,5,10,0:2:0:0:
411,186,77071,1,2,0:2:0:0:
458,273,77198,1,2,1:2:0:0:
356,276,77324,1,2,1:2:0:0:
504,187,77450,5,2,3:2:0:0:
256,92,77703,2,0,L|353:92,1,90,2|0,1:2|1:0,0:0:0:0:
181,273,77956,2,0,B|149:240|149:240|153:81,1,180,10|0,0:2|1:0,0:0:0:0:
81,40,78335,1,0,1:0:0:0:
18,114,78461,6,0,L|14:306,1,180,2|0,3:2|1:0,0:0:0:0:
174,373,78840,1,0,1:0:0:0:
262,312,78967,2,0,P|275:269|174:191,1,180,10|0,0:2|1:0,0:0:0:0:
350,205,79346,1,0,1:0:0:0:
369,99,79472,2,0,P|347:59|221:75,1,180,2|0,3:2|1:0,0:0:0:0:
449,170,79851,1,0,1:0:0:0:
501,87,79978,1,10,0:2:0:0:
186,188,80230,2,0,L|181:311,1,90,0|0,1:0|1:0,0:0:0:0:
300,351,80483,6,0,B|264:365|224:343|224:343|196:350|183:374|183:374|167:350|140:343|140:343|94:368|57:352,1,270,4|0,3:2|1:0,0:0:0:0:
89,168,80989,5,10,0:2:0:0:
86,269,81115,1,2,0:2:0:0:
0,214,81241,1,2,1:2:0:0:
3,113,81368,1,2,1:2:0:0:
186,188,81494,5,2,3:2:0:0:
397,32,81747,2,0,L|399:154,1,90,2|0,1:2|1:0,0:0:0:0:
470,324,82000,2,0,P|461:215|387:221,1,180,10|0,0:2|1:0,0:0:0:0:
311,172,82379,1,0,1:0:0:0:
242,257,82505,6,0,B|210:282|210:282|32:252,1,180,2|0,3:2|1:0,0:0:0:0:
18,103,82884,1,0,1:0:0:0:
88,36,83010,2,0,B|120:11|120:11|298:41,1,180,10|0,0:2|1:0,0:0:0:0:
424,103,83390,1,0,1:0:0:0:
379,183,83516,2,0,P|332:110|367:31,1,180,2|0,3:2|1:0,0:0:0:0:
483,265,83895,1,0,1:0:0:0:
404,340,84021,2,0,B|261:371|293:283|137:325,1,270,10|0,0:2|1:0,0:0:0:0:
69,369,84527,6,0,B|52:340|52:340|59:309|59:309|51:264|51:264|72:233|73:195|73:195|51:170|74:98,1,270,4|0,3:2|1:0,0:0:0:0:
167,16,85032,5,10,0:2:0:0:
164,117,85159,1,2,0:2:0:0:
266,115,85285,1,2,1:2:0:0:
263,14,85412,1,2,1:2:0:0:
71,19,85538,5,2,3:2:0:0:
357,122,85791,2,0,L|359:229,1,90,2|0,1:2|1:0,0:0:0:0:
183,262,86043,2,0,B|226:244|256:204|256:204|251:248|293:291,1,180,10|0,0:2|1:0,0:0:0:0:
304,290,86422,1,0,1:0:0:0:
325,287,86549,1,2,3:2:0:0:
478,100,86844,6,0,L|489:56,2,33.7500012874604,2|2|2,0:0|0:0|0:0,0:0:0:0:
361,50,87349,2,0,L|350:6,2,33.7500012874604,2|2|2,0:0|0:0|0:0,0:0:0:0:
255,118,87855,2,0,L|220:88,1,33.7500012874604,2|2,0:0|0:0,0:0:0:0:
229,95,88107,2,0,L|227:221,1,101.250003862381,2|0,0:0|0:0,0:0:0:0:
211,236,88571,6,0,P|140:276|50:216,1,180,2|0,3:2|0:0,0:0:0:0:
35,98,89076,2,0,P|32:73|37:41,2,45,2|0|2,0:0|0:0|0:0,0:0:0:0:
459,61,89835,6,0,B|355:31|257:56|324:186|125:210|17:53|240:-58|238:68,1,496.799983322754,4|0,3:1|0:0,0:0:0:0:
