osu file format v14

[General]
AudioFilename: audio.mp3
AudioLeadIn: 0
PreviewTime: 10786
Countdown: 0
SampleSet: Soft
StackLeniency: 0.7
Mode: 0
LetterboxInBreaks: 0
EpilepsyWarning: 1
WidescreenStoryboard: 1

[Editor]
Bookmarks: 0,14831,31011,43146,56194,72396,88599,93915
DistanceSpacing: 0.3
BeatDivisor: 4
GridSize: 32
TimelineZoom: 1.7

[Metadata]
Title:Chika 2 Chika ULTIMATE Version
TitleUnicode:千花 2 Чика ULTIMATE Version
Artist:Fujiwara Chika (CV: Kohara Konomi) vs. Arthur Pirozhkov
ArtistUnicode:藤原千花 (CV: 小原好美) vs. Артур Пирожков
Creator:Seto Kousuke
Version:Ayynna's Insane
Source:
Tags:Trynna wants to be confessed to love mexican lafayla and japanese eiri- Brains Kaguya-sama: Is War wa Kokurasetai Tensai-tachi no Renai Zunousen pop jpop j anime The Geniuses' War of Love かぐや様は告らせたい ~天才たちの恋愛頭脳戦~ Chikatto チカっとチカ千花っ♡ Aikatsu アイカツ! russian Shmiklak m_a_r_v_o_l_l_o ayyri wuab kuaib ModlesS_Flash
BeatmapID:1982161
BeatmapSetID:949216

[Difficulty]
HPDrainRate:5
CircleSize:4
OverallDifficulty:8
ApproachRate:9
SliderMultiplier:1.8
SliderTickRate:1

[Events]
//Background and Video events
0,0,"ultimate_edit.jpg",0,0
//Break Periods
//Storyboard Layer 0 (Background)
//Storyboard Layer 1 (Fail)
//Storyboard Layer 2 (Pass)
//Storyboard Layer 3 (Foreground)
//Storyboard Sound Samples

[TimingPoints]
0,337.078651685393,4,2,1,50,1,0
674,-181.818181818181,4,2,1,50,0,0
10786,-117.647058823529,4,2,1,65,0,0
10955,-117.647058823529,4,2,1,65,0,0
11123,-117.647058823529,4,2,1,65,0,0
11629,-117.647058823529,4,2,1,65,0,0
11797,-117.647058823529,4,2,1,65,0,0
14494,-86.9565217391302,4,2,1,65,0,0
14831,-100,4,2,1,65,0,0
27471,-76.9230769230769,4,2,1,65,0,0
28314,-100,4,2,1,65,0,0
30337,-250,4,2,1,65,0,0
31011,-100,4,2,1,65,0,0
41797,-666.666666666667,4,2,1,65,0,0
43146,-181.818181818181,4,2,1,50,0,0
48539,-133.333333333333,4,2,1,50,0,0
51235,-100,4,2,1,65,0,0
55279,504.201680672269,4,2,1,60,1,0
55279,-133.333333333333,4,2,1,60,0,0
56194,506.329113924051,4,2,1,75,1,0
56194,-66.6666666666667,4,2,1,75,0,0
70371,-66.6666666666667,4,2,1,65,0,0
72396,505.47598989048,4,2,1,85,1,0
72396,-66.6666666666667,4,2,1,85,0,1
86549,-66.6666666666667,4,2,1,85,0,0
86844,505.47598989048,4,2,1,55,1,0
86844,-66.6666666666667,4,2,1,55,0,0
88571,337.078651685393,4,2,1,55,1,0
89834,-66.6666666666667,4,2,1,85,0,0
89835,337.078651685393,4,2,1,85,1,0
89961,-66.6666666666667,4,2,1,35,0,0

[Colours]
Combo1 : 30,125,35
Combo2 : 226,184,191
Combo3 : 116,193,223
Combo4 : 63,114,100

[HitObjects]
57,333,674,6,0,B|144:345|108:290|197:303,1,148.50000453186,2|0,0:2|0:0,0:0:0:0:
221,321,1348,2,0,P|193:255|216:186,1,148.50000453186,2|0,0:2|0:0,0:0:0:0:
289,252,2022,2,0,P|347:235|428:336,1,198.000006042481,2|2,0:2|0:2,0:0:0:0:
405,125,4719,6,0,B|342:141|342:141|264:111,1,148.50000453186,2|0,0:2|0:0,0:0:0:0:
243,130,5393,2,0,P|210:90|225:-3,1,148.50000453186,2|0,0:2|0:0,0:0:0:0:
249,215,6067,2,0,B|186:213|186:213|117:237|117:237|55:234,1,198.000006042481,2|2,0:2|0:2,0:0:0:0:
48,221,8089,5,2,0:2:0:0:
40,206,9438,1,2,0:2:0:0:
31,187,10112,1,2,0:2:0:0:
22,168,10786,5,0,3:0:0:0:
299,109,11123,1,0,0:0:0:0:
164,7,11460,1,0,3:0:0:0:
127,273,11797,1,0,0:0:0:0:
255,351,12134,2,0,B|336:356|313:304|398:312,1,153.000002918243,0|0,3:0|0:0,0:0:0:0:
261,267,12640,2,0,P|251:250|245:232,1,38.2500007295609,0|0,0:0|0:0,0:0:0:0:
256,207,12808,2,0,P|275:168|264:60,1,153.000002918243
264,61,13398,1,0,0:0:0:0:
176,135,13651,6,0,L|105:143,1,38.2500007295609,0|0,3:0|0:0,0:0:0:0:
374,104,13820,2,0,L|445:112,1,38.2500007295609,0|0,3:0|0:0,0:0:0:0:
180,46,13988,2,0,L|129:29,1,38.2500007295609,0|0,3:0|0:0,0:0:0:0:
341,17,14157,2,0,L|463:-8,1,114.750002188683,0|0,3:0|0:0,0:0:0:0:
477,2,14494,2,0,P|436:67|429:143,1,155.250002961159,4|0,0:3|0:0,0:0:0:0:
452,194,14831,5,0,3:0:0:0:
262,102,15168,1,8,0:3:0:0:
262,102,15337,2,0,B|173:74|181:142|78:127,1,180,0|0,3:0|3:0,0:0:0:0:
110,19,15842,1,8,0:3:0:0:
83,152,16011,1,0,0:0:0:0:
128,238,16179,5,0,3:0:0:0:
14,315,16348,1,0,0:0:0:0:
14,315,16516,1,8,0:3:0:0:
83,354,16685,2,0,L|271:343,1,180,0|0,3:0|3:0,0:0:0:0:
262,343,17191,1,8,0:3:0:0:
146,253,17359,2,0,L|156:172,1,45,0|0,0:0|0:0,0:0:0:0:
160,157,17528,5,0,3:0:0:0:
371,236,17865,1,8,0:3:0:0:
410,168,18033,2,0,P|421:119|309:37,1,180,0|0,3:0|3:0,0:0:0:0:
493,19,18539,1,8,0:3:0:0:
312,38,18707,1,0,0:0:0:0:
266,271,19044,5,0,3:0:0:0:
244,245,19213,5,0,3:0:0:0:
288,297,19382,5,0,3:0:0:0:
222,219,19550,5,0,3:0:0:0:
222,219,20224,6,0,P|242:129|250:62,1,135,0|0,3:0|0:0,0:0:0:0:
244,30,20561,1,8,0:3:0:0:
319,167,20730,2,0,P|355:130|392:105,1,90,0|0,3:0|0:0,0:0:0:0:
476,71,21067,1,0,3:0:0:0:
511,235,21235,1,8,0:3:0:0:
511,235,21404,1,0,0:0:0:0:
433,208,21573,5,0,3:0:0:0:
390,296,21741,2,0,L|285:287,2,90,0|8|0,0:0|0:3|3:0,0:0:0:0:
132,356,22415,5,0,3:0:0:0:
145,261,22584,1,8,0:3:0:0:
132,356,22921,6,0,P|210:345|285:333,1,135,0|0,3:0|0:0,0:0:0:0:
252,324,23258,1,8,0:3:0:0:
337,384,23426,1,0,3:0:0:0:
388,249,23595,2,0,P|385:171|379:138,1,90,0|0,0:0|3:0,0:0:0:0:
364,65,23932,1,8,0:3:0:0:
364,65,24101,1,0,0:0:0:0:
244,141,24269,5,0,3:0:0:0:
261,58,24438,2,0,L|152:45,2,90,0|8|0,3:0|0:3|3:0,0:0:0:0:
133,42,25112,5,0,3:0:0:0:
153,132,25280,2,0,B|159:171|159:171|122:287,1,135,8|0,0:3|0:0,0:0:0:0:
104,313,25617,6,0,P|203:278|253:285,1,135,0|0,3:0|0:0,0:0:0:0:
273,294,25955,1,8,0:3:0:0:
85,338,26123,1,0,3:0:0:0:
147,210,26292,1,0,0:0:0:0:
71,360,26460,1,0,3:0:0:0:
14,262,26629,1,8,0:3:0:0:
14,262,26797,1,0,0:0:0:0:
99,129,26966,6,0,L|265:120,1,135,0|0,3:0|0:0,0:0:0:0:
271,120,27303,1,8,0:3:0:0:
428,114,27471,2,0,P|453:175|298:223,1,233.999989288331,0|0,3:0|3:0,0:0:0:0:
428,114,27977,1,8,0:3:0:0:
335,252,28314,6,0,L|326:143,1,90,2|0,3:3|0:0,0:0:0:0:
297,321,28651,2,0,L|306:212,1,90,10|0,0:3|3:0,0:0:0:0:
380,366,28988,2,0,L|371:257,1,90,2|0,0:3|3:0,0:0:0:0:
207,384,29325,2,0,L|216:275,1,90,10|0,0:3|0:0,0:0:0:0:
235,137,29662,1,2,3:0:0:0:
235,137,29831,6,0,L|128:126,2,90,8|8|8,0:3|0:3|0:3,0:0:0:0:
433,165,30337,1,8,0:3:0:0:
442,22,31011,6,0,B|332:9|370:65|264:52,1,180,0|8,3:0|0:3,0:0:0:0:
81,43,31516,1,0,3:0:0:0:
177,1,31685,2,0,L|169:90,1,90,0|0,0:0|3:0,0:0:0:0:
207,176,32022,2,0,L|199:265,1,90,8|0,0:3|0:0,0:0:0:0:
139,346,32359,5,0,3:0:0:0:
285,308,32528,2,0,P|324:327|345:366,1,90,0|8,0:0|0:3,0:0:0:0:
469,368,32865,2,0,P|445:312|436:207,1,135,0|0,3:0|0:0,0:0:0:0:
442,213,33202,1,0,3:0:0:0:
370,46,33370,2,0,L|355:138,1,90,8|0,0:3|0:0,0:0:0:0:
456,108,33707,5,0,3:0:0:0:
271,81,33876,1,0,0:0:0:0:
256,181,34044,1,8,0:3:0:0:
442,213,34213,1,0,3:0:0:0:
334,293,34382,2,0,B|266:293|266:293|217:313|217:313|157:314,1,180,0|8,0:0|0:3,0:0:0:0:
68,373,34887,1,0,0:0:0:0:
64,181,35056,6,0,L|64:270,1,90,0|0,3:0|3:0,0:0:0:0:
163,225,35393,1,8,0:3:0:0:
12,99,35561,2,0,P|77:75|141:116,1,135,0|0,3:0|0:0,0:0:0:0:
145,122,35898,1,0,3:0:0:0:
313,41,36067,2,0,P|268:51|219:53,1,90,8|0,0:3|0:0,0:0:0:0:
294,194,36404,6,0,P|330:143|444:153,1,180,0|8,3:0|0:3,0:0:0:0:
482,57,36910,2,0,L|477:246,1,180,0|0,3:0|3:0,0:0:0:0:
476,344,37415,1,8,0:3:0:0:
382,221,37584,1,0,0:0:0:0:
304,350,37752,6,0,B|213:365|237:289|135:308,1,180,0|8,3:0|0:3,0:0:0:0:
42,375,38258,2,0,L|26:190,1,180,0|0,3:0|3:0,0:0:0:0:
139,98,38764,1,8,0:3:0:0:
114,198,38932,1,0,0:0:0:0:
52,43,39101,6,0,B|97:29|129:-9|129:-9|162:19|210:21,1,180,0|8,3:0|0:3,0:0:0:0:
316,67,39606,2,0,B|386:58|434:47|434:47|454:70|449:105,1,180,0|0,3:0|3:0,0:0:0:0:
380,172,40112,1,8,0:3:0:0:
419,380,40449,6,0,P|363:344|315:347,1,90,0|0,3:0|0:0,0:0:0:0:
42,271,41123,6,0,P|101:240|122:197,1,90,0|0,3:0|0:0,0:0:0:0:
324,0,41797,6,0,P|320:66|331:93,1,94.4999971160889,0|0,3:0|0:0,0:0:0:0:
394,149,43146,5,0,3:0:0:0:
394,149,43314,1,0,3:0:0:0:
394,149,43483,2,0,L|446:142,1,49.5000015106202,2|0,0:0|0:0,0:0:0:0:
382,232,43820,2,0,L|330:225,3,49.5000015106202,2|0|2|0,0:0|0:0|0:0|0:0,0:0:0:0:
234,224,44494,5,0,3:0:0:0:
234,224,44662,1,0,3:0:0:0:
234,224,44831,2,0,L|241:276,1,49.5000015106202,2|0,0:0|0:0,0:0:0:0:
151,212,45168,2,0,L|158:160,2,49.5000015106202,2|0|2,0:0|0:0|0:0,0:0:0:0:
302,61,45842,5,0,3:0:0:0:
302,61,46011,1,0,3:0:0:0:
302,61,46179,2,0,L|354:54,1,49.5000015106202,2|0,0:0|0:0,0:0:0:0:
290,144,46516,2,0,L|181:129,1,99.0000030212403,2|2,0:0|0:0,0:0:0:0:
387,170,47191,5,0,3:0:0:0:
387,170,47359,1,0,3:0:0:0:
387,170,47528,2,0,L|380:222,1,49.5000015106202,2|0,0:0|0:0,0:0:0:0:
470,158,47865,2,0,L|463:106,2,49.5000015106202,2|0|2,0:0|0:0|0:0,0:0:0:0:
499,307,48539,5,0,3:0:0:0:
499,307,48707,1,0,3:0:0:0:
499,307,48876,2,0,P|456:291|415:288,1,67.5000025749208,2|2,0:0|0:0,0:0:0:0:
363,333,49213,1,8,0:3:0:0:
363,333,49382,2,0,P|392:273|393:206,1,135.000005149842,2|0,0:0|0:0,0:0:0:0:
348,103,49887,5,0,3:0:0:0:
348,103,50056,1,0,3:0:0:0:
348,103,50224,2,0,L|258:92,1,67.5000025749208,2|2,0:0|0:0,0:0:0:0:
204,157,50561,2,0,L|69:174,1,135.000005149842,8|2,0:3|0:0,0:0:0:0:
70,173,51067,1,0,0:0:0:0:
37,342,51235,6,0,P|3:303|56:321,1,135,0|0,3:0|0:0,0:0:0:0:
32,318,51573,1,8,0:3:0:0:
151,363,51741,2,0,P|231:353|344:333,1,180,0|0,3:0|3:0,0:0:0:0:
427,304,52247,1,8,0:3:0:0:
294,330,52415,1,0,0:0:0:0:
338,209,52584,6,0,L|323:108,1,90,0|0,3:0|0:0,0:0:0:0:
306,17,52921,1,8,0:3:0:0:
306,17,53089,1,0,3:0:0:0:
179,58,53258,2,0,L|49:48,2,90,0|0|8,0:0|3:0|0:3,0:0:0:0:
179,58,53932,5,0,3:0:0:0:
256,192,54606,1,0,3:0:0:0:
370,21,55280,6,0,L|464:13,2,67.5000025749208,2|2|2,3:2|0:0|0:0,0:0:0:0:
285,190,56194,6,0,P|201:92|131:96,1,202.500007724762,4|0,3:2|0:0,0:0:0:0:
121,121,56700,2,0,L|130:195,1,67.5000025749208,2|2,3:2|0:0,0:0:0:0:
31,179,56953,2,0,L|22:253,1,67.5000025749208,2|2,0:0|0:0,0:0:0:0:
92,323,57206,2,0,P|149:290|214:303,2,135.000005149842,0|2|0,3:0|0:0|3:0,0:0:0:0:
225,329,57966,1,2,0:0:0:0:
299,239,58219,6,0,P|288:166|287:97,1,135.000005149842,0|0,3:0|0:0,0:0:0:0:
272,78,58599,1,2,0:0:0:0:
272,78,58725,1,2,3:2:0:0:
385,164,58978,1,2,0:2:0:0:
192,146,59231,2,0,P|159:157|126:163,1,67.5000025749208,2|0,3:2|0:0,0:0:0:0:
379,68,59485,2,0,P|412:74|444:84,1,67.5000025749208,2|0,0:0|0:0,0:0:0:0:
191,21,59738,2,0,P|126:9|74:49,1,135.000005149842,2|0,3:2|0:0,0:0:0:0:
67,272,60244,6,0,B|175:246|136:335|254:315,1,202.500007724762,4|0,3:2|0:0,0:0:0:0:
278,333,60750,2,0,P|310:300|363:281,1,67.5000025749208,2|2,3:2|0:0,0:0:0:0:
444,245,61004,2,0,P|399:233|356:197,1,67.5000025749208,2|2,0:0|0:0,0:0:0:0:
290,207,61257,1,0,3:0:0:0:
446,339,61510,1,2,0:0:0:0:
463,142,61763,1,2,3:2:0:0:
381,222,62016,1,2,0:0:0:0:
195,177,62269,6,0,L|158:40,1,135.000005149842,0|0,3:0|0:0,0:0:0:0:
133,32,62649,1,2,0:0:0:0:
133,32,62776,1,2,3:2:0:0:
87,145,63029,1,2,0:2:0:0:
266,58,63282,2,0,P|311:64|347:86,1,67.5000025749208,2|0,3:2|0:0,0:0:0:0:
393,157,63535,2,0,P|361:169|328:172,1,67.5000025749208,2|0,0:0|0:0,0:0:0:0:
454,93,63788,2,0,P|442:160|438:227,1,135.000005149842,0|0,3:0|0:0,0:0:0:0:
345,362,64295,6,0,B|307:350|291:333|291:333|252:344|252:344|216:324|216:324|195:336|159:339,1,202.500007724762,4|0,3:2|0:0,0:0:0:0:
137,358,64801,2,0,L|131:284,1,67.5000025749208,2|2,3:2|0:0,0:0:0:0:
42,222,65054,2,0,L|48:148,1,67.5000025749208,2|2,0:0|0:0,0:0:0:0:
35,313,65307,1,2,3:2:0:0:
180,203,65561,1,2,0:0:0:0:
56,64,65814,1,0,3:0:0:0:
42,222,66067,1,2,0:0:0:0:
169,93,66320,6,0,P|242:116|276:181,1,135.000005149842,0|0,3:0|0:0,0:0:0:0:
270,192,66700,1,2,0:0:0:0:
270,192,66826,1,2,3:2:0:0:
226,323,67080,1,2,0:2:0:0:
404,269,67333,2,0,L|316:275,1,67.5000025749208,0|0,3:0|0:0,0:0:0:0:
446,176,67586,2,0,L|378:171,1,67.5000025749208,2|0,0:0|0:0,0:0:0:0:
437,63,67839,2,0,L|276:76,1,135.000005149842,0|0,3:0|0:0,0:0:0:0:
86,43,68345,6,0,P|153:17|152:117,1,202.500007724762,4|0,3:2|0:0,0:0:0:0:
136,111,68852,2,0,L|146:230,1,67.5000025749208,2|2,3:2|0:0,0:0:0:0:
214,240,69105,2,0,L|224:359,1,67.5000025749208,2|2,0:0|0:0,0:0:0:0:
134,378,69358,1,0,3:0:0:0:
119,283,69611,1,2,0:0:0:0:
309,266,69864,1,2,3:2:0:0:
324,361,70118,1,2,0:0:0:0:
408,302,70371,6,0,P|419:236|445:163,1,135.000005149842,2|0,0:0|0:0,0:0:0:0:
441,171,70750,1,2,0:0:0:0:
441,171,70877,1,2,0:0:0:0:
339,108,71130,1,0,0:0:0:0:
339,108,71257,1,2,0:0:0:0:
339,108,71383,1,2,0:0:0:0:
454,45,71637,1,0,0:0:0:0:
454,45,71763,1,2,0:0:0:0:
454,45,71890,2,0,L|470:224,1,135.000005149842,2|0,0:0|0:0,0:0:0:0:
483,361,72396,6,0,P|405:366|400:254,1,202.500007724762,4|0,3:2|1:0,0:0:0:0:
413,233,72901,2,0,L|339:224,1,67.5000025749208,10|2,0:2|0:2,0:0:0:0:
258,158,73154,2,0,L|184:167,1,67.5000025749208,2|2,1:2|1:2,0:0:0:0:
65,186,73406,2,0,P|41:266|85:333,1,135.000005149842,2|2,3:2|1:2,0:0:0:0:
60,61,73912,2,0,P|85:122|65:186,1,135.000005149842,10|2,0:2|1:2,0:0:0:0:
46,229,74291,1,0,1:0:0:0:
46,229,74417,6,0,L|216:210,1,135.000005149842,2|0,3:2|1:0,0:0:0:0:
237,209,74797,1,0,1:0:0:0:
237,209,74923,1,10,0:2:0:0:
385,164,75176,1,0,1:0:0:0:
176,82,75428,2,0,P|157:8|165:-15,1,67.5000025749208,2|0,3:2|0:0,0:0:0:0:
356,19,75681,2,0,P|352:52|336:82,1,67.5000025749208,0|0,1:0|1:0,0:0:0:0:
256,224,75934,2,0,L|256:384,1,135.000005149842,10|0,0:2|1:0,0:0:0:0:
222,142,76439,6,0,B|334:117|299:207|437:210,1,202.500007724762,4|0,3:2|1:0,0:0:0:0:
458,200,76945,2,0,L|446:102,1,67.5000025749208,10|2,0:2|0:2,0:0:0:0:
378,316,77198,2,0,L|390:218,1,67.5000025749208,2|2,1:2|1:2,0:0:0:0:
494,384,77450,2,0,L|343:361,1,135.000005149842,2|2,3:2|1:2,0:0:0:0:
227,343,77956,2,0,L|378:366,1,135.000005149842,10|2,0:2|1:2,0:0:0:0:
410,375,78335,1,0,1:0:0:0:
410,375,78461,6,0,P|454:305|430:220,1,135.000005149842,2|0,3:2|1:0,0:0:0:0:
429,211,78840,1,0,1:0:0:0:
429,211,78967,1,10,0:2:0:0:
206,338,79219,1,0,1:0:0:0:
113,167,79472,2,0,P|158:173|194:195,1,67.5000025749208,2|0,3:2|0:0,0:0:0:0:
255,264,79725,2,0,P|223:276|190:279,1,67.5000025749208,0|0,1:0|1:0,0:0:0:0:
365,121,79978,2,0,P|325:200|373:285,1,135.000005149842,10|0,0:2|1:0,0:0:0:0:
383,366,80483,6,0,B|339:364|318:351|318:351|304:384|304:384|250:362|189:383,1,202.500007724762,4|0,3:2|1:0,0:0:0:0:
172,384,80989,2,0,L|160:311,1,67.5000025749208,10|2,0:2|0:2,0:0:0:0:
74,219,81241,2,0,L|80:145,1,67.5000025749208,2|2,1:2|1:2,0:0:0:0:
90,29,81494,2,0,P|171:14|224:61,1,135.000005149842,2|2,3:2|1:2,0:0:0:0:
332,53,82000,2,0,P|251:68|198:21,1,135.000005149842,10|0,0:2|1:0,0:0:0:0:
170,17,82379,1,0,1:0:0:0:
170,17,82505,6,0,L|179:166,1,135.000005149842,2|0,3:2|1:0,0:0:0:0:
188,211,82884,1,0,1:0:0:0:
188,211,83010,1,10,0:2:0:0:
295,123,83263,1,0,1:0:0:0:
385,285,83516,2,0,L|297:291,1,67.5000025749208,2|0,3:2|0:0,0:0:0:0:
464,198,83769,2,0,L|396:193,1,67.5000025749208,0|0,1:0|1:0,0:0:0:0:
469,374,84021,2,0,L|308:387,1,135.000005149842,10|0,0:2|0:0,0:0:0:0:
164,294,84527,6,0,P|172:207|277:251,1,202.500007724762,4|0,3:2|1:0,0:0:0:0:
288,235,85032,2,0,L|298:116,1,67.5000025749208,10|2,0:2|0:2,0:0:0:0:
389,284,85285,2,0,L|379:165,1,67.5000025749208,2|2,1:2|1:2,0:0:0:0:
216,349,85538,2,0,L|64:329,1,135.000005149842,2|2,3:2|1:2,0:0:0:0:
216,349,86043,2,0,L|368:369,1,135.000005149842,10|0,0:2|1:0,0:0:0:0:
402,379,86422,1,0,1:0:0:0:
402,379,86549,5,2,3:2:0:0:
342,251,86844,2,0,P|354:211|377:173,2,67.5000025749208,2|0|2,0:0|0:0|0:0,0:0:0:0:
256,96,87349,2,0,L|256:0,2,67.5000025749208,2|0|2,0:0|0:0|0:0,0:0:0:0:
170,251,87855,2,0,P|158:211|135:173,2,67.5000025749208,2|0|2,0:0|0:0|0:0,0:0:0:0:
256,192,88360,1,0,0:0:0:0:
256,28,88571,5,0,3:0:0:0:
256,192,89834,5,4,3:1:0:0:
256,192,89961,12,0,93878,0:0:0:0:
