osu file format v14

[General]
AudioFilename: audio.mp3
AudioLeadIn: 0
PreviewTime: 55279
Countdown: 0
SampleSet: Soft
StackLeniency: 0.7
Mode: 3
LetterboxInBreaks: 0
SpecialStyle: 0
WidescreenStoryboard: 0

[Editor]
DistanceSpacing: 0.3
BeatDivisor: 4
GridSize: 4
TimelineZoom: 1.8

[Metadata]
Title:Chika 2 Chika ULTIMATE Version
TitleUnicode:千花 2 Чика ULTIMATE Version
Artist:Fujiwara Chika (CV: Kohara Konomi) vs. Arthur Pirozhkov
ArtistUnicode:藤原千花 (CV: 小原好美) vs. Артур Пирожков
Creator:- Theya -
Version:ChikaChikaChika!
Source:
Tags:
BeatmapID:2094858
BeatmapSetID:1000836

[Difficulty]
HPDrainRate:8
CircleSize:4
OverallDifficulty:8
ApproachRate:5
SliderMultiplier:1.4
SliderTickRate:1

[Events]
//Background and Video events
0,0,"ultimate_edit.jpg",0,0
//Break Periods
//Storyboard Layer 0 (Background)
//Storyboard Layer 1 (Fail)
//Storyboard Layer 2 (Pass)
//Storyboard Layer 3 (Foreground)
//Storyboard Sound Samples

[TimingPoints]
0,337.078651685393,4,2,1,50,1,0
55279,504.201680672269,4,2,1,60,1,0
55280,-66.6666666666667,4,2,1,60,0,0
56194,506.329113924051,4,2,1,75,1,0
56194,-66.6666666666667,4,2,1,75,0,0
72396,505.47598989048,4,2,1,85,1,0
72396,-66.6666666666667,4,2,1,85,0,1
86549,-66.6666666666667,4,2,1,85,0,0
86844,505.47598989048,4,2,1,55,1,0
86844,-66.6666666666667,4,2,1,55,0,0
88571,337.078651685393,4,2,1,55,1,0
89835,337.078651685393,4,2,1,85,1,0

[HitObjects]
64,192,674,128,0,1348:0:0:0:0:
320,192,1348,128,0,2022:0:0:0:0:
192,192,2022,128,0,2696:0:0:0:0:
448,192,2696,128,0,4719:0:0:0:0:
320,192,4719,128,0,5393:0:0:0:0:
64,192,5393,128,0,6067:0:0:0:0:
448,192,6067,128,0,6741:0:0:0:0:
192,192,6741,128,0,7921:0:0:0:0:
192,192,8089,128,0,9269:0:0:0:0:
192,192,9438,128,0,9943:0:0:0:0:
192,192,10112,128,0,10617:0:0:0:0:
192,192,10786,1,0,0:0:0:0:
64,192,10786,1,0,0:0:0:0:
448,192,10786,1,0,0:0:0:0:
192,192,11123,1,0,0:0:0:0:
64,192,11460,1,0,0:0:0:0:
320,192,11460,1,0,0:0:0:0:
448,192,11460,1,0,0:0:0:0:
320,192,11797,1,0,0:0:0:0:
192,192,12134,1,0,0:0:0:0:
64,192,12134,1,0,0:0:0:0:
320,192,12134,1,0,0:0:0:0:
64,192,12640,1,0,0:0:0:0:
448,192,12808,128,0,13483:0:0:0:0:
192,192,13651,1,0,0:0:0:0:
64,192,13651,1,0,0:0:0:0:
448,192,13651,1,0,0:0:0:0:
192,192,13820,1,0,0:0:0:0:
320,192,13820,1,0,0:0:0:0:
448,192,13820,1,0,0:0:0:0:
320,192,13988,1,0,0:0:0:0:
192,192,13988,1,0,0:0:0:0:
64,192,13988,1,0,0:0:0:0:
64,192,14157,1,0,0:0:0:0:
320,192,14157,1,0,0:0:0:0:
448,192,14157,1,0,0:0:0:0:
192,192,14494,1,0,0:0:0:0:
320,192,14494,1,0,0:0:0:0:
64,192,14831,1,0,0:0:0:0:
192,192,14831,1,0,0:0:0:0:
448,192,14831,1,0,0:0:0:0:
320,192,14999,1,0,0:0:0:0:
448,192,15168,1,0,0:0:0:0:
192,192,15168,1,0,0:0:0:0:
64,192,15168,1,0,0:0:0:0:
320,192,15337,1,0,0:0:0:0:
64,192,15337,1,0,0:0:0:0:
192,192,15505,1,0,0:0:0:0:
320,192,15674,1,0,0:0:0:0:
448,192,15674,1,0,0:0:0:0:
192,192,15842,1,0,0:0:0:0:
64,192,15842,1,0,0:0:0:0:
448,192,15842,1,0,0:0:0:0:
320,192,16011,1,0,0:0:0:0:
192,192,16179,1,0,0:0:0:0:
64,192,16179,1,0,0:0:0:0:
320,192,16348,1,0,0:0:0:0:
448,192,16516,1,0,0:0:0:0:
192,192,16516,1,0,0:0:0:0:
64,192,16516,1,0,0:0:0:0:
192,192,16685,1,0,0:0:0:0:
320,192,16685,1,0,0:0:0:0:
192,192,17022,1,0,0:0:0:0:
320,192,17022,1,0,0:0:0:0:
64,192,17191,1,0,0:0:0:0:
192,192,17191,1,0,0:0:0:0:
448,192,17191,1,0,0:0:0:0:
448,192,17359,1,0,0:0:0:0:
320,192,17443,1,0,0:0:0:0:
192,192,17528,1,0,0:0:0:0:
64,192,17528,1,0,0:0:0:0:
320,192,17696,1,0,0:0:0:0:
192,192,17865,1,0,0:0:0:0:
64,192,17865,1,0,0:0:0:0:
448,192,17865,1,0,0:0:0:0:
64,192,18033,1,0,0:0:0:0:
448,192,18033,1,0,0:0:0:0:
192,192,18202,1,0,0:0:0:0:
320,192,18370,1,0,0:0:0:0:
448,192,18370,1,0,0:0:0:0:
192,192,18539,1,0,0:0:0:0:
64,192,18539,1,0,0:0:0:0:
320,192,18539,1,0,0:0:0:0:
320,192,18707,1,0,0:0:0:0:
192,192,19044,1,0,0:0:0:0:
320,192,19044,1,0,0:0:0:0:
448,192,19044,1,0,0:0:0:0:
320,192,19213,1,0,0:0:0:0:
64,192,19213,1,0,0:0:0:0:
448,192,19213,1,0,0:0:0:0:
192,192,19382,1,0,0:0:0:0:
64,192,19382,1,0,0:0:0:0:
320,192,19382,1,0,0:0:0:0:
64,192,19550,1,0,0:0:0:0:
192,192,19550,1,0,0:0:0:0:
448,192,19550,128,0,19887:0:0:0:0:
192,192,20224,1,0,0:0:0:0:
64,192,20224,1,0,0:0:0:0:
448,192,20224,1,0,0:0:0:0:
320,192,20393,1,0,0:0:0:0:
64,192,20561,1,0,0:0:0:0:
192,192,20561,1,0,0:0:0:0:
320,192,20561,1,0,0:0:0:0:
320,192,20730,1,0,0:0:0:0:
448,192,20730,1,0,0:0:0:0:
192,192,20898,1,0,0:0:0:0:
64,192,21067,1,0,0:0:0:0:
320,192,21067,1,0,0:0:0:0:
448,192,21235,1,0,0:0:0:0:
192,192,21235,1,0,0:0:0:0:
64,192,21235,1,0,0:0:0:0:
320,192,21404,1,0,0:0:0:0:
192,192,21573,1,0,0:0:0:0:
64,192,21573,1,0,0:0:0:0:
320,192,21741,1,0,0:0:0:0:
448,192,21741,1,0,0:0:0:0:
192,192,21910,1,0,0:0:0:0:
64,192,21910,1,0,0:0:0:0:
448,192,21910,1,0,0:0:0:0:
64,192,22078,1,0,0:0:0:0:
320,192,22078,1,0,0:0:0:0:
448,192,22078,1,0,0:0:0:0:
320,192,22415,1,0,0:0:0:0:
192,192,22415,1,0,0:0:0:0:
64,192,22584,1,0,0:0:0:0:
320,192,22584,1,0,0:0:0:0:
448,192,22584,1,0,0:0:0:0:
192,192,22921,1,0,0:0:0:0:
64,192,22921,1,0,0:0:0:0:
320,192,22921,1,0,0:0:0:0:
192,192,23089,1,0,0:0:0:0:
320,192,23258,1,0,0:0:0:0:
448,192,23258,1,0,0:0:0:0:
192,192,23258,1,0,0:0:0:0:
64,192,23426,1,0,0:0:0:0:
320,192,23426,1,0,0:0:0:0:
448,192,23595,1,0,0:0:0:0:
192,192,23764,1,0,0:0:0:0:
64,192,23932,1,0,0:0:0:0:
192,192,23932,1,0,0:0:0:0:
320,192,23932,1,0,0:0:0:0:
448,192,24101,1,0,0:0:0:0:
192,192,24269,1,0,0:0:0:0:
320,192,24269,1,0,0:0:0:0:
64,192,24269,1,0,0:0:0:0:
192,192,24438,1,0,0:0:0:0:
320,192,24438,1,0,0:0:0:0:
64,192,24606,1,0,0:0:0:0:
192,192,24606,1,0,0:0:0:0:
448,192,24606,1,0,0:0:0:0:
320,192,24775,1,0,0:0:0:0:
448,192,24775,1,0,0:0:0:0:
448,192,25112,1,0,0:0:0:0:
320,192,25112,1,0,0:0:0:0:
64,192,25280,1,0,0:0:0:0:
320,192,25280,1,0,0:0:0:0:
192,192,25280,128,0,25617:0:0:0:0:
64,192,25617,1,0,0:0:0:0:
320,192,25617,1,0,0:0:0:0:
448,192,25617,1,0,0:0:0:0:
320,192,25786,1,0,0:0:0:0:
192,192,25955,1,0,0:0:0:0:
64,192,25955,1,0,0:0:0:0:
448,192,25955,1,0,0:0:0:0:
192,192,26123,1,0,0:0:0:0:
320,192,26123,1,0,0:0:0:0:
192,192,26292,1,0,0:0:0:0:
64,192,26460,1,0,0:0:0:0:
448,192,26460,1,0,0:0:0:0:
320,192,26629,1,0,0:0:0:0:
192,192,26629,1,0,0:0:0:0:
64,192,26629,1,0,0:0:0:0:
320,192,26797,1,0,0:0:0:0:
448,192,26966,1,0,0:0:0:0:
192,192,26966,1,0,0:0:0:0:
64,192,26966,1,0,0:0:0:0:
192,192,27134,1,0,0:0:0:0:
448,192,27134,1,0,0:0:0:0:
320,192,27303,1,0,0:0:0:0:
192,192,27303,1,0,0:0:0:0:
64,192,27303,1,0,0:0:0:0:
320,192,27471,1,0,0:0:0:0:
448,192,27471,1,0,0:0:0:0:
448,192,27808,1,0,0:0:0:0:
320,192,27808,1,0,0:0:0:0:
192,192,27977,1,0,0:0:0:0:
64,192,27977,1,0,0:0:0:0:
448,192,27977,1,0,0:0:0:0:
448,192,28314,1,0,0:0:0:0:
320,192,28314,1,0,0:0:0:0:
192,192,28314,1,0,0:0:0:0:
64,192,28483,1,0,0:0:0:0:
320,192,28483,1,0,0:0:0:0:
192,192,28651,1,0,0:0:0:0:
64,192,28651,1,0,0:0:0:0:
320,192,28651,1,0,0:0:0:0:
192,192,28820,1,0,0:0:0:0:
448,192,28820,1,0,0:0:0:0:
192,192,28988,1,0,0:0:0:0:
320,192,28988,1,0,0:0:0:0:
448,192,28988,1,0,0:0:0:0:
64,192,29157,1,0,0:0:0:0:
320,192,29157,1,0,0:0:0:0:
320,192,29325,1,0,0:0:0:0:
64,192,29325,1,0,0:0:0:0:
192,192,29325,1,0,0:0:0:0:
192,192,29494,1,0,0:0:0:0:
448,192,29494,1,0,0:0:0:0:
448,192,29662,1,0,0:0:0:0:
320,192,29662,1,0,0:0:0:0:
192,192,29662,1,0,0:0:0:0:
320,192,29831,1,0,0:0:0:0:
64,192,29831,1,0,0:0:0:0:
448,192,29831,1,0,0:0:0:0:
192,192,29999,1,0,0:0:0:0:
64,192,29999,1,0,0:0:0:0:
320,192,29999,1,0,0:0:0:0:
448,192,30168,1,0,0:0:0:0:
192,192,30168,1,0,0:0:0:0:
64,192,30168,1,0,0:0:0:0:
320,192,30337,1,0,0:0:0:0:
448,192,30337,1,0,0:0:0:0:
64,192,30337,1,0,0:0:0:0:
192,192,30337,128,0,30674:0:0:0:0:
192,192,31011,1,0,0:0:0:0:
64,192,31011,1,0,0:0:0:0:
448,192,31011,1,0,0:0:0:0:
320,192,31179,1,0,0:0:0:0:
64,192,31348,1,0,0:0:0:0:
192,192,31348,1,0,0:0:0:0:
320,192,31348,1,0,0:0:0:0:
320,192,31516,1,0,0:0:0:0:
448,192,31516,1,0,0:0:0:0:
192,192,31685,1,0,0:0:0:0:
64,192,31853,1,0,0:0:0:0:
320,192,31853,1,0,0:0:0:0:
448,192,32022,1,0,0:0:0:0:
192,192,32022,1,0,0:0:0:0:
64,192,32022,1,0,0:0:0:0:
320,192,32191,1,0,0:0:0:0:
192,192,32359,1,0,0:0:0:0:
64,192,32359,1,0,0:0:0:0:
320,192,32528,1,0,0:0:0:0:
448,192,32528,1,0,0:0:0:0:
192,192,32696,1,0,0:0:0:0:
64,192,32696,1,0,0:0:0:0:
448,192,32696,1,0,0:0:0:0:
64,192,32865,1,0,0:0:0:0:
320,192,32865,1,0,0:0:0:0:
448,192,32865,1,0,0:0:0:0:
320,192,33202,1,0,0:0:0:0:
192,192,33202,1,0,0:0:0:0:
64,192,33370,1,0,0:0:0:0:
320,192,33370,1,0,0:0:0:0:
448,192,33370,1,0,0:0:0:0:
192,192,33707,1,0,0:0:0:0:
64,192,33707,1,0,0:0:0:0:
320,192,33707,1,0,0:0:0:0:
192,192,33876,1,0,0:0:0:0:
320,192,34044,1,0,0:0:0:0:
448,192,34044,1,0,0:0:0:0:
192,192,34044,1,0,0:0:0:0:
64,192,34213,1,0,0:0:0:0:
320,192,34213,1,0,0:0:0:0:
448,192,34382,1,0,0:0:0:0:
192,192,34550,1,0,0:0:0:0:
64,192,34719,1,0,0:0:0:0:
192,192,34719,1,0,0:0:0:0:
320,192,34719,1,0,0:0:0:0:
448,192,34887,1,0,0:0:0:0:
192,192,35056,1,0,0:0:0:0:
320,192,35056,1,0,0:0:0:0:
64,192,35056,1,0,0:0:0:0:
192,192,35224,1,0,0:0:0:0:
320,192,35224,1,0,0:0:0:0:
64,192,35393,1,0,0:0:0:0:
192,192,35393,1,0,0:0:0:0:
448,192,35393,1,0,0:0:0:0:
448,192,35561,1,0,0:0:0:0:
320,192,35561,128,0,35898:0:0:0:0:
448,192,35898,1,0,0:0:0:0:
192,192,35898,1,0,0:0:0:0:
64,192,36067,1,0,0:0:0:0:
320,192,36067,1,0,0:0:0:0:
192,192,36067,1,0,0:0:0:0:
64,192,36404,1,0,0:0:0:0:
320,192,36404,1,0,0:0:0:0:
448,192,36404,1,0,0:0:0:0:
320,192,36573,1,0,0:0:0:0:
192,192,36741,1,0,0:0:0:0:
64,192,36741,1,0,0:0:0:0:
448,192,36741,1,0,0:0:0:0:
192,192,36910,1,0,0:0:0:0:
320,192,36910,1,0,0:0:0:0:
192,192,37078,1,0,0:0:0:0:
64,192,37247,1,0,0:0:0:0:
448,192,37247,1,0,0:0:0:0:
320,192,37415,1,0,0:0:0:0:
192,192,37415,1,0,0:0:0:0:
64,192,37415,1,0,0:0:0:0:
320,192,37584,1,0,0:0:0:0:
448,192,37752,1,0,0:0:0:0:
192,192,37752,1,0,0:0:0:0:
64,192,37752,1,0,0:0:0:0:
192,192,37921,1,0,0:0:0:0:
448,192,37921,1,0,0:0:0:0:
320,192,38089,1,0,0:0:0:0:
192,192,38089,1,0,0:0:0:0:
64,192,38089,1,0,0:0:0:0:
320,192,38258,1,0,0:0:0:0:
448,192,38258,1,0,0:0:0:0:
448,192,38595,1,0,0:0:0:0:
320,192,38595,1,0,0:0:0:0:
192,192,38764,1,0,0:0:0:0:
64,192,38764,1,0,0:0:0:0:
448,192,38764,1,0,0:0:0:0:
192,192,38932,1,0,0:0:0:0:
448,192,39101,1,0,0:0:0:0:
320,192,39101,1,0,0:0:0:0:
192,192,39101,1,0,0:0:0:0:
64,192,39269,1,0,0:0:0:0:
192,192,39438,1,0,0:0:0:0:
64,192,39438,1,0,0:0:0:0:
320,192,39438,1,0,0:0:0:0:
192,192,39606,1,0,0:0:0:0:
448,192,39606,1,0,0:0:0:0:
320,192,39775,1,0,0:0:0:0:
320,192,39943,1,0,0:0:0:0:
448,192,39943,1,0,0:0:0:0:
320,192,40112,1,0,0:0:0:0:
64,192,40112,1,0,0:0:0:0:
192,192,40112,1,0,0:0:0:0:
192,192,40280,1,0,0:0:0:0:
448,192,40449,1,0,0:0:0:0:
320,192,40449,1,0,0:0:0:0:
192,192,40449,1,0,0:0:0:0:
64,192,41123,1,0,0:0:0:0:
192,192,41123,1,0,0:0:0:0:
320,192,41123,1,0,0:0:0:0:
64,192,41797,1,0,0:0:0:0:
448,192,41797,1,0,0:0:0:0:
320,192,41797,128,0,43146:0:0:0:0:
192,192,43146,1,0,0:0:0:0:
64,192,43146,1,0,0:0:0:0:
64,192,43314,1,0,0:0:0:0:
192,192,43314,1,0,0:0:0:0:
320,192,44494,1,0,0:0:0:0:
448,192,44494,1,0,0:0:0:0:
320,192,44662,1,0,0:0:0:0:
448,192,44662,1,0,0:0:0:0:
192,192,45842,1,0,0:0:0:0:
320,192,45842,1,0,0:0:0:0:
192,192,46011,1,0,0:0:0:0:
320,192,46011,1,0,0:0:0:0:
64,192,47191,1,0,0:0:0:0:
448,192,47191,1,0,0:0:0:0:
64,192,47359,1,0,0:0:0:0:
448,192,47359,1,0,0:0:0:0:
320,192,48539,1,0,0:0:0:0:
64,192,48539,1,0,0:0:0:0:
64,192,48707,1,0,0:0:0:0:
320,192,48707,1,0,0:0:0:0:
64,192,49213,1,0,0:0:0:0:
192,192,49213,1,0,0:0:0:0:
448,192,49213,1,0,0:0:0:0:
320,192,49887,1,0,0:0:0:0:
192,192,49887,1,0,0:0:0:0:
192,192,50056,1,0,0:0:0:0:
320,192,50056,1,0,0:0:0:0:
192,192,50561,1,0,0:0:0:0:
320,192,50561,1,0,0:0:0:0:
448,192,50561,1,0,0:0:0:0:
192,192,51235,1,0,0:0:0:0:
64,192,51235,1,0,0:0:0:0:
320,192,51235,1,0,0:0:0:0:
192,192,51404,1,0,0:0:0:0:
320,192,51573,1,0,0:0:0:0:
448,192,51573,1,0,0:0:0:0:
64,192,51573,1,0,0:0:0:0:
192,192,51741,1,0,0:0:0:0:
448,192,51741,1,0,0:0:0:0:
320,192,51910,1,0,0:0:0:0:
192,192,52078,1,0,0:0:0:0:
64,192,52078,1,0,0:0:0:0:
192,192,52247,1,0,0:0:0:0:
320,192,52247,1,0,0:0:0:0:
448,192,52247,1,0,0:0:0:0:
320,192,52415,1,0,0:0:0:0:
192,192,52584,1,0,0:0:0:0:
64,192,52584,1,0,0:0:0:0:
448,192,52584,1,0,0:0:0:0:
192,192,52752,1,0,0:0:0:0:
320,192,52921,1,0,0:0:0:0:
448,192,52921,1,0,0:0:0:0:
64,192,52921,1,0,0:0:0:0:
320,192,53089,1,0,0:0:0:0:
192,192,53089,1,0,0:0:0:0:
192,192,53258,1,0,0:0:0:0:
320,192,53426,1,0,0:0:0:0:
448,192,53426,1,0,0:0:0:0:
192,192,53595,1,0,0:0:0:0:
64,192,53595,1,0,0:0:0:0:
448,192,53595,1,0,0:0:0:0:
448,192,53932,1,0,0:0:0:0:
320,192,53932,1,0,0:0:0:0:
64,192,53932,1,0,0:0:0:0:
64,192,54606,1,0,0:0:0:0:
192,192,54606,1,0,0:0:0:0:
320,192,54606,1,0,0:0:0:0:
64,192,55279,128,0,55531:0:0:0:0:
192,192,55279,1,0,0:0:0:0:
320,192,55531,128,0,55783:0:0:0:0:
192,192,55783,128,0,56035:0:0:0:0:
192,192,56194,128,0,56573:0:0:0:0:
320,192,56194,128,0,56573:0:0:0:0:
448,192,56194,128,0,56573:0:0:0:0:
64,192,56194,128,0,56573:0:0:0:0:
448,192,56700,1,0,0:0:0:0:
320,192,56700,1,0,0:0:0:0:
64,192,56826,1,0,0:0:0:0:
192,192,56826,1,0,0:0:0:0:
320,192,56953,1,0,0:0:0:0:
448,192,56953,1,0,0:0:0:0:
192,192,57080,1,0,0:0:0:0:
64,192,57080,1,0,0:0:0:0:
320,192,57206,1,0,0:0:0:0:
448,192,57206,1,0,0:0:0:0:
192,192,57206,1,0,0:0:0:0:
64,192,57459,1,0,0:0:0:0:
320,192,57459,1,0,0:0:0:0:
192,192,57712,1,0,0:0:0:0:
448,192,57712,1,0,0:0:0:0:
320,192,57712,1,0,0:0:0:0:
64,192,57966,1,0,0:0:0:0:
192,192,57966,1,0,0:0:0:0:
320,192,58219,1,0,0:0:0:0:
192,192,58219,1,0,0:0:0:0:
64,192,58219,1,0,0:0:0:0:
448,192,58472,1,0,0:0:0:0:
320,192,58599,1,0,0:0:0:0:
192,192,58725,1,0,0:0:0:0:
64,192,58725,1,0,0:0:0:0:
448,192,58725,1,0,0:0:0:0:
64,192,58978,1,0,0:0:0:0:
192,192,59105,1,0,0:0:0:0:
320,192,59231,1,0,0:0:0:0:
448,192,59231,1,0,0:0:0:0:
64,192,59231,1,0,0:0:0:0:
320,192,59485,1,0,0:0:0:0:
192,192,59611,1,0,0:0:0:0:
320,192,59738,1,0,0:0:0:0:
448,192,59738,128,0,60118:0:0:0:0:
64,192,59738,128,0,60118:0:0:0:0:
64,192,60244,128,0,60624:0:0:0:0:
192,192,60244,128,0,60624:0:0:0:0:
320,192,60244,128,0,60624:0:0:0:0:
448,192,60244,128,0,60624:0:0:0:0:
192,192,60750,1,0,0:0:0:0:
320,192,60750,1,0,0:0:0:0:
448,192,60877,1,0,0:0:0:0:
64,192,60877,1,0,0:0:0:0:
192,192,61004,1,0,0:0:0:0:
320,192,61004,1,0,0:0:0:0:
64,192,61130,1,0,0:0:0:0:
448,192,61130,1,0,0:0:0:0:
192,192,61257,1,0,0:0:0:0:
320,192,61257,1,0,0:0:0:0:
64,192,61257,1,0,0:0:0:0:
320,192,61510,1,0,0:0:0:0:
448,192,61510,1,0,0:0:0:0:
192,192,61763,1,0,0:0:0:0:
64,192,61763,1,0,0:0:0:0:
448,192,61763,1,0,0:0:0:0:
192,192,62016,1,0,0:0:0:0:
320,192,62016,1,0,0:0:0:0:
448,192,62269,1,0,0:0:0:0:
320,192,62269,1,0,0:0:0:0:
64,192,62269,1,0,0:0:0:0:
192,192,62523,1,0,0:0:0:0:
320,192,62649,1,0,0:0:0:0:
448,192,62776,1,0,0:0:0:0:
192,192,62776,1,0,0:0:0:0:
64,192,62776,1,0,0:0:0:0:
320,192,63029,1,0,0:0:0:0:
192,192,63156,1,0,0:0:0:0:
64,192,63282,1,0,0:0:0:0:
320,192,63282,1,0,0:0:0:0:
448,192,63282,1,0,0:0:0:0:
448,192,63535,1,0,0:0:0:0:
320,192,63662,1,0,0:0:0:0:
448,192,63788,1,0,0:0:0:0:
192,192,63788,128,0,64168:0:0:0:0:
64,192,63788,128,0,64168:0:0:0:0:
192,192,64295,128,0,64675:0:0:0:0:
64,192,64295,128,0,64675:0:0:0:0:
320,192,64295,128,0,64675:0:0:0:0:
448,192,64295,128,0,64675:0:0:0:0:
448,192,64801,1,0,0:0:0:0:
192,192,64801,1,0,0:0:0:0:
64,192,64928,1,0,0:0:0:0:
320,192,64928,1,0,0:0:0:0:
192,192,65054,1,0,0:0:0:0:
448,192,65054,1,0,0:0:0:0:
64,192,65181,1,0,0:0:0:0:
320,192,65181,1,0,0:0:0:0:
192,192,65307,1,0,0:0:0:0:
448,192,65307,1,0,0:0:0:0:
320,192,65307,1,0,0:0:0:0:
192,192,65561,1,0,0:0:0:0:
320,192,65561,1,0,0:0:0:0:
192,192,65814,1,0,0:0:0:0:
64,192,65814,1,0,0:0:0:0:
448,192,65814,1,0,0:0:0:0:
320,192,66067,1,0,0:0:0:0:
448,192,66067,1,0,0:0:0:0:
192,192,66320,1,0,0:0:0:0:
64,192,66320,1,0,0:0:0:0:
448,192,66320,1,0,0:0:0:0:
448,192,66573,1,0,0:0:0:0:
192,192,66700,1,0,0:0:0:0:
448,192,66826,1,0,0:0:0:0:
320,192,66826,1,0,0:0:0:0:
64,192,66826,1,0,0:0:0:0:
64,192,67080,1,0,0:0:0:0:
448,192,67206,1,0,0:0:0:0:
320,192,67333,1,0,0:0:0:0:
192,192,67333,1,0,0:0:0:0:
64,192,67333,1,0,0:0:0:0:
64,192,67586,1,0,0:0:0:0:
320,192,67712,1,0,0:0:0:0:
64,192,67839,1,0,0:0:0:0:
192,192,67839,128,0,68219:0:0:0:0:
448,192,67839,128,0,68219:0:0:0:0:
64,192,68345,128,0,68725:0:0:0:0:
192,192,68345,128,0,68725:0:0:0:0:
320,192,68345,128,0,68725:0:0:0:0:
448,192,68345,128,0,68725:0:0:0:0:
192,192,68852,1,0,0:0:0:0:
64,192,68852,1,0,0:0:0:0:
448,192,68978,1,0,0:0:0:0:
320,192,68978,1,0,0:0:0:0:
64,192,69105,1,0,0:0:0:0:
192,192,69105,1,0,0:0:0:0:
448,192,69231,1,0,0:0:0:0:
320,192,69231,1,0,0:0:0:0:
192,192,69358,1,0,0:0:0:0:
320,192,69358,1,0,0:0:0:0:
64,192,69358,1,0,0:0:0:0:
320,192,69611,1,0,0:0:0:0:
448,192,69611,1,0,0:0:0:0:
192,192,69864,1,0,0:0:0:0:
64,192,69864,1,0,0:0:0:0:
448,192,69864,1,0,0:0:0:0:
192,192,70118,1,0,0:0:0:0:
320,192,70118,1,0,0:0:0:0:
448,192,70371,1,0,0:0:0:0:
320,192,70371,1,0,0:0:0:0:
64,192,70371,1,0,0:0:0:0:
192,192,70624,1,0,0:0:0:0:
320,192,70750,1,0,0:0:0:0:
448,192,70877,1,0,0:0:0:0:
320,192,71130,1,0,0:0:0:0:
192,192,71257,1,0,0:0:0:0:
64,192,71383,1,0,0:0:0:0:
192,192,71637,1,0,0:0:0:0:
320,192,71763,1,0,0:0:0:0:
64,192,71890,128,0,72269:0:0:0:0:
320,192,72396,128,0,72775:0:0:0:0:
448,192,72396,128,0,72775:0:0:0:0:
64,192,72396,128,0,72775:0:0:0:0:
192,192,72396,128,0,72775:0:0:0:0:
64,192,72901,1,0,0:0:0:0:
192,192,72901,1,0,0:0:0:0:
448,192,73027,1,0,0:0:0:0:
64,192,73027,1,0,0:0:0:0:
448,192,73154,1,0,0:0:0:0:
192,192,73154,1,0,0:0:0:0:
192,192,73280,1,0,0:0:0:0:
320,192,73280,1,0,0:0:0:0:
448,192,73406,1,0,0:0:0:0:
64,192,73406,1,0,0:0:0:0:
320,192,73406,1,0,0:0:0:0:
320,192,73659,1,0,0:0:0:0:
448,192,73659,1,0,0:0:0:0:
64,192,73912,1,0,0:0:0:0:
448,192,73912,1,0,0:0:0:0:
192,192,73912,1,0,0:0:0:0:
192,192,74165,1,0,0:0:0:0:
320,192,74165,1,0,0:0:0:0:
320,192,74417,1,0,0:0:0:0:
448,192,74417,1,0,0:0:0:0:
64,192,74417,1,0,0:0:0:0:
192,192,74670,1,0,0:0:0:0:
64,192,74670,1,0,0:0:0:0:
320,192,74797,1,0,0:0:0:0:
192,192,74923,1,0,0:0:0:0:
64,192,74923,1,0,0:0:0:0:
448,192,74923,1,0,0:0:0:0:
320,192,75176,1,0,0:0:0:0:
448,192,75176,1,0,0:0:0:0:
192,192,75302,1,0,0:0:0:0:
64,192,75428,1,0,0:0:0:0:
320,192,75428,1,0,0:0:0:0:
448,192,75428,1,0,0:0:0:0:
448,192,75681,1,0,0:0:0:0:
64,192,75681,1,0,0:0:0:0:
320,192,75807,1,0,0:0:0:0:
448,192,75934,1,0,0:0:0:0:
192,192,75934,128,0,76313:0:0:0:0:
64,192,75934,128,0,76313:0:0:0:0:
64,192,76439,128,0,76818:0:0:0:0:
192,192,76439,128,0,76818:0:0:0:0:
320,192,76439,128,0,76818:0:0:0:0:
448,192,76439,128,0,76818:0:0:0:0:
192,192,76945,1,0,0:0:0:0:
448,192,76945,1,0,0:0:0:0:
320,192,77071,1,0,0:0:0:0:
192,192,77071,1,0,0:0:0:0:
64,192,77198,1,0,0:0:0:0:
448,192,77198,1,0,0:0:0:0:
320,192,77324,1,0,0:0:0:0:
448,192,77324,1,0,0:0:0:0:
192,192,77450,1,0,0:0:0:0:
64,192,77450,1,0,0:0:0:0:
448,192,77450,1,0,0:0:0:0:
192,192,77703,1,0,0:0:0:0:
320,192,77703,1,0,0:0:0:0:
64,192,77956,1,0,0:0:0:0:
192,192,77956,1,0,0:0:0:0:
448,192,77956,1,0,0:0:0:0:
64,192,78208,1,0,0:0:0:0:
192,192,78208,1,0,0:0:0:0:
192,192,78461,1,0,0:0:0:0:
320,192,78461,1,0,0:0:0:0:
448,192,78461,1,0,0:0:0:0:
192,192,78714,1,0,0:0:0:0:
320,192,78714,1,0,0:0:0:0:
320,192,78840,1,0,0:0:0:0:
448,192,78967,1,0,0:0:0:0:
192,192,78967,1,0,0:0:0:0:
64,192,78967,1,0,0:0:0:0:
64,192,79219,1,0,0:0:0:0:
320,192,79219,1,0,0:0:0:0:
192,192,79346,1,0,0:0:0:0:
448,192,79472,1,0,0:0:0:0:
320,192,79472,1,0,0:0:0:0:
192,192,79472,1,0,0:0:0:0:
448,192,79725,1,0,0:0:0:0:
320,192,79725,1,0,0:0:0:0:
192,192,79851,1,0,0:0:0:0:
64,192,79978,1,0,0:0:0:0:
320,192,79978,128,0,80357:0:0:0:0:
448,192,79978,128,0,80357:0:0:0:0:
64,192,80483,128,0,80862:0:0:0:0:
192,192,80483,128,0,80862:0:0:0:0:
320,192,80483,128,0,80862:0:0:0:0:
448,192,80483,128,0,80862:0:0:0:0:
192,192,80989,1,0,0:0:0:0:
320,192,80989,1,0,0:0:0:0:
320,192,81115,1,0,0:0:0:0:
448,192,81115,1,0,0:0:0:0:
192,192,81241,1,0,0:0:0:0:
448,192,81241,1,0,0:0:0:0:
64,192,81368,1,0,0:0:0:0:
192,192,81368,1,0,0:0:0:0:
320,192,81494,1,0,0:0:0:0:
448,192,81494,1,0,0:0:0:0:
64,192,81494,1,0,0:0:0:0:
320,192,81747,1,0,0:0:0:0:
448,192,81747,1,0,0:0:0:0:
192,192,82000,1,0,0:0:0:0:
320,192,82000,1,0,0:0:0:0:
64,192,82000,1,0,0:0:0:0:
192,192,82252,1,0,0:0:0:0:
448,192,82252,1,0,0:0:0:0:
448,192,82505,1,0,0:0:0:0:
320,192,82505,1,0,0:0:0:0:
192,192,82505,1,0,0:0:0:0:
64,192,82758,1,0,0:0:0:0:
320,192,82758,1,0,0:0:0:0:
448,192,82884,1,0,0:0:0:0:
320,192,83010,1,0,0:0:0:0:
192,192,83010,1,0,0:0:0:0:
64,192,83010,1,0,0:0:0:0:
448,192,83263,1,0,0:0:0:0:
320,192,83263,1,0,0:0:0:0:
64,192,83390,1,0,0:0:0:0:
320,192,83516,1,0,0:0:0:0:
192,192,83516,1,0,0:0:0:0:
448,192,83516,1,0,0:0:0:0:
192,192,83769,1,0,0:0:0:0:
320,192,83769,1,0,0:0:0:0:
64,192,83895,1,0,0:0:0:0:
64,192,84021,1,0,0:0:0:0:
192,192,84021,128,0,84401:0:0:0:0:
320,192,84021,128,0,84401:0:0:0:0:
64,192,84527,128,0,84906:0:0:0:0:
192,192,84527,128,0,84906:0:0:0:0:
320,192,84527,128,0,84906:0:0:0:0:
448,192,84527,128,0,84906:0:0:0:0:
192,192,85032,1,0,0:0:0:0:
320,192,85032,1,0,0:0:0:0:
320,192,85159,1,0,0:0:0:0:
64,192,85159,1,0,0:0:0:0:
448,192,85285,1,0,0:0:0:0:
64,192,85285,1,0,0:0:0:0:
192,192,85412,1,0,0:0:0:0:
448,192,85412,1,0,0:0:0:0:
448,192,85538,1,0,0:0:0:0:
320,192,85538,1,0,0:0:0:0:
64,192,85538,1,0,0:0:0:0:
192,192,85791,1,0,0:0:0:0:
320,192,85791,1,0,0:0:0:0:
448,192,86043,1,0,0:0:0:0:
320,192,86043,1,0,0:0:0:0:
64,192,86043,1,0,0:0:0:0:
320,192,86296,1,0,0:0:0:0:
448,192,86296,1,0,0:0:0:0:
192,192,86844,1,0,0:0:0:0:
64,192,86970,1,0,0:0:0:0:
448,192,87096,1,0,0:0:0:0:
192,192,87349,1,0,0:0:0:0:
320,192,87475,1,0,0:0:0:0:
64,192,87602,1,0,0:0:0:0:
448,192,87854,1,0,0:0:0:0:
192,192,87981,1,0,0:0:0:0:
64,192,88107,128,0,88486:0:0:0:0:
320,192,88571,128,0,88739:0:0:0:0:
192,192,88739,128,0,88908:0:0:0:0:
448,192,88908,128,0,89076:0:0:0:0:
64,192,89076,128,0,89245:0:0:0:0:
192,192,89245,1,0,0:0:0:0:
192,192,89835,1,0,0:0:0:0:
320,192,89835,1,0,0:0:0:0:
448,192,89835,128,0,93879:0:0:0:0:
64,192,93879,1,0,0:0:0:0:
