osu file format v14

[General]
AudioFilename: audio.mp3
AudioLeadIn: 0
PreviewTime: 46526
Countdown: 0
SampleSet: None
StackLeniency: 0.4
Mode: 0
LetterboxInBreaks: 0
WidescreenStoryboard: 1

[Editor]
Bookmarks: 23604,59840,86806,86975,87144,87312,87481,87649,87818,87986,88155,88323,95739
DistanceSpacing: 0.6
BeatDivisor: 8
GridSize: 32
TimelineZoom: 2.699999

[Metadata]
Title:Chikatto Chika Chika (TV Size)
TitleUnicode:チカっとチカ千花っ♡ (TV Size)
Artist:Fujiwara Chika (CV: Kohara Konomi)
ArtistUnicode:藤原千花 (CV: 小原好美)
Creator:ylvy
Version:hailie's favourite song
Source:Kaguya-sama: Love Is War
Tags:wa Kokurasetai Tensai-tachi no Renai Zunousen wants to be confessed to japanese pop jpop j anime The Geniuses' War of Love and Brains かぐや様は告らせたい ~天才たちの恋愛頭脳戦~
BeatmapID:2007886
BeatmapSetID:959051

[Difficulty]
HPDrainRate:6
CircleSize:4
OverallDifficulty:8
ApproachRate:9
SliderMultiplier:1.6
SliderTickRate:0.5

[Events]
//Background and Video events
0,0,"chikatto.jpg",0,0
//Break Periods
//Storyboard Layer 0 (Background)
//Storyboard Layer 1 (Fail)
//Storyboard Layer 2 (Pass)
//Storyboard Layer 3 (Foreground)
//Storyboard Sound Samples

[TimingPoints]
3380,337.078651685393,4,2,0,44,1,0
4054,-333.333333333333,4,2,0,44,0,0
14166,-100,4,2,0,44,0,0
14840,-80,4,2,0,44,0,0
15514,-100,4,2,0,44,0,0
16188,-142.857142857143,4,2,0,44,0,0
17874,-434.782608695652,4,2,0,44,0,0
18211,-83.3333333333333,4,2,0,44,0,0
18717,-100,4,2,0,44,0,0
19222,-166.666666666667,4,2,0,44,0,0
19728,-100,4,2,0,44,0,0
20908,-83.3333333333333,4,2,0,44,0,0
21413,-100,4,2,0,44,0,0
21919,-133.333333333333,4,2,0,44,0,0
22424,-71.4285714285714,4,2,0,44,0,0
23604,-111.111111111111,4,2,0,44,0,0
28997,-83.3333333333333,4,2,0,44,0,0
29503,-111.111111111111,4,2,0,44,0,0
30346,-166.666666666667,4,2,0,44,0,0
30851,-55.5555555555556,4,2,0,44,0,0
31357,-142.857142857143,4,2,0,44,0,0
34391,-86.9565217391304,4,2,0,44,0,0
35402,-100,4,2,0,44,0,0
38604,-62.5,4,2,0,44,0,0
39784,-100,4,2,0,44,0,0
42986,-83.3333333333333,4,2,0,44,0,0
45177,-71.4285714285714,4,2,0,44,0,0
46863,-142.857142857143,4,2,0,44,0,0
49896,-285.714285714286,4,2,0,44,0,0
50908,-133.333333333333,4,2,0,44,0,0
54615,-25,4,2,0,44,0,0
55121,-133.333333333333,4,2,0,44,0,0
55627,-76.9230769230769,4,2,0,44,0,0
57312,-166.666666666667,4,2,0,44,0,0
57986,-111.111111111111,4,2,0,44,0,0
58660,-76.9230769230769,4,2,0,44,0,0
59840,-111.111111111111,4,2,0,44,0,0
61357,-71.4285714285714,4,2,0,44,0,0
61694,-111.111111111111,4,2,0,44,0,0
62200,-57.1428571428571,4,2,0,44,0,0
62537,-100,4,2,0,44,0,0
64728,-33.3333333333333,4,2,0,44,0,0
65233,-100,4,2,0,44,0,0
66750,-71.4285714285714,4,2,0,44,0,0
67003,-58.8235294117647,4,2,0,44,0,0
67200,-38.4615384615385,4,2,0,44,0,0
67340,-47.6190476190476,4,2,0,44,0,0
68267,-83.3333333333333,4,2,0,44,0,0
72144,-71.4285714285714,4,2,0,44,0,0
72481,-142.857142857143,4,2,0,44,0,0
72818,-64.5161290322581,4,2,0,44,0,0
73155,-129.87012987013,4,2,0,44,0,0
73492,-58.8235294117647,4,2,0,44,0,0
73829,-117.647058823529,4,2,0,44,0,0
74166,-54.054054054054,4,2,0,44,0,0
74503,-108.695652173913,4,2,0,44,0,0
74840,-41.6666666666667,4,2,0,44,0,0
75009,-66.6666666666667,4,2,0,44,0,0
75514,-41.6666666666667,4,2,0,44,0,0
75683,-66.6666666666667,4,2,0,44,0,0
76188,-41.6666666666667,4,2,0,44,0,0
76357,-33.3333333333333,4,2,0,44,0,0
76526,-41.6666666666667,4,2,0,44,0,0
76694,-76.9230769230769,4,2,0,44,0,0
78548,-232.558139534884,4,2,0,44,0,0
78885,-66.6666666666667,4,2,0,44,0,0
79391,-100,4,2,0,44,0,0
84110,-76.9230769230769,4,2,0,44,0,0
84447,-58.8235294117647,4,2,0,44,0,0
91863,-133.333333333333,4,2,0,44,0,0

[Colours]
Combo1 : 255,226,140
Combo2 : 222,217,207
Combo3 : 138,191,255
Combo4 : 249,153,168

[HitObjects]
248,119,4054,5,0,0:0:0:0:
281,208,4728,5,0,0:0:0:0:
370,242,5402,5,0,0:0:0:0:
463,219,6076,6,0,P|523:149|498:52,1,191.999994140625
257,260,8099,5,0,0:0:0:0:
224,349,8773,5,0,0:0:0:0:
135,383,9447,5,0,0:0:0:0:
42,360,10121,6,0,P|-18:290|7:193,1,191.999994140625
1,199,12818,6,0,P|1:255|23:286,1,95.9999970703126
23,286,14166,6,0,P|65:240|92:320,1,160
214,384,14840,6,0,P|221:303|289:354,1,200
390,384,15514,6,0,P|346:291|445:333,1,240
512,25,16188,6,0,P|550:95|435:135,1,223.999993164063
444,142,17031,6,0,L|393:149,1,27.9999991455078
328,226,17200,2,0,L|284:220,1,27.9999991455078
187,130,17368,2,0,L|139:132,1,27.9999991455078
46,191,17537,1,0,0:0:0:0:
46,191,17874,2,0,L|13:195,1,27.5999990734864
18,194,18211,6,0,P|105:202|146:88,1,191.999994140625
256,298,18717,2,0,P|277:363|381:341,1,160
481,81,19222,2,0,P|440:90|429:150,1,95.9999970703126
358,23,19728,6,0,P|396:18|429:39,1,80
196,238,20065,2,0,P|258:245|308:142,1,160
60,130,20571,1,0,0:0:0:0:
60,130,20908,6,0,P|64:46|175:21,1,191.999994140625
0,305,21413,2,0,P|40:370|137:340,1,160
72,117,21919,2,0,L|56:191,1,60.0000022888184
59,175,22424,6,0,L|124:163,1,55.9999982910157
214,117,22593,2,0,L|283:132,1,55.9999982910157
347,210,22762,2,0,L|414:200,1,55.9999982910157
512,157,22930,1,0,0:0:0:0:
512,157,23604,6,0,P|469:201|520:282,1,143.999995605469
305,358,24110,2,0,P|377:364|446:385,1,143.999995605469
190,335,24615,2,0,P|175:277|175:243,1,71.9999978027344
110,162,24953,1,0,0:0:0:0:
71,230,25121,6,0,P|28:234|-13:262,1,71.9999978027344
188,80,25458,2,0,P|123:70|95:-16,1,143.999995605469
266,168,25964,1,0,0:0:0:0:
266,168,26301,6,0,P|349:158|427:162,1,143.999995605469
495,7,26806,1,0,0:0:0:0:
495,7,26975,2,0,P|473:54|528:143,1,143.999995605469
404,235,27481,2,0,L|414:159,1,71.9999978027344
404,235,27818,6,0,L|323:219,1,71.9999978027344
137,275,28155,2,0,L|308:308,1,143.999995605469
154,58,28660,2,0,P|167:6|210:31,1,107.999996704102
164,116,28997,6,0,B|46:114|106:31|-5:23,1,191.999994140625
275,95,29503,2,0,P|266:146|267:195,1,71.9999978027344
431,62,29840,1,0,0:0:0:0:
494,217,30009,2,0,P|485:183|480:134,1,71.9999978027344
377,320,30346,6,0,P|439:334|485:352,1,95.9999970703126
343,193,30851,6,0,B|233:306|329:443|426:352|352:264,1,287.999991210938
273,288,31357,6,0,L|177:300,1,83.9999974365235
112,338,31694,6,0,L|88:306,1,27.9999991455078
2,258,31863,1,0,0:0:0:0:
143,289,32031,2,0,L|153:238,1,27.9999991455078
245,174,32200,1,0,0:0:0:0:
184,222,32368,2,0,L|138:204,1,27.9999991455078
38,71,32537,1,0,0:0:0:0:
86,132,32705,2,0,L|133:116,1,27.9999991455078
222,0,32874,1,0,0:0:0:0:
342,48,33042,1,0,0:0:0:0:
342,48,33211,6,0,L|338:20,1,27.9999991455078
393,167,33379,2,0,L|386:128,1,27.9999991455078
446,287,33548,2,0,L|456:242,1,27.9999991455078
492,383,33717,1,0,0:0:0:0:
492,383,34391,6,0,P|442:313|342:361,1,184.000003509522
165,318,34896,2,0,P|183:368|232:381,1,92.0000017547608
313,339,35233,1,0,0:0:0:0:
313,339,35402,2,0,P|317:277|313:238,1,80
277,70,35739,1,0,0:0:0:0:
363,143,35908,6,0,P|429:152|464:172,1,80
231,280,36245,2,0,P|164:289|59:352,1,160
0,80,36750,1,0,0:0:0:0:
0,80,37087,6,0,P|51:96|92:97,1,80
151,27,37424,1,0,0:0:0:0:
112,210,37593,2,0,B|204:200|167:139|245:131,1,160
358,199,38099,2,0,P|374:247|372:286,1,80
512,344,38436,1,0,0:0:0:0:
442,375,38604,6,0,P|444:317|487:367,1,128
407,75,38941,6,0,P|401:150|247:126,1,256
181,348,39447,5,0,0:0:0:0:
181,348,39784,2,0,P|111:353|14:386,1,160
292,170,40290,2,0,P|256:225|299:314,1,160
93,112,40795,2,0,P|121:145|119:184,1,80
146,0,41132,6,0,P|100:62|3:40,1,160
186,245,41638,2,0,P|264:248|364:273,1,160
270,29,42144,2,0,P|273:68|297:100,1,80
497,65,42481,6,0,L|405:70,1,80
469,263,42818,1,0,0:0:0:0:
319,351,42986,2,0,P|394:354|413:236,1,191.999994140625
170,334,43492,1,0,0:0:0:0:
170,334,43829,5,0,0:0:0:0:
130,313,43941,1,0,0:0:0:0:
94,340,44026,1,0,0:0:0:0:
51,327,44110,1,0,0:0:0:0:
10,345,44222,1,0,0:0:0:0:
332,64,44503,5,0,0:0:0:0:
372,43,44615,1,0,0:0:0:0:
408,70,44700,1,0,0:0:0:0:
451,57,44784,1,0,0:0:0:0:
492,75,44896,1,0,0:0:0:0:
418,254,45177,6,0,P|263:359|176:27,1,671.999979492188
176,27,46526,5,0,0:0:0:0:
5,94,46694,1,0,0:0:0:0:
93,80,46863,2,0,L|82:134,1,55.9999982910157
161,188,47200,1,0,0:0:0:0:
161,188,47368,1,0,0:0:0:0:
215,131,47537,2,0,L|224:199,1,55.9999982910157
296,252,47874,5,0,0:0:0:0:
345,38,48042,1,0,0:0:0:0:
376,117,48211,2,0,L|371:47,1,55.9999982910157
300,235,48548,1,0,0:0:0:0:
300,235,48717,1,0,0:0:0:0:
395,303,48885,1,0,0:0:0:0:
395,303,49222,5,0,0:0:0:0:
203,331,49391,1,0,0:0:0:0:
281,370,49559,2,0,L|358:392,1,55.9999982910157
500,358,49896,2,0,L|443:351,2,55.9999982910157
321,212,50739,5,0,0:0:0:0:
167,301,50908,2,0,L|233:292,1,60.0000022888184
127,384,51245,1,0,0:0:0:0:
0,307,51413,1,0,0:0:0:0:
78,194,51582,1,0,0:0:0:0:
82,198,51919,5,0,0:0:0:0:
222,13,52087,1,0,0:0:0:0:
283,78,52256,1,0,0:0:0:0:
56,105,52424,1,0,0:0:0:0:
131,59,52593,5,0,0:0:0:0:
131,59,52762,1,0,0:0:0:0:
158,250,52930,1,0,0:0:0:0:
166,334,53099,1,0,0:0:0:0:
314,384,53267,5,0,0:0:0:0:
359,155,53436,1,0,0:0:0:0:
257,195,53604,5,0,0:0:0:0:
399,289,53773,1,0,0:0:0:0:
505,150,53941,1,0,0:0:0:0:
509,154,54278,5,0,0:0:0:0:
263,86,54447,1,0,0:0:0:0:
512,0,54615,6,0,B|148:27|439:325|-8:359,1,640
2,262,55121,2,0,P|44:249|70:309,1,120.000004577637
175,372,55627,6,0,P|162:307|159:239,1,103.999995239258
401,6,55964,2,0,P|356:12|335:159,1,207.999990478516
95,91,56469,2,0,P|166:81|219:57,1,103.999995239258
474,261,56806,1,0,0:0:0:0:
474,261,56975,2,0,P|412:250|303:264,1,155.999992858887
183,96,57312,6,0,P|250:83|327:7,1,167.999994873047
141,190,57986,6,0,P|230:226|390:165,1,251.999992309571
59,265,58660,6,0,B|152:400|328:425|480:348|564:246|490:185|368:287|433:376,1,623.999971435548
233,0,59840,6,0,P|253:46|338:83,1,143.999995605469
201,138,60346,5,0,0:0:0:0:
10,96,60514,1,0,0:0:0:0:
137,200,60683,5,0,0:0:0:0:
172,48,60851,1,0,0:0:0:0:
43,339,61020,5,0,0:0:0:0:
0,248,61188,1,0,0:0:0:0:
247,384,61357,6,0,P|273:358|293:307,1,55.9999982910157
251,178,61526,1,0,0:0:0:0:
357,326,61694,2,0,P|423:342|477:287,1,143.999995605469
419,144,62200,6,0,P|424:211|466:153,1,140.000001335144
512,350,62537,6,0,P|446:360|373:279,1,160
182,384,63042,5,0,0:0:0:0:
268,227,63211,1,0,0:0:0:0:
82,261,63379,5,0,0:0:0:0:
47,170,63548,1,0,0:0:0:0:
326,57,63717,5,0,0:0:0:0:
279,0,63885,1,0,0:0:0:0:
234,84,64054,5,0,0:0:0:0:
443,16,64222,1,0,0:0:0:0:
308,0,64391,5,0,0:0:0:0:
241,254,64559,1,0,0:0:0:0:
500,224,64728,6,0,P|488:169|420:217,1,120.000004577637
292,374,64896,1,0,0:0:0:0:
119,310,65065,2,0,P|122:354|179:339,1,120.000004577637
104,191,65233,6,0,P|50:156|47:239,1,160
187,160,65739,5,0,0:0:0:0:
52,110,65908,1,0,0:0:0:0:
325,3,66076,5,0,0:0:0:0:
234,18,66245,1,0,0:0:0:0:
378,286,66413,5,0,0:0:0:0:
290,262,66582,1,0,0:0:0:0:
506,219,66750,6,0,P|435:202|393:160,1,111.999996582031
287,27,67003,6,0,P|303:80|303:147,1,113.333335494995
200,378,67200,6,0,P|258:333|310:322,1,103.999995239258
128,287,67340,6,0,P|58:267|114:2,1,419.999987182618
355,76,68099,5,0,0:0:0:0:
378,70,68183,1,0,0:0:0:0:
401,64,68267,2,0,P|449:74|508:78,1,95.9999970703126
273,349,68773,5,0,0:0:0:0:
252,360,68857,1,0,0:0:0:0:
231,372,68941,2,0,P|186:368|124:386,1,95.9999970703126
77,331,69278,1,0,0:0:0:0:
457,44,69447,5,0,0:0:0:0:
425,123,69615,2,0,P|446:176|481:235,1,95.9999970703126
449,319,69953,1,0,0:0:0:0:
22,224,70121,6,0,P|43:131|41:5,1,191.999994140625
0,318,70795,6,0,P|78:325|118:203,1,191.999994140625
70,305,71301,2,0,P|92:350|221:331,1,191.999994140625
294,50,71806,1,0,0:0:0:0:
294,50,72144,6,0,L|280:152,1,55.9999982910157
244,171,72312,2,0,L|262:269,1,55.9999982910157
296,288,72481,2,0,L|286:365,1,55.9999982910157
457,146,72818,6,0,L|386:160,1,62.0000004730225
304,198,72986,2,0,L|212:196,1,62.0000004730225
153,159,73155,2,0,L|70:171,1,61.5999987780762
262,384,73492,6,0,L|275:295,1,68.0000012969971
254,226,73660,2,0,L|237:125,1,68.0000012969971
280,67,73829,2,0,L|277:-25,1,68.0000012969971
4,224,74166,6,0,L|107:251,1,73.9999997177124
197,191,74335,2,0,L|296:177,1,73.9999997177124
406,217,74503,2,0,P|429:249|488:224,1,110.399996293945
423,62,74840,6,0,P|379:45|342:110,1,95.9999970703126
70,311,75009,2,0,P|170:352|238:234,1,240.000009155274
339,83,75514,6,0,P|296:37|241:69,1,95.9999970703126
151,289,75683,2,0,P|204:369|343:305,1,240.000009155274
249,77,76188,6,0,P|199:60|166:132,1,95.9999970703126
244,315,76357,2,0,P|308:317|338:245,1,120.000004577637
136,65,76526,6,0,P|98:66|54:136,1,95.9999970703126
302,297,76694,2,0,B|406:376|571:289|590:98|492:23|299:-4|448:126|529:80,1,519.99997619629
493,89,77705,6,0,L|416:98,1,51.999997619629
384,167,77874,2,0,L|306:154,1,51.999997619629
234,79,78042,2,0,L|158:89,1,51.999997619629
88,147,78211,1,0,0:0:0:0:
88,147,78548,2,0,L|29:142,1,51.6000007873535
90,43,78885,6,0,P|23:55|20:218,1,240.000009155274
207,189,79391,2,0,P|205:151|170:109,1,80
134,323,79728,2,0,P|186:317|219:294,1,80
57,244,80065,1,0,0:0:0:0:
212,203,80233,5,0,0:0:0:0:
148,376,80402,2,0,P|104:356|89:311,1,80
302,278,80739,2,0,P|267:302|209:289,2,80
344,172,81245,5,0,0:0:0:0:
307,104,81413,1,0,0:0:0:0:
179,53,81582,6,0,P|185:28|206:7,1,40
237,6,81750,1,0,0:0:0:0:
227,159,81919,6,0,P|240:182|268:205,1,40
293,194,82087,1,0,0:0:0:0:
405,336,82256,6,0,P|376:326|335:327,1,40
319,348,82424,1,0,0:0:0:0:
415,255,82593,6,0,P|419:226|413:183,1,40
396,183,82762,1,0,0:0:0:0:
299,87,82930,5,0,0:0:0:0:
459,7,83099,2,0,P|430:31|431:84,1,80
479,309,83436,2,0,P|475:258|432:234,1,80
252,362,83773,2,0,P|303:377|342:345,1,80
145,383,84110,6,0,P|122:361|111:322,1,51.999997619629
118,59,84278,5,0,0:0:0:0:
63,241,84447,2,0,P|29:270|-21:275,1,68.0000012969971
145,184,84615,5,0,0:0:0:0:
183,331,84784,2,0,P|220:368|277:377,1,68.0000012969971
402,314,84953,5,0,0:0:0:0:
288,309,85121,2,0,P|330:268|343:222,1,68.0000012969971
318,76,85290,5,0,0:0:0:0:
418,189,85458,2,0,P|454:207|506:220,1,68.0000012969971
512,131,85627,5,0,0:0:0:0:
306,179,85795,2,0,P|322:120|341:92,1,68.0000012969971
361,38,85964,5,0,0:0:0:0:
192,148,86132,2,0,P|146:148|93:134,1,68.0000012969971
88,56,86301,5,0,0:0:0:0:
120,248,86469,2,0,P|111:288|83:335,1,68.0000012969971
18,168,86638,5,0,0:0:0:0:
222,209,86806,2,0,P|262:200|311:171,1,68.0000012969971
319,69,86975,5,0,0:0:0:0:
279,153,87144,2,0,P|292:197|327:242,1,68.0000012969971
325,55,87312,5,0,0:0:0:0:
191,207,87481,2,0,P|152:218|105:223,1,68.0000012969971
332,40,87649,5,0,0:0:0:0:
354,272,87818,2,0,P|388:306|434:325,1,68.0000012969971
338,24,87986,5,0,0:0:0:0:
101,138,88155,2,0,P|54:119|31:73,1,68.0000012969971
136,4,88323,6,0,L|145:85,1,68.0000012969971
224,111,88492,2,0,L|231:43,1,68.0000012969971
357,116,88660,2,0,P|377:152|352:181,1,68.0000012969971
208,257,88829,2,0,P|198:234|223:198,1,68.0000012969971
403,297,88997,5,0,0:0:0:0:
403,297,89082,1,0,0:0:0:0:
360,332,89166,5,0,0:0:0:0:
360,332,89250,1,0,0:0:0:0:
414,353,89335,5,0,0:0:0:0:
414,353,89419,1,0,0:0:0:0:
374,384,89503,5,0,0:0:0:0:
374,384,89587,1,0,0:0:0:0:
437,43,91610,5,0,0:0:0:0:
467,62,91694,5,0,0:0:0:0:
467,62,91736,1,0,0:0:0:0:
467,62,91778,1,0,0:0:0:0:
497,58,91863,5,0,0:0:0:0:
256,192,91905,12,0,95739,0:0:0:0:
