osu file format v14

[General]
AudioFilename: audio.mp3
AudioLeadIn: 0
PreviewTime: 59672
Countdown: 0
SampleSet: None
StackLeniency: 0.7
Mode: 0
LetterboxInBreaks: 0
WidescreenStoryboard: 1

[Editor]
DistanceSpacing: 1.7
BeatDivisor: 4
GridSize: 32
TimelineZoom: 2.700005

[Metadata]
Title:Chikatto Chika Chika (TV Size)
TitleUnicode:チカっとチカ千花っ♡ (TV Size)
Artist:Fujiwara Chika (CV: Kohara Konomi)
ArtistUnicode:藤原千花 (CV: 小原好美)
Creator:meguziiz
Version:Extreme
Source:Kaguya-sama: Love Is War
Tags:
BeatmapID:2067880
BeatmapSetID:988568

[Difficulty]
HPDrainRate:5.4
CircleSize:4.5
OverallDifficulty:8.3
ApproachRate:9.5
SliderMultiplier:2
SliderTickRate:1

[Events]
//Background and Video events
0,0,"Konachan.com - 278043 sample.jpg",0,0
//Break Periods
//Storyboard Layer 0 (Background)
//Storyboard Layer 1 (Fail)
//Storyboard Layer 2 (Pass)
//Storyboard Layer 3 (Foreground)
//Storyboard Sound Samples

[TimingPoints]
3380,337.078651685393,4,2,1,100,1,0
15514,-133.333333333333,4,2,1,100,0,0
17031,-100,4,2,1,100,0,0
22424,-50.0000000000002,4,2,1,100,0,0
22509,-29.4117647058824,4,2,1,5,0,0
22593,-50.0000000000002,4,2,1,100,0,0
22677,-29.4117647058824,4,2,1,5,0,0
22762,-50.0000000000002,4,2,1,100,0,0
22846,-25,4,2,1,5,0,0
22930,-200,4,2,1,100,0,1
23014,-100,4,2,1,100,0,0
42818,-181.818181818181,4,2,1,100,0,0
42902,-100,4,2,1,100,0,0
46526,-100,4,2,1,42,0,0
54615,-100,4,2,1,100,0,0
58660,-250,4,2,1,100,0,0
60009,-100,4,2,1,100,0,1
60093,-100,4,2,1,100,0,0
79222,-100,4,2,1,59,0,0
84278,-100,4,2,2,100,0,1
89503,-100,4,2,1,100,0,0

[Colours]
Combo1 : 213,235,84
Combo2 : 238,157,255
Combo3 : 255,100,100
Combo4 : 255,164,72
Combo5 : 99,87,204

[HitObjects]
158,134,4054,6,0,B|126:187|126:187|157:222|157:222|176:224|176:224|184:222|184:222|204:225|204:225|231:191|231:191|275:193|275:193|288:180|300:194|300:194|354:196|354:196|359:234|359:234|324:282,3,400,2|2|2|2,0:0|0:0|0:0|0:0,0:0:0:0:
256,290,8099,6,0,B|215:191|324:174|363:130|330:101|321:35|275:6|206:49|197:82|209:145|284:156,3,400,2|2|2|2,0:0|0:0|0:0|0:0,0:0:0:0:
411,278,11469,6,0,B|337:313|228:210|228:210|127:304|50:246,1,400,2|2,0:0|0:0,0:0:0:0:
415,258,12818,6,0,B|408:221|385:199|385:199|369:182|369:182|374:165|356:180|356:180|345:175|345:175|288:164|288:164|251:187|251:187|229:240|229:240|248:278|248:278|292:307|292:307|332:303,1,400,2|2,0:0|0:0,0:0:0:0:
359,62,14166,5,10,3:2:0:0:
111,275,14840,5,10,3:2:0:0:
414,121,15514,6,0,B|182:115|342:38|134:40,1,300.000011444092,4|4,3:0|3:0,0:0:0:0:
358,263,17031,5,6,3:0:0:0:
316,32,17200,1,2,3:0:0:0:
74,304,17368,1,2,3:0:0:0:
288,9,17537,2,0,B|221:8|221:8|185:30|185:30|103:30,1,166.666666666667,2|0,3:0|0:0,0:0:0:0:
61,81,17874,2,0,B|98:105|98:105|147:106|147:106|181:124|181:124|266:124,1,200,2|4,0:0|0:0,0:0:0:0:
257,306,18379,5,0,0:0:0:0:
399,96,18548,2,0,P|401:46|374:-11,1,100,8|0,0:0|3:0,0:0:0:0:
203,211,18885,5,0,0:0:0:0:
337,50,19054,1,0,3:0:0:0:
389,307,19222,1,8,0:0:0:0:
199,75,19391,2,0,P|185:136|143:184,1,100,0|0,0:0|3:0,0:0:0:0:
248,361,19728,5,0,0:0:0:0:
409,220,19896,1,8,0:0:0:0:
264,68,20065,2,0,B|324:57|324:57|348:23|348:23|476:-8,1,200,0|0,3:0|3:0,0:0:0:0:
261,275,20571,5,8,0:0:0:0:
112,160,20739,1,2,3:0:0:0:
112,160,20823,1,2,3:0:0:0:
112,160,20908,2,0,B|133:274|169:195|197:379,1,200,4|8,3:0|0:0,0:0:0:0:
360,195,21413,5,0,3:0:0:0:
282,286,21582,1,0,0:0:0:0:
231,177,21750,5,0,3:0:0:0:
306,304,21919,1,8,0:0:0:0:
316,126,22087,1,0,0:0:0:0:
88,222,22424,6,4,P|75:213|97:221,1,100,4|4,3:0|3:0,0:0:0:0:
224,101,22593,6,4,P|211:92|233:100,1,100,4|4,3:0|3:0,0:0:0:0:
327,263,22762,6,4,P|314:254|336:262,1,100,4|4,3:0|3:0,0:0:0:0:
115,163,22930,6,0,B|243:140|158:198|317:181,1,200,4|4,3:0|0:0,0:0:0:0:
185,296,23773,5,0,0:0:0:0:
78,109,23941,2,0,P|74:60|92:4,1,100,8|0,0:0|3:0,0:0:0:0:
183,192,24278,5,0,0:0:0:0:
352,129,24447,1,0,0:0:0:0:
180,7,24615,1,8,0:0:0:0:
368,135,24784,1,0,0:0:0:0:
171,203,24953,2,0,B|15:181|126:257|-46:246,1,200,0|8,3:0|0:0,0:0:0:0:
295,311,25458,5,0,3:0:0:0:
276,146,25627,1,0,0:0:0:0:
146,249,25795,1,0,3:0:0:0:
305,333,25964,1,8,0:0:0:0:
197,131,26132,5,10,3:0:0:0:
197,131,26217,1,8,3:0:0:0:
197,131,26301,2,0,P|252:134|297:118,1,100,4|0,3:0|0:0,0:0:0:0:
102,125,26638,2,0,P|38:113|-11:128,1,100,8|0,0:0|0:0,0:0:0:0:
177,127,26975,5,0,3:0:0:0:
265,329,27144,1,0,0:0:0:0:
359,121,27312,1,8,0:0:0:0:
153,250,27481,1,0,0:0:0:0:
383,253,27649,2,0,P|404:195|415:136,1,100,4|0,3:0|0:0,0:0:0:0:
252,120,27986,5,8,0:0:0:0:
33,270,28155,1,0,3:0:0:0:
78,44,28323,2,0,P|106:89|132:141,1,100,0|0,0:0|3:0,0:0:0:0:
228,325,28660,5,8,0:0:0:0:
336,68,28829,1,8,3:0:0:0:
336,68,28913,1,10,3:0:0:0:
336,68,28997,2,0,P|346:128|348:191,1,100,4|0,2:0|0:0,0:0:0:0:
263,290,29335,2,0,P|253:235|250:165,1,100,8|0,0:0|3:0,0:0:0:0:
260,42,29672,5,0,0:0:0:0:
119,352,29840,1,0,3:0:0:0:
136,74,30009,1,8,0:0:0:0:
324,219,30177,1,0,3:0:0:0:
27,217,30346,2,0,B|-1:94|58:155|43:-3,1,200,0|8,3:0|0:0,0:0:0:0:
291,159,30851,6,0,B|137:119|228:197|49:155,1,200,8|0,3:0|0:0,0:0:0:0:
137,98,31357,2,0,P|134:48|151:-6,1,100,8|0,0:0|0:0,0:0:0:0:
315,77,31694,5,6,3:0:0:0:
403,216,31863,1,8,3:0:0:0:
481,58,32031,1,8,3:0:0:0:
245,24,32200,5,8,3:0:0:0:
434,183,32368,1,6,3:0:0:0:
172,218,32537,5,8,3:0:0:0:
404,69,32705,1,8,3:0:0:0:
164,37,32874,5,8,3:0:0:0:
360,226,33042,1,6,3:0:0:0:
275,24,33211,5,8,0:0:0:0:
248,364,33379,1,8,0:0:0:0:
216,27,33548,5,10,0:0:0:0:
306,364,33717,1,6,3:0:0:0:
68,108,34391,6,0,P|62:24|65:-8,1,100,4|0,0:0|3:0,0:0:0:0:
183,288,34728,1,8,0:0:0:0:
232,91,34896,2,0,P|226:26|215:-13,1,100,0|4,0:0|3:0,0:0:0:0:
68,108,35233,2,0,P|81:166|106:211,1,100,0|8,0:0|0:0,0:0:0:0:
315,166,35571,5,0,3:0:0:0:
315,166,35655,1,0,3:0:0:0:
315,166,35739,2,0,B|172:172|276:108|120:97,1,200,8|8,3:0|0:0,0:0:0:0:
161,251,36245,5,8,3:0:0:0:
250,131,36413,1,0,0:0:0:0:
306,278,36582,5,0,0:0:0:0:
261,98,36750,1,8,3:2:0:0:
155,284,36919,5,8,3:0:0:0:
252,68,37087,2,0,P|253:132|269:193,1,100,4|0,3:0|0:0,0:0:0:0:
375,330,37424,2,0,P|375:267|363:217,1,100,8|0,0:0|3:0,0:0:0:0:
202,226,37762,5,0,3:0:0:0:
380,146,37930,1,0,0:0:0:0:
210,45,38099,1,8,0:0:0:0:
409,162,38267,1,0,3:0:0:0:
166,232,38436,2,0,P|159:167|166:106,1,100,4|0,3:0|0:0,0:0:0:0:
241,345,38773,5,8,0:0:0:0:
392,35,38941,2,0,B|262:10|333:89|199:69,1,200,0|0,3:0|0:0,0:0:0:0:
79,220,39447,5,8,0:0:0:0:
206,331,39615,1,8,3:0:0:0:
206,331,39700,1,8,3:0:0:0:
206,331,39784,2,0,P|203:272|178:228,1,100,8|0,3:0|0:0,0:0:0:0:
363,235,40121,2,0,P|375:169|393:134,1,100,8|8,0:0|3:0,0:0:0:0:
314,74,40458,5,0,0:0:0:0:
171,297,40627,1,0,3:0:0:0:
196,4,40795,1,8,0:0:0:0:
352,217,40964,1,0,0:0:0:0:
97,148,41132,1,8,3:0:0:0:
182,291,41301,5,0,0:0:0:0:
293,87,41470,1,8,0:0:0:0:
97,148,41638,1,0,3:0:0:0:
294,335,41806,5,0,0:0:0:0:
293,87,41975,1,0,0:0:0:0:
182,291,42144,1,8,0:0:0:0:
140,29,42312,1,0,3:0:0:0:
361,153,42481,6,0,P|301:125|216:176,1,150,4|0,3:0|0:0,0:0:0:0:
126,85,42818,2,0,B|275:106|168:35|357:52,1,220.000006713867,8|8,0:0|0:0,0:0:0:0:
85,225,43829,6,0,L|49:161,4,50,4|0|0|0|0,3:0|0:0|0:0|0:0|0:0,0:0:0:0:
179,138,44503,2,0,L|205:71,4,50,4|0|0|0|0,3:0|0:0|0:0|0:0|0:0,0:0:0:0:
256,192,45177,5,4,0:0:0:0:
256,192,45262,12,8,46526,3:0:0:0:
72,57,46694,5,8,3:0:0:0:
268,224,46863,6,0,P|337:243|374:217,1,100,2|2,0:0|0:0,0:0:0:0:
425,174,47200,2,0,P|356:155|319:181,1,100,2|2,0:0|0:0,0:0:0:0:
170,142,47537,2,0,P|239:144|268:118,1,100,2|2,0:0|0:0,0:0:0:0:
76,71,47874,5,8,3:0:0:0:
105,326,48042,1,8,3:0:0:0:
210,217,48211,2,0,L|93:232,1,100,2|2,0:0|0:0,0:0:0:0:
86,131,48548,2,0,L|217:130,1,100,2|2,0:0|0:0,0:0:0:0:
192,18,48885,2,0,L|73:28,1,100,2|2,0:0|0:0,0:0:0:0:
445,184,49222,5,8,3:0:0:0:
150,174,49391,1,8,3:0:0:0:
296,373,49559,2,0,P|297:322|277:260,1,100,2|2,0:0|0:0,0:0:0:0:
209,84,49896,2,0,P|209:147|227:190,1,100,2|2,0:0|0:0,0:0:0:0:
143,360,50233,2,0,P|148:289|126:248,1,100,2|2,0:0|0:0,0:0:0:0:
361,82,50571,5,8,3:0:0:0:
162,282,50739,1,8,3:0:0:0:
368,265,50908,1,2,0:0:0:0:
314,131,51076,1,2,0:0:0:0:
274,271,51245,1,2,0:0:0:0:
399,174,51413,1,2,0:0:0:0:
236,182,51582,1,8,0:0:0:0:
368,265,51750,1,8,0:0:0:0:
405,37,51919,5,8,3:0:0:0:
207,279,52087,1,8,3:0:0:0:
81,146,52593,6,0,B|143:129|143:129|174:102|174:102|286:82,1,200,10|2,3:0|0:0,0:0:0:0:
447,57,53267,5,4,3:0:0:0:
263,335,53436,1,4,3:0:0:0:
71,177,53941,6,0,B|125:178|125:178|155:207|155:207|291:213,1,200,6|2,3:0|0:0,0:0:0:0:
448,128,54615,5,4,0:0:0:0:
283,173,54784,1,0,0:0:0:0:
334,335,54953,1,8,0:0:0:0:
493,277,55121,1,4,3:0:0:0:
350,151,55290,2,0,P|347:213|331:266,1,100,0|0,0:0|3:0,0:0:0:0:
215,351,55627,1,8,0:0:0:0:
148,133,55795,2,0,P|151:71|167:18,1,100,0|0,0:0|3:0,0:0:0:0:
212,243,56132,5,0,0:0:0:0:
442,122,56301,1,8,0:0:0:0:
216,21,56469,1,0,3:0:0:0:
211,224,56638,2,0,B|313:89|332:217|402:267|503:218|478:97|414:58|369:138,1,400,0|4,0:0|0:0,0:0:0:0:
110,309,57986,5,4,0:0:0:0:
448,77,58660,6,0,B|282:98|383:19|213:47,1,240,6|2,0:0|0:0,0:0:0:0:
182,259,59840,5,2,0:0:0:0:
182,259,60009,2,0,P|187:199|166:141,1,100,4|0,0:0|0:0,0:0:0:0:
292,82,60346,2,0,P|299:143|337:189,1,100,8|0,0:0|0:0,0:0:0:0:
87,201,60683,5,4,3:0:0:0:
247,192,60851,1,0,0:0:0:0:
162,33,61020,5,8,0:0:0:0:
11,28,61188,1,0,0:0:0:0:
37,273,61357,6,0,L|43:154,1,100,4|0,3:0|0:0,0:0:0:0:
140,122,61694,2,0,L|143:245,1,100,8|0,0:0|3:0,0:0:0:0:
387,85,62031,5,4,3:0:0:0:
269,246,62200,1,4,3:0:0:0:
250,42,62368,1,8,0:0:0:0:
296,277,62537,1,0,0:0:0:0:
388,90,62705,2,0,P|396:41|393:-17,1,100,4|0,3:0|0:0,0:0:0:0:
239,299,63042,5,8,0:0:0:0:
137,77,63211,2,0,P|132:28|141:-38,1,100,0|4,0:0|3:0,0:0:0:0:
190,238,63548,5,4,3:0:0:0:
354,64,63717,1,8,0:0:0:0:
134,64,63885,1,0,0:0:0:0:
281,250,64054,5,4,3:0:0:0:
268,31,64222,1,0,0:0:0:0:
105,242,64391,1,8,0:0:0:0:
359,191,64559,5,0,0:0:0:0:
134,64,64728,2,0,B|254:101|207:33|349:71,1,200,4|8,3:0|0:0,0:0:0:0:
298,225,65233,6,0,P|295:164|264:117,1,100,0|4,3:0|2:0,0:0:0:0:
197,234,65571,2,0,P|196:291|219:341,1,100,4|8,3:0|0:0,0:0:0:0:
425,73,65908,5,0,0:0:0:0:
323,304,66076,1,4,3:0:0:0:
221,63,66245,5,0,0:0:0:0:
406,347,66413,1,8,0:0:0:0:
364,34,66582,5,0,0:0:0:0:
138,287,66750,2,0,B|254:314|224:246|353:289,1,200,8|0,3:0|0:0,0:0:0:0:
210,120,67256,2,0,P|210:169|193:216,1,100,2|0,3:0|0:0,0:0:0:0:
81,286,67593,1,4,3:0:0:0:
81,286,67762,2,0,P|80:236|97:189,1,100,8|0,0:0|0:0,0:0:0:0:
379,302,68099,6,0,L|399:245,4,50,8|8|10|8|8,3:0|3:0|3:0|3:0|3:0,0:0:0:0:
244,173,68773,6,0,L|212:122,4,50,8|8|10|8|8,3:0|3:0|3:0|3:0|3:0,0:0:0:0:
125,287,69278,5,0,0:0:0:0:
125,287,69447,2,0,P|179:286|226:317,1,100,8|0,0:0|3:0,0:0:0:0:
45,204,69784,2,0,P|117:209|175:186,1,100,0|0,0:0|3:0,0:0:0:0:
221,108,70121,2,0,P|149:103|91:126,1,100,8|0,0:0|3:0,0:0:0:0:
229,286,70458,5,8,0:0:0:0:
368,129,70627,1,8,0:0:0:0:
368,129,70711,1,8,0:0:0:0:
368,129,70795,2,0,B|245:163|292:91|160:116,1,200,4|8,3:0|0:0,0:0:0:0:
219,282,71301,2,0,P|206:226|221:180,1,100,0|0,3:0|0:0,0:0:0:0:
293,102,71638,2,0,P|306:158|291:204,1,100,0|8,3:0|0:0,0:0:0:0:
99,172,72144,5,12,0:0:0:0:
163,30,72312,1,8,0:0:0:0:
189,237,72481,5,4,3:0:0:0:
99,84,72649,1,8,3:0:0:0:
130,309,72818,5,12,0:0:0:0:
245,120,72986,1,8,0:0:0:0:
275,339,73155,5,4,3:0:0:0:
152,142,73323,1,8,3:0:0:0:
205,349,73492,5,12,0:0:0:0:
337,86,73660,1,8,0:0:0:0:
373,309,73829,5,4,3:0:0:0:
218,37,73997,1,8,3:0:0:0:
246,299,74166,5,12,0:0:0:0:
408,44,74335,1,8,0:0:0:0:
327,343,74503,5,0,3:0:0:0:
263,33,74672,1,0,3:0:0:0:
194,355,74840,5,8,0:0:0:0:
85,109,75009,1,10,0:0:0:0:
356,365,75514,5,8,0:0:0:0:
455,75,75683,1,10,0:0:0:0:
327,360,76188,5,4,3:0:0:0:
414,58,76357,1,0,3:0:0:0:
145,366,76526,1,0,3:0:0:0:
150,20,76694,1,4,3:0:0:0:
70,93,77705,5,4,3:0:0:0:
428,181,77874,1,4,3:0:0:0:
152,353,78042,1,4,3:0:0:0:
393,178,78211,2,0,B|271:169|344:109|199:97,1,200,4|2,3:0|0:0,0:0:0:0:
198,271,78717,5,0,0:0:0:0:
198,271,78885,2,0,P|227:215|228:161,1,100,4|0,0:0|0:0,0:0:0:0:
95,113,79222,2,0,P|116:175|161:206,1,100,8|0,0:0|3:0,0:0:0:0:
275,112,79559,6,0,L|169:119,1,100,0|0,0:0|3:0,0:0:0:0:
339,182,79896,2,0,L|237:193,1,100,8|0,0:0|0:0,0:0:0:0:
351,80,80233,5,0,3:0:0:0:
473,93,80402,1,0,3:0:0:0:
280,174,80571,5,8,0:0:0:0:
412,193,80739,1,0,3:0:0:0:
177,77,80908,5,0,0:0:0:0:
293,83,81076,1,0,3:0:0:0:
79,184,81245,5,8,0:0:0:0:
203,189,81413,1,0,0:0:0:0:
443,128,81582,5,8,3:0:0:0:
317,293,81750,1,8,3:0:0:0:
287,75,81919,1,8,0:0:0:0:
313,318,82087,5,8,0:0:0:0:
481,134,82256,1,8,3:0:0:0:
304,348,82424,1,8,3:0:0:0:
257,70,82593,5,8,0:0:0:0:
316,374,82762,1,8,0:0:0:0:
483,114,82930,2,0,P|417:122|380:104,1,100,4|0,3:0|0:0,0:0:0:0:
270,235,83267,2,0,P|340:231|388:259,1,100,8|0,3:2|3:0,0:0:0:0:
265,109,83604,5,0,0:0:0:0:
175,325,83773,1,0,0:0:0:0:
74,102,83941,2,0,P|62:43|68:-2,1,100,8|0,3:2|3:0,0:0:0:0:
66,3,84194,1,10,3:0:0:0:
66,3,84278,5,8,0:0:0:0:
319,83,84447,1,2,3:0:0:0:
257,345,84615,1,8,0:0:0:0:
499,364,84784,1,0,3:0:0:0:
395,70,84953,5,8,0:0:0:0:
335,313,85121,1,0,3:0:0:0:
266,50,85290,1,8,0:0:0:0:
261,326,85458,1,4,3:0:0:0:
119,217,85627,5,8,0:0:0:0:
339,162,85795,1,8,3:0:0:0:
161,109,85964,5,8,0:0:0:0:
378,253,86132,1,8,3:0:0:0:
130,292,86301,5,8,0:0:0:0:
417,169,86469,1,0,3:0:0:0:
203,55,86638,5,8,0:0:0:0:
362,270,86806,1,0,3:0:0:0:
288,11,86975,5,10,2:3:0:0:
265,342,87144,1,8,3:0:0:0:
209,7,87312,5,8,0:0:0:0:
350,318,87481,1,8,3:0:0:0:
386,13,87649,5,8,0:0:0:0:
195,326,87818,1,12,3:0:0:0:
155,69,87986,5,8,0:0:0:0:
456,81,88155,1,8,3:0:0:0:
168,224,88323,5,8,0:0:0:0:
443,205,88492,1,4,3:0:0:0:
213,22,88660,5,8,0:0:0:0:
397,265,88829,1,8,3:2:0:0:
121,153,88997,5,10,3:2:0:0:
392,56,89166,1,8,3:2:0:0:
270,304,89335,5,10,3:2:0:0:
334,42,89503,1,8,3:2:0:0:
256,192,91694,5,4,0:0:0:0:
256,192,91778,12,2,95739,0:0:0:0:
