osu file format v14

[General]
AudioFilename: audio.ogg
AudioLeadIn: 0
PreviewTime: 59673
Countdown: 0
SampleSet: Soft
StackLeniency: 0.7
Mode: 3
LetterboxInBreaks: 0
SpecialStyle: 0
WidescreenStoryboard: 1

[Editor]
Bookmarks: 14162,18207,23600,46522,54611,60005,68095,78881,84195
DistanceSpacing: 0.3
BeatDivisor: 2
GridSize: 8
TimelineZoom: 1

[Metadata]
Title:Chikatto Chika Chika (TV Size)
TitleUnicode:チカっとチカ千花っ♡ (TV Size)
Artist:Fujiwara Chika (CV: Kohara Konomi)
ArtistUnicode:藤原千花 (CV: 小原好美)
Creator:keksikosu
Version:Easy
Source:Kaguya-sama: Love Is War
Tags:japanese anime pop jpop j-pop かぐや様は告らせたい ~天才たちの恋愛頭脳戦~ wa Kokurasetai Tensai-tachi no Renai Zunousen wants to be confessed to the geniuses' war of love and brains Uimii Mirsaaa ed ending female vocal
BeatmapID:3800323
BeatmapSetID:1850047

[Difficulty]
HPDrainRate:6.5
CircleSize:4
OverallDifficulty:6.5
ApproachRate:5
SliderMultiplier:1.4
SliderTickRate:1

[Events]
//Background and Video events
0,0,"BG2.jpg",0,0
Video,-50,"ARTUR PIROZHKOV.mp4"
//Break Periods
//Storyboard Layer 0 (Background)
//Storyboard Layer 1 (Fail)
//Storyboard Layer 2 (Pass)
//Storyboard Layer 3 (Foreground)
//Storyboard Layer 4 (Overlay)
//Storyboard Sound Samples
Sample,14083,0,"E4R.wav",10
Sample,14757,0,"E4R.wav",10
Sample,17791,0,"Tong.wav",40
Sample,46443,0,"LR_NBell_A5.wav",40
Sample,46611,0,"LR_NBell_A5.wav",40
Sample,47791,0,"LR_NBell_F6.wav",40
Sample,47959,0,"LR_NBell_F6.wav",40
Sample,49139,0,"LR_NBell_A5.wav",40
Sample,49308,0,"LR_NBell_A5.wav",40
Sample,50488,0,"LR_NBell_C6.wav",40
Sample,50656,0,"LR_NBell_D6.wav",40
Sample,51836,0,"LR_NBell_A5.wav",40
Sample,53184,0,"LR_NBell_F6.wav",40
Sample,53353,0,"LR_NBell_F6.wav",40

[TimingPoints]
3297,337.078651685393,4,2,1,40,1,0
59926,-100.0,4,2,1,40,0,1
67679,-100.0,4,2,1,40,0,0
84195,-100.0,4,2,1,40,0,1
89589,-100.0,4,2,1,40,0,0

[HitObjects]
448,192,3971,1,0,0:0:0:20:E4R.wav
320,192,4645,1,0,0:0:0:20:G#4R_Ab4R.wav
192,192,5319,1,0,0:0:0:20:F#4R_Gb4R.wav
64,192,5993,1,0,0:0:0:20:B3R.wav
320,192,8016,1,0,0:0:0:20:B3R.wav
64,192,8690,1,0,0:0:0:20:F#4R_Gb4R.wav
448,192,9364,1,0,0:0:0:20:G#4R_Ab4R.wav
192,192,10038,1,0,0:0:0:20:E4R.wav
192,192,11386,1,0,0:0:0:20:E4R.wav
192,192,12735,1,0,0:0:0:20:E4R.wav
192,192,13409,1,0,0:0:0:20:E4R.wav
448,192,14083,1,10,0:0:0:0:
320,192,14420,1,0,0:0:0:10:E4R.wav
448,192,14757,1,10,0:0:0:0:
320,192,15094,1,0,0:0:0:10:E4R.wav
64,192,15431,1,10,0:0:0:0:
192,192,15431,128,0,15937:0:0:0:10:E4R.wav
448,192,15937,1,0,0:0:0:0:
320,192,16105,128,0,16780:0:0:0:0:
64,192,16948,1,10,0:0:0:0:
448,192,17117,1,10,0:0:0:0:
64,192,17285,1,10,0:0:0:0:
448,192,17454,1,10,0:0:0:0:
192,192,17791,1,0,0:0:0:70:Clang.wav
320,192,18128,1,2,0:0:0:0:
64,192,18465,1,8,0:0:0:0:
448,192,18634,128,2,18971:0:0:0:0:
192,192,18971,1,2,0:0:0:0:
320,192,19139,1,8,0:0:0:0:
64,192,19476,1,2,0:0:0:0:
320,192,19813,1,8,0:0:0:0:
192,192,19982,128,2,20319:0:0:0:0:
64,192,20319,1,2,0:0:0:0:
448,192,20488,1,8,0:0:0:0:
192,192,20825,1,2,0:0:0:0:
320,192,21162,1,8,0:0:0:0:
64,192,21330,128,2,21667:0:0:0:0:
448,192,21667,1,2,0:0:0:0:
192,192,21836,1,8,0:0:0:0:
64,192,22341,1,10,0:0:0:0:
320,192,22510,1,10,0:0:0:0:
64,192,22679,1,10,0:0:0:0:
320,192,22847,128,10,23184:0:0:0:0:
64,192,23521,1,2,0:0:0:0:
192,192,23858,1,8,0:0:0:0:
320,192,24027,128,2,24364:0:0:0:0:
448,192,24364,1,2,0:0:0:0:
64,192,24532,1,8,0:0:0:0:
320,192,24870,1,2,0:0:0:0:
192,192,25207,1,8,0:0:0:0:
448,192,25375,1,2,0:0:0:0:
64,192,25712,1,2,0:0:0:0:
320,192,25881,1,8,0:0:0:0:
192,192,26218,1,2,0:0:0:0:
448,192,26555,1,8,0:0:0:0:
64,192,26723,128,2,27061:0:0:0:0:
320,192,27061,1,2,0:0:0:0:
192,192,27229,1,8,0:0:0:0:
448,192,27566,1,2,0:0:0:0:
64,192,27903,1,8,0:0:0:0:
320,192,28072,1,2,0:0:0:0:
192,192,28409,1,2,0:0:0:0:
448,192,28577,1,8,0:0:0:0:
64,192,28914,1,2,0:0:0:0:
320,192,29252,1,8,0:0:0:0:
192,192,29420,128,2,29757:0:0:0:0:
64,192,29757,1,2,0:0:0:0:
320,192,29926,1,8,0:0:0:0:
448,192,30263,1,2,0:0:0:0:
192,192,30600,1,8,0:0:0:0:
320,192,30768,128,2,31105:0:0:0:0:
448,192,31105,1,2,0:0:0:0:
64,192,31274,1,8,0:0:0:0:
320,192,31611,1,2,0:0:0:0:
192,192,31948,1,8,0:0:0:0:
320,192,32285,1,0,0:0:0:0:
192,192,32622,1,8,0:0:0:0:
320,192,32959,1,2,0:0:0:0:
64,192,33128,1,8,0:0:0:0:
320,192,33296,1,8,0:0:0:0:
64,192,33465,1,8,0:0:0:0:
448,192,33634,128,8,33971:0:0:0:0:
64,192,34308,1,2,0:0:0:0:
320,192,34645,1,8,0:0:0:0:
192,192,34813,128,2,35150:0:0:0:0:
448,192,35150,1,2,0:0:0:0:
64,192,35319,1,8,0:0:0:0:
320,192,35656,1,2,0:0:0:0:
192,192,35993,1,8,0:0:0:0:
448,192,36162,1,2,0:0:0:0:
64,192,36499,1,2,0:0:0:0:
320,192,36667,1,8,0:0:0:0:
192,192,37004,1,2,0:0:0:0:
64,192,37341,1,8,0:0:0:0:
320,192,37510,128,2,37847:0:0:0:0:
448,192,37847,1,2,0:0:0:0:
192,192,38016,1,8,0:0:0:0:
448,192,38353,1,2,0:0:0:0:
320,192,38690,1,8,0:0:0:0:
64,192,38858,1,2,0:0:0:0:
192,192,39195,1,2,0:0:0:0:
448,192,39364,1,8,0:0:0:0:
320,192,39701,1,2,0:0:0:0:
192,192,40038,1,8,0:0:0:0:
448,192,40207,128,2,40544:0:0:0:0:
64,192,40544,1,2,0:0:0:0:
320,192,40712,1,8,0:0:0:0:
192,192,41049,1,2,0:0:0:0:
64,192,41386,1,8,0:0:0:0:
320,192,41555,1,2,0:0:0:0:
448,192,41892,1,2,0:0:0:0:
192,192,42061,1,8,0:0:0:0:
64,192,42398,1,2,0:0:0:0:
320,192,42735,1,8,0:0:0:0:
64,192,42903,128,2,43240:0:0:0:0:
448,192,43240,1,2,0:0:0:0:
192,192,43409,1,8,0:0:0:0:
64,192,43746,1,8,0:0:0:0:
448,192,43746,1,2,0:0:0:0:
192,192,44420,1,8,0:0:0:0:
320,192,44420,1,2,0:0:0:0:
320,192,45094,1,8,0:0:0:0:
448,192,45094,128,2,46443:0:0:0:0:
64,192,46443,1,2,0:0:0:0:
320,192,46611,1,2,0:0:0:0:
192,192,47117,1,0,0:0:0:40:LR_NBell_D6.wav
448,192,47791,1,2,0:0:0:0:
64,192,47959,1,2,0:0:0:0:
320,192,48465,1,0,0:0:0:40:LR_NBell_F6.wav
192,192,49139,1,2,0:0:0:0:
64,192,49308,1,2,0:0:0:0:
448,192,49813,1,0,0:0:0:40:LR_NBell_D6.wav
320,192,50488,1,2,0:0:0:0:
448,192,50656,1,2,0:0:0:0:
64,192,51162,1,0,0:0:0:40:LR_NBell_D6.wav
320,192,51836,1,2,0:0:0:0:
192,192,52004,1,2,0:0:0:0:
64,192,52510,1,8,0:0:0:0:
448,192,52510,1,0,0:0:0:0:
192,192,53184,1,2,0:0:0:0:
320,192,53353,1,2,0:0:0:0:
64,192,53858,1,8,0:0:0:0:
448,192,53858,1,0,0:0:0:40:LR_NBell_F6.wav
320,192,54195,1,0,0:0:0:0:
192,192,54364,1,0,0:0:0:0:
64,192,54532,128,2,54870:0:0:0:0:
192,192,54870,1,8,0:0:0:0:
448,192,55038,1,2,0:0:0:0:
448,192,55375,1,2,0:0:0:0:
192,192,55544,1,8,0:0:0:0:
64,192,55881,1,2,0:0:0:0:
448,192,56218,1,8,0:0:0:0:
192,192,56386,1,2,0:0:0:0:
192,192,56723,1,2,0:0:0:0:
448,192,56892,1,8,0:0:0:0:
64,192,57229,1,2,0:0:0:0:
192,192,57229,1,8,0:0:0:0:
320,192,57903,1,2,0:0:0:0:
448,192,57903,1,8,0:0:0:0:
64,192,58577,1,2,0:0:0:0:
192,192,58577,128,8,59589:0:0:0:0:
320,192,59589,1,0,0:0:0:70:Clang.wav
64,192,59926,128,2,60263:0:0:0:0:
320,192,60263,1,8,0:0:0:0:
448,192,60263,128,0,60600:0:0:0:0:
64,192,60600,128,0,60937:0:0:0:0:
192,192,60937,1,8,0:0:0:0:
448,192,60937,128,0,61274:0:0:0:0:
64,192,61274,128,2,61611:0:0:0:0:
320,192,61611,128,8,61948:0:0:0:0:
448,192,61611,1,0,0:0:0:0:
192,192,61948,128,0,62285:0:0:0:0:
64,192,62285,1,8,0:0:0:0:
448,192,62285,1,0,0:0:0:0:
320,192,62622,128,2,62959:0:0:0:0:
64,192,62959,128,8,63296:0:0:0:0:
192,192,62959,1,0,0:0:0:0:
448,192,63296,128,0,63634:0:0:0:0:
64,192,63634,1,8,0:0:0:0:
192,192,63634,128,0,63971:0:0:0:0:
320,192,63971,128,2,64308:0:0:0:0:
64,192,64308,1,8,0:0:0:0:
448,192,64308,128,0,64645:0:0:0:0:
192,192,64645,128,0,64982:0:0:0:0:
64,192,64982,1,8,0:0:0:0:
448,192,64982,1,0,0:0:0:0:
320,192,65319,128,2,65656:0:0:0:0:
64,192,65656,1,8,0:0:0:0:
192,192,65656,128,0,65993:0:0:0:0:
448,192,65993,128,0,66330:0:0:0:0:
64,192,66330,128,8,66667:0:0:0:0:
320,192,66330,1,0,0:0:0:0:
192,192,66667,1,2,0:0:0:0:
64,192,67004,1,8,0:0:0:0:
448,192,67173,1,2,0:0:0:0:
448,192,67510,1,2,0:0:0:0:
64,192,67679,1,8,0:0:0:0:
320,192,68016,1,10,0:0:0:0:
320,192,68184,1,10,0:0:0:0:
192,192,68690,1,10,0:0:0:0:
192,192,68858,1,10,0:0:0:0:
448,192,69364,1,10,0:0:0:0:
448,192,69532,1,10,0:0:0:0:
64,192,70038,128,0,70375:0:0:0:0:
320,192,70375,128,10,70712:0:0:0:0:
192,192,70712,128,2,71049:0:0:0:0:
64,192,71049,1,8,0:0:0:0:
448,192,71218,1,2,0:0:0:0:
448,192,71555,1,2,0:0:0:0:
64,192,71723,1,8,0:0:0:0:
320,192,72061,1,10,0:0:0:0:
320,192,72229,1,10,0:0:0:0:
192,192,72735,1,10,0:0:0:0:
192,192,72903,1,10,0:0:0:0:
448,192,73409,1,10,0:0:0:0:
448,192,73577,1,10,0:0:0:0:
64,192,74083,1,10,0:0:0:0:
64,192,74252,1,10,0:0:0:0:
320,192,74757,1,2,0:0:0:0:
448,192,74757,1,8,0:0:0:0:
192,192,75431,1,2,0:0:0:0:
320,192,75431,1,8,0:0:0:0:
64,192,76105,1,2,0:0:0:0:
192,192,76105,1,8,0:0:0:0:
320,192,76443,1,2,0:0:0:0:
448,192,76443,1,8,0:0:0:0:
192,192,76611,128,0,76948:0:0:0:0:
448,192,76948,128,0,77622:0:0:0:0:
64,192,77622,1,10,0:0:0:0:
320,192,77791,1,10,0:0:0:0:
64,192,77959,1,10,0:0:0:0:
320,192,78128,1,10,0:0:0:0:
192,192,78465,1,0,0:0:0:70:Clang.wav
64,192,78802,1,2,0:0:0:0:
448,192,79139,1,8,0:0:0:0:
192,192,79308,1,2,0:0:0:0:
192,192,79645,1,2,0:0:0:0:
448,192,79813,1,8,0:0:0:0:
320,192,80150,1,2,0:0:0:0:
64,192,80488,1,8,0:0:0:0:
320,192,80656,1,2,0:0:0:0:
320,192,80993,1,2,0:0:0:0:
64,192,81162,1,8,0:0:0:0:
192,192,81499,128,2,81836:0:0:0:0:
448,192,81836,128,8,82173:0:0:0:0:
192,192,82173,128,0,82510:0:0:0:0:
448,192,82510,128,8,82847:0:0:0:0:
320,192,82847,1,2,0:0:0:0:
64,192,83184,1,8,0:0:0:0:
448,192,83353,1,2,0:0:0:0:
448,192,83690,1,2,0:0:0:0:
64,192,83858,1,8,0:0:0:0:
320,192,84195,128,8,84532:0:0:0:0:
448,192,84195,1,0,0:0:0:0:
64,192,84532,1,8,0:0:0:0:
192,192,84532,128,0,84870:0:0:0:0:
320,192,84870,1,8,0:0:0:0:
448,192,84870,128,0,85207:0:0:0:0:
64,192,85207,128,8,85544:0:0:0:0:
192,192,85207,1,0,0:0:0:0:
320,192,85544,1,8,0:0:0:0:
448,192,85544,1,0,0:0:0:0:
64,192,85881,1,8,0:0:0:0:
448,192,85881,1,0,0:0:0:0:
64,192,86218,1,8,0:0:0:0:
320,192,86218,1,0,0:0:0:0:
192,192,86555,1,8,0:0:0:0:
320,192,86555,1,0,0:0:0:0:
64,192,86892,128,2,87229:0:0:0:0:
192,192,86892,1,8,0:0:0:0:
320,192,87229,128,2,87566:0:0:0:0:
448,192,87229,1,8,0:0:0:0:
64,192,87566,128,2,87903:0:0:0:0:
192,192,87566,1,8,0:0:0:0:
320,192,87903,128,2,88240:0:0:0:0:
448,192,87903,1,8,0:0:0:0:
64,192,88240,1,10,0:0:0:0:
448,192,88409,1,10,0:0:0:0:
64,192,88577,1,10,0:0:0:0:
448,192,88746,1,10,0:0:0:0:
192,192,88914,128,10,89589:0:0:0:0:
320,192,89252,128,10,89589:0:0:0:0:
320,192,91611,1,2,0:0:0:0:
448,192,91611,128,8,95656:0:0:0:0:
64,192,95656,1,0,0:0:0:20:LR_NBell_A5.wav
