osu file format v14

[General]
AudioFilename: audio.mp3
AudioLeadIn: 0
PreviewTime: 46526
Countdown: 0
SampleSet: Soft
StackLeniency: 0.2
Mode: 0
LetterboxInBreaks: 0
WidescreenStoryboard: 1

[Editor]
Bookmarks: 86806,86975,87144,87312,87481,87649,87818,87986,88155,88323,95739
DistanceSpacing: 0.3
BeatDivisor: 4
GridSize: 4
TimelineZoom: 2.699999

[Metadata]
Title:Chikatto Chika Chika (TV Size)
TitleUnicode:チカっとチカ千花っ♡ (TV Size)
Artist:Fujiwara Chika (CV: Kohara Konomi)
ArtistUnicode:藤原千花 (CV: 小原好美)
Creator:kanor
Version:Rua
Source:Kaguya-sama: Love is War
Tags:wa Kokurasetai Tensai-tachi no Renai Zunousen wants to be confessed to japanese pop jpop j anime The Geniuses' War of Love and Brains かぐや様は告らせたい ~天才たちの恋愛頭脳戦~ moe spoes NotEnough Amity Sotarks Kowari
BeatmapID:1937091
BeatmapSetID:927433

[Difficulty]
HPDrainRate:6
CircleSize:7
OverallDifficulty:8
ApproachRate:9.2
SliderMultiplier:1.8
SliderTickRate:1

[Events]
//Background and Video events
0,0,"chikatto.jpg",0,0
//Break Periods
2,6276,7529
2,89787,91124
//Storyboard Layer 0 (Background)
//Storyboard Layer 1 (Fail)
//Storyboard Layer 2 (Pass)
//Storyboard Layer 3 (Foreground)
//Storyboard Sound Samples

[TimingPoints]
3380,337.078651685393,4,2,1,62,1,0
4054,-200,4,2,1,62,0,0
14166,-133.333333333333,4,2,1,62,0,0
14419,-133.333333333333,4,2,1,5,0,0
14503,-133.333333333333,4,2,1,62,0,0
15093,-133.333333333333,4,2,1,62,0,0
15177,-133.333333333333,4,2,1,5,0,0
15514,-250,4,2,1,62,0,0
16863,-133.333333333333,4,2,1,62,0,0
17537,-399.999999999997,4,2,1,62,0,0
17790,-399.999999999997,4,2,1,5,0,0
17874,-399.999999999997,4,2,1,62,0,0
18211,-133.333333333333,4,2,1,62,0,0
22930,-500,4,2,1,62,0,0
23604,-133.333333333333,4,2,1,62,0,0
33717,-333.333333333333,4,2,1,62,0,0
34391,-133.333333333333,4,2,1,62,0,0
46526,-200,4,2,1,62,0,0
54615,-133.333333333333,4,2,1,62,0,0
60009,-100,4,2,1,62,0,0
62031,-200,4,2,1,62,0,0
62368,-100,4,2,1,62,0,0
78211,-399.999999999997,4,2,1,62,0,0
78885,-133.333333333333,4,2,1,62,0,0

[Colours]
Combo1 : 255,226,140
Combo2 : 222,217,207
Combo3 : 138,191,255
Combo4 : 249,153,168

[HitObjects]
340,24,4054,6,0,B|448:-8|400:80|520:32,2,180
256,192,6076,1,0,0:0:0:0:
172,24,8099,6,0,B|64:-8|112:80|-8:32,2,180
256,192,10121,1,0,0:0:0:0:
256,192,11469,1,0,0:0:0:0:
256,192,12818,5,0,0:0:0:0:
256,192,13492,1,0,0:0:0:0:
380,280,14166,6,0,P|357:323|309:327,1,101.250003862381
329,279,14503,1,0,0:0:0:0:
270,40,14840,6,0,P|318:38|347:78,1,101.250003862381
294,85,15177,1,0,0:0:0:0:
120,248,15514,6,0,P|93:206|121:154,1,108
216,204,16188,2,0,B|168:212|184:192|144:200,1,72
145,199,16694,1,0,0:0:0:0:
145,199,17031,6,0,L|184:204,1,33.7500012874604
249,81,17200,2,0,L|244:120,1,33.7500012874604
367,185,17368,2,0,L|328:180,1,33.7500012874604
263,303,17537,2,0,L|268:264,1,33.7500012874604
256,192,17874,5,0,0:0:0:0:
20,44,18211,2,0,P|60:80|128:56,1,101.250003862381
148,56,18548,1,0,0:0:0:0:
40,124,18717,2,0,L|48:260,1,135.000005149842
148,328,19222,1,0,0:0:0:0:
20,376,19391,1,0,0:0:0:0:
100,288,19559,5,0,0:0:0:0:
196,368,19728,1,0,0:0:0:0:
304,288,19896,1,0,0:0:0:0:
492,340,20065,2,0,P|452:304|384:328,1,101.250003862381
436,360,20402,1,0,0:0:0:0:
472,260,20571,2,0,L|464:172,1,67.5000025749208
460,144,20823,1,0,0:0:0:0:
500,104,20908,6,0,B|456:132|456:132|388:108,1,101.250003862381
364,100,21245,1,0,0:0:0:0:
204,136,21413,2,0,P|252:172|312:128,1,135.000005149842
256,8,21919,1,0,0:0:0:0:
256,120,22087,1,0,0:0:0:0:
256,120,22424,6,0,L|264:76,1,33.7500012874604
328,192,22593,2,0,L|372:200,1,33.7500012874604
256,264,22762,2,0,L|248:308,1,33.7500012874604
184,192,22930,2,0,L|144:184,1,36
0,336,23604,6,0,B|20:352|28:380|28:380|44:352|80:352,1,101.250003862381
112,344,23941,1,0,0:0:0:0:
44,280,24110,2,0,L|28:384,1,101.250003862381
36,332,24447,1,0,0:0:0:0:
44,216,24616,2,0,L|24:136,1,67.5000025749208
172,276,24953,6,0,L|84:268,2,67.5000025749208
336,368,25458,2,0,L|464:356,1,101.250003862381
388,364,25795,1,0,0:0:0:0:
408,208,25964,1,0,0:0:0:0:
456,240,26132,1,0,0:0:0:0:
512,48,26301,6,0,B|492:32|484:4|484:4|468:32|432:32,1,101.250003862381
468,76,26638,1,0,0:0:0:0:
484,8,26806,1,0,0:0:0:0:
492,124,26975,2,0,P|456:128|428:112,1,67.5000025749208
292,16,27312,2,0,B|308:-8|360:4|360:4|332:32,1,101.250003862381
312,72,27649,5,0,0:0:0:0:
340,23,27818,1,0,0:0:0:0:
328,132,27986,1,0,0:0:0:0:
220,16,28155,2,0,B|204:-8|152:4|152:4|180:32,1,101.250003862381
200,72,28492,1,0,0:0:0:0:
172,23,28660,2,0,L|188:140,1,101.250003862381
144,152,28997,6,0,P|192:172|232:144,1,101.250003862381
185,123,29335,1,0,0:0:0:0:
110,215,29503,1,0,0:0:0:0:
110,215,29587,1,0,0:0:0:0:
110,215,29672,1,0,0:0:0:0:
48,181,29841,1,0,0:0:0:0:
81,119,30009,1,0,0:0:0:0:
144,152,30177,1,0,0:0:0:0:
368,152,30346,6,0,P|320:172|280:144,1,101.250003862381
327,123,30684,1,0,0:0:0:0:
420,256,30851,2,0,P|468:276|508:248,1,101.250003862381
461,227,31189,1,0,0:0:0:0:
360,384,31357,1,0,0:0:0:0:
360,384,31694,5,0,0:0:0:0:
372,336,31863,1,0,0:0:0:0:
144,240,32031,5,0,0:0:0:0:
156,288,32200,1,0,0:0:0:0:
396,208,32368,5,0,0:0:0:0:
408,160,32537,1,0,0:0:0:0:
112,44,32705,5,0,0:0:0:0:
124,92,32874,1,0,0:0:0:0:
256,0,33042,5,0,0:0:0:0:
308,100,33211,2,0,P|316:84|316:68,1,33.7500012874604
200,168,33379,2,0,P|192:152|192:136,1,33.7500012874604
300,260,33548,2,0,P|308:244|308:228,1,33.7500012874604
256,384,33717,6,0,L|256:328,1,53.9999983520508
512,336,34391,6,0,B|492:352|484:380|484:380|468:352|432:352,1,101.250003862381
468,308,34728,1,0,0:0:0:0:
484,380,34896,1,0,0:0:0:0:
407,269,35065,1,0,0:0:0:0:
512,200,35234,1,0,0:0:0:0:
407,114,35402,2,0,L|340:108,1,67.5000025749208
340,276,35739,6,0,L|428:268,2,67.5000025749208
176,368,36245,2,0,L|48:356,1,101.250003862381
124,364,36582,1,0,0:0:0:0:
168,220,36751,1,0,0:0:0:0:
4,64,37087,6,0,P|4:28|-20:4,1,67.5000025749208
8,200,37424,2,0,P|8:164|32:140,1,67.5000025749208
160,48,37762,1,0,0:0:0:0:
164,172,37930,1,0,0:0:0:0:
128,104,38099,2,0,B|160:116|160:116|192:100,1,67.5000025749208
384,104,38436,6,0,B|352:116|352:116|320:100,1,67.5000025749208
256,0,38773,1,0,0:0:0:0:
256,148,38941,2,0,B|256:32,1,101.250003862381
256,0,39279,1,0,0:0:0:0:
256,96,39447,2,0,B|256:197,1,101.250003862381
288,236,39784,6,0,P|336:256|376:228,1,101.250003862381
376,184,40121,1,0,0:0:0:0:
459,235,40290,2,0,P|411:255|371:227,1,101.250003862381
376,184,40627,1,0,0:0:0:0:
376,292,40795,1,0,0:0:0:0:
376,384,40964,1,0,0:0:0:0:
224,236,41132,6,0,P|176:256|136:228,1,101.250003862381
136,184,41469,1,0,0:0:0:0:
53,235,41638,2,0,P|101:255|141:227,1,101.250003862381
136,184,41975,1,0,0:0:0:0:
136,292,42143,1,0,0:0:0:0:
136,384,42312,1,0,0:0:0:0:
292,337,42481,6,0,B|292:312|320:300|320:300|340:324|328:348,1,101.250003862381
296,384,42818,1,0,0:0:0:0:
227,193,42986,2,0,B|228:168|200:156|200:156|180:180|192:204,1,101.250003862381
224,240,43323,1,0,0:0:0:0:
284,33,43492,2,0,B|284:8|312:-4|312:-4|332:20|320:44,1,101.250003862381
360,76,43829,5,0,0:0:0:0:
384,96,43913,1,0,0:0:0:0:
416,96,43997,1,0,0:0:0:0:
400,52,44082,5,0,0:0:0:0:
384,96,44166,1,0,0:0:0:0:
152,76,44503,5,0,0:0:0:0:
128,96,44587,1,0,0:0:0:0:
96,96,44671,1,0,0:0:0:0:
112,52,44756,5,0,0:0:0:0:
128,96,44840,1,0,0:0:0:0:
256,192,45177,12,0,46526,0:0:0:0:
256,192,46694,5,0,0:0:0:0:
288,116,46863,2,0,L|296:172,1,45
352,96,47200,2,0,L|340:151,1,45
400,140,47537,2,0,L|370:188,1,45
256,192,47874,5,0,0:0:0:0:
256,192,48042,1,0,0:0:0:0:
224,48,48211,2,0,L|216:104,1,45
160,28,48548,2,0,L|171:83,1,45
112,72,48885,2,0,L|141:120,1,45
256,192,49222,5,0,0:0:0:0:
256,192,49390,1,0,0:0:0:0:
132,256,49559,2,0,B|143:276|143:276|177:282,1,45
206,303,49896,2,0,B|217:283|217:283|206:251,1,45
211,214,50233,2,0,B|187:213|187:213|165:240,1,45
256,192,50571,5,0,0:0:0:0:
256,192,50739,1,0,0:0:0:0:
384,328,50908,2,0,B|372:348|372:348|338:354,1,45
310,375,51245,2,0,B|298:355|298:355|310:323,1,45
305,286,51582,2,0,B|328:285|328:285|350:312,1,45
424,192,51919,5,0,0:0:0:0:
424,192,52087,1,0,0:0:0:0:
508,157,52256,2,0,L|464:160,1,45
328,192,52593,2,0,L|388:192,1,45
508,226,52930,2,0,L|464:224,1,45
88,192,53267,5,0,0:0:0:0:
88,192,53435,1,0,0:0:0:0:
3,157,53604,2,0,L|48:160,1,45
184,192,53941,2,0,L|139:192,1,45
3,226,54278,2,0,L|48:224,1,45
8,64,54615,6,0,P|32:16|96:28,1,101.250003862381
62,63,54953,1,0,0:0:0:0:
160,52,55121,2,0,B|100:40|132:80|48:60,1,101.250003862381
204,84,55458,1,0,0:0:0:0:
204,84,55626,2,0,P|212:52|192:12,1,67.5000025749208
316,152,55964,6,0,B|376:140|344:180|428:160,1,101.250003862381
413,163,56302,1,0,0:0:0:0:
298,101,56469,2,0,P|268:140|280:188,1,101.250003862381
332,200,56807,1,0,0:0:0:0:
436,284,56975,2,0,P|452:312|444:348,1,67.5000025749208
304,384,57312,5,0,0:0:0:0:
212,192,57986,5,0,0:0:0:0:
304,0,58660,5,0,0:0:0:0:
256,192,58745,12,0,59672,0:0:0:0:
256,192,59840,6,0,L|256:158,1,33.7500012874604
284,16,60009,6,0,P|320:36|368:28,1,90
388,188,60346,2,0,P|352:168|304:176,1,90
384,13,60683,2,0,P|385:55|416:92,1,90
287,190,61020,2,0,P|286:148|255:111,1,90
436,99,61357,6,0,P|401:121|384:166,1,90
235,104,61694,2,0,P|270:82|287:37,1,90
164,44,62031,6,0,B|196:36|196:36|243:55,1,67.5
227,48,62368,6,0,L|132:44,1,90
120,68,62621,1,0,0:0:0:0:
108,88,62705,6,0,B|92:128|92:128|100:180,1,90
152,348,63042,2,0,B|168:308|168:308|160:256,1,90
231,133,63379,2,0,B|188:139|188:139|147:172,1,90
28,302,63716,2,0,B|70:295|70:295|111:262,1,90
253,263,64054,6,0,B|226:229|226:229|177:210,1,90
6,172,64391,2,0,B|32:205|32:205|81:224,1,90
216,352,64728,2,0,P|256:336|312:368,2,90
353,374,65233,1,0,0:0:0:0:
353,374,65318,1,0,0:0:0:0:
353,374,65402,6,0,B|378:357|383:340|383:340|375:365|392:411,1,90
451,173,65739,2,0,B|425:189|420:206|420:206|428:181|411:135,1,90
290,280,66076,6,0,B|317:293|334:289|334:289|308:295|276:332,1,90
512,266,66413,2,0,B|484:252|467:256|467:256|493:250|510:227,1,90
340,180,66750,6,0,B|341:211|353:224|353:224|335:204|286:195,1,90
404,275,67087,1,0,0:0:0:0:
463,366,67256,1,0,0:0:0:0:
463,366,67340,1,0,0:0:0:0:
463,366,67424,2,0,B|461:334|449:321|449:321|467:341|516:350,1,90
340,180,67762,2,0,B|341:211|353:224|353:224|335:204|286:195,1,90
188,60,68099,5,0,0:0:0:0:
168,36,68183,1,0,0:0:0:0:
168,4,68267,1,0,0:0:0:0:
256,28,68436,1,0,0:0:0:0:
324,60,68773,5,0,0:0:0:0:
344,36,68857,1,0,0:0:0:0:
344,4,68941,1,0,0:0:0:0:
256,28,69110,1,0,0:0:0:0:
188,60,69278,1,0,0:0:0:0:
344,4,69447,5,0,0:0:0:0:
168,4,69615,1,0,0:0:0:0:
224,104,69784,1,0,0:0:0:0:
288,104,69953,1,0,0:0:0:0:
184,192,70121,1,0,0:0:0:0:
328,192,70290,1,0,0:0:0:0:
256,28,70458,1,0,0:0:0:0:
256,192,70795,6,0,B|224:180|204:188|204:188|172:172|172:172|148:184|104:168,1,135
144,128,71132,1,0,0:0:0:0:
0,284,71301,2,0,B|32:272|52:280|52:280|84:264|84:264|108:276|152:260,1,135
112,220,71638,1,0,0:0:0:0:
256,332,71806,2,0,B|224:320|204:328|204:328|172:312|172:312|148:324|104:308,1,135
128,266,72144,5,0,0:0:0:0:
228,376,72312,5,0,0:0:0:0:
256,332,72481,1,0,0:0:0:0:
284,376,72649,1,0,0:0:0:0:
384,266,72818,5,0,0:0:0:0:
284,376,72986,5,0,0:0:0:0:
256,332,73156,1,0,0:0:0:0:
228,376,73324,1,0,0:0:0:0:
192,196,73492,5,0,0:0:0:0:
228,376,73660,5,0,0:0:0:0:
256,332,73829,1,0,0:0:0:0:
284,376,73997,1,0,0:0:0:0:
320,196,74166,5,0,0:0:0:0:
284,376,74334,5,0,0:0:0:0:
256,280,74503,1,0,0:0:0:0:
128,118,74840,5,0,0:0:0:0:
228,8,75009,5,0,0:0:0:0:
256,52,75178,1,0,0:0:0:0:
232,100,75346,1,0,0:0:0:0:
384,118,75514,5,0,0:0:0:0:
284,8,75683,5,0,0:0:0:0:
256,52,75852,1,0,0:0:0:0:
280,100,76020,1,0,0:0:0:0:
180,200,76188,5,0,0:0:0:0:
256,52,76357,1,0,0:0:0:0:
332,200,76526,5,0,0:0:0:0:
256,52,76695,1,0,0:0:0:0:
256,192,76778,12,0,77537,0:0:0:0:
178,203,77705,6,0,L|145:199,1,33.7500012874604
244,114,77874,2,0,L|249:81,1,33.7500012874604
333,180,78042,2,0,L|367:185,1,33.7500012874604
267,269,78211,2,0,L|263:303,1,33.7500012874604
256,352,78548,1,0,0:0:0:0:
24,384,78885,5,0,0:0:0:0:
4,340,79054,1,0,0:0:0:0:
64,328,79222,5,0,0:0:0:0:
60,279,79391,1,0,0:0:0:0:
124,300,79559,5,0,0:0:0:0:
137,252,79728,1,0,0:0:0:0:
192,272,79896,5,0,0:0:0:0:
220,231,80065,1,0,0:0:0:0:
292,231,80233,5,0,0:0:0:0:
320,272,80402,1,0,0:0:0:0:
375,252,80570,5,0,0:0:0:0:
388,300,80739,1,0,0:0:0:0:
452,279,80908,5,0,0:0:0:0:
448,328,81076,1,0,0:0:0:0:
508,340,81244,5,0,0:0:0:0:
488,384,81413,2,0,P|496:368|500:352,1,33.7500012874604
492,236,81582,5,0,0:0:0:0:
512,192,81750,1,0,0:0:0:0:
420,148,81919,5,0,0:0:0:0:
440,192,82087,1,0,0:0:0:0:
352,236,82256,5,0,0:0:0:0:
372,192,82424,1,0,0:0:0:0:
280,148,82593,5,0,0:0:0:0:
300,192,82761,1,0,0:0:0:0:
212,192,82930,5,0,0:0:0:0:
232,148,83098,1,0,0:0:0:0:
140,192,83267,5,0,0:0:0:0:
160,236,83435,1,0,0:0:0:0:
72,192,83604,5,0,0:0:0:0:
92,148,83772,1,0,0:0:0:0:
0,192,83941,5,0,0:0:0:0:
20,236,84110,2,0,P|4:216|8:192,1,33.7500012874604
4,16,84278,6,0,P|12:32|8:76,1,33.7500012874604
20,92,84447,1,0,0:0:0:0:
72,24,84615,6,0,P|75:41|60:82,1,33.7500012874604
68,101,84784,1,0,0:0:0:0:
140,44,84953,6,0,P|138:61|113:97,1,33.7500012874604
116,117,85122,1,0,0:0:0:0:
200,80,85290,6,0,P|194:96|160:125,1,33.7500012874604
157,144,85459,1,0,0:0:0:0:
400,108,85627,6,0,P|392:124|396:168,1,33.7500012874604
384,184,85796,1,0,0:0:0:0:
332,116,85964,6,0,P|328:133|343:174,1,33.7500012874604
336,193,86133,1,0,0:0:0:0:
264,136,86302,6,0,P|265:153|290:189,1,33.7500012874604
288,209,86471,1,0,0:0:0:0:
204,172,86639,6,0,P|209:188|243:217,1,33.7500012874604
247,236,86808,1,0,0:0:0:0:
160,280,86975,6,0,P|171:293|179:336,1,33.7500012874604
195,349,87144,1,0,0:0:0:0:
217,277,87312,2,0,P|225:293|221:337,1,33.7500012874604
228,384,87481,1,0,0:0:0:0:
352,280,87649,6,0,P|340:293|332:336,1,33.7500012874604
317,349,87818,1,0,0:0:0:0:
295,277,87986,2,0,P|287:293|291:337,1,33.7500012874604
284,384,88155,1,0,0:0:0:0:
147,211,88323,6,0,P|163:216|192:250,1,33.7500012874604
194,179,88492,2,0,P|208:188|227:228,1,33.7500012874604
365,211,88660,6,0,P|348:216|319:250,1,33.7500012874604
318,179,88829,2,0,P|303:188|284:228,1,33.7500012874604
144,139,88997,6,0,P|161:137|197:112,1,33.7500012874604
368,139,89166,2,0,P|350:137|314:112,1,33.7500012874604
168,8,89335,6,0,L|164:64,1,33.7500012874604
344,8,89503,2,0,L|348:64,1,33.7500012874604
256,192,91694,5,0,0:0:0:0:
256,192,91778,12,0,95739,0:0:0:0:
